  0
SECTION
  2
HEADER
  9
$ACADVER
  1
AC1015
  9
$ACADMAINTVER
 70
    20
  9
$DWGCODEPAGE
  3
ANSI_932
  9
$INSBASE
 10
0.4999999440410648
 20
246.5008351249344
 30
0.0
  9
$EXTMIN
 10
-62.46551423154949
 20
-62.88862548033785
 30
-0.0015258207003583
  9
$EXTMAX
 10
62.56805476100192
 20
49.8640598520451
 30
0.0000000349246037
  9
$LIMMIN
 10
0.0
 20
0.0
  9
$LIMMAX
 10
420.0
 20
297.0
  9
$ORTHOMODE
 70
     1
  9
$REGENMODE
 70
     0
  9
$FILLMODE
 70
     1
  9
$QTEXTMODE
 70
     0
  9
$MIRRTEXT
 70
     0
  9
$LTSCALE
 40
1.0
  9
$ATTMODE
 70
     1
  9
$TEXTSIZE
 40
2.5
  9
$TRACEWID
 40
1.0
  9
$TEXTSTYLE
  7
Standard
  9
$CLAYER
  8
GAIKEI
  9
$CELTYPE
  6
ByLayer
  9
$CECOLOR
 62
   256
  9
$CELTSCALE
 40
1.0
  9
$DISPSILH
 70
     0
  9
$DIMSCALE
 40
1.0
  9
$DIMASZ
 40
2.0
  9
$DIMEXO
 40
2.0
  9
$DIMDLI
 40
8.0
  9
$DIMRND
 40
0.0
  9
$DIMDLE
 40
0.0
  9
$DIMEXE
 40
2.0
  9
$DIMTP
 40
0.0
  9
$DIMTM
 40
0.0
  9
$DIMTXT
 40
2.5
  9
$DIMCEN
 40
0.0
  9
$DIMTSZ
 40
0.0
  9
$DIMTOL
 70
     0
  9
$DIMLIM
 70
     0
  9
$DIMTIH
 70
     0
  9
$DIMTOH
 70
     0
  9
$DIMSE1
 70
     0
  9
$DIMSE2
 70
     0
  9
$DIMTAD
 70
     3
  9
$DIMZIN
 70
     0
  9
$DIMBLK
  1

  9
$DIMASO
 70
     1
  9
$DIMSHO
 70
     1
  9
$DIMPOST
  1

  9
$DIMAPOST
  1

  9
$DIMALT
 70
     0
  9
$DIMALTD
 70
     2
  9
$DIMALTF
 40
25.4
  9
$DIMLFAC
 40
1.0
  9
$DIMTOFL
 70
     1
  9
$DIMTVP
 40
0.0
  9
$DIMTIX
 70
     0
  9
$DIMSOXD
 70
     0
  9
$DIMSAH
 70
     1
  9
$DIMBLK1
  1
OPEN30
  9
$DIMBLK2
  1
OPEN30
  9
$DIMSTYLE
  2
STANDARD
  9
$DIMCLRD
 70
     0
  9
$DIMCLRE
 70
     0
  9
$DIMCLRT
 70
     0
  9
$DIMTFAC
 40
1.0
  9
$DIMGAP
 40
0.5
  9
$DIMJUST
 70
     0
  9
$DIMSD1
 70
     0
  9
$DIMSD2
 70
     0
  9
$DIMTOLJ
 70
     1
  9
$DIMTZIN
 70
     0
  9
$DIMALTZ
 70
     0
  9
$DIMALTTZ
 70
     0
  9
$DIMUPT
 70
     0
  9
$DIMDEC
 70
     4
  9
$DIMTDEC
 70
     4
  9
$DIMALTU
 70
     2
  9
$DIMALTTD
 70
     2
  9
$DIMTXSTY
  7
Standard
  9
$DIMAUNIT
 70
     0
  9
$DIMADEC
 70
     0
  9
$DIMALTRND
 40
0.0
  9
$DIMAZIN
 70
     0
  9
$DIMDSEP
 70
    46
  9
$DIMATFIT
 70
     3
  9
$DIMFRAC
 70
     0
  9
$DIMLDRBLK
  1
OPEN30
  9
$DIMLUNIT
 70
     2
  9
$DIMLWD
 70
    -2
  9
$DIMLWE
 70
    -2
  9
$DIMTMOVE
 70
     0
  9
$LUNITS
 70
     2
  9
$LUPREC
 70
     4
  9
$SKETCHINC
 40
1.0
  9
$FILLETRAD
 40
0.0
  9
$AUNITS
 70
     0
  9
$AUPREC
 70
     0
  9
$MENU
  1
.
  9
$ELEVATION
 40
0.0
  9
$PELEVATION
 40
0.0
  9
$THICKNESS
 40
0.0
  9
$LIMCHECK
 70
     0
  9
$CHAMFERA
 40
0.0
  9
$CHAMFERB
 40
0.0
  9
$CHAMFERC
 40
0.0
  9
$CHAMFERD
 40
0.0
  9
$SKPOLY
 70
     0
  9
$TDCREATE
 40
2454349.434269746
  9
$TDUCREATE
 40
2454349.059269746
  9
$TDUPDATE
 40
2455288.621507709
  9
$TDUUPDATE
 40
2455288.246507708
  9
$TDINDWG
 40
0.1521397338
  9
$TDUSRTIMER
 40
0.1521397338
  9
$USRTIMER
 70
     1
  9
$ANGBASE
 50
0.0
  9
$ANGDIR
 70
     0
  9
$PDMODE
 70
     0
  9
$PDSIZE
 40
0.0
  9
$PLINEWID
 40
0.0
  9
$SPLFRAME
 70
     0
  9
$SPLINETYPE
 70
     6
  9
$SPLINESEGS
 70
     8
  9
$HANDSEED
  5
168
  9
$SURFTAB1
 70
     6
  9
$SURFTAB2
 70
     6
  9
$SURFTYPE
 70
     6
  9
$SURFU
 70
     6
  9
$SURFV
 70
     6
  9
$UCSBASE
  2

  9
$UCSNAME
  2

  9
$UCSORG
 10
0.0
 20
0.0
 30
0.0
  9
$UCSXDIR
 10
1.0
 20
0.0
 30
0.0
  9
$UCSYDIR
 10
0.0
 20
1.0
 30
0.0
  9
$UCSORTHOREF
  2

  9
$UCSORTHOVIEW
 70
     0
  9
$UCSORGTOP
 10
0.0
 20
0.0
 30
0.0
  9
$UCSORGBOTTOM
 10
0.0
 20
0.0
 30
0.0
  9
$UCSORGLEFT
 10
0.0
 20
0.0
 30
0.0
  9
$UCSORGRIGHT
 10
0.0
 20
0.0
 30
0.0
  9
$UCSORGFRONT
 10
0.0
 20
0.0
 30
0.0
  9
$UCSORGBACK
 10
0.0
 20
0.0
 30
0.0
  9
$PUCSBASE
  2

  9
$PUCSNAME
  2

  9
$PUCSORG
 10
0.0
 20
0.0
 30
0.0
  9
$PUCSXDIR
 10
1.0
 20
0.0
 30
0.0
  9
$PUCSYDIR
 10
0.0
 20
1.0
 30
0.0
  9
$PUCSORTHOREF
  2

  9
$PUCSORTHOVIEW
 70
     0
  9
$PUCSORGTOP
 10
0.0
 20
0.0
 30
0.0
  9
$PUCSORGBOTTOM
 10
0.0
 20
0.0
 30
0.0
  9
$PUCSORGLEFT
 10
0.0
 20
0.0
 30
0.0
  9
$PUCSORGRIGHT
 10
0.0
 20
0.0
 30
0.0
  9
$PUCSORGFRONT
 10
0.0
 20
0.0
 30
0.0
  9
$PUCSORGBACK
 10
0.0
 20
0.0
 30
0.0
  9
$USERI1
 70
     0
  9
$USERI2
 70
     0
  9
$USERI3
 70
     0
  9
$USERI4
 70
     0
  9
$USERI5
 70
     0
  9
$USERR1
 40
0.0
  9
$USERR2
 40
0.0
  9
$USERR3
 40
0.0
  9
$USERR4
 40
0.0
  9
$USERR5
 40
0.0
  9
$WORLDVIEW
 70
     1
  9
$SHADEDGE
 70
     3
  9
$SHADEDIF
 70
    70
  9
$TILEMODE
 70
     1
  9
$MAXACTVP
 70
    64
  9
$PINSBASE
 10
0.0
 20
0.0
 30
0.0
  9
$PLIMCHECK
 70
     0
  9
$PEXTMIN
 10
0.0
 20
0.0
 30
0.0
  9
$PEXTMAX
 10
0.0
 20
0.0
 30
0.0
  9
$PLIMMIN
 10
0.0
 20
0.0
  9
$PLIMMAX
 10
12.0
 20
9.0
  9
$UNITMODE
 70
     0
  9
$VISRETAIN
 70
     1
  9
$PLINEGEN
 70
     0
  9
$PSLTSCALE
 70
     1
  9
$TREEDEPTH
 70
  3020
  9
$CMLSTYLE
  2
Standard
  9
$CMLJUST
 70
     0
  9
$CMLSCALE
 40
20.0
  9
$PROXYGRAPHICS
 70
     1
  9
$MEASUREMENT
 70
     1
  9
$CELWEIGHT
370
    -1
  9
$ENDCAPS
280
     0
  9
$JOINSTYLE
280
     0
  9
$LWDISPLAY
290
     0
  9
$INSUNITS
 70
     4
  9
$HYPERLINKBASE
  1

  9
$STYLESHEET
  1

  9
$XEDIT
290
     1
  9
$CEPSNTYPE
380
     0
  9
$PSTYLEMODE
290
     1
  9
$FINGERPRINTGUID
  2
{FDEAD578-A652-11D2-9A35-0060089B3A3F}
  9
$VERSIONGUID
  2
{F4858F73-8D24-4982-81A7-E00C5AAD5DD3}
  9
$EXTNAMES
290
     1
  9
$PSVPSCALE
 40
0.0
  9
$OLESTARTUP
290
     0
  0
ENDSEC
  0
SECTION
  2
CLASSES
  0
CLASS
  1
ACDBDICTIONARYWDFLT
  2
AcDbDictionaryWithDefault
  3
ObjectDBX Classes
 90
        0
280
     0
281
     0
  0
CLASS
  1
ACDBPLACEHOLDER
  2
AcDbPlaceHolder
  3
ObjectDBX Classes
 90
        0
280
     0
281
     0
  0
CLASS
  1
LAYOUT
  2
AcDbLayout
  3
ObjectDBX Classes
 90
        0
280
     0
281
     0
  0
CLASS
  1
DICTIONARYVAR
  2
AcDbDictionaryVar
  3
ObjectDBX Classes
 90
        0
280
     0
281
     0
  0
CLASS
  1
MATERIAL
  2
AcDbMaterial
  3
ObjectDBX Classes
 90
        0
280
     0
281
     0
  0
CLASS
  1
SORTENTSTABLE
  2
AcDbSortentsTable
  3
ObjectDBX Classes
 90
    32768
280
     0
281
     0
  0
CLASS
  1
DIMASSOC
  2
AcDbDimAssoc
  3
"AcDbDimAssoc|Product Desc:     AcDim ARX App For Dimension|Company:          Autodesk, Inc.|WEB Address:      www.autodesk.com"
 90
    32768
280
     0
281
     0
  0
ENDSEC
  0
SECTION
  2
TABLES
  0
TABLE
  2
VPORT
  5
1B
330
0
100
AcDbSymbolTable
 70
     3
  0
VPORT
  5
160
330
1B
100
AcDbSymbolTableRecord
100
AcDbViewportTableRecord
  2
*Active
 70
     0
 10
0.0
 20
0.0
 11
1.0
 21
1.0
 12
0.0512702647262078
 22
-6.512282814146374
 13
0.0
 23
0.0
 14
10.0
 24
10.0
 15
10.0
 25
10.0
 16
0.0
 26
0.0
 36
1.0
 17
0.0
 27
0.0
 37
0.0
 40
113.6144892967069
 41
1.386479591836734
 42
50.0
 43
0.0
 44
0.0
 50
0.0
 51
0.0
 71
     0
 72
 10000
 73
     1
 74
     2
 75
     0
 76
     0
 77
     0
 78
     0
281
     0
 65
     1
110
0.0
120
0.0
130
0.0
111
1.0
121
0.0
131
0.0
112
0.0
122
1.0
132
0.0
 79
     0
146
0.0
  0
ENDTAB
  0
TABLE
  2
LTYPE
  5
16
330
0
100
AcDbSymbolTable
 70
     2
  0
LTYPE
  5
17
330
16
100
AcDbSymbolTableRecord
100
AcDbLinetypeTableRecord
  2
ByBlock
 70
     0
  3

 72
    65
 73
     0
 40
0.0
  0
LTYPE
  5
18
330
16
100
AcDbSymbolTableRecord
100
AcDbLinetypeTableRecord
  2
ByLayer
 70
     0
  3

 72
    65
 73
     0
 40
0.0
  0
LTYPE
  5
8
330
16
100
AcDbSymbolTableRecord
100
AcDbLinetypeTableRecord
  2
Continuous
 70
     0
  3
Solid line
 72
    65
 73
     0
 40
0.0
  0
LTYPE
  5
B9
330
16
100
AcDbSymbolTableRecord
100
AcDbLinetypeTableRecord
  2
HIDDEN2
 70
     0
  3
Hidden (.5x) _ _ _ _ _ _ _ _ _ _ _ _ _ _ _ _ _
 72
    65
 73
     2
 40
1.399999999999999
 49
0.7
 74
     0
 49
-0.7
 74
     0
  0
ENDTAB
  0
TABLE
  2
LAYER
  5
10
102
{ACAD_XDICTIONARY
360
11
102
}
330
0
100
AcDbSymbolTable
 70
     7
  0
LAYER
  5
4
330
10
100
AcDbSymbolTableRecord
100
AcDbLayerTableRecord
  2
0
 70
     0
 62
     7
  6
Continuous
370
    -3
390
5
  0
LAYER
  5
10B
330
10
100
AcDbSymbolTableRecord
100
AcDbLayerTableRecord
  2
WAKU
 70
     0
 62
     4
  6
Continuous
370
    -3
390
5
  0
LAYER
  5
35
330
10
100
AcDbSymbolTableRecord
100
AcDbLayerTableRecord
  2
MOJI1
 70
     0
 62
     2
  6
Continuous
370
    -3
390
5
  0
LAYER
  5
38
330
10
100
AcDbSymbolTableRecord
100
AcDbLayerTableRecord
  2
TOUROKU
 70
     0
 62
     1
  6
Continuous
370
    -3
390
5
  0
LAYER
  5
46
102
{ACAD_XDICTIONARY
360
47
102
}
330
10
100
AcDbSymbolTableRecord
100
AcDbLayerTableRecord
  2
DEFPOINTS
 70
     0
 62
     7
  6
Continuous
290
     0
370
    -3
390
5
  0
LAYER
  5
2D
102
{ACAD_XDICTIONARY
360
2E
102
}
330
10
100
AcDbSymbolTableRecord
100
AcDbLayerTableRecord
  2
GAIKEI
 70
     0
 62
     7
  6
Continuous
370
    -3
390
5
  0
LAYER
  5
3A
102
{ACAD_XDICTIONARY
360
3B
102
}
330
10
100
AcDbSymbolTableRecord
100
AcDbLayerTableRecord
  2
SUNPO
 70
     0
 62
     3
  6
Continuous
370
    -3
390
5
  0
ENDTAB
  0
TABLE
  2
STYLE
  5
13
330
0
100
AcDbSymbolTable
 70
     2
  0
STYLE
  5
14
330
13
100
AcDbSymbolTableRecord
100
AcDbTextStyleTableRecord
  2
Standard
 70
     0
 40
0.0
 41
1.0
 50
0.0
 71
     0
 42
2.5
  3
MONOTXT.shx
  4
BIGFONT.shx
  0
STYLE
  5
36
330
13
100
AcDbSymbolTableRecord
100
AcDbTextStyleTableRecord
  2
KANJI
 70
     0
 40
0.0
 41
1.0
 50
0.0
 71
     0
 42
3.5
  3
MONOTXT
  4
BIGFONT
  0
ENDTAB
  0
TABLE
  2
VIEW
  5
19
330
0
100
AcDbSymbolTable
 70
     0
  0
ENDTAB
  0
TABLE
  2
UCS
  5
1A
330
0
100
AcDbSymbolTable
 70
     0
  0
ENDTAB
  0
TABLE
  2
APPID
  5
1D
330
0
100
AcDbSymbolTable
 70
     1
  0
APPID
  5
1E
330
1D
100
AcDbSymbolTableRecord
100
AcDbRegAppTableRecord
  2
ACAD
 70
     0
  0
ENDTAB
  0
TABLE
  2
DIMSTYLE
  5
1F
330
0
100
AcDbSymbolTable
 70
     1
100
AcDbDimStyleTable
 71
     1
340
20
  0
DIMSTYLE
105
20
102
{ACAD_REACTORS
330
4C
330
39
102
}
330
1F
100
AcDbSymbolTableRecord
100
AcDbDimStyleTableRecord
  2
STANDARD
 70
     0
 40
0.0
 41
2.0
 42
2.0
 43
8.0
 44
2.0
 73
     0
 74
     0
 77
     3
140
3.0
141
0.0
173
     1
279
     2
288
     1
340
14
341
21
343
21
344
21
  0
ENDTAB
  0
TABLE
  2
BLOCK_RECORD
  5
1
330
0
100
AcDbSymbolTable
 70
     5
  0
BLOCK_RECORD
  5
2
330
1
100
AcDbSymbolTableRecord
100
AcDbBlockTableRecord
  2
*Model_Space
340
A
  0
BLOCK_RECORD
  5
C
330
1
100
AcDbSymbolTableRecord
100
AcDbBlockTableRecord
  2
*Paper_Space
340
F
  0
BLOCK_RECORD
  5
21
330
1
100
AcDbSymbolTableRecord
100
AcDbBlockTableRecord
  2
_OPEN30
340
0
102
{BLKREFS
331
42
331
43
331
52
331
53
331
148
331
149
331
154
331
155
102
}
  0
BLOCK_RECORD
  5
4D
330
1
100
AcDbSymbolTableRecord
100
AcDbBlockTableRecord
  2
*D1
340
0
  0
BLOCK_RECORD
  5
3D
330
1
100
AcDbSymbolTableRecord
100
AcDbBlockTableRecord
  2
*D2
340
0
  0
BLOCK_RECORD
  5
144
330
1
100
AcDbSymbolTableRecord
100
AcDbBlockTableRecord
  2
*D3
340
0
  0
BLOCK_RECORD
  5
150
330
1
100
AcDbSymbolTableRecord
100
AcDbBlockTableRecord
  2
*D4
340
0
  0
ENDTAB
  0
ENDSEC
  0
SECTION
  2
BLOCKS
  0
BLOCK
  5
3
330
2
100
AcDbEntity
  8
0
100
AcDbBlockBegin
  2
*Model_Space
 70
     0
 10
0.0
 20
0.0
 30
0.0
  3
*Model_Space
  1

  0
ENDBLK
  5
9
330
2
100
AcDbEntity
  8
0
100
AcDbBlockEnd
  0
BLOCK
  5
D
330
C
100
AcDbEntity
 67
     1
  8
0
100
AcDbBlockBegin
  2
*Paper_Space
 70
     0
 10
0.0
 20
0.0
 30
0.0
  3
*Paper_Space
  1

  0
ENDBLK
  5
E
330
C
100
AcDbEntity
 67
     1
  8
0
100
AcDbBlockEnd
  0
BLOCK
  5
22
330
21
100
AcDbEntity
  8
0
100
AcDbBlockBegin
  2
_OPEN30
 70
     0
 10
0.0
 20
0.0
 30
0.0
  3
_OPEN30
  1

  0
LINE
  5
23
330
21
100
AcDbEntity
  8
0
  6
ByBlock
 62
     0
100
AcDbLine
 10
-1.0
 20
0.26794919
 30
0.0
 11
0.0
 21
0.0
 31
0.0
  0
LINE
  5
24
330
21
100
AcDbEntity
  8
0
  6
ByBlock
 62
     0
100
AcDbLine
 10
0.0
 20
0.0
 30
0.0
 11
-1.0
 21
-0.26794919
 31
0.0
  0
LINE
  5
25
330
21
100
AcDbEntity
  8
0
  6
ByBlock
 62
     0
100
AcDbLine
 10
0.0
 20
0.0
 30
0.0
 11
-1.0
 21
0.0
 31
0.0
  0
ENDBLK
  5
26
330
21
100
AcDbEntity
  8
0
100
AcDbBlockEnd
  0
BLOCK
  5
4E
330
4D
100
AcDbEntity
  8
0
100
AcDbBlockBegin
  2
*D1
 70
     1
 10
0.0
 20
0.0
 30
0.0
  3
*D1
  1

  0
LINE
  5
4F
330
4D
100
AcDbEntity
  8
SUNPO
 62
     0
370
    -2
100
AcDbLine
 10
89.41307581482048
 20
198.3575594656546
 30
0.0
 11
97.41307581482047
 21
198.3575594656546
 31
0.0
  0
LINE
  5
50
330
4D
100
AcDbEntity
  8
SUNPO
 62
     0
370
    -2
100
AcDbLine
 10
89.41307581482048
 20
224.2357176773546
 30
0.0
 11
97.41307581482047
 21
224.2357176773546
 31
0.0
  0
LINE
  5
51
330
4D
100
AcDbEntity
  8
SUNPO
 62
     0
370
    -2
100
AcDbLine
 10
95.41307581482046
 20
200.3575594656546
 30
0.0
 11
95.41307581482046
 21
222.2357176773546
 31
0.0
  0
INSERT
  5
52
330
4D
100
AcDbEntity
  8
SUNPO
 62
     0
370
    -2
100
AcDbBlockReference
  2
_OPEN30
 10
95.41307581482046
 20
198.3575594656546
 30
0.0
 41
2.0
 42
2.0
 43
2.0
 50
270.0
  0
INSERT
  5
53
330
4D
100
AcDbEntity
  8
SUNPO
 62
     0
370
    -2
100
AcDbBlockReference
  2
_OPEN30
 10
95.41307581482048
 20
224.2357176773546
 30
0.0
 41
2.0
 42
2.0
 43
2.0
 50
90.0
  0
MTEXT
  5
54
330
4D
100
AcDbEntity
  8
SUNPO
 62
     0
100
AcDbMText
 10
93.66307581482043
 20
211.2966385715047
 30
0.0
 40
2.5
 41
0.0
 71
     5
 72
     1
  1
\A1;φ129.5
 11
0.0000000000000001
 21
1.0
 31
0.0
 73
     1
 44
1.0
1001
ACAD
1000
MTEXTBEGIN
1070
    73
1070
     1
1070
    44
1040
1.0
1070
    74
1070
     0
1000
MTEXTEND
  0
POINT
  5
55
330
4D
100
AcDbEntity
  8
DEFPOINTS
 62
     0
100
AcDbPoint
 10
87.41307581482047
 20
198.3575594656546
 30
0.0
  0
POINT
  5
56
330
4D
100
AcDbEntity
  8
DEFPOINTS
 62
     0
100
AcDbPoint
 10
87.41307581482047
 20
224.2357176773546
 30
0.0
  0
POINT
  5
57
330
4D
100
AcDbEntity
  8
DEFPOINTS
 62
     0
100
AcDbPoint
 10
95.41307581482048
 20
224.2357176773546
 30
0.0
  0
ENDBLK
  5
58
330
4D
100
AcDbEntity
  8
0
100
AcDbBlockEnd
  0
BLOCK
  5
3E
330
3D
100
AcDbEntity
  8
0
100
AcDbBlockBegin
  2
*D2
 70
     1
 10
0.0
 20
0.0
 30
0.0
  3
*D2
  1

  0
LINE
  5
3F
330
3D
100
AcDbEntity
  8
SUNPO
 62
     0
370
    -2
100
AcDbLine
 10
87.42398724534053
 20
226.416541991111
 30
0.0
 11
87.42398724534053
 21
234.416541991111
 31
0.0
  0
LINE
  5
40
330
3D
100
AcDbEntity
  8
SUNPO
 62
     0
370
    -2
100
AcDbLine
 10
68.61435875871048
 20
226.416541991111
 30
0.0
 11
68.61435875871048
 21
234.416541991111
 31
0.0
  0
LINE
  5
41
330
3D
100
AcDbEntity
  8
SUNPO
 62
     0
370
    -2
100
AcDbLine
 10
85.42398724534054
 20
232.416541991111
 30
0.0
 11
70.61435875871048
 21
232.416541991111
 31
0.0
  0
INSERT
  5
42
330
3D
100
AcDbEntity
  8
SUNPO
 62
     0
370
    -2
100
AcDbBlockReference
  2
_OPEN30
 10
87.42398724534053
 20
232.416541991111
 30
0.0
 41
2.0
 42
2.0
 43
2.0
  0
INSERT
  5
43
330
3D
100
AcDbEntity
  8
SUNPO
 62
     0
370
    -2
100
AcDbBlockReference
  2
_OPEN30
 10
68.61435875871048
 20
232.416541991111
 30
0.0
 41
2.0
 42
2.0
 43
2.0
 50
180.0
  0
MTEXT
  5
44
330
3D
100
AcDbEntity
  8
SUNPO
 62
     0
100
AcDbMText
 10
78.01917300202551
 20
234.166541991111
 30
0.0
 40
2.5
 41
0.0
 71
     5
 72
     1
  1
\A1;93
 73
     1
 44
1.0
1001
ACAD
1000
MTEXTBEGIN
1070
    73
1070
     1
1070
    44
1040
1.0
1070
    74
1070
     0
1000
MTEXTEND
  0
POINT
  5
45
330
3D
100
AcDbEntity
  8
DEFPOINTS
 62
     0
100
AcDbPoint
 10
87.42398724534053
 20
224.416541991111
 30
0.0
  0
POINT
  5
49
330
3D
100
AcDbEntity
  8
DEFPOINTS
 62
     0
100
AcDbPoint
 10
68.61435875871048
 20
224.416541991111
 30
0.0
  0
POINT
  5
4A
330
3D
100
AcDbEntity
  8
DEFPOINTS
 62
     0
100
AcDbPoint
 10
68.61435875871048
 20
232.416541991111
 30
0.0
  0
ENDBLK
  5
4B
330
3D
100
AcDbEntity
  8
0
100
AcDbBlockEnd
  0
BLOCK
  5
14E
330
144
100
AcDbEntity
  8
0
100
AcDbBlockBegin
  2
*D3
 70
     1
 10
0.0
 20
0.0
 30
0.0
  3
*D3
  1

  0
LINE
  5
145
330
144
100
AcDbEntity
  8
SUNPO
 62
     0
370
    -2
100
AcDbLine
 10
24.47077525896728
 20
3.968471990210786
 30
0.0
 11
32.47077525896727
 21
3.968471990210784
 31
0.0
  0
LINE
  5
146
330
144
100
AcDbEntity
  8
SUNPO
 62
     0
370
    -2
100
AcDbLine
 10
24.47077525896728
 20
29.84663020191078
 30
0.0
 11
32.47077525896728
 21
29.84663020191078
 31
0.0
  0
LINE
  5
147
330
144
100
AcDbEntity
  8
SUNPO
 62
     0
370
    -2
100
AcDbLine
 10
30.47077525896727
 20
5.968471990210784
 30
0.0
 11
30.47077525896728
 21
27.84663020191078
 31
0.0
  0
INSERT
  5
148
330
144
100
AcDbEntity
  8
SUNPO
 62
     0
370
    -2
100
AcDbBlockReference
  2
_OPEN30
 10
30.47077525896727
 20
3.968471990210785
 30
0.0
 41
2.0
 42
2.0
 43
2.0
 50
270.0
  0
INSERT
  5
149
330
144
100
AcDbEntity
  8
SUNPO
 62
     0
370
    -2
100
AcDbBlockReference
  2
_OPEN30
 10
30.47077525896728
 20
29.84663020191078
 30
0.0
 41
2.0
 42
2.0
 43
2.0
 50
90.0
  0
MTEXT
  5
14A
330
144
100
AcDbEntity
  8
SUNPO
 62
     0
100
AcDbMText
 10
28.72077525896727
 20
16.90755109606079
 30
0.0
 40
2.5
 41
0.0
 71
     5
 72
     1
  1
\A1;φ129.5
 11
0.0000000000000001
 21
1.0
 31
0.0
 73
     1
 44
1.0
1001
ACAD
1000
MTEXTBEGIN
1070
    73
1070
     1
1070
    44
1040
1.0
1070
    74
1070
     0
1000
MTEXTEND
  0
POINT
  5
14B
330
144
100
AcDbEntity
  8
DEFPOINTS
 62
     0
100
AcDbPoint
 10
22.47077525896728
 20
3.968471990210787
 30
0.0
  0
POINT
  5
14C
330
144
100
AcDbEntity
  8
DEFPOINTS
 62
     0
100
AcDbPoint
 10
22.47077525896728
 20
29.84663020191078
 30
0.0
  0
POINT
  5
14D
330
144
100
AcDbEntity
  8
DEFPOINTS
 62
     0
100
AcDbPoint
 10
30.47077525896728
 20
29.84663020191078
 30
0.0
  0
ENDBLK
  5
14F
330
144
100
AcDbEntity
  8
0
100
AcDbBlockEnd
  0
BLOCK
  5
15A
330
150
100
AcDbEntity
  8
0
100
AcDbBlockBegin
  2
*D4
 70
     1
 10
0.0
 20
0.0
 30
0.0
  3
*D4
  1

  0
LINE
  5
151
330
150
100
AcDbEntity
  8
SUNPO
 62
     0
370
    -2
100
AcDbLine
 10
22.48168668948735
 20
32.02745451566716
 30
0.0
 11
22.48168668948735
 21
40.02745451566716
 31
0.0
  0
LINE
  5
152
330
150
100
AcDbEntity
  8
SUNPO
 62
     0
370
    -2
100
AcDbLine
 10
3.672058202857286
 20
32.02745451566716
 30
0.0
 11
3.672058202857286
 21
40.02745451566716
 31
0.0
  0
LINE
  5
153
330
150
100
AcDbEntity
  8
SUNPO
 62
     0
370
    -2
100
AcDbLine
 10
20.48168668948735
 20
38.02745451566716
 30
0.0
 11
5.672058202857286
 21
38.02745451566716
 31
0.0
  0
INSERT
  5
154
330
150
100
AcDbEntity
  8
SUNPO
 62
     0
370
    -2
100
AcDbBlockReference
  2
_OPEN30
 10
22.48168668948735
 20
38.02745451566716
 30
0.0
 41
2.0
 42
2.0
 43
2.0
  0
INSERT
  5
155
330
150
100
AcDbEntity
  8
SUNPO
 62
     0
370
    -2
100
AcDbBlockReference
  2
_OPEN30
 10
3.672058202857286
 20
38.02745451566716
 30
0.0
 41
2.0
 42
2.0
 43
2.0
 50
180.0
  0
MTEXT
  5
156
330
150
100
AcDbEntity
  8
SUNPO
 62
     0
100
AcDbMText
 10
13.07687244617232
 20
39.77745451566716
 30
0.0
 40
2.5
 41
0.0
 71
     5
 72
     1
  1
\A1;93
 73
     1
 44
1.0
1001
ACAD
1000
MTEXTBEGIN
1070
    73
1070
     1
1070
    44
1040
1.0
1070
    74
1070
     0
1000
MTEXTEND
  0
POINT
  5
157
330
150
100
AcDbEntity
  8
DEFPOINTS
 62
     0
100
AcDbPoint
 10
22.48168668948735
 20
30.02745451566716
 30
0.0
  0
POINT
  5
158
330
150
100
AcDbEntity
  8
DEFPOINTS
 62
     0
100
AcDbPoint
 10
3.672058202857286
 20
30.02745451566716
 30
0.0
  0
POINT
  5
159
330
150
100
AcDbEntity
  8
DEFPOINTS
 62
     0
100
AcDbPoint
 10
3.672058202857286
 20
38.02745451566716
 30
0.0
  0
ENDBLK
  5
15B
330
150
100
AcDbEntity
  8
0
100
AcDbBlockEnd
  0
ENDSEC
  0
SECTION
  2
ENTITIES
  0
TEXT
  5
34
330
2
100
AcDbEntity
  8
MOJI1
100
AcDbText
 10
-35.44230061181202
 20
46.11174764949086
 30
0.0
 40
4.0
  1
ネットワークカメラ
  7
KANJI
100
AcDbText
  0
TEXT
  5
37
330
2
100
AcDbEntity
  8
TOUROKU
100
AcDbText
 10
46.55764942111516
 20
40.11174764949067
 30
0.0
 40
2.0
  1
ＤＧＳＦ３３５
 72
     2
 11
62.55764942111516
 21
40.11174764949067
 31
0.0
100
AcDbText
  0
DIMENSION
  5
39
330
2
100
AcDbEntity
  8
SUNPO
100
AcDbDimension
  2
*D4
 10
3.672058202857286
 20
38.02745451566716
 30
0.0
 11
13.07687244617232
 21
39.77745451566716
 31
0.0
 70
    33
  1
93
 71
     5
 42
18.80962848663006
  3
STANDARD
100
AcDbAlignedDimension
 13
22.48168668948735
 23
30.02745451566716
 33
0.0
 14
3.672058202857286
 24
30.02745451566716
 34
0.0
1001
ACAD
1000
DSTYLE
1002
{
1070
    40
1040
1.0
1070
   140
1040
2.5
1070
   147
1040
0.5
1070
   172
1070
     1
1070
   279
1070
     0
1070
   288
1070
     0
1002
}
  0
DIMENSION
  5
4C
330
2
100
AcDbEntity
  8
SUNPO
100
AcDbDimension
  2
*D3
 10
30.47077525896728
 20
29.84663020191078
 30
0.0
 11
28.72077525896727
 21
16.90755109606079
 31
0.0
 70
    33
  1
φ129.5
 71
     5
 42
25.8781582117
  3
STANDARD
100
AcDbAlignedDimension
 13
22.47077525896728
 23
3.968471990210787
 33
0.0
 14
22.47077525896728
 24
29.84663020191078
 34
0.0
1001
ACAD
1000
DSTYLE
1002
{
1070
    40
1040
1.0
1070
   140
1040
2.5
1070
   147
1040
0.5
1070
   172
1070
     1
1070
   279
1070
     0
1070
   288
1070
     0
1002
}
  0
LINE
  5
59
330
2
100
AcDbEntity
  8
GAIKEI
100
AcDbLine
 10
22.48168668948735
 20
26.63173796099432
 30
0.0
 11
22.48168668948735
 21
9.351420358990765
 31
0.0
  0
LINE
  5
5A
330
2
100
AcDbEntity
  8
GAIKEI
 62
     1
100
AcDbLine
 10
22.28198505246738
 20
26.73641574288649
 30
0.0
 11
22.28198505246736
 21
11.95598016797078
 31
0.0
  0
LINE
  5
5B
330
2
100
AcDbEntity
  8
GAIKEI
  6
Continuous
 62
     1
370
    30
100
AcDbLine
 10
22.53814197384738
 20
27.17396466717628
 30
0.0
 11
22.5419849833274
 21
27.15103028997629
 31
0.0
  0
LINE
  5
5C
330
2
100
AcDbEntity
  8
GAIKEI
  6
Continuous
 62
     1
370
    30
100
AcDbLine
 10
22.52676046692734
 20
27.19601764069631
 30
0.0
 11
22.53814197384738
 21
27.17396466717628
 31
0.0
  0
LINE
  5
5D
330
2
100
AcDbEntity
  8
GAIKEI
  6
Continuous
 62
     1
370
    30
100
AcDbLine
 10
22.50827855670737
 20
27.21634207949632
 30
0.0
 11
22.52676046692734
 21
27.19601764069631
 31
0.0
  0
LINE
  5
5E
330
2
100
AcDbEntity
  8
GAIKEI
  6
Continuous
 62
     1
370
    30
100
AcDbLine
 10
22.48340628350737
 20
27.23415567263629
 30
0.0
 11
22.50827855670737
 21
27.21634207949632
 31
0.0
  0
LINE
  5
5F
330
2
100
AcDbEntity
  8
GAIKEI
  6
Continuous
 62
     1
370
    30
100
AcDbLine
 10
22.45309881174735
 20
27.2487759469563
 30
0.0
 11
22.48340628350737
 21
27.23415567263629
 31
0.0
  0
LINE
  5
60
330
2
100
AcDbEntity
  8
GAIKEI
  6
Continuous
 62
     1
370
    30
100
AcDbLine
 10
22.41852141224736
 20
27.25963889345627
 30
0.0
 11
22.45309881174735
 21
27.2487759469563
 31
0.0
  0
LINE
  5
61
330
2
100
AcDbEntity
  8
GAIKEI
  6
Continuous
 62
     1
370
    30
100
AcDbLine
 10
22.38100252354737
 20
27.2663287697763
 30
0.0
 11
22.41852141224736
 21
27.25963889345627
 31
0.0
  0
LINE
  5
62
330
2
100
AcDbEntity
  8
GAIKEI
  6
Continuous
 62
     1
370
    30
100
AcDbLine
 10
22.3419845780074
 20
27.26858778581629
 30
0.0
 11
22.38100252354737
 21
27.2663287697763
 31
0.0
  0
LINE
  5
63
330
2
100
AcDbEntity
  8
GAIKEI
  6
Continuous
 62
     1
370
    30
100
AcDbLine
 10
21.78582779372739
 20
27.24565340861631
 30
0.0
 11
21.78198478424737
 21
27.26858778581629
 31
0.0
  0
LINE
  5
64
330
2
100
AcDbEntity
  8
GAIKEI
  6
Continuous
 62
     1
370
    30
100
AcDbLine
 10
21.79720855558738
 20
27.22360043511628
 30
0.0
 11
21.78582779372739
 21
27.24565340861631
 31
0.0
  0
LINE
  5
65
330
2
100
AcDbEntity
  8
GAIKEI
  6
Continuous
 62
     1
370
    30
100
AcDbLine
 10
21.81569121086734
 20
27.20327674135627
 30
0.0
 11
21.79720855558738
 21
27.22360043511628
 31
0.0
  0
LINE
  5
66
330
2
100
AcDbEntity
  8
GAIKEI
  6
Continuous
 62
     1
370
    30
100
AcDbLine
 10
21.84056348406735
 20
27.18546240315629
 30
0.0
 11
21.81569121086734
 21
27.20327674135627
 31
0.0
  0
LINE
  5
67
330
2
100
AcDbEntity
  8
GAIKEI
  6
Continuous
 62
     1
370
    30
100
AcDbLine
 10
21.87087095582736
 20
27.17084212885629
 30
0.0
 11
21.84056348406735
 21
27.18546240315629
 31
0.0
  0
LINE
  5
68
330
2
100
AcDbEntity
  8
GAIKEI
  6
Continuous
 62
     1
370
    30
100
AcDbLine
 10
21.90544835532735
 20
27.15997918233626
 30
0.0
 11
21.87087095582736
 21
27.17084212885629
 31
0.0
  0
LINE
  5
69
330
2
100
AcDbEntity
  8
GAIKEI
  6
Continuous
 62
     1
370
    30
100
AcDbLine
 10
21.94296649896735
 20
27.15328930601629
 30
0.0
 11
21.90544835532735
 21
27.15997918233626
 31
0.0
  0
LINE
  5
6A
330
2
100
AcDbEntity
  8
GAIKEI
  6
Continuous
 62
     1
370
    30
100
AcDbLine
 10
21.98198444450738
 20
27.15103028997629
 30
0.0
 11
21.94296649896735
 21
27.15328930601629
 31
0.0
  0
LINE
  5
6B
330
2
100
AcDbEntity
  8
GAIKEI
  6
Continuous
 62
     1
370
    30
100
AcDbLine
 10
22.41852141224736
 20
28.29518093451628
 30
0.0
 11
22.38198451006737
 21
28.30175383673628
 31
0.0
  0
LINE
  5
6C
330
2
100
AcDbEntity
  8
GAIKEI
  6
Continuous
 62
     1
370
    30
100
AcDbLine
 10
22.45309881174735
 20
28.28431724295632
 30
0.0
 11
22.41852141224736
 21
28.29518093451628
 31
0.0
  0
LINE
  5
6D
330
2
100
AcDbEntity
  8
GAIKEI
  6
Continuous
 62
     1
370
    30
100
AcDbLine
 10
22.48340628350737
 20
28.26969771371631
 30
0.0
 11
22.45309881174735
 21
28.28431724295632
 31
0.0
  0
LINE
  5
6E
330
2
100
AcDbEntity
  8
GAIKEI
  6
Continuous
 62
     1
370
    30
100
AcDbLine
 10
22.50827855670737
 20
28.25188337549628
 30
0.0
 11
22.48340628350737
 21
28.26969771371631
 31
0.0
  0
LINE
  5
6F
330
2
100
AcDbEntity
  8
GAIKEI
  6
Continuous
 62
     1
370
    30
100
AcDbLine
 10
22.52676046692734
 20
28.23155968175626
 30
0.0
 11
22.50827855670737
 21
28.25188337549628
 31
0.0
  0
LINE
  5
70
330
2
100
AcDbEntity
  8
GAIKEI
  6
Continuous
 62
     1
370
    30
100
AcDbLine
 10
22.53814197384738
 20
28.20950670823629
 30
0.0
 11
22.52676046692734
 21
28.23155968175626
 31
0.0
  0
LINE
  5
71
330
2
100
AcDbEntity
  8
GAIKEI
  6
Continuous
 62
     1
370
    30
100
AcDbLine
 10
22.5419849833274
 20
28.18657233105631
 30
0.0
 11
22.53814197384738
 21
28.20950670823629
 31
0.0
  0
LINE
  5
72
330
2
100
AcDbEntity
  8
GAIKEI
  6
Continuous
 62
     1
370
     0
100
AcDbLine
 10
22.3419845780074
 20
27.95307560549628
 30
0.0
 11
22.3419845780074
 21
27.26858778581629
 31
0.0
  0
LINE
  5
73
330
2
100
AcDbEntity
  8
GAIKEI
  6
Continuous
 62
     1
370
     0
100
AcDbLine
 10
20.91979912722736
 20
26.75829603061629
 30
0.0
 11
21.68198458158737
 21
26.71706526265626
 31
0.0
  0
LINE
  5
74
330
2
100
AcDbEntity
  8
GAIKEI
  6
Continuous
 62
     1
370
    30
100
AcDbLine
 10
22.5419849833274
 20
27.15103028997629
 30
0.0
 11
22.5419849833274
 21
28.18657233105631
 31
0.0
  0
LINE
  5
75
330
2
100
AcDbEntity
  8
GAIKEI
  6
Continuous
 62
     1
370
    30
100
AcDbLine
 10
21.98198444450738
 20
27.38307489737628
 30
0.0
 11
21.98198444450738
 21
27.26858778581629
 31
0.0
  0
LINE
  5
76
330
2
100
AcDbEntity
  8
GAIKEI
  6
Continuous
 62
     1
370
    30
100
AcDbLine
 10
21.78198478424737
 20
27.26858778581629
 30
0.0
 11
21.78198478424737
 21
27.38307489737628
 31
0.0
  0
LINE
  5
77
330
2
100
AcDbEntity
  8
GAIKEI
  6
Continuous
 62
     1
370
    30
100
AcDbLine
 10
22.3419845780074
 20
27.15103028997629
 30
0.0
 11
21.98198444450738
 21
27.15103028997629
 31
0.0
  0
LINE
  5
78
330
2
100
AcDbEntity
  8
GAIKEI
  6
Continuous
 62
     1
370
    30
100
AcDbLine
 10
21.98198444450738
 20
27.26858778581629
 30
0.0
 11
22.3419845780074
 21
27.26858778581629
 31
0.0
  0
LINE
  5
79
330
2
100
AcDbEntity
  8
GAIKEI
  6
Continuous
 62
     1
370
    30
100
AcDbLine
 10
22.5419849833274
 20
27.15103028997629
 30
0.0
 11
22.5419849833274
 21
26.71606912003625
 31
0.0
  0
ARC
  5
7A
330
2
100
AcDbEntity
  8
GAIKEI
  6
Continuous
 62
     1
370
    30
100
AcDbCircle
 10
22.43187261914737
 20
26.73107867749627
 30
0.0
 40
0.1111306418543444
100
AcDbArc
 50
295.1139949674032
 51
352.2377789561028
  0
LINE
  5
7B
330
2
100
AcDbEntity
  8
GAIKEI
  6
Continuous
 62
     1
370
    30
100
AcDbLine
 10
22.3419845780074
 20
26.71606912003625
 30
0.0
 11
22.3419845780074
 21
27.15103028997629
 31
0.0
  0
LINE
  5
7C
330
2
100
AcDbEntity
  8
GAIKEI
  6
Continuous
 62
     1
370
    30
100
AcDbLine
 10
22.18198484980737
 20
27.83307506427628
 30
0.0
 11
22.18198484980737
 21
28.23307512983627
 31
0.0
  0
LINE
  5
7D
330
2
100
AcDbEntity
  8
GAIKEI
  6
Continuous
 62
     1
370
    30
100
AcDbLine
 10
22.18198484980737
 20
28.23307512983627
 30
0.0
 11
22.18198484980737
 21
28.63307519541627
 31
0.0
  0
LINE
  5
7E
330
2
100
AcDbEntity
  8
GAIKEI
  6
Continuous
 62
     1
370
    30
100
AcDbLine
 10
21.98198444450738
 20
27.38307489737628
 30
0.0
 11
21.98198444450738
 21
29.08307536229626
 31
0.0
  0
LINE
  5
7F
330
2
100
AcDbEntity
  8
GAIKEI
  6
Continuous
 62
     1
370
    30
100
AcDbLine
 10
21.78198478424737
 20
29.08307536229626
 30
0.0
 11
21.78198478424737
 21
27.38307489737628
 31
0.0
  0
LINE
  5
80
330
2
100
AcDbEntity
  8
GAIKEI
  6
Continuous
 62
     1
370
    30
100
AcDbLine
 10
22.48198471272737
 20
28.40408160075629
 30
0.0
 11
22.38198451006737
 21
28.40408160075629
 31
0.0
  0
LINE
  5
81
330
2
100
AcDbEntity
  8
GAIKEI
  6
Continuous
 62
     1
370
    30
100
AcDbLine
 10
20.88198445046733
 20
26.89598547294205
 30
0.0
 11
20.88198445046733
 21
29.14862855061625
 31
0.0
  0
LINE
  5
82
330
2
100
AcDbEntity
  8
GAIKEI
  6
Continuous
 62
     1
370
    30
100
AcDbLine
 10
21.68198458158737
 20
29.23307492123626
 30
0.0
 11
21.68198458158737
 21
26.71706526265626
 31
0.0
  0
LINE
  5
83
330
2
100
AcDbEntity
  8
GAIKEI
  6
Continuous
 62
     1
370
    30
100
AcDbLine
 10
22.28208340012738
 20
26.73601432427626
 30
0.0
 11
22.38372943604737
 21
26.71427353009631
 31
0.0
  0
ARC
  5
84
330
2
100
AcDbEntity
  8
GAIKEI
  6
Continuous
 62
     1
370
    30
100
AcDbCircle
 10
22.36733430106735
 20
26.6004475339563
 30
0.0
 40
0.1150007925189327
100
AcDbArc
 50
4.473708991097188
 51
81.80330226439954
  0
LINE
  5
85
330
2
100
AcDbEntity
  8
GAIKEI
  6
Continuous
 62
     1
370
    30
100
AcDbLine
 10
22.48198471272737
 20
28.27052472815632
 30
0.0
 11
22.48198471272737
 21
28.40408160075629
 31
0.0
  0
LINE
  5
86
330
2
100
AcDbEntity
  8
GAIKEI
  6
Continuous
 62
     1
370
    30
100
AcDbLine
 10
20.91979912722736
 20
26.75829603061629
 30
0.0
 11
20.88198445046733
 21
26.89598547294205
 31
0.0
  0
LINE
  5
87
330
2
100
AcDbEntity
  8
GAIKEI
  6
Continuous
 62
     1
370
    30
100
AcDbLine
 10
21.68198458158737
 20
26.71706526265626
 30
0.0
 11
22.28205955826736
 21
26.73641814575626
 31
0.0
  0
LINE
  5
88
330
2
100
AcDbEntity
  8
GAIKEI
  6
Continuous
 62
     1
370
    30
100
AcDbLine
 10
22.38198451006737
 20
27.9930755375363
 30
0.0
 11
22.38198451006737
 21
28.47307546719628
 31
0.0
  0
LINE
  5
89
330
2
100
AcDbEntity
  8
GAIKEI
  6
Continuous
 62
     1
370
    30
100
AcDbLine
 10
22.18198484980737
 20
27.83307506427628
 30
0.0
 11
21.98198444450738
 21
27.83307506427628
 31
0.0
  0
LINE
  5
8A
330
2
100
AcDbEntity
  8
GAIKEI
  6
Continuous
 62
     1
370
    30
100
AcDbLine
 10
21.98198444450738
 20
28.63307519541627
 30
0.0
 11
22.18198484980737
 21
28.63307519541627
 31
0.0
  0
LINE
  5
8B
330
2
100
AcDbEntity
  8
GAIKEI
  6
Continuous
 62
     1
370
    30
100
AcDbLine
 10
21.98198444450738
 20
27.38307489737628
 30
0.0
 11
21.78198478424737
 21
27.38307489737628
 31
0.0
  0
LINE
  5
8C
330
2
100
AcDbEntity
  8
GAIKEI
  6
Continuous
 62
     1
370
    30
100
AcDbLine
 10
21.78198478424737
 20
29.08307536229626
 30
0.0
 11
21.98198444450738
 21
29.08307536229626
 31
0.0
  0
ARC
  5
8D
330
2
100
AcDbEntity
  8
GAIKEI
  6
Continuous
 62
     1
370
    30
100
AcDbCircle
 10
20.92198477112736
 20
29.15319044001632
 30
0.0
 40
0.0400000000000027
100
AcDbArc
 50
93.000068565982
 51
180.0
  0
LINE
  5
8E
330
2
100
AcDbEntity
  8
GAIKEI
  6
Continuous
 62
     1
370
    30
100
AcDbLine
 10
20.91989151442733
 20
29.19313533887629
 30
0.0
 11
21.68198458158737
 21
29.23307492123626
 31
0.0
  0
LINE
  5
8F
330
2
100
AcDbEntity
  8
GAIKEI
  6
Continuous
 62
     1
370
    30
100
AcDbLine
 10
22.38198451006737
 20
27.9930755375363
 30
0.0
 11
22.32198498452733
 21
27.93307526693627
 31
0.0
  0
LINE
  5
90
330
2
100
AcDbEntity
  8
GAIKEI
  6
Continuous
 62
     1
370
    30
100
AcDbLine
 10
22.32198498452733
 20
28.53307499275627
 30
0.0
 11
22.38198451006737
 21
28.47307546719628
 31
0.0
  0
LINE
  5
91
330
2
100
AcDbEntity
  8
GAIKEI
  6
Continuous
 62
     1
370
    30
100
AcDbLine
 10
22.32198498452733
 20
27.93307526693627
 30
0.0
 11
22.18198484980737
 21
27.93307526693627
 31
0.0
  0
LINE
  5
92
330
2
100
AcDbEntity
  8
GAIKEI
  6
Continuous
 62
     1
370
    30
100
AcDbLine
 10
22.18198484980737
 20
28.53307499275627
 30
0.0
 11
22.32198498452733
 21
28.53307499275627
 31
0.0
  0
ARC
  5
93
330
2
100
AcDbEntity
  8
GAIKEI
  6
Continuous
 62
     1
370
    30
100
AcDbCircle
 10
21.74198477112738
 20
27.7230752460963
 30
0.0
 40
0.0400000000000205
100
AcDbArc
 50
270.0
 51
0.000000000000007
  0
ARC
  5
94
330
2
100
AcDbEntity
  8
GAIKEI
  6
Continuous
 62
     1
370
    30
100
AcDbCircle
 10
21.74198477112738
 20
28.74307524609628
 30
0.0
 40
0.0400000000000205
100
AcDbArc
 50
0.000000000000007
 51
90.0
  0
LINE
  5
95
330
2
100
AcDbEntity
  8
GAIKEI
  6
Continuous
 62
     1
370
    30
100
AcDbLine
 10
21.7419848521874
 20
27.68307550535627
 30
0.0
 11
21.68198458158737
 21
27.68307550535627
 31
0.0
  0
LINE
  5
96
330
2
100
AcDbEntity
  8
GAIKEI
  6
Continuous
 62
     1
370
    30
100
AcDbLine
 10
21.68198458158737
 20
28.78307549939626
 30
0.0
 11
21.7419848521874
 21
28.78307549939626
 31
0.0
  0
ARC
  5
97
330
2
100
AcDbEntity
  8
GAIKEI
 62
     1
100
AcDbCircle
 10
-17.43964280200453
 20
28.41378872809085
 30
0.0
 40
0.1
100
AcDbArc
 50
270.0
 51
359.9999937547718
  0
ARC
  5
98
330
2
100
AcDbEntity
  8
GAIKEI
 62
     1
100
AcDbCircle
 10
-17.07964280200402
 20
28.41378872809085
 30
0.0
 40
0.1
100
AcDbArc
 50
180.0000802650363
 51
270.0
  0
ARC
  5
99
330
2
100
AcDbEntity
  8
GAIKEI
 62
     1
100
AcDbCircle
 10
-17.07964280200447
 20
28.05378899989086
 30
0.0
 40
0.1
100
AcDbArc
 50
90.0
 51
179.9999197351004
  0
ARC
  5
9A
330
2
100
AcDbEntity
  8
GAIKEI
 62
     1
100
AcDbCircle
 10
-17.43964278238452
 20
28.05378899989086
 30
0.0
 40
0.1
100
AcDbArc
 50
0.0
 51
90.0
  0
LINE
  5
9B
330
2
100
AcDbEntity
  8
GAIKEI
 62
     1
100
AcDbLine
 10
-17.61964305178458
 20
28.3137887280908
 30
0.0
 11
-17.43964280200453
 21
28.31378872809086
 31
0.0
  0
LINE
  5
9C
330
2
100
AcDbEntity
  8
GAIKEI
 62
     1
100
AcDbLine
 10
-17.61964305178458
 20
28.15378899989082
 30
0.0
 11
-17.61964305178458
 21
28.3137887280908
 31
0.0
  0
LINE
  5
9D
330
2
100
AcDbEntity
  8
GAIKEI
 62
     1
100
AcDbLine
 10
-17.43964278238452
 20
28.15378899989085
 30
0.0
 11
-17.61964305178458
 21
28.15378899989082
 31
0.0
  0
LINE
  5
9E
330
2
100
AcDbEntity
  8
GAIKEI
 62
     1
100
AcDbLine
 10
-17.33964278238454
 20
27.87378873047084
 30
0.0
 11
-17.33964278238453
 21
28.05378899989086
 31
0.0
  0
LINE
  5
9F
330
2
100
AcDbEntity
  8
GAIKEI
 62
     1
100
AcDbLine
 10
-17.17964305416456
 20
27.87378873047084
 30
0.0
 11
-17.33964278238454
 21
27.87378873047084
 31
0.0
  0
LINE
  5
A0
330
2
100
AcDbEntity
  8
GAIKEI
 62
     1
100
AcDbLine
 10
-17.17964280200436
 20
28.05378913997953
 30
0.0
 11
-17.17964305416456
 21
27.87378873047084
 31
0.0
  0
LINE
  5
A1
330
2
100
AcDbEntity
  8
GAIKEI
 62
     1
100
AcDbLine
 10
-16.89964278476452
 20
28.15378899989082
 30
0.0
 11
-17.07964280200447
 21
28.15378899989085
 31
0.0
  0
LINE
  5
A2
330
2
100
AcDbEntity
  8
GAIKEI
 62
     1
100
AcDbLine
 10
-16.89964278476452
 20
28.3137887280908
 30
0.0
 11
-16.89964278476452
 21
28.15378899989082
 31
0.0
  0
LINE
  5
A3
330
2
100
AcDbEntity
  8
GAIKEI
 62
     1
100
AcDbLine
 10
-17.07964280200402
 20
28.31378872809086
 30
0.0
 11
-16.89964278476452
 21
28.3137887280908
 31
0.0
  0
LINE
  5
A4
330
2
100
AcDbEntity
  8
GAIKEI
 62
     1
100
AcDbLine
 10
-17.17964305416456
 20
28.59378899751084
 30
0.0
 11
-17.17964280200391
 21
28.41378858800192
 31
0.0
  0
LINE
  5
A5
330
2
100
AcDbEntity
  8
GAIKEI
 62
     1
100
AcDbLine
 10
-17.33964278238454
 20
28.59378899751084
 30
0.0
 11
-17.17964305416456
 21
28.59378899751084
 31
0.0
  0
LINE
  5
A6
330
2
100
AcDbEntity
  8
GAIKEI
 62
     1
100
AcDbLine
 10
-17.33964280200453
 20
28.41378871719087
 30
0.0
 11
-17.33964278238454
 21
28.59378899751084
 31
0.0
  0
ARC
  5
A7
330
2
100
AcDbEntity
  8
GAIKEI
 62
     1
100
AcDbCircle
 10
-16.85683706426331
 20
26.95565862059349
 30
0.0
 40
0.3415832532300438
100
AcDbArc
 50
111.4364784533218
 51
229.1486747569813
  0
ARC
  5
A8
330
2
100
AcDbEntity
  8
GAIKEI
 62
     1
100
AcDbCircle
 10
-18.5986210172407
 20
28.22270672311495
 30
0.0
 40
0.3415832532300438
100
AcDbArc
 50
238.7838367215459
 51
356.4960330252053
  0
LINE
  5
A9
330
2
100
AcDbEntity
  8
GAIKEI
 62
     1
100
AcDbLine
 10
-18.77565278546456
 20
27.93057854591081
 30
0.0
 11
-18.73236548890396
 21
27.85271945283685
 31
0.0
  0
LINE
  5
AA
330
2
100
AcDbEntity
  8
GAIKEI
 62
     1
100
AcDbLine
 10
-18.75673919159055
 20
27.95749777215866
 30
0.0
 11
-18.77565278546456
 21
27.93057854591081
 31
0.0
  0
LINE
  5
AB
330
2
100
AcDbEntity
  8
GAIKEI
 62
     1
100
AcDbLine
 10
-17.07954003351221
 20
26.69828082737388
 30
0.0
 11
-17.16696571254773
 21
26.71539003463627
 31
0.0
  0
LINE
  5
AC
330
2
100
AcDbEntity
  8
GAIKEI
 62
     1
100
AcDbLine
 10
-17.05221949950453
 20
26.71806658921082
 30
0.0
 11
-17.07954003350448
 21
26.69828082737081
 31
0.0
  0
ARC
  5
AD
330
2
100
AcDbEntity
  8
GAIKEI
 62
     1
100
AcDbCircle
 10
-25.48863617860458
 20
16.90755109606078
 30
0.0
 40
12.86249991217406
100
AcDbArc
 50
49.68634910460067
 51
58.3136553345383
  0
CIRCLE
  5
AE
330
2
100
AcDbEntity
  8
GAIKEI
 62
     1
100
AcDbCircle
 10
-17.25885070076458
 20
28.23373970711083
 30
0.0
 40
0.9993352141254327
  0
CIRCLE
  5
AF
330
2
100
AcDbEntity
  8
GAIKEI
 62
     1
100
AcDbCircle
 10
-17.25885070076458
 20
28.23373970711083
 30
0.0
 40
0.826235512274366
  0
LINE
  5
B0
330
2
100
AcDbEntity
  8
GAIKEI
 62
     1
100
AcDbLine
 10
-25.48863617860458
 20
8.695300624935526
 30
0.0
 11
-25.48863617860458
 21
7.245304634366561
 31
0.0
  0
LINE
  5
B1
330
2
100
AcDbEntity
  8
GAIKEI
 62
     1
100
AcDbLine
 10
-15.82638971691035
 20
16.90755109606078
 30
0.0
 11
-12.88002473384118
 21
16.90755109606078
 31
0.0
  0
LINE
  5
B2
330
2
100
AcDbEntity
  8
GAIKEI
 62
     1
100
AcDbLine
 10
-23.08256837414456
 20
29.62095360575086
 30
0.0
 11
-23.08256837414457
 21
29.53716166654607
 31
0.0
  0
LINE
  5
B3
330
2
100
AcDbEntity
  8
GAIKEI
 62
     1
100
AcDbLine
 10
-27.49467405364453
 20
29.69017844019083
 30
0.0
 11
-27.49467405364453
 21
29.60684389076704
 31
0.0
  0
ARC
  5
B4
330
2
100
AcDbEntity
  8
GAIKEI
 62
     1
100
AcDbCircle
 10
-25.48863617860458
 20
16.90755109606078
 30
0.0
 40
12.85675796776827
100
AcDbArc
 50
79.21382978112045
 51
98.97652840955318
  0
LINE
  5
B5
330
2
100
AcDbEntity
  8
GAIKEI
 62
     1
100
AcDbLine
 10
-33.00239785448457
 20
27.44145612535078
 30
0.0
 11
-32.93252201812358
 21
27.34349466861434
 31
0.0
  0
LINE
  5
B6
330
2
100
AcDbEntity
  8
GAIKEI
 62
     1
100
AcDbLine
 10
-37.44278668300456
 20
21.85912202415079
 30
0.0
 11
-37.33161710251887
 21
21.81307425645005
 31
0.0
  0
ARC
  5
B7
330
2
100
AcDbEntity
  8
GAIKEI
 62
     1
100
AcDbCircle
 10
-25.48863617860458
 20
16.90755109606078
 30
0.0
 40
12.81875012009022
100
AcDbArc
 50
125.4999986618247
 51
157.5000006492398
  0
ARC
  5
B8
330
2
100
AcDbEntity
  8
GAIKEI
  6
HIDDEN2
 62
     1
100
AcDbCircle
 10
-25.48863617860458
 20
16.90755109606078
 30
0.0
 40
3.199999844499998
100
AcDbArc
 50
0.0
 51
180.0
  0
ARC
  5
BA
330
2
100
AcDbEntity
  8
GAIKEI
  6
HIDDEN2
 62
     1
100
AcDbCircle
 10
-25.48863617860458
 20
16.90755109606078
 30
0.0
 40
7.483741875526618
100
AcDbArc
 50
244.7248742408359
 51
295.2751228367343
  0
LINE
  5
BB
330
2
100
AcDbEntity
  8
GAIKEI
  6
HIDDEN2
 62
     1
100
AcDbLine
 10
-22.28863633410458
 20
10.18512370531084
 30
0.0
 11
-22.28863633410458
 21
16.90755109605084
 31
0.0
  0
LINE
  5
BC
330
2
100
AcDbEntity
  8
GAIKEI
  6
HIDDEN2
 62
     1
100
AcDbLine
 10
-28.68863633410456
 20
10.18512370531084
 30
0.0
 11
-28.68863633410456
 21
16.90755109605084
 31
0.0
  0
CIRCLE
  5
BD
330
2
100
AcDbEntity
  8
GAIKEI
 62
     1
100
AcDbCircle
 10
-25.48863617860458
 20
16.90755109606078
 30
0.0
 40
7.660000155500014
  0
CIRCLE
  5
BE
330
2
100
AcDbEntity
  8
GAIKEI
 62
     7
100
AcDbCircle
 10
-25.48863617860458
 20
16.90755109606078
 30
0.0
 40
8.212250471125258
  0
CIRCLE
  5
BF
330
2
100
AcDbEntity
  8
GAIKEI
 62
     1
100
AcDbCircle
 10
-25.48863617860458
 20
16.90755109606078
 30
0.0
 40
9.662246461694223
  0
CIRCLE
  5
C0
330
2
100
AcDbEntity
  8
GAIKEI
 62
     1
100
AcDbCircle
 10
-25.48863617860458
 20
16.90755109606078
 30
0.0
 40
12.6086114447634
  0
CIRCLE
  5
C1
330
2
100
AcDbEntity
  8
GAIKEI
100
AcDbCircle
 10
-25.48863617860458
 20
16.90755109606078
 30
0.0
 40
12.93907910585994
  0
LINE
  5
C2
330
2
100
AcDbEntity
  8
GAIKEI
 62
     1
100
AcDbLine
 10
-25.48863617860458
 20
26.56979755775501
 30
0.0
 11
-25.48863617860458
 21
25.11980156718605
 31
0.0
  0
LINE
  5
C3
330
2
100
AcDbEntity
  8
GAIKEI
 62
     1
100
AcDbLine
 10
-38.09724762336798
 20
16.90755109606078
 30
0.0
 11
-35.15088264029881
 21
16.90755109606078
 31
0.0
  0
LINE
  5
C4
330
2
100
AcDbEntity
  8
GAIKEI
100
AcDbLine
 10
12.90261007152732
 20
24.95814184961074
 30
0.0
 11
11.70168674790729
 21
24.93717964111079
 31
0.0
  0
ARC
  5
C5
330
2
100
AcDbEntity
  8
GAIKEI
  6
HIDDEN2
 62
     1
100
AcDbCircle
 10
11.90168674790739
 20
16.90755109605075
 30
0.0
 40
7.660000000000035
100
AcDbArc
 50
91.49614337868747
 51
155.3070949892996
  0
ARC
  5
C6
330
2
100
AcDbEntity
  8
GAIKEI
  6
HIDDEN2
 62
     1
100
AcDbCircle
 10
12.21888146272467
 20
17.01522419290285
 30
0.0
 40
7.277560234111349
100
AcDbArc
 50
180.8477345308571
 51
265.9247228442426
  0
LINE
  5
C7
330
2
100
AcDbEntity
  8
GAIKEI
  6
HIDDEN2
 62
     1
100
AcDbLine
 10
4.942117795727327
 20
20.10755109605083
 30
0.0
 11
4.942117795738013
 21
16.90755109605084
 31
0.0
  0
ARC
  5
C8
330
2
100
AcDbEntity
  8
GAIKEI
100
AcDbCircle
 10
11.70168674790729
 20
16.90755109606078
 30
0.0
 40
8.029628545050002
100
AcDbArc
 50
90.0
 51
270.0
  0
LINE
  5
C9
330
2
100
AcDbEntity
  8
GAIKEI
100
AcDbLine
 10
12.90261007152732
 20
8.856960342510831
 30
0.0
 11
11.70168674790729
 21
8.877922551010783
 31
0.0
  0
ARC
  5
CA
330
2
100
AcDbEntity
  8
GAIKEI
100
AcDbCircle
 10
13.73785051970439
 20
26.16996997441123
 30
0.0
 40
0.6509073873134623
100
AcDbArc
 50
142.1017506855086
 51
174.6239990002638
  0
ARC
  5
CB
330
2
100
AcDbEntity
  8
GAIKEI
100
AcDbCircle
 10
9.46101750476869
 20
26.27095248830201
 30
0.0
 40
3.629009208976418
100
AcDbArc
 50
341.5058368864263
 51
359.368485548999
  0
ARC
  5
CC
330
2
100
AcDbEntity
  8
GAIKEI
100
AcDbCircle
 10
9.46101750476869
 20
7.544149703799604
 30
0.0
 40
3.629009208976418
100
AcDbArc
 50
0.6315144510010259
 51
18.49416311357371
  0
LINE
  5
CD
330
2
100
AcDbEntity
  8
GAIKEI
 62
     1
100
AcDbLine
 10
12.90261007152732
 20
8.695300624950846
 30
0.0
 11
12.90261007152732
 21
25.11980156715078
 31
0.0
  0
ARC
  5
CE
330
2
100
AcDbEntity
  8
GAIKEI
100
AcDbCircle
 10
13.73785051970439
 20
7.645132217690388
 30
0.0
 40
0.6509073873134623
100
AcDbArc
 50
185.3760009997362
 51
217.8982493144914
  0
LINE
  5
CF
330
2
100
AcDbEntity
  8
GAIKEI
 62
     1
100
AcDbLine
 10
13.08981065876732
 20
7.58414785681083
 30
0.0
 11
13.08981065876732
 21
26.2309543353108
 31
0.0
  0
LINE
  5
D0
330
2
100
AcDbEntity
  8
GAIKEI
 62
     1
100
AcDbLine
 10
11.70168674790729
 20
24.93717964111079
 30
0.0
 11
11.70168674790729
 21
8.877922551010783
 31
0.0
  0
LINE
  5
D1
330
2
100
AcDbEntity
  8
GAIKEI
 62
     1
100
AcDbLine
 10
13.22421801514737
 20
16.90764178161083
 30
0.0
 11
15.90343236230741
 21
16.90755108563081
 31
0.0
  0
LINE
  5
D2
330
2
100
AcDbEntity
  8
GAIKEI
 62
     1
100
AcDbLine
 10
13.22421764262732
 20
7.245305137010802
 30
0.0
 11
13.22421764262732
 21
26.56979700913908
 31
0.0
  0
ARC
  5
D3
330
2
100
AcDbEntity
  8
GAIKEI
100
AcDbCircle
 10
29.71050667244734
 20
13.26700130295217
 30
0.0
 40
21.18129662703836
100
AcDbArc
 50
130.5023114600095
 51
141.099430641907
  0
ARC
  5
D4
330
2
100
AcDbEntity
  8
GAIKEI
100
AcDbCircle
 10
16.26099578473447
 20
29.11675961136518
 30
0.0
 40
0.3999998820990647
100
AcDbArc
 50
93.13026497217514
 51
140.194923074457
  0
ARC
  5
D5
330
2
100
AcDbEntity
  8
GAIKEI
100
AcDbCircle
 10
16.26099578473447
 20
4.698342580756388
 30
0.0
 40
0.3999998820990647
100
AcDbArc
 50
219.8050769255429
 51
266.8697350278248
  0
ARC
  5
D6
330
2
100
AcDbEntity
  8
GAIKEI
100
AcDbCircle
 10
29.70265890958967
 20
20.56093221139054
 30
0.0
 40
21.1859611765122
100
AcDbArc
 50
218.9404126563857
 51
229.5363643490774
  0
ARC
  5
D7
330
2
100
AcDbEntity
  8
GAIKEI
 62
     1
100
AcDbCircle
 10
21.98189128829996
 20
16.42426693213903
 30
0.0
 40
0.1
100
AcDbArc
 50
359.9996237783994
 51
89.99962377840006
  0
ARC
  5
D8
330
2
100
AcDbEntity
  8
GAIKEI
 62
     1
100
AcDbCircle
 10
21.98186633633853
 20
12.62426693222099
 30
0.0
 40
0.1
100
AcDbArc
 50
269.9996237783994
 51
359.9996237783996
  0
ARC
  5
D9
330
2
100
AcDbEntity
  8
GAIKEI
 62
     1
100
AcDbCircle
 10
19.28186699302738
 20
12.72428466124404
 30
0.0
 40
0.2
100
AcDbArc
 50
179.9996237784012
 51
269.9996237784
  0
ARC
  5
DA
330
2
100
AcDbEntity
  8
GAIKEI
 62
     1
100
AcDbCircle
 10
19.28189063172759
 20
16.32428466116639
 30
0.0
 40
0.2
100
AcDbArc
 50
89.99962377840006
 51
179.9996237784012
  0
LINE
  5
DB
330
2
100
AcDbEntity
  8
GAIKEI
 62
     1
100
AcDbLine
 10
19.08186699303168
 20
12.72428597450516
 30
0.0
 11
19.08189063173189
 21
16.32428597442751
 31
0.0
  0
LINE
  5
DC
330
2
100
AcDbEntity
  8
GAIKEI
 62
     1
100
AcDbLine
 10
21.98186567970797
 20
12.52426693222316
 30
0.0
 11
19.28186567976625
 21
12.52428466124834
 31
0.0
  0
LINE
  5
DD
330
2
100
AcDbEntity
  8
GAIKEI
 62
     1
100
AcDbLine
 10
22.08189128829781
 20
16.42426627550847
 30
0.0
 11
22.08186633633637
 21
12.62426627559043
 31
0.0
  0
LINE
  5
DE
330
2
100
AcDbEntity
  8
GAIKEI
 62
     1
100
AcDbLine
 10
19.28189194498871
 20
16.52428466116208
 30
0.0
 11
21.98189194493052
 21
16.52426693213687
 31
0.0
  0
ARC
  5
DF
330
2
100
AcDbEntity
  8
GAIKEI
 62
     1
100
AcDbCircle
 10
20.62403804843008
 20
7.015137525629171
 30
0.0
 40
0.5729117901825047
100
AcDbArc
 50
198.7986081313818
 51
275.6084234860138
  0
ARC
  5
E0
330
2
100
AcDbEntity
  8
GAIKEI
 62
     1
100
AcDbCircle
 10
20.64712177311647
 20
11.42421995905178
 30
0.0
 40
0.5662429273587036
100
AcDbArc
 50
86.66845091129465
 51
176.9384166430656
  0
LINE
  5
E1
330
2
100
AcDbEntity
  8
GAIKEI
 62
     1
100
AcDbLine
 10
20.08168704114736
 20
6.830520884370741
 30
0.0
 11
20.08168704114736
 21
11.45446258901074
 31
0.0
  0
LINE
  5
E2
330
2
100
AcDbEntity
  8
GAIKEI
 62
     1
100
AcDbLine
 10
22.3819838417833
 20
11.95388739340481
 30
0.0
 11
20.68002826772739
 21
11.98950591801076
 31
0.0
  0
LINE
  5
E3
330
2
100
AcDbEntity
  8
GAIKEI
 62
     1
100
AcDbLine
 10
22.38168648682735
 20
8.728578643190758
 30
0.0
 11
22.3819838417833
 21
11.95388739340481
 31
0.0
  0
LINE
  5
E4
330
2
100
AcDbEntity
  8
GAIKEI
 62
     1
100
AcDbLine
 10
22.3819838417833
 20
11.95388739340481
 30
0.0
 11
20.68002826772739
 21
11.98950591801076
 31
0.0
  0
LINE
  5
E5
330
2
100
AcDbEntity
  8
GAIKEI
 62
     1
100
AcDbLine
 10
22.38198525510735
 20
9.245765165670718
 30
0.0
 11
22.28168702922734
 21
9.248188094470719
 31
0.0
  0
ARC
  5
E6
330
2
100
AcDbEntity
  8
GAIKEI
 62
     1
100
AcDbCircle
 10
22.36309541310142
 20
9.363521030525163
 30
0.0
 40
0.1192070345509312
100
AcDbArc
 50
278.9722557521514
 51
354.1738870641812
  0
ARC
  5
E7
330
2
100
AcDbEntity
  8
GAIKEI
 62
     1
100
AcDbCircle
 10
22.38168674790738
 20
9.557551096070739
 30
0.0
 40
0.2000000000000099
100
AcDbArc
 50
0.0000000000081492
 51
60.00000000000506
  0
ARC
  5
E8
330
2
100
AcDbEntity
  8
GAIKEI
 62
     1
100
AcDbCircle
 10
22.36005291763054
 20
7.022802861915863
 30
0.0
 40
0.0211112244479378
100
AcDbArc
 50
288.7736960483701
 51
71.22706825694058
  0
ARC
  5
E9
330
2
100
AcDbEntity
  8
GAIKEI
 62
     1
100
AcDbCircle
 10
22.3563999953203
 20
7.142615028749418
 30
0.0
 40
0.0254116796245638
100
AcDbArc
 50
5.689589751951891
 51
65.72498599452874
  0
ARC
  5
EA
330
2
100
AcDbEntity
  8
GAIKEI
 62
     1
100
AcDbCircle
 10
22.39452178845569
 20
6.820402408736299
 30
0.0
 40
0.0901629209736046
100
AcDbArc
 50
14.81670742537833
 51
97.06501123267498
  0
LINE
  5
EB
330
2
100
AcDbEntity
  8
GAIKEI
 62
     1
100
AcDbLine
 10
22.28198505246736
 20
6.373646066770788
 30
0.0
 11
20.68002826772739
 21
6.444968239650734
 31
0.0
  0
LINE
  5
EC
330
2
100
AcDbEntity
  8
GAIKEI
100
AcDbLine
 10
22.48168668948735
 20
4.037550793270725
 30
0.0
 11
22.48168668948735
 21
6.843459562650764
 31
0.0
  0
LINE
  5
ED
330
2
100
AcDbEntity
  8
GAIKEI
 62
     1
100
AcDbLine
 10
22.38198525510735
 20
6.401807026250764
 30
0.0
 11
22.28198505246736
 21
6.373646066770788
 31
0.0
  0
LINE
  5
EE
330
2
100
AcDbEntity
  8
GAIKEI
 62
     1
100
AcDbLine
 10
22.38198525510735
 20
6.797490970470789
 30
0.0
 11
22.38198525510735
 21
6.401807026250764
 31
0.0
  0
LINE
  5
EF
330
2
100
AcDbEntity
  8
GAIKEI
 62
     1
100
AcDbLine
 10
22.28168702922734
 20
6.915271238670754
 30
0.0
 11
22.38343215786735
 21
6.909880743610756
 31
0.0
  0
LINE
  5
F0
330
2
100
AcDbEntity
  8
GAIKEI
 62
     1
100
AcDbLine
 10
22.28168702922734
 20
6.802432940590733
 30
0.0
 11
22.38198525510735
 21
6.797490970470789
 31
0.0
  0
LINE
  5
F1
330
2
100
AcDbEntity
  8
GAIKEI
 62
     1
100
AcDbLine
 10
22.28168702922734
 20
6.962483332730755
 30
0.0
 11
22.28168702922734
 21
6.802432940590733
 31
0.0
  0
LINE
  5
F2
330
2
100
AcDbEntity
  8
GAIKEI
 62
     1
100
AcDbLine
 10
22.28178131721531
 20
6.962404684527086
 30
0.0
 11
22.3668468978985
 21
7.00281463573674
 31
0.0
  0
LINE
  5
F3
330
2
100
AcDbEntity
  8
GAIKEI
 62
     1
100
AcDbLine
 10
22.38168648682735
 20
7.022173659190741
 30
0.0
 11
22.38168648682735
 21
7.145134316070766
 31
0.0
  0
LINE
  5
F4
330
2
100
AcDbEntity
  8
GAIKEI
 62
     1
100
AcDbLine
 10
22.28178131812973
 20
7.090863837734474
 30
0.0
 11
22.36684689881331
 21
7.042790998832032
 31
0.0
  0
LINE
  5
F5
330
2
100
AcDbEntity
  8
GAIKEI
 62
     1
100
AcDbLine
 10
22.28168702922734
 20
7.214256332490776
 30
0.0
 11
22.36684716544734
 21
7.165779874910754
 31
0.0
  0
LINE
  5
F6
330
2
100
AcDbEntity
  8
GAIKEI
 62
     1
100
AcDbLine
 10
22.34168655478733
 20
7.180102125990742
 30
0.0
 11
22.34168655478733
 21
7.313944355830756
 31
0.0
  0
ARC
  5
F7
330
2
100
AcDbEntity
  8
GAIKEI
 62
     1
100
AcDbCircle
 10
22.40260641147643
 20
7.331578844724816
 30
0.0
 40
0.1390861300998529
100
AcDbArc
 50
0.5133011129160523
 51
34.53936239981921
  0
ARC
  5
F8
330
2
100
AcDbEntity
  8
GAIKEI
 62
     1
100
AcDbCircle
 10
22.3816861435824
 20
7.557551251094196
 30
0.0
 40
0.2000006043250548
100
AcDbArc
 50
296.5650780311883
 51
359.9999555891932
  0
LINE
  5
F9
330
2
100
AcDbEntity
  8
GAIKEI
 62
     1
100
AcDbLine
 10
22.28168702922734
 20
7.283944593050762
 30
0.0
 11
22.47112921678731
 21
7.378665314290742
 31
0.0
  0
ARC
  5
FA
330
2
100
AcDbEntity
  8
GAIKEI
 62
     1
100
AcDbCircle
 10
22.39134416580917
 20
5.986500050612448
 30
0.0
 40
0.1504166422814277
100
AcDbArc
 50
306.9139717668385
 51
358.204535453695
  0
LINE
  5
FB
330
2
100
AcDbEntity
  8
GAIKEI
 62
     1
100
AcDbLine
 10
22.58168689214735
 20
8.728578643190758
 30
0.0
 11
22.38168648682735
 21
8.728578643190758
 31
0.0
  0
LINE
  5
FC
330
2
100
AcDbEntity
  8
GAIKEI
 62
     1
100
AcDbLine
 10
22.28168702922734
 20
9.248187349410727
 30
0.0
 11
22.28168702922734
 21
7.090792016370755
 31
0.0
  0
LINE
  5
FD
330
2
100
AcDbEntity
  8
GAIKEI
 62
     1
100
AcDbLine
 10
22.58168689214735
 20
7.557550774190758
 30
0.0
 11
22.5816867479074
 21
9.557551096070767
 31
0.0
  0
LINE
  5
FE
330
2
100
AcDbEntity
  8
GAIKEI
 62
     1
100
AcDbLine
 10
22.54168696008732
 20
7.332824872110791
 30
0.0
 11
22.54168696008732
 21
5.98178725061075
 31
0.0
  0
LINE
  5
FF
330
2
100
AcDbEntity
  8
GAIKEI
100
AcDbLine
 10
22.28198505246736
 20
29.84663020191078
 30
0.0
 11
22.48168668948735
 21
29.77755139885085
 31
0.0
  0
LINE
  5
100
330
2
100
AcDbEntity
  8
GAIKEI
100
AcDbLine
 10
22.48168668948735
 20
6.843459562650764
 30
0.0
 11
22.48168668948735
 21
4.037550793270725
 31
0.0
  0
LINE
  5
101
330
2
100
AcDbEntity
  8
GAIKEI
 62
     1
100
AcDbLine
 10
22.28198505246736
 20
6.373646066770788
 30
0.0
 11
22.28198505246736
 21
3.968471990210787
 31
0.0
  0
LINE
  5
102
330
2
100
AcDbEntity
  8
GAIKEI
100
AcDbLine
 10
22.28198505246736
 20
29.84663020191078
 30
0.0
 11
20.77668688498729
 21
29.76430873689082
 31
0.0
  0
LINE
  5
103
330
2
100
AcDbEntity
  8
GAIKEI
100
AcDbLine
 10
20.77668688498729
 20
29.76430873689082
 30
0.0
 11
16.23915328882732
 21
29.51616267977079
 31
0.0
  0
LINE
  5
104
330
2
100
AcDbEntity
  8
GAIKEI
100
AcDbLine
 10
22.48168668948735
 20
4.037550793270838
 30
0.0
 11
22.28198505246736
 21
3.968471990210787
 31
0.0
  0
LINE
  5
105
330
2
100
AcDbEntity
  8
GAIKEI
100
AcDbLine
 10
22.48168668948735
 20
29.77755139885073
 30
0.0
 11
22.48168668948735
 21
28.27052720075684
 31
0.0
  0
LINE
  5
106
330
2
100
AcDbEntity
  8
GAIKEI
100
AcDbLine
 10
22.28198505246736
 20
29.84663020191078
 30
0.0
 11
22.28198505246738
 21
28.53307499275627
 31
0.0
  0
LINE
  5
107
330
2
100
AcDbEntity
  8
GAIKEI
 62
     1
100
AcDbLine
 10
15.95370515488731
 20
29.37283064541083
 30
0.0
 11
15.95370515488731
 21
4.44227154669079
 31
0.0
  0
LINE
  5
108
330
2
100
AcDbEntity
  8
GAIKEI
 62
     1
100
AcDbLine
 10
16.23915328882732
 20
29.51616267977079
 30
0.0
 11
16.23915328882732
 21
4.298939512350784
 31
0.0
  0
LINE
  5
109
330
2
100
AcDbEntity
  8
GAIKEI
100
AcDbLine
 10
16.23915328882732
 20
4.298939512350784
 30
0.0
 11
22.28198505246736
 21
3.968471990210787
 31
0.0
  0
LINE
  5
10A
330
2
100
AcDbEntity
  8
WAKU
 62
     1
100
AcDbLine
 10
-62.44230061181224
 20
-17.88825235050922
 30
0.0
 11
62.55769938818764
 21
-17.88825235050922
 31
0.0
  0
TEXT
  5
10C
330
2
100
AcDbEntity
  8
MOJI1
100
AcDbText
 10
-19.94230061181224
 20
-21.88825235050922
 30
0.0
 40
3.0
  1
プログレッシブ
100
AcDbText
  0
TEXT
  5
10D
330
2
100
AcDbEntity
  8
MOJI1
100
AcDbText
 10
-19.94230061181224
 20
-11.88825235050922
 30
0.0
 40
3.0
  1
１／３型　ＭＯＳセンター
100
AcDbText
  0
LINE
  5
10E
330
2
100
AcDbEntity
  8
WAKU
 62
     1
100
AcDbLine
 10
-62.44230061181224
 20
-42.88825235050921
 30
0.0
 11
62.55769938818764
 21
-42.88825235050921
 31
0.0
  0
TEXT
  5
10F
330
2
100
AcDbEntity
  8
MOJI1
100
AcDbText
 10
-19.94230061181224
 20
-46.88825235050922
 30
0.0
 40
3.0
  1
ＴＣＰ／ＩＰ、ＵＤＰ／ＩＰ、ＨＴＴＰ、ＲＴＰ、
100
AcDbText
  0
TEXT
  5
110
330
2
100
AcDbEntity
  8
MOJI1
100
AcDbText
 10
-59.94230061181224
 20
-46.88825235050922
 30
0.0
 40
3.0
  1
対応プロコトル
100
AcDbText
  0
TEXT
  5
111
330
2
100
AcDbEntity
  8
MOJI1
100
AcDbText
 10
-59.94230061181224
 20
-41.88825235050922
 30
0.0
 40
3.0
  1
画像圧縮方式
100
AcDbText
  0
TEXT
  5
112
330
2
100
AcDbEntity
  8
MOJI1
100
AcDbText
 10
-19.94230061181224
 20
-41.88825235050922
 30
0.0
 40
3.0
  1
Ｈ．２６４／ＭＰＥＧ－４／ＪＰＥＧ
100
AcDbText
  0
TEXT
  5
113
330
2
100
AcDbEntity
  8
MOJI1
100
AcDbText
 10
-59.94230061181224
 20
-31.88825235050922
 30
0.0
 40
3.0
  1
ネットワーク
100
AcDbText
  0
TEXT
  5
114
330
2
100
AcDbEntity
  8
MOJI1
100
AcDbText
 10
-59.94230061181224
 20
-36.88825235050922
 30
0.0
 40
3.0
  1
画像解像度
100
AcDbText
  0
TEXT
  5
115
330
2
100
AcDbEntity
  8
MOJI1
100
AcDbText
 10
-19.94230061181224
 20
-36.88825235050922
 30
0.0
 40
3.0
  1
１２８０×９６０／ＶＧＡ（６４０×４８０）／ＱＶＧＡ（３２０×２４０）
 41
0.65
100
AcDbText
  0
TEXT
  5
116
330
2
100
AcDbEntity
  8
MOJI1
100
AcDbText
 10
-19.94230061181224
 20
-26.88825235050922
 30
0.0
 40
3.0
  1
カラー：０．３ルクス、白黒：０．２ルクス（Ｆ１．４）
 41
0.88
100
AcDbText
  0
TEXT
  5
117
330
2
100
AcDbEntity
  8
MOJI1
100
AcDbText
 10
-59.94230061181224
 20
-11.88825235050922
 30
0.0
 40
3.0
  1
撮像素子
100
AcDbText
  0
TEXT
  5
118
330
2
100
AcDbEntity
  8
MOJI1
100
AcDbText
 10
-59.94230061181224
 20
-16.88825235050922
 30
0.0
 40
3.0
  1
有効画素数
100
AcDbText
  0
LINE
  5
119
330
2
100
AcDbEntity
  8
WAKU
 62
     1
100
AcDbLine
 10
-62.44230061181224
 20
-12.88825235050922
 30
0.0
 11
62.55769938818764
 21
-12.88825235050922
 31
0.0
  0
LINE
  5
11A
330
2
100
AcDbEntity
  8
WAKU
 62
     1
100
AcDbLine
 10
-62.44230061181224
 20
-7.888252350509219
 30
0.0
 11
62.55769938818764
 21
-7.888252350509219
 31
0.0
  0
LINE
  5
11B
330
2
100
AcDbEntity
  8
WAKU
 62
     4
100
AcDbLine
 10
-62.44230061181224
 20
-2.888252350509219
 30
0.0
 11
62.55769938818764
 21
-2.888252350509219
 31
0.0
  0
LINE
  5
11C
330
2
100
AcDbEntity
  8
WAKU
 62
     1
100
AcDbLine
 10
62.55769938818764
 20
-47.88825235050921
 30
0.0
 11
-62.44230061181224
 21
-47.88825235050921
 31
0.0
  0
LINE
  5
11D
330
2
100
AcDbEntity
  8
WAKU
 62
     1
100
AcDbLine
 10
-62.44230061181224
 20
-37.88825235050922
 30
0.0
 11
62.55769938818764
 21
-37.88825235050922
 31
0.0
  0
LINE
  5
11E
330
2
100
AcDbEntity
  8
WAKU
 62
     1
100
AcDbLine
 10
-62.44230061181224
 20
-32.88825235050922
 30
0.0
 11
62.55769938818764
 21
-32.88825235050922
 31
0.0
  0
LINE
  5
11F
330
2
100
AcDbEntity
  8
WAKU
 62
     1
100
AcDbLine
 10
-62.44230061181224
 20
-27.88825235050922
 30
0.0
 11
62.55769938818764
 21
-27.88825235050922
 31
0.0
  0
LINE
  5
120
330
2
100
AcDbEntity
  8
WAKU
 62
     1
100
AcDbLine
 10
-62.44230061181224
 20
-22.88825235050922
 30
0.0
 11
62.55769938818764
 21
-22.88825235050922
 31
0.0
  0
LINE
  5
121
330
2
100
AcDbEntity
  8
WAKU
 62
     4
100
AcDbLine
 10
-62.44230061181224
 20
-2.888252350509219
 30
0.0
 11
-62.44230061181224
 21
-62.88825235050921
 31
0.0
  0
TEXT
  5
122
330
2
100
AcDbEntity
  8
MOJI1
100
AcDbText
 10
-19.94230061181224
 20
-6.888252350509219
 30
0.0
 40
3.0
  1
ＤＣ１２Ｖ、ＰｏＥ(ＩＥＥＥ８０２.３ａｆ準拠)
 41
0.95
100
AcDbText
  0
TEXT
  5
123
330
2
100
AcDbEntity
  8
MOJI1
100
AcDbText
 10
-59.94230061181224
 20
-6.888252350509219
 30
0.0
 40
3.0
  1
電　源
100
AcDbText
  0
LINE
  5
124
330
2
100
AcDbEntity
  8
WAKU
 62
     4
100
AcDbLine
 10
-22.44230061181224
 20
-2.888252350509219
 30
0.0
 11
-22.44230061181224
 21
-62.88825235050921
 31
0.0
  0
LINE
  5
125
330
2
100
AcDbEntity
  8
WAKU
 62
     4
100
AcDbLine
 10
62.55769938818764
 20
-2.888252350509219
 30
0.0
 11
62.55769938818764
 21
-62.88825235050921
 31
0.0
  0
LINE
  5
126
330
2
100
AcDbEntity
  8
WAKU
 62
     1
100
AcDbLine
 10
62.55769938818764
 20
-52.88825235050921
 30
0.0
 11
-62.44230061181224
 21
-52.88825235050921
 31
0.0
  0
LINE
  5
127
330
2
100
AcDbEntity
  8
WAKU
 62
     1
100
AcDbLine
 10
62.55769938818764
 20
-57.88825235050921
 30
0.0
 11
-62.44230061181224
 21
-57.88825235050921
 31
0.0
  0
LINE
  5
128
330
2
100
AcDbEntity
  8
WAKU
 62
     4
100
AcDbLine
 10
62.55769938818764
 20
-62.88825235050921
 30
0.0
 11
-62.44230061181224
 21
-62.88825235050921
 31
0.0
  0
TEXT
  5
129
330
2
100
AcDbEntity
  8
MOJI1
100
AcDbText
 10
-59.94230061181224
 20
-56.88825235050922
 30
0.0
 40
3.0
  1
機　能
100
AcDbText
  0
TEXT
  5
12A
330
2
100
AcDbEntity
  8
MOJI1
100
AcDbText
 10
-59.94230061181224
 20
-26.88825235050922
 30
0.0
 40
3.0
  1
最低照度
100
AcDbText
  0
TEXT
  5
12B
330
2
100
AcDbEntity
  8
MOJI1
100
AcDbText
 10
-59.94230061181224
 20
-21.88825235050922
 30
0.0
 40
3.0
  1
走査方式
100
AcDbText
  0
TEXT
  5
12C
330
2
100
AcDbEntity
  8
MOJI1
100
AcDbText
 10
-19.94230061181224
 20
-56.88825235050922
 30
0.0
 40
3.0
  1
ワイドダイナミックレンジＯＮ／ＯＦＦ、暗部補正、簡易白黒切換、
 41
0.75
100
AcDbText
  0
TEXT
  5
12D
330
2
100
AcDbEntity
  8
MOJI1
100
AcDbText
 10
-19.94230061181224
 20
-61.88825235050922
 30
0.0
 40
3.0
  1
画像認識　顔検出、ＳＤメモリーカードスロット
100
AcDbText
  0
TEXT
  5
12E
330
2
100
AcDbEntity
  8
MOJI1
100
AcDbText
 10
-19.94230061181224
 20
-31.88825235050922
 30
0.0
 40
3.0
  1
１０ＢＡＳＥ－Ｔ／１００ＢＡＳＥ－ＴＸ、ＲＪ４５コネクター
 41
0.7800000000000001
100
AcDbText
  0
TEXT
  5
12F
330
2
100
AcDbEntity
  8
MOJI1
100
AcDbText
 10
-19.94230061181224
 20
-16.88825235050922
 30
0.0
 40
3.0
  1
約１３０万画素
100
AcDbText
  0
TEXT
  5
130
330
2
100
AcDbEntity
  8
MOJI1
100
AcDbText
 10
-19.94230061181224
 20
-51.88825235050922
 30
0.0
 40
3.0
  1
ＦＴＰ、ＳＭＴＰ、ＤＮＳ、ＮＴＰ、ＳＮＭＰ
100
AcDbText
  0
ENDSEC
  0
SECTION
  2
OBJECTS
  0
DICTIONARY
  5
7
330
0
100
AcDbDictionary
281
     1
  3
ACAD_COLOR
350
2C
  3
ACAD_GROUP
350
28
  3
ACAD_LAYOUT
350
B
  3
ACAD_MATERIAL
350
2B
  3
ACAD_MLINESTYLE
350
29
  3
ACAD_PLOTSETTINGS
350
2A
  3
ACAD_PLOTSTYLENAME
350
6
  3
ACDBHEADERROUNDTRIPXREC
350
161
  3
AcDbVariableDictionary
350
15C
  0
DICTIONARY
  5
11
330
10
100
AcDbDictionary
280
     1
281
     1
  3
ACAD_LAYERSTATES
360
12
  0
DICTIONARY
  5
47
330
46
100
AcDbDictionary
280
     1
281
     1
  3
ACAD_XREC_ROUNDTRIP
360
48
  0
DICTIONARY
  5
2E
330
2D
100
AcDbDictionary
280
     1
281
     1
  3
ACAD_XREC_ROUNDTRIP
360
2F
  0
DICTIONARY
  5
3B
330
3A
100
AcDbDictionary
280
     1
281
     1
  3
ACAD_XREC_ROUNDTRIP
360
3C
  0
DICTIONARY
  5
2C
102
{ACAD_REACTORS
330
7
102
}
330
7
100
AcDbDictionary
281
     1
  0
DICTIONARY
  5
28
102
{ACAD_REACTORS
330
7
102
}
330
7
100
AcDbDictionary
281
     1
  0
DICTIONARY
  5
B
102
{ACAD_REACTORS
330
7
102
}
330
7
100
AcDbDictionary
281
     1
  3
Model
350
A
  3
レイアウト1
350
F
  0
DICTIONARY
  5
2B
102
{ACAD_REACTORS
330
7
102
}
330
7
100
AcDbDictionary
281
     1
  3
Global
350
30
  0
DICTIONARY
  5
29
102
{ACAD_REACTORS
330
7
102
}
330
7
100
AcDbDictionary
281
     1
  3
Standard
350
33
  0
DICTIONARY
  5
2A
102
{ACAD_REACTORS
330
7
102
}
330
7
100
AcDbDictionary
281
     1
  0
ACDBDICTIONARYWDFLT
  5
6
102
{ACAD_REACTORS
330
7
102
}
330
7
100
AcDbDictionary
281
     1
  3
Normal
350
5
100
AcDbDictionaryWithDefault
340
5
  0
DICTIONARY
  5
161
102
{ACAD_REACTORS
330
7
102
}
330
7
100
AcDbDictionary
281
     1
  3
COLORDICT
350
163
  3
MATERIALDICT
350
162
  0
DICTIONARY
  5
15C
102
{ACAD_REACTORS
330
7
102
}
330
7
100
AcDbDictionary
281
     1
  3
DIMASSOC
350
15E
  3
HIDETEXT
350
15D
  3
PROJECTNAME
350
15F
  0
DICTIONARY
  5
12
102
{ACAD_REACTORS
330
11
102
}
330
11
100
AcDbDictionary
281
     1
  0
XRECORD
  5
48
102
{ACAD_REACTORS
330
47
102
}
330
47
100
AcDbXrecord
280
     1
102
MATERIAL
340
30
  0
XRECORD
  5
2F
102
{ACAD_REACTORS
330
2E
102
}
330
2E
100
AcDbXrecord
280
     1
102
MATERIAL
340
30
  0
XRECORD
  5
3C
102
{ACAD_REACTORS
330
3B
102
}
330
3B
100
AcDbXrecord
280
     1
102
MATERIAL
340
30
  0
LAYOUT
  5
A
102
{ACAD_XDICTIONARY
360
164
102
}
102
{ACAD_REACTORS
330
B
102
}
330
B
100
AcDbPlotSettings
  1

  2
Ａ３ＰＤＦ出力.pc3
  4
A4
  6

 40
7.143749713897705
 41
7.143756389617919
 42
7.14373779296875
 43
7.14373779296875
 44
209.9733276367187
 45
297.0530090332031
 46
4.95
 47
0.0
 48
0.0
 49
0.0
140
0.0
141
0.0
142
1.0
143
1.394185427725552
 70
 11956
 72
     1
 73
     0
 74
     1
  7
tmsacad.ctb
 75
     0
147
0.7172647053350579
148
0.0064050313486632
149
0.0060110292993159
100
AcDbLayout
  1
Model
 70
     1
 71
     0
 10
0.0
 20
0.0
 11
12.0
 21
9.0
 12
0.0
 22
0.0
 32
0.0
 14
0.0
 24
0.0
 34
0.0
 15
0.0
 25
0.0
 35
0.0
146
0.0
 13
0.0
 23
0.0
 33
0.0
 16
1.0
 26
0.0
 36
0.0
 17
0.0
 27
1.0
 37
0.0
 76
     0
330
2
  0
LAYOUT
  5
F
102
{ACAD_XDICTIONARY
360
166
102
}
102
{ACAD_REACTORS
330
B
102
}
330
B
100
AcDbPlotSettings
  1

  2
None
  4

  6

 40
0.0
 41
0.0
 42
0.0
 43
0.0
 44
0.0
 45
0.0
 46
0.0
 47
0.0
 48
0.0
 49
0.0
140
0.0
141
0.0
142
1.0
143
1.0
 70
   688
 72
     0
 73
     0
 74
     5
  7
tmsacad.ctb
 75
    16
147
1.0
148
0.0
149
0.0
100
AcDbLayout
  1
レイアウト1
 70
     1
 71
     1
 10
0.0
 20
0.0
 11
12.0
 21
9.0
 12
0.0
 22
0.0
 32
0.0
 14
0.0
 24
0.0
 34
0.0
 15
0.0
 25
0.0
 35
0.0
146
0.0
 13
0.0
 23
0.0
 33
0.0
 16
1.0
 26
0.0
 36
0.0
 17
0.0
 27
1.0
 37
0.0
 76
     0
330
C
  0
MATERIAL
  5
30
102
{ACAD_XDICTIONARY
360
31
102
}
102
{ACAD_REACTORS
330
2B
102
}
330
2B
100
AcDbMaterial
  1
Global
  0
MLINESTYLE
  5
33
102
{ACAD_REACTORS
330
29
102
}
330
29
100
AcDbMlineStyle
  2
STANDARD
 70
     0
  3

 62
   256
 51
90.0
 52
90.0
 71
     2
 49
0.5
 62
   256
  6
BYLAYER
 49
-0.5
 62
   256
  6
BYLAYER
  0
ACDBPLACEHOLDER
  5
5
102
{ACAD_REACTORS
330
6
102
}
330
6
  0
XRECORD
  5
163
102
{ACAD_REACTORS
330
161
102
}
330
161
100
AcDbXrecord
280
     1
340
2C
  0
XRECORD
  5
162
102
{ACAD_REACTORS
330
161
102
}
330
161
100
AcDbXrecord
280
     1
340
2B
  0
DICTIONARYVAR
  5
15E
102
{ACAD_REACTORS
330
15C
102
}
330
15C
100
DictionaryVariables
280
     0
  1
1
  0
DICTIONARYVAR
  5
15D
102
{ACAD_REACTORS
330
15C
102
}
330
15C
100
DictionaryVariables
280
     0
  1
1
  0
DICTIONARYVAR
  5
15F
102
{ACAD_REACTORS
330
15C
102
}
330
15C
100
DictionaryVariables
280
     0
  1

  0
DICTIONARY
  5
164
330
A
100
AcDbDictionary
280
     1
281
     1
  3
ACAD_XREC_ROUNDTRIP
360
165
  0
DICTIONARY
  5
166
330
F
100
AcDbDictionary
280
     1
281
     1
  3
ACAD_XREC_ROUNDTRIP
360
167
  0
DICTIONARY
  5
31
330
30
100
AcDbDictionary
280
     1
281
     1
  3
ACAD_XREC_ROUNDTRIP
360
32
  0
XRECORD
  5
165
102
{ACAD_REACTORS
330
164
102
}
330
164
100
AcDbXrecord
280
     1
102
SHADEPLOT
 70
     0
102
SHADEPLOTRESLEVEL
 70
     2
102
SHADEPLOTCUSTOMDPI
 70
   300
  0
XRECORD
  5
167
102
{ACAD_REACTORS
330
166
102
}
330
166
100
AcDbXrecord
280
     1
102
SHADEPLOT
 70
     0
102
SHADEPLOTRESLEVEL
 70
     2
102
SHADEPLOTCUSTOMDPI
 70
   300
  0
XRECORD
  5
32
102
{ACAD_REACTORS
330
31
102
}
330
31
100
AcDbXrecord
280
     1
102
MATERIAL
148
0.0
149
0.0
149
0.0
 93
        0
 94
       63
282
     0
 72
     1
 77
     1
171
     1
175
     1
179
     1
273
     0
  0
ENDSEC
  0
EOF
