  0
SECTION
  2
HEADER
  9
$ACADVER
  1
AC1015
  9
$ACADMAINTVER
 70
     6
  9
$DWGCODEPAGE
  3
ANSI_1252
  9
$INSBASE
 10
0.0
 20
0.0
 30
0.0
  9
$EXTMIN
 10
38.62832992699497
 20
41.9831896552398
 30
0.0
  9
$EXTMAX
 10
374.128626506531
 20
271.5718481708035
 30
0.0
  9
$LIMMIN
 10
0.0
 20
0.0
  9
$LIMMAX
 10
12.0
 20
9.0
  9
$ORTHOMODE
 70
     0
  9
$REGENMODE
 70
     1
  9
$FILLMODE
 70
     1
  9
$QTEXTMODE
 70
     0
  9
$MIRRTEXT
 70
     1
  9
$LTSCALE
 40
1.0
  9
$ATTMODE
 70
     1
  9
$TEXTSIZE
 40
0.2
  9
$TRACEWID
 40
0.05
  9
$TEXTSTYLE
  7
Standard
  9
$CLAYER
  8
0
  9
$CELTYPE
  6
ByLayer
  9
$CECOLOR
 62
   256
  9
$CELTSCALE
 40
1.0
  9
$DISPSILH
 70
     0
  9
$DIMSCALE
 40
1.0
  9
$DIMASZ
 40
0.18
  9
$DIMEXO
 40
0.0625
  9
$DIMDLI
 40
0.38
  9
$DIMRND
 40
0.0
  9
$DIMDLE
 40
0.0
  9
$DIMEXE
 40
0.18
  9
$DIMTP
 40
0.0
  9
$DIMTM
 40
0.0
  9
$DIMTXT
 40
0.18
  9
$DIMCEN
 40
0.09
  9
$DIMTSZ
 40
0.0
  9
$DIMTOL
 70
     0
  9
$DIMLIM
 70
     0
  9
$DIMTIH
 70
     1
  9
$DIMTOH
 70
     1
  9
$DIMSE1
 70
     0
  9
$DIMSE2
 70
     0
  9
$DIMTAD
 70
     0
  9
$DIMZIN
 70
     0
  9
$DIMBLK
  1

  9
$DIMASO
 70
     1
  9
$DIMSHO
 70
     1
  9
$DIMPOST
  1

  9
$DIMAPOST
  1

  9
$DIMALT
 70
     0
  9
$DIMALTD
 70
     2
  9
$DIMALTF
 40
25.4
  9
$DIMLFAC
 40
1.0
  9
$DIMTOFL
 70
     0
  9
$DIMTVP
 40
0.0
  9
$DIMTIX
 70
     0
  9
$DIMSOXD
 70
     0
  9
$DIMSAH
 70
     0
  9
$DIMBLK1
  1

  9
$DIMBLK2
  1

  9
$DIMSTYLE
  2
Standard
  9
$DIMCLRD
 70
     0
  9
$DIMCLRE
 70
     0
  9
$DIMCLRT
 70
     0
  9
$DIMTFAC
 40
1.0
  9
$DIMGAP
 40
0.09
  9
$DIMJUST
 70
     0
  9
$DIMSD1
 70
     0
  9
$DIMSD2
 70
     0
  9
$DIMTOLJ
 70
     1
  9
$DIMTZIN
 70
     0
  9
$DIMALTZ
 70
     0
  9
$DIMALTTZ
 70
     0
  9
$DIMUPT
 70
     0
  9
$DIMDEC
 70
     4
  9
$DIMTDEC
 70
     4
  9
$DIMALTU
 70
     2
  9
$DIMALTTD
 70
     2
  9
$DIMTXSTY
  7
Standard
  9
$DIMAUNIT
 70
     0
  9
$DIMADEC
 70
     0
  9
$DIMALTRND
 40
0.0
  9
$DIMAZIN
 70
     0
  9
$DIMDSEP
 70
    46
  9
$DIMATFIT
 70
     3
  9
$DIMFRAC
 70
     0
  9
$DIMLDRBLK
  1

  9
$DIMLUNIT
 70
     2
  9
$DIMLWD
 70
    -2
  9
$DIMLWE
 70
    -2
  9
$DIMTMOVE
 70
     0
  9
$LUNITS
 70
     2
  9
$LUPREC
 70
     4
  9
$SKETCHINC
 40
0.1
  9
$FILLETRAD
 40
0.5
  9
$AUNITS
 70
     0
  9
$AUPREC
 70
     0
  9
$MENU
  1
.
  9
$ELEVATION
 40
0.0
  9
$PELEVATION
 40
0.0
  9
$THICKNESS
 40
0.0
  9
$LIMCHECK
 70
     0
  9
$CHAMFERA
 40
0.5
  9
$CHAMFERB
 40
0.5
  9
$CHAMFERC
 40
1.0
  9
$CHAMFERD
 40
0.0
  9
$SKPOLY
 70
     0
  9
$TDCREATE
 40
2456267.701824479
  9
$TDUCREATE
 40
2456267.326824479
  9
$TDUPDATE
 40
2456267.701824491
  9
$TDUUPDATE
 40
2456267.326824491
  9
$TDINDWG
 40
0.0000000116
  9
$TDUSRTIMER
 40
0.0000000116
  9
$USRTIMER
 70
     1
  9
$ANGBASE
 50
0.0
  9
$ANGDIR
 70
     0
  9
$PDMODE
 70
     0
  9
$PDSIZE
 40
0.0
  9
$PLINEWID
 40
0.0
  9
$SPLFRAME
 70
     0
  9
$SPLINETYPE
 70
     6
  9
$SPLINESEGS
 70
     8
  9
$HANDSEED
  5
2D5
  9
$SURFTAB1
 70
     6
  9
$SURFTAB2
 70
     6
  9
$SURFTYPE
 70
     6
  9
$SURFU
 70
     6
  9
$SURFV
 70
     6
  9
$UCSBASE
  2

  9
$UCSNAME
  2

  9
$UCSORG
 10
0.0
 20
0.0
 30
0.0
  9
$UCSXDIR
 10
1.0
 20
0.0
 30
0.0
  9
$UCSYDIR
 10
0.0
 20
1.0
 30
0.0
  9
$UCSORTHOREF
  2

  9
$UCSORTHOVIEW
 70
     0
  9
$UCSORGTOP
 10
0.0
 20
0.0
 30
0.0
  9
$UCSORGBOTTOM
 10
0.0
 20
0.0
 30
0.0
  9
$UCSORGLEFT
 10
0.0
 20
0.0
 30
0.0
  9
$UCSORGRIGHT
 10
0.0
 20
0.0
 30
0.0
  9
$UCSORGFRONT
 10
0.0
 20
0.0
 30
0.0
  9
$UCSORGBACK
 10
0.0
 20
0.0
 30
0.0
  9
$PUCSBASE
  2

  9
$PUCSNAME
  2

  9
$PUCSORG
 10
0.0
 20
0.0
 30
0.0
  9
$PUCSXDIR
 10
1.0
 20
0.0
 30
0.0
  9
$PUCSYDIR
 10
0.0
 20
1.0
 30
0.0
  9
$PUCSORTHOREF
  2

  9
$PUCSORTHOVIEW
 70
     0
  9
$PUCSORGTOP
 10
0.0
 20
0.0
 30
0.0
  9
$PUCSORGBOTTOM
 10
0.0
 20
0.0
 30
0.0
  9
$PUCSORGLEFT
 10
0.0
 20
0.0
 30
0.0
  9
$PUCSORGRIGHT
 10
0.0
 20
0.0
 30
0.0
  9
$PUCSORGFRONT
 10
0.0
 20
0.0
 30
0.0
  9
$PUCSORGBACK
 10
0.0
 20
0.0
 30
0.0
  9
$USERI1
 70
     0
  9
$USERI2
 70
     0
  9
$USERI3
 70
     0
  9
$USERI4
 70
     0
  9
$USERI5
 70
     0
  9
$USERR1
 40
14.5
  9
$USERR2
 40
0.0
  9
$USERR3
 40
0.0
  9
$USERR4
 40
0.0
  9
$USERR5
 40
0.0
  9
$WORLDVIEW
 70
     1
  9
$SHADEDGE
 70
     3
  9
$SHADEDIF
 70
    70
  9
$TILEMODE
 70
     1
  9
$MAXACTVP
 70
    64
  9
$PINSBASE
 10
0.0
 20
0.0
 30
0.0
  9
$PLIMCHECK
 70
     0
  9
$PEXTMIN
 10
1.00000000000000E+20
 20
1.00000000000000E+20
 30
1.00000000000000E+20
  9
$PEXTMAX
 10
-1.00000000000000E+20
 20
-1.00000000000000E+20
 30
-1.00000000000000E+20
  9
$PLIMMIN
 10
0.0
 20
0.0
  9
$PLIMMAX
 10
12.0
 20
9.0
  9
$UNITMODE
 70
     0
  9
$VISRETAIN
 70
     1
  9
$PLINEGEN
 70
     0
  9
$PSLTSCALE
 70
     1
  9
$TREEDEPTH
 70
  3020
  9
$CMLSTYLE
  2
Standard
  9
$CMLJUST
 70
     0
  9
$CMLSCALE
 40
1.0
  9
$PROXYGRAPHICS
 70
     1
  9
$MEASUREMENT
 70
     1
  9
$CELWEIGHT
370
    -1
  9
$ENDCAPS
280
     0
  9
$JOINSTYLE
280
     0
  9
$LWDISPLAY
290
     0
  9
$INSUNITS
 70
     1
  9
$HYPERLINKBASE
  1

  9
$STYLESHEET
  1

  9
$XEDIT
290
     1
  9
$CEPSNTYPE
380
     0
  9
$PSTYLEMODE
290
     1
  9
$FINGERPRINTGUID
  2
{B2DCBBFE-409E-4A4A-87F2-B31238D3705C}
  9
$VERSIONGUID
  2
{FAEB1C32-E019-11D5-929B-00C0DF256EC4}
  9
$EXTNAMES
290
     1
  9
$PSVPSCALE
 40
0.0
  9
$OLESTARTUP
290
     0
  0
ENDSEC
  0
SECTION
  2
CLASSES
  0
CLASS
  1
ACDBDICTIONARYWDFLT
  2
AcDbDictionaryWithDefault
  3
ObjectDBX Classes
 90
        0
280
     0
281
     0
  0
CLASS
  1

  2
exOdDbCircle
  3

 90
        0
280
     0
281
     1
  0
CLASS
  1

  2
exOdDbSpline
  3

 90
        0
280
     0
281
     1
  0
CLASS
  1

  2
exOdDbPolyline
  3

 90
        0
280
     0
281
     1
  0
CLASS
  1
ACDBPLACEHOLDER
  2
AcDbPlaceHolder
  3
ObjectDBX Classes
 90
        0
280
     0
281
     0
  0
CLASS
  1
LAYOUT
  2
AcDbLayout
  3
ObjectDBX Classes
 90
        0
280
     0
281
     0
  0
ENDSEC
  0
SECTION
  2
TABLES
  0
TABLE
  2
VPORT
  5
8
330
0
100
AcDbSymbolTable
 70
     1
  0
VPORT
  5
29
330
8
100
AcDbSymbolTableRecord
100
AcDbViewportTableRecord
  2
*Active
 70
     0
 10
0.0
 20
0.0
 11
1.0
 21
1.0
 12
206.378478216763
 22
156.7775189130217
 13
0.0
 23
0.0
 14
0.5
 24
0.5
 15
0.5
 25
0.5
 16
0.0
 26
0.0
 36
1.0
 17
0.0
 27
0.0
 37
0.0
 40
252.5475243671201
 41
1.60267857142857
 42
50.0
 43
0.0
 44
0.0
 50
0.0
 51
0.0
 71
     0
 72
   100
 73
     1
 74
     3
 75
     0
 76
     0
 77
     0
 78
     0
281
     0
 65
     1
110
0.0
120
0.0
130
0.0
111
1.0
121
0.0
131
0.0
112
0.0
122
1.0
132
0.0
 79
     0
146
0.0
  0
ENDTAB
  0
TABLE
  2
LTYPE
  5
5
330
0
100
AcDbSymbolTable
 70
     8
  0
LTYPE
  5
14
330
5
100
AcDbSymbolTableRecord
100
AcDbLinetypeTableRecord
  2
ByBlock
 70
     0
  3

 72
    65
 73
     0
 40
0.0
  0
LTYPE
  5
15
330
5
100
AcDbSymbolTableRecord
100
AcDbLinetypeTableRecord
  2
ByLayer
 70
     0
  3

 72
    65
 73
     0
 40
0.0
  0
LTYPE
  5
16
330
5
100
AcDbSymbolTableRecord
100
AcDbLinetypeTableRecord
  2
Continuous
 70
     0
  3
Solid line
 72
    65
 73
     0
 40
0.0
  0
LTYPE
  5
2A
330
5
100
AcDbSymbolTableRecord
100
AcDbLinetypeTableRecord
  2
DASHED
 70
     0
  3
Dashed
 72
    65
 73
     2
 40
15.0
 49
7.0
 74
     0
 49
-8.0
 74
     0
  0
LTYPE
  5
2B
330
5
100
AcDbSymbolTableRecord
100
AcDbLinetypeTableRecord
  2
DOTTED
 70
     0
  3
Dotted
 72
    65
 73
     2
 40
1.0
 49
0.0
 74
     0
 49
-1.0
 74
     0
  0
LTYPE
  5
2C
330
5
100
AcDbSymbolTableRecord
100
AcDbLinetypeTableRecord
  2
DOT_CENTER
 70
     0
  3
Dot_Center
 72
    65
 73
     4
 40
14.0
 49
12.0
 74
     0
 49
-1.0
 74
     0
 49
0.0
 74
     0
 49
-1.0
 74
     0
  0
LTYPE
  5
2D
330
5
100
AcDbSymbolTableRecord
100
AcDbLinetypeTableRecord
  2
LONG_DASHED
 70
     0
  3
Long_Dashed
 72
    65
 73
     2
 40
15.0
 49
10.0
 74
     0
 49
-5.0
 74
     0
  0
LTYPE
  5
2E
330
5
100
AcDbSymbolTableRecord
100
AcDbLinetypeTableRecord
  2
DASH_CENTER
 70
     0
  3
Dash_Center
 72
    65
 73
     4
 40
14.0
 49
11.0
 74
     0
 49
-1.0
 74
     0
 49
1.0
 74
     0
 49
-1.0
 74
     0
  0
LTYPE
  5
2F
330
5
100
AcDbSymbolTableRecord
100
AcDbLinetypeTableRecord
  2
PHANTOM
 70
     0
  3
Phantom
 72
    65
 73
     6
 40
13.0
 49
10.0
 74
     0
 49
-1.0
 74
     0
 49
0.0
 74
     0
 49
-1.0
 74
     0
 49
0.0
 74
     0
 49
-1.0
 74
     0
  0
LTYPE
  5
30
330
5
100
AcDbSymbolTableRecord
100
AcDbLinetypeTableRecord
  2
CENTER_DASH_DASH
 70
     0
  3
Center_Dash_Dash
 72
    65
 73
     6
 40
14.0
 49
9.0
 74
     0
 49
-1.0
 74
     0
 49
1.0
 74
     0
 49
-1.0
 74
     0
 49
1.0
 74
     0
 49
-1.0
 74
     0
  0
ENDTAB
  0
TABLE
  2
LAYER
  5
2
330
0
100
AcDbSymbolTable
 70
     3
  0
LAYER
  5
10
330
2
100
AcDbSymbolTableRecord
100
AcDbLayerTableRecord
  2
0
 70
     0
 62
     7
  6
Continuous
370
    -3
390
F
  0
LAYER
  5
31
330
2
100
AcDbSymbolTableRecord
100
AcDbLayerTableRecord
  2
1
 70
     0
 62
     7
  6
Continuous
370
    -3
390
F
  0
LAYER
  5
32
330
2
100
AcDbSymbolTableRecord
100
AcDbLayerTableRecord
  2
DEFAULT_1
 70
     0
 62
     7
  6
Continuous
370
    -3
390
F
  0
ENDTAB
  0
TABLE
  2
STYLE
  5
3
330
0
100
AcDbSymbolTable
 70
     4
  0
STYLE
  5
11
330
3
100
AcDbSymbolTableRecord
100
AcDbTextStyleTableRecord
  2
Standard
 70
     0
 40
0.0
 41
1.0
 50
0.0
 71
     0
 42
0.2
  3
txt
  4

  0
STYLE
  5
2AC
330
3
100
AcDbSymbolTableRecord
100
AcDbTextStyleTableRecord
  2
CONVERTER_11
 70
     0
 40
0.0
 41
0.72
 50
0.0
 71
     0
 42
0.2
  3
txt.shx
  4

  0
STYLE
  5
2AE
330
3
100
AcDbSymbolTableRecord
100
AcDbTextStyleTableRecord
  2
CONVERTER_12
 70
     0
 40
0.0
 41
0.76
 50
0.0
 71
     0
 42
0.2
  3
complex.shx
  4

  0
STYLE
  5
2B0
330
3
100
AcDbSymbolTableRecord
100
AcDbTextStyleTableRecord
  2
CONVERTER_13
 70
     0
 40
0.0
 41
0.9
 50
0.0
 71
     0
 42
0.2
  3
txt.shx
  4

  0
ENDTAB
  0
TABLE
  2
VIEW
  5
6
330
0
100
AcDbSymbolTable
 70
     0
  0
ENDTAB
  0
TABLE
  2
UCS
  5
7
330
0
100
AcDbSymbolTable
 70
     0
  0
ENDTAB
  0
TABLE
  2
APPID
  5
9
330
0
100
AcDbSymbolTable
 70
     1
  0
APPID
  5
12
330
9
100
AcDbSymbolTableRecord
100
AcDbRegAppTableRecord
  2
ACAD
 70
     0
  0
ENDTAB
  0
TABLE
  2
DIMSTYLE
  5
A
330
0
100
AcDbSymbolTable
 70
     3
100
AcDbDimStyleTable
  0
DIMSTYLE
105
27
330
A
100
AcDbSymbolTableRecord
100
AcDbDimStyleTableRecord
  2
Standard
 70
     0
340
11
  0
DIMSTYLE
105
2BD
102
{ACAD_REACTORS
330
2BE
102
}
330
A
100
AcDbSymbolTableRecord
100
AcDbDimStyleTableRecord
  2
ME10_DIM_10
 70
     0
 41
2.5
 42
0.5
 44
0.8
 73
     0
 74
     0
 77
     1
 78
    12
140
3.0
147
1.0
172
     1
173
     1
176
     2
177
     2
178
     2
271
     0
340
2AC
  0
DIMSTYLE
105
2C8
102
{ACAD_REACTORS
330
2C9
102
}
330
A
100
AcDbSymbolTableRecord
100
AcDbDimStyleTableRecord
  2
ME10_DIM_11
 70
     0
  3
Æ<>
 41
2.5
 42
0.5
 44
0.8
 73
     0
 74
     0
 77
     1
 78
    12
140
3.0
147
1.0
172
     1
173
     1
176
     2
177
     2
178
     2
271
     3
340
2AC
  0
ENDTAB
  0
TABLE
  2
BLOCK_RECORD
  5
1
330
0
100
AcDbSymbolTable
 70
     4
  0
BLOCK_RECORD
  5
1F
330
1
100
AcDbSymbolTableRecord
100
AcDbBlockTableRecord
  2
*Model_Space
340
22
  0
BLOCK_RECORD
  5
1B
330
1
100
AcDbSymbolTableRecord
100
AcDbBlockTableRecord
  2
*Paper_Space
340
1E
  0
BLOCK_RECORD
  5
23
330
1
100
AcDbSymbolTableRecord
100
AcDbBlockTableRecord
  2
*Paper_Space0
340
26
  0
BLOCK_RECORD
  5
33
330
1
100
AcDbSymbolTableRecord
100
AcDbBlockTableRecord
  2
TOP
340
0
102
{BLKREFS
331
36
102
}
  0
BLOCK_RECORD
  5
2B4
330
1
100
AcDbSymbolTableRecord
100
AcDbBlockTableRecord
  2
*D2
340
0
  0
BLOCK_RECORD
  5
2BF
330
1
100
AcDbSymbolTableRecord
100
AcDbBlockTableRecord
  2
*D3
340
0
  0
ENDTAB
  0
ENDSEC
  0
SECTION
  2
BLOCKS
  0
BLOCK
  5
20
330
1F
100
AcDbEntity
  8
0
100
AcDbBlockBegin
  2
*Model_Space
 70
     0
 71
     0
 10
0.0
 20
0.0
 30
0.0
  3
*Model_Space
  1

  0
ENDBLK
  5
21
330
1F
100
AcDbEntity
  8
0
100
AcDbBlockEnd
  0
BLOCK
  5
1C
330
1B
100
AcDbEntity
 67
     1
  8
0
100
AcDbBlockBegin
  2
*Paper_Space
 70
     0
 71
     0
 10
0.0
 20
0.0
 30
0.0
  3
*Paper_Space
  1

  0
ENDBLK
  5
1D
330
1B
100
AcDbEntity
 67
     1
  8
0
100
AcDbBlockEnd
  0
BLOCK
  5
24
330
23
100
AcDbEntity
  8
0
100
AcDbBlockBegin
  2
*Paper_Space0
 70
     0
 71
     0
 10
0.0
 20
0.0
 30
0.0
  3
*Paper_Space0
  1

  0
ENDBLK
  5
25
330
23
100
AcDbEntity
  8
0
100
AcDbBlockEnd
  0
BLOCK
  5
34
330
33
100
AcDbEntity
  8
0
100
AcDbBlockBegin
  2
TOP
 70
     0
 71
     0
 10
-635.891450019907
 20
738.0662868168373
 30
0.0
  3
TOP
  1

  0
POINT
  5
37
330
33
100
AcDbEntity
  8
0
 62
     7
100
AcDbPoint
 10
183.228202835628
 20
87.7566727060398
 30
0.0
  0
POINT
  5
38
330
33
100
AcDbEntity
  8
0
 62
     7
100
AcDbPoint
 10
239.356677460728
 20
204.4658972473073
 30
0.0
  0
POINT
  5
39
330
33
100
AcDbEntity
  8
0
 62
     7
100
AcDbPoint
 10
126.099728210528
 20
204.4658972473073
 30
0.0
  0
POINT
  5
3A
330
33
100
AcDbEntity
  8
0
 62
     7
100
AcDbPoint
 10
134.228202835628
 20
102.5066727060398
 30
0.0
  0
POINT
  5
3B
330
33
100
AcDbEntity
  8
0
 62
     7
100
AcDbPoint
 10
134.228202835628
 20
105.0066727060393
 30
0.0
  0
POINT
  5
3C
330
33
100
AcDbEntity
  8
0
 62
     7
100
AcDbPoint
 10
133.728202835628
 20
114.9696052581393
 30
0.0
  0
POINT
  5
3D
330
33
100
AcDbEntity
  8
0
 62
     7
100
AcDbPoint
 10
223.736300334228
 20
144.0576634234393
 30
0.0
  0
POINT
  5
3E
330
33
100
AcDbEntity
  8
0
 62
     7
100
AcDbPoint
 10
223.029193553028
 20
144.7647702046393
 30
0.0
  0
POINT
  5
3F
330
33
100
AcDbEntity
  8
0
 62
     7
100
AcDbPoint
 10
231.728202835628
 20
115.8983933397403
 30
0.0
  0
POINT
  5
40
330
33
100
AcDbEntity
  8
1
 62
     7
100
AcDbPoint
 10
181.611049709828
 20
256.8302018432073
 30
0.0
  0
POINT
  5
41
330
33
100
AcDbEntity
  8
1
 62
     7
100
AcDbPoint
 10
124.228202835628
 20
176.9658972473073
 30
0.0
  0
POINT
  5
42
330
33
100
AcDbEntity
  8
1
 62
     7
100
AcDbPoint
 10
241.228202835628
 20
176.9658972473073
 30
0.0
  0
POINT
  5
43
330
33
100
AcDbEntity
  8
1
 62
     7
100
AcDbPoint
 10
124.228202835628
 20
176.9658972473073
 30
0.0
  0
LINE
  5
44
330
33
100
AcDbEntity
  8
0
  6
Continuous
 62
     7
100
AcDbLine
 10
374.128626506531
 20
176.9658972473073
 30
0.0
 11
257.128626506531
 21
176.9658972473073
 31
0.0
  0
LINE
  5
45
330
33
100
AcDbEntity
  8
0
  6
Continuous
 62
     7
100
AcDbLine
 10
287.566872728731
 20
248.1422728764073
 30
0.0
 11
284.292033904731
 21
246.0041948066073
 31
0.0
  0
LINE
  5
46
330
33
100
AcDbEntity
  8
0
  6
Continuous
 62
     7
100
AcDbLine
 10
313.825645938031
 20
255.8763682202073
 30
0.0
 11
309.853889080531
 21
255.6009263323073
 31
0.0
  0
LINE
  5
47
330
33
100
AcDbEntity
  8
0
  6
Continuous
 62
     7
100
AcDbLine
 10
309.860587967831
 20
255.6016358714073
 30
0.0
 11
305.922780635331
 21
255.0394442303073
 31
0.0
  0
LINE
  5
48
330
33
100
AcDbEntity
  8
0
  6
Continuous
 62
     7
100
AcDbLine
 10
374.128626506531
 20
176.9658972473073
 30
0.0
 11
372.000443355431
 21
207.6686308832073
 31
0.0
  0
LINE
  5
49
330
33
100
AcDbEntity
  8
0
  6
Continuous
 62
     9
100
AcDbLine
 10
321.680930217231
 20
255.5439072065073
 30
0.0
 11
321.683883365431
 21
255.5704655287073
 31
0.0
  0
LINE
  5
4A
330
33
100
AcDbEntity
  8
0
  6
Continuous
 62
     7
100
AcDbLine
 10
330.951409100931
 20
256.8041945924073
 30
0.0
 11
330.848181504031
 21
256.7652658549063
 31
0.0
  0
LINE
  5
4B
330
33
100
AcDbEntity
  8
0
  6
Continuous
 62
     7
100
AcDbLine
 10
321.683883368331
 20
255.5704655289073
 30
0.0
 11
317.794555101931
 21
255.8632181439063
 31
0.0
  0
LINE
  5
4C
330
33
100
AcDbEntity
  8
0
  6
Continuous
 62
     7
100
AcDbLine
 10
317.801251963131
 20
255.8629528782073
 30
0.0
 11
313.818927089631
 21
255.8761466669073
 31
0.0
  0
LINE
  5
4D
330
33
100
AcDbEntity
  8
0
  6
Continuous
 62
     7
100
AcDbLine
 10
305.929418707031
 20
255.0406392251073
 30
0.0
 11
302.048709378231
 21
254.1955752248073
 31
0.0
  0
LINE
  5
4E
330
33
100
AcDbEntity
  8
0
  6
Continuous
 62
     7
100
AcDbLine
 10
302.055247374231
 20
254.1972498189073
 30
0.0
 11
298.254317060131
 21
253.0751497126073
 31
0.0
  0
LINE
  5
4F
330
33
100
AcDbEntity
  8
0
  6
Continuous
 62
     7
100
AcDbLine
 10
298.260717308831
 20
253.0772950300073
 30
0.0
 11
294.561277519831
 21
251.6857716701073
 31
0.0
  0
LINE
  5
50
330
33
100
AcDbEntity
  8
0
  6
Continuous
 62
     7
100
AcDbLine
 10
294.567503326831
 20
251.6883758480073
 30
0.0
 11
290.990288630231
 21
250.0367008112063
 31
0.0
  0
LINE
  5
51
330
33
100
AcDbEntity
  8
0
  6
Continuous
 62
     7
100
AcDbLine
 10
290.996303837931
 20
250.0397487740073
 30
0.0
 11
287.561102992831
 21
248.1387992482073
 31
0.0
  0
LINE
  5
52
330
33
100
AcDbEntity
  8
0
  6
Continuous
 62
     7
100
AcDbLine
 10
284.297525308731
 20
246.0080733770073
 30
0.0
 11
281.200243470631
 21
243.6463043053073
 31
0.0
  0
LINE
  5
53
330
33
100
AcDbEntity
  8
0
  6
Continuous
 62
     7
100
AcDbLine
 10
281.205426097031
 20
243.6505649254073
 30
0.0
 11
278.301578747731
 21
241.0796631909073
 31
0.0
  0
LINE
  5
54
330
33
100
AcDbEntity
  8
0
  6
Continuous
 62
     7
100
AcDbLine
 10
278.306424937931
 20
241.0842813636063
 30
0.0
 11
275.610343205731
 21
238.3196066823073
 31
0.0
  0
LINE
  5
55
330
33
100
AcDbEntity
  8
0
  6
Continuous
 62
     7
100
AcDbLine
 10
275.614828689331
 20
238.3245574928063
 30
0.0
 11
273.139555835331
 21
235.3823646717073
 31
0.0
  0
LINE
  5
56
330
33
100
AcDbEntity
  8
0
  6
Continuous
 62
     7
100
AcDbLine
 10
273.143658742431
 20
235.3876223261073
 30
0.0
 11
270.900740182731
 21
232.2847391538073
 31
0.0
  0
LINE
  5
57
330
33
100
AcDbEntity
  8
0
  6
Continuous
 62
     7
100
AcDbLine
 10
270.904441089631
 20
232.2902776088063
 30
0.0
 11
268.903923190731
 21
229.0438838347063
 31
0.0
  0
LINE
  5
58
330
33
100
AcDbEntity
  8
0
  6
Continuous
 62
     7
100
AcDbLine
 10
268.907204825831
 20
229.0496770118073
 30
0.0
 11
267.157878644131
 21
225.6775039128073
 31
0.0
  0
LINE
  5
59
330
33
100
AcDbEntity
  8
0
  6
Continuous
 62
     7
100
AcDbLine
 10
267.160725534931
 20
225.6835256789073
 30
0.0
 11
265.669926757331
 21
222.2033562278073
 31
0.0
  0
LINE
  5
5A
330
33
100
AcDbEntity
  8
DEFAULT_1
  6
PHANTOM
 62
     4
100
AcDbLine
 10
182.728202835628
 20
103.7566727060393
 30
0.0
 11
182.728202835628
 21
41.9831896552398
 31
0.0
  0
LINE
  5
5B
330
33
100
AcDbEntity
  8
0
  6
Continuous
 62
     9
100
AcDbLine
 10
261.836348438731
 20
199.5004719736063
 30
0.0
 11
261.808933443031
 21
199.5024834137073
 31
0.0
  0
LINE
  5
5C
330
33
100
AcDbEntity
  8
0
  6
Continuous
 62
     7
100
AcDbLine
 10
259.120127029631
 20
198.9658972473073
 30
0.0
 11
261.698773816231
 21
198.9658972473073
 31
0.0
  0
LINE
  5
5D
330
33
100
AcDbEntity
  8
0
  6
Continuous
 62
     9
100
AcDbLine
 10
262.436581771631
 20
207.6686308832073
 30
0.0
 11
262.408592498031
 21
207.6706869581073
 31
0.0
  0
LINE
  5
5E
330
33
100
AcDbEntity
  8
0
  6
Continuous
 62
     7
100
AcDbLine
 10
261.738882528831
 20
199.0851976052073
 30
0.0
 11
261.710157449331
 21
198.9944055611073
 31
0.0
  0
LINE
  5
5F
330
33
100
AcDbEntity
  8
0
  6
Continuous
 62
     7
100
AcDbLine
 10
261.808933437131
 20
199.5024833924073
 30
0.0
 11
261.804245976231
 21
199.4473105802073
 31
0.0
  0
LINE
  5
60
330
33
100
AcDbEntity
  8
0
  6
Continuous
 62
     7
100
AcDbLine
 10
262.408592498031
 20
207.6706869581073
 30
0.0
 11
261.808931409331
 21
199.5024835630073
 31
0.0
  0
LINE
  5
61
330
33
100
AcDbEntity
  8
0
  6
Continuous
 62
     7
100
AcDbLine
 10
265.672324106531
 20
222.2095782508063
 30
0.0
 11
264.446113405831
 21
218.6392957130073
 31
0.0
  0
LINE
  5
62
330
33
100
AcDbEntity
  8
0
  6
Continuous
 62
     7
100
AcDbLine
 10
264.448047078231
 20
218.6456858554073
 30
0.0
 11
263.491368256331
 21
215.0035621079073
 31
0.0
  0
LINE
  5
63
330
33
100
AcDbEntity
  8
0
  6
Continuous
 62
     7
100
AcDbLine
 10
261.765286857931
 20
199.1926652872063
 30
0.0
 11
261.737592975431
 21
199.0806210112063
 31
0.0
  0
LINE
  5
64
330
33
100
AcDbEntity
  8
0
  6
Continuous
 62
     7
100
AcDbLine
 10
261.788073136331
 20
199.3173307652063
 30
0.0
 11
261.764004158831
 21
199.1867247591073
 31
0.0
  0
LINE
  5
65
330
33
100
AcDbEntity
  8
0
  6
Continuous
 62
     7
100
AcDbLine
 10
261.804993291931
 20
199.4551931572073
 30
0.0
 11
261.786974447431
 21
199.3102233107073
 31
0.0
  0
LINE
  5
66
330
33
100
AcDbEntity
  8
0
  6
Continuous
 62
     7
100
AcDbLine
 10
262.810374909231
 20
211.3210886841073
 30
0.0
 11
262.408592866831
 21
207.6706869310073
 31
0.0
  0
LINE
  5
67
330
33
100
AcDbEntity
  8
0
  6
Continuous
 62
     7
100
AcDbLine
 10
257.128626506531
 20
176.9658972473073
 30
0.0
 11
258.621311817431
 21
198.5004721639073
 31
0.0
  0
LINE
  5
68
330
33
100
AcDbEntity
  8
0
  6
Continuous
 62
     7
100
AcDbLine
 10
200.728202835628
 20
152.5419163766403
 30
0.0
 11
201.728202835628
 21
152.1612179472393
 31
0.0
  0
LINE
  5
69
330
33
100
AcDbEntity
  8
0
  6
Continuous
 62
     7
100
AcDbLine
 10
231.728202835628
 20
108.2566727060393
 30
0.0
 11
231.728202835628
 21
116.2017531010403
 31
0.0
  0
LINE
  5
6A
330
33
100
AcDbEntity
  8
0
  6
Continuous
 62
     7
100
AcDbLine
 10
231.728202835628
 20
91.3115923110398
 30
0.0
 11
231.728202835628
 21
99.2566727060398
 31
0.0
  0
LINE
  5
6B
330
33
100
AcDbEntity
  8
0
  6
Continuous
 62
     7
100
AcDbLine
 10
230.728202835628
 20
102.5066727060398
 30
0.0
 11
230.728202835628
 21
99.2566727060398
 31
0.0
  0
LINE
  5
6C
330
33
100
AcDbEntity
  8
0
  6
Continuous
 62
     7
100
AcDbLine
 10
230.728202835628
 20
108.2566727060393
 30
0.0
 11
230.728202835628
 21
105.0066727060393
 31
0.0
  0
LINE
  5
6D
330
33
100
AcDbEntity
  8
0
  6
Continuous
 62
     7
100
AcDbLine
 10
201.728202835628
 20
97.7566727060398
 30
0.0
 11
201.728202835628
 21
157.4929705465403
 31
0.0
  0
LINE
  5
6E
330
33
100
AcDbEntity
  8
0
  6
Continuous
 62
     7
100
AcDbLine
 10
200.728202835628
 20
97.7566727060398
 30
0.0
 11
200.728202835628
 21
157.8361485319403
 31
0.0
  0
LINE
  5
6F
330
33
100
AcDbEntity
  8
0
  6
Continuous
 62
     7
100
AcDbLine
 10
231.728202835628
 20
116.2017531010403
 30
0.0
 11
235.664388551428
 21
116.2017531010403
 31
0.0
  0
LINE
  5
70
330
33
100
AcDbEntity
  8
0
  6
Continuous
 62
     7
100
AcDbLine
 10
129.792017119828
 20
116.2017531010403
 30
0.0
 11
133.728202835628
 21
116.2017531010403
 31
0.0
  0
LINE
  5
71
330
33
100
AcDbEntity
  8
0
  6
Continuous
 62
     7
100
AcDbLine
 10
231.728202835628
 20
115.4696052581393
 30
0.0
 11
235.884410701428
 21
115.4696052581393
 31
0.0
  0
LINE
  5
72
330
33
100
AcDbEntity
  8
0
  6
Continuous
 62
     7
100
AcDbLine
 10
129.571994969828
 20
115.4696052581393
 30
0.0
 11
133.728202835628
 21
115.4696052581393
 31
0.0
  0
LINE
  5
73
330
33
100
AcDbEntity
  8
0
  6
Continuous
 62
     7
100
AcDbLine
 10
133.728202835628
 20
108.2566727060393
 30
0.0
 11
134.728202835628
 21
108.2566727060393
 31
0.0
  0
LINE
  5
74
330
33
100
AcDbEntity
  8
0
  6
Continuous
 62
     7
100
AcDbLine
 10
231.728202835628
 20
108.2566727060393
 30
0.0
 11
230.728202835628
 21
108.2566727060393
 31
0.0
  0
LINE
  5
75
330
33
100
AcDbEntity
  8
0
  6
Continuous
 62
     7
100
AcDbLine
 10
230.728202835628
 20
105.0066727060393
 30
0.0
 11
235.812475873728
 21
105.0066727060393
 31
0.0
  0
LINE
  5
76
330
33
100
AcDbEntity
  8
0
  6
Continuous
 62
     7
100
AcDbLine
 10
129.643929797528
 20
105.0066727060393
 30
0.0
 11
134.728202835628
 21
105.0066727060393
 31
0.0
  0
LINE
  5
77
330
33
100
AcDbEntity
  8
0
  6
Continuous
 62
     7
100
AcDbLine
 10
144.721213346928
 20
142.4707689760393
 30
0.0
 11
142.780765508928
 21
144.4112168140403
 31
0.0
  0
LINE
  5
78
330
33
100
AcDbEntity
  8
0
  6
Continuous
 62
     7
100
AcDbLine
 10
223.382746943628
 20
63.8092353793398
 30
0.0
 11
221.442299105628
 21
65.7496832173398
 31
0.0
  0
LINE
  5
79
330
33
100
AcDbEntity
  8
0
  6
Continuous
 62
     7
100
AcDbLine
 10
220.735192324428
 20
65.0425764361398
 30
0.0
 11
222.675640162428
 21
63.1021285981398
 31
0.0
  0
LINE
  5
7A
330
33
100
AcDbEntity
  8
0
  6
Continuous
 62
     7
100
AcDbLine
 10
142.073658727728
 20
143.7041100328403
 30
0.0
 11
144.014106565728
 21
141.7636621948403
 31
0.0
  0
LINE
  5
7B
330
33
100
AcDbEntity
  8
DEFAULT_1
  6
PHANTOM
 62
     4
100
AcDbLine
 10
182.728202835628
 20
103.7566727060393
 30
0.0
 11
121.759628047528
 21
103.7566727060393
 31
0.0
  0
LINE
  5
7C
330
33
100
AcDbEntity
  8
0
  6
Continuous
 62
     7
100
AcDbLine
 10
230.728202835628
 20
102.5066727060398
 30
0.0
 11
235.812475873728
 21
102.5066727060398
 31
0.0
  0
LINE
  5
7D
330
33
100
AcDbEntity
  8
0
  6
Continuous
 62
     7
100
AcDbLine
 10
129.643929797528
 20
102.5066727060398
 30
0.0
 11
134.728202835628
 21
102.5066727060398
 31
0.0
  0
LINE
  5
7E
330
33
100
AcDbEntity
  8
0
  6
Continuous
 62
     7
100
AcDbLine
 10
133.728202835628
 20
99.2566727060398
 30
0.0
 11
134.728202835628
 21
99.2566727060398
 31
0.0
  0
LINE
  5
7F
330
33
100
AcDbEntity
  8
0
  6
Continuous
 62
     7
100
AcDbLine
 10
231.728202835628
 20
99.2566727060398
 30
0.0
 11
230.728202835628
 21
99.2566727060398
 31
0.0
  0
LINE
  5
80
330
33
100
AcDbEntity
  8
0
  6
Continuous
 62
     7
100
AcDbLine
 10
221.442299105628
 20
141.7636621948403
 30
0.0
 11
223.382746943628
 21
143.7041100328403
 31
0.0
  0
LINE
  5
81
330
33
100
AcDbEntity
  8
0
  6
Continuous
 62
     7
100
AcDbLine
 10
142.780765508928
 20
63.1021285981398
 30
0.0
 11
144.721213346928
 21
65.0425764361398
 31
0.0
  0
LINE
  5
82
330
33
100
AcDbEntity
  8
0
  6
Continuous
 62
     7
100
AcDbLine
 10
144.014106565728
 20
65.7496832173398
 30
0.0
 11
142.073658727728
 21
63.8092353793398
 31
0.0
  0
LINE
  5
83
330
33
100
AcDbEntity
  8
0
  6
Continuous
 62
     7
100
AcDbLine
 10
222.675640162428
 20
144.4112168140403
 30
0.0
 11
220.735192324428
 21
142.4707689760393
 31
0.0
  0
LINE
  5
84
330
33
100
AcDbEntity
  8
DEFAULT_1
  6
PHANTOM
 62
     4
100
AcDbLine
 10
182.728202835628
 20
103.7566727060393
 30
0.0
 11
182.728202835628
 21
166.4709517784403
 31
0.0
  0
LINE
  5
85
330
33
100
AcDbEntity
  8
0
  6
Continuous
 62
     7
100
AcDbLine
 10
231.728202835628
 20
92.0437401540398
 30
0.0
 11
235.884410701428
 21
92.0437401540398
 31
0.0
  0
LINE
  5
86
330
33
100
AcDbEntity
  8
0
  6
Continuous
 62
     7
100
AcDbLine
 10
129.571994969828
 20
92.0437401540398
 30
0.0
 11
133.728202835628
 21
92.0437401540398
 31
0.0
  0
LINE
  5
87
330
33
100
AcDbEntity
  8
0
  6
Continuous
 62
     7
100
AcDbLine
 10
231.728202835628
 20
91.3115923110398
 30
0.0
 11
235.664388551428
 21
91.3115923110398
 31
0.0
  0
LINE
  5
88
330
33
100
AcDbEntity
  8
0
  6
Continuous
 62
     7
100
AcDbLine
 10
129.792017119828
 20
91.3115923110398
 30
0.0
 11
133.728202835628
 21
91.3115923110398
 31
0.0
  0
LINE
  5
89
330
33
100
AcDbEntity
  8
0
  6
Continuous
 62
     7
100
AcDbLine
 10
164.728202835628
 20
97.7566727060398
 30
0.0
 11
164.728202835628
 21
157.8361485319403
 31
0.0
  0
LINE
  5
8A
330
33
100
AcDbEntity
  8
0
  6
Continuous
 62
     7
100
AcDbLine
 10
163.728202835628
 20
97.7566727060398
 30
0.0
 11
163.728202835628
 21
157.4929705465403
 31
0.0
  0
LINE
  5
8B
330
33
100
AcDbEntity
  8
0
  6
Continuous
 62
     7
100
AcDbLine
 10
134.728202835628
 20
102.5066727060398
 30
0.0
 11
134.728202835628
 21
99.2566727060398
 31
0.0
  0
LINE
  5
8C
330
33
100
AcDbEntity
  8
0
  6
Continuous
 62
     7
100
AcDbLine
 10
134.728202835628
 20
108.2566727060393
 30
0.0
 11
134.728202835628
 21
105.0066727060393
 31
0.0
  0
LINE
  5
8D
330
33
100
AcDbEntity
  8
0
  6
Continuous
 62
     7
100
AcDbLine
 10
163.728202835628
 20
152.1612179472393
 30
0.0
 11
164.728202835628
 21
152.5419163766403
 31
0.0
  0
LINE
  5
8E
330
33
100
AcDbEntity
  8
0
  6
Continuous
 62
     7
100
AcDbLine
 10
133.728202835628
 20
108.2566727060393
 30
0.0
 11
133.728202835628
 21
116.2017531010403
 31
0.0
  0
LINE
  5
8F
330
33
100
AcDbEntity
  8
0
  6
Continuous
 62
     7
100
AcDbLine
 10
133.728202835628
 20
91.3115923110398
 30
0.0
 11
133.728202835628
 21
99.2566727060398
 31
0.0
  0
LINE
  5
90
330
33
100
AcDbEntity
  8
0
  6
Continuous
 62
     7
100
AcDbLine
 10
239.100019684628
 20
207.6686308832073
 30
0.0
 11
241.228202835628
 21
176.9658972473073
 31
0.0
  0
LINE
  5
91
330
33
100
AcDbEntity
  8
0
  6
Continuous
 62
     7
100
AcDbLine
 10
197.787288968828
 20
255.7441710339073
 30
0.0
 11
196.398662040228
 21
255.9175941029073
 31
0.0
  0
LINE
  5
92
330
33
100
AcDbEntity
  8
0
  6
Continuous
 62
     7
100
AcDbLine
 10
198.685706776728
 20
255.6333119385073
 30
0.0
 11
197.787288968828
 21
255.7441710339073
 31
0.0
  0
LINE
  5
93
330
33
100
AcDbEntity
  8
0
  6
Continuous
 62
     7
100
AcDbLine
 10
196.398662040228
 20
255.9175941029073
 30
0.0
 11
195.219935338128
 21
256.0596912578063
 31
0.0
  0
LINE
  5
94
330
33
100
AcDbEntity
  8
0
  6
Continuous
 62
     7
100
AcDbLine
 10
199.212735450728
 20
255.5715770166073
 30
0.0
 11
198.685706776728
 21
255.6333119385073
 31
0.0
  0
LINE
  5
95
330
33
100
AcDbEntity
  8
0
  6
Continuous
 62
     7
100
AcDbLine
 10
195.219935338128
 20
256.0596912578063
 30
0.0
 11
194.367928679428
 21
256.1573003408073
 31
0.0
  0
LINE
  5
96
330
33
100
AcDbEntity
  8
0
  6
Continuous
 62
     7
100
AcDbLine
 10
194.367928679428
 20
256.1573003408073
 30
0.0
 11
193.461559772228
 21
256.2553992055073
 31
0.0
  0
LINE
  5
97
330
33
100
AcDbEntity
  8
0
  6
Continuous
 62
     7
100
AcDbLine
 10
200.733318329028
 20
255.4506372309063
 30
0.0
 11
200.692140171628
 21
255.4504790763063
 31
0.0
  0
LINE
  5
98
330
33
100
AcDbEntity
  8
0
  6
Continuous
 62
     7
100
AcDbLine
 10
175.484764869328
 20
256.5677905040073
 30
0.0
 11
174.694954983828
 21
256.5068360536063
 31
0.0
  0
LINE
  5
99
330
33
100
AcDbEntity
  8
0
  6
Continuous
 62
     7
100
AcDbLine
 10
174.694954983828
 20
256.5068360536063
 30
0.0
 11
173.925251049728
 21
256.4417884396073
 31
0.0
  0
LINE
  5
9A
330
33
100
AcDbEntity
  8
0
  6
Continuous
 62
     7
100
AcDbLine
 10
173.925251049728
 20
256.4417884396073
 30
0.0
 11
173.175818280328
 21
256.3732686834073
 31
0.0
  0
LINE
  5
9B
330
33
100
AcDbEntity
  8
0
  6
Continuous
 62
     7
100
AcDbLine
 10
173.175818280328
 20
256.3732686834073
 30
0.0
 11
172.446801997928
 21
256.3018935031073
 31
0.0
  0
LINE
  5
9C
330
33
100
AcDbEntity
  8
0
  6
Continuous
 62
     7
100
AcDbLine
 10
172.446801997928
 20
256.3018935031073
 30
0.0
 11
171.738387046728
 21
256.2282834815073
 31
0.0
  0
LINE
  5
9D
330
33
100
AcDbEntity
  8
0
  6
Continuous
 62
     7
100
AcDbLine
 10
171.738387046728
 20
256.2282834815073
 30
0.0
 11
171.051058489828
 21
256.1531179701073
 31
0.0
  0
LINE
  5
9E
330
33
100
AcDbEntity
  8
0
  6
Continuous
 62
     7
100
AcDbLine
 10
171.051058489828
 20
256.1531179701073
 30
0.0
 11
170.385514924928
 21
256.0771118158063
 31
0.0
  0
LINE
  5
9F
330
33
100
AcDbEntity
  8
0
  6
Continuous
 62
     7
100
AcDbLine
 10
170.385514924928
 20
256.0771118158063
 30
0.0
 11
169.430113222328
 21
255.9632239091063
 31
0.0
  0
LINE
  5
A0
330
33
100
AcDbEntity
  8
0
  6
Continuous
 62
     7
100
AcDbLine
 10
167.164360845928
 20
255.6813486530063
 30
0.0
 11
166.671965776928
 21
255.6214742237073
 31
0.0
  0
LINE
  5
A1
330
33
100
AcDbEntity
  8
0
  6
Continuous
 62
     7
100
AcDbLine
 10
169.430113222328
 20
255.9632239091063
 30
0.0
 11
167.164360845928
 21
255.6813486530063
 31
0.0
  0
LINE
  5
A2
330
33
100
AcDbEntity
  8
0
  6
Continuous
 62
     7
100
AcDbLine
 10
164.733099440028
 20
255.4502692055073
 30
0.0
 11
164.723116300628
 21
255.4503847200073
 31
0.0
  0
LINE
  5
A3
330
33
100
AcDbEntity
  8
0
  6
Continuous
 62
     7
100
AcDbLine
 10
200.728202835628
 20
199.4658972473073
 30
0.0
 11
200.728202835628
 21
255.4060388495073
 31
0.0
  0
LINE
  5
A4
330
33
100
AcDbEntity
  8
DEFAULT_1
  6
PHANTOM
 62
     4
100
AcDbLine
 10
182.728202835628
 20
174.7935022478063
 30
0.0
 11
182.728202835628
 21
260.9658972473063
 31
0.0
  0
LINE
  5
A5
330
33
100
AcDbEntity
  8
DEFAULT_1
  6
PHANTOM
 62
     4
100
AcDbLine
 10
246.016607703628
 20
203.9658972473073
 30
0.0
 11
115.051044048228
 21
203.9658972473073
 31
0.0
  0
LINE
  5
A6
330
33
100
AcDbEntity
  8
0
  6
Continuous
 62
     7
100
AcDbLine
 10
200.228202835628
 20
198.9658972473073
 30
0.0
 11
165.228202835628
 21
198.9658972473073
 31
0.0
  0
LINE
  5
A7
330
33
100
AcDbEntity
  8
0
  6
Continuous
 62
     7
100
AcDbLine
 10
164.728202835628
 20
255.4060387436073
 30
0.0
 11
164.728202835628
 21
199.4658972473073
 31
0.0
  0
LINE
  5
A8
330
33
100
AcDbEntity
  8
0
  6
Continuous
 62
     7
100
AcDbLine
 10
241.228202835628
 20
176.9658972473073
 30
0.0
 11
124.228202835628
 21
176.9658972473073
 31
0.0
  0
LINE
  5
A9
330
33
100
AcDbEntity
  8
0
  6
Continuous
 62
     7
100
AcDbLine
 10
126.356385986728
 20
207.6686308832073
 30
0.0
 11
124.228202835628
 21
176.9658972473073
 31
0.0
  0
LINE
  5
AA
330
33
100
AcDbEntity
  8
1
  6
Continuous
 62
     2
100
AcDbLine
 10
62.2861659744696
 20
201.4829808146633
 30
0.0
 11
83.7618435793742
 21
180.0073032097583
 31
0.0
  0
LINE
  5
AB
330
33
100
AcDbEntity
  8
1
  6
Continuous
 62
     2
100
AcDbLine
 10
84.4689503605607
 20
180.7144099909453
 30
0.0
 11
63.6134233275543
 21
201.5699370239513
 31
0.0
  0
LINE
  5
AC
330
33
100
AcDbEntity
  8
1
  6
Continuous
 62
     7
100
AcDbLine
 10
49.206384515485
 20
145.4518441458693
 30
0.0
 11
90.8055429339765
 21
187.0510025643613
 31
0.0
  0
LINE
  5
AD
330
33
100
AcDbEntity
  8
1
  6
Continuous
 62
     7
100
AcDbLine
 10
67.4983876120837
 20
196.2707591770493
 30
0.0
 11
78.8120961110684
 21
184.9570506780643
 31
0.0
  0
LINE
  5
AE
330
33
100
AcDbEntity
  8
1
  6
Continuous
 62
     7
100
AcDbLine
 10
39.2141163646218
 20
170.8149150543333
 30
0.0
 11
64.6699604873375
 21
196.2707591770493
 31
0.0
  0
LINE
  5
AF
102
{ACAD_REACTORS
330
2CE
330
2CE
102
}
330
33
100
AcDbEntity
  8
1
  6
Continuous
 62
     2
100
AcDbLine
 10
42.0102556846792
 20
169.5356842922303
 30
0.0
 11
42.3071608303621
 21
169.8325894379133
 31
0.0
  0
LINE
  5
B0
102
{ACAD_REACTORS
330
2D0
330
2D0
102
}
330
33
100
AcDbEntity
  8
1
  6
Continuous
 62
     2
100
AcDbLine
 10
44.5522654629366
 20
169.4864614196223
 30
0.0
 11
44.6419689218973
 21
169.5761648785833
 31
0.0
  0
LINE
  5
B1
102
{ACAD_REACTORS
330
2CE
330
2CE
102
}
330
33
100
AcDbEntity
  8
1
  6
Continuous
 62
     2
100
AcDbLine
 10
42.0102556846792
 20
169.5356842922303
 30
0.0
 11
42.5500918609072
 21
168.9958481160023
 31
0.0
  0
LINE
  5
B2
102
{ACAD_REACTORS
330
2CF
330
2CF
102
}
330
33
100
AcDbEntity
  8
1
  6
Continuous
 62
     2
100
AcDbLine
 10
48.5556624184892
 20
174.3784357530873
 30
0.0
 11
47.8378922095227
 21
174.0501724067063
 31
0.0
  0
LINE
  5
B3
102
{ACAD_REACTORS
330
2CE
330
2CE
102
}
330
33
100
AcDbEntity
  8
1
  6
Continuous
 62
     2
100
AcDbLine
 10
41.3354367081814
 20
169.4007014919603
 30
0.0
 11
42.1857190713023
 21
170.2509838550813
 31
0.0
  0
LINE
  5
B4
102
{ACAD_REACTORS
330
2CE
330
2CE
102
}
330
33
100
AcDbEntity
  8
1
  6
Continuous
 62
     2
100
AcDbLine
 10
42.5500918609072
 20
168.9958481160023
 30
0.0
 11
42.8469970065901
 21
169.2927532616853
 31
0.0
  0
LINE
  5
B5
102
{ACAD_REACTORS
330
2D0
330
2D0
102
}
330
33
100
AcDbEntity
  8
1
  6
Continuous
 62
     2
100
AcDbLine
 10
44.4151921159536
 20
170.6397305188643
 30
0.0
 11
44.7707751068793
 21
170.2841475279383
 31
0.0
  0
LINE
  5
B6
102
{ACAD_REACTORS
330
2D0
330
2D0
102
}
330
33
100
AcDbEntity
  8
1
  6
Continuous
 62
     2
100
AcDbLine
 10
45.460465472495
 20
170.3946614291803
 30
0.0
 11
45.1345777473803
 21
170.0687737040663
 31
0.0
  0
LINE
  5
B7
102
{ACAD_REACTORS
330
2D0
330
2D0
102
}
330
33
100
AcDbEntity
  8
1
  6
Continuous
 62
     2
100
AcDbLine
 10
44.2101284883701
 20
170.8447941464473
 30
0.0
 11
44.2333620643402
 21
170.8215605704773
 31
0.0
  0
LINE
  5
B8
102
{ACAD_REACTORS
330
2D0
330
2D0
102
}
330
33
100
AcDbEntity
  8
1
  6
Continuous
 62
     2
100
AcDbLine
 10
43.9283798063574
 20
169.9312252328293
 30
0.0
 11
44.2663356874965
 21
170.6248591297463
 31
0.0
  0
LINE
  5
B9
102
{ACAD_REACTORS
330
2D0
330
2D0
102
}
330
33
100
AcDbEntity
  8
1
  6
Continuous
 62
     2
100
AcDbLine
 10
45.1345777473803
 20
170.0687737040663
 30
0.0
 11
44.9240501908878
 21
170.2372052517453
 31
0.0
  0
LINE
  5
BA
330
33
100
AcDbEntity
  8
1
  6
Continuous
 62
     2
100
AcDbLine
 10
53.1618970262145
 20
178.8248385621113
 30
0.0
 11
53.4344758101448
 21
179.0974173460413
 31
0.0
  0
LINE
  5
BB
102
{ACAD_REACTORS
330
2D0
330
2D0
102
}
330
33
100
AcDbEntity
  8
1
  6
Continuous
 62
     2
100
AcDbLine
 10
43.6017793948625
 20
170.1015097650953
 30
0.0
 11
43.9002999630061
 21
170.4000303332393
 31
0.0
  0
LINE
  5
BC
102
{ACAD_REACTORS
330
2D3
330
2D3
102
}
330
33
100
AcDbEntity
  8
1
  6
Continuous
 62
     2
100
AcDbLine
 10
50.8636735021567
 20
178.5510244551223
 30
0.0
 11
51.1875657054085
 21
178.8749166583743
 31
0.0
  0
LINE
  5
BD
102
{ACAD_REACTORS
330
2D4
330
2D4
102
}
330
33
100
AcDbEntity
  8
1
  6
Continuous
 62
     2
100
AcDbLine
 10
51.1605786478401
 20
178.2541193094393
 30
0.0
 11
51.4844708510919
 21
178.5780115126913
 31
0.0
  0
LINE
  5
BE
102
{ACAD_REACTORS
330
2D4
330
2D4
102
}
330
33
100
AcDbEntity
  8
1
  6
Continuous
 62
     2
100
AcDbLine
 10
51.1605786478401
 20
178.2541193094393
 30
0.0
 11
52.2402510002968
 21
177.1744469569823
 31
0.0
  0
LINE
  5
BF
102
{ACAD_REACTORS
330
2D4
330
2D4
102
}
330
33
100
AcDbEntity
  8
1
  6
Continuous
 62
     2
100
AcDbLine
 10
52.564143203548
 20
177.4983391602333
 30
0.0
 11
52.2402510002968
 21
177.1744469569823
 31
0.0
  0
LINE
  5
C0
102
{ACAD_REACTORS
330
2D3
330
2D3
102
}
330
33
100
AcDbEntity
  8
1
  6
Continuous
 62
     2
100
AcDbLine
 10
50.6747165867502
 20
178.7399813705293
 30
0.0
 11
50.9986087900014
 21
179.0638735737813
 31
0.0
  0
LINE
  5
C1
102
{ACAD_REACTORS
330
2D4
330
2D4
102
}
330
33
100
AcDbEntity
  8
1
  6
Continuous
 62
     2
100
AcDbLine
 10
51.4844708510919
 20
178.5780115126913
 30
0.0
 11
52.564143203548
 21
177.4983391602333
 31
0.0
  0
LINE
  5
C2
102
{ACAD_REACTORS
330
2D3
330
2D3
102
}
330
33
100
AcDbEntity
  8
1
  6
Continuous
 62
     2
100
AcDbLine
 10
50.8636735021567
 20
178.5510244551223
 30
0.0
 11
50.6747165867502
 21
178.7399813705293
 31
0.0
  0
LINE
  5
C3
330
33
100
AcDbEntity
  8
1
  6
Continuous
 62
     2
100
AcDbLine
 10
52.7569961378313
 20
179.2297394504943
 30
0.0
 11
53.0295749217615
 21
179.5023182344243
 31
0.0
  0
LINE
  5
C4
330
33
100
AcDbEntity
  8
1
  6
Continuous
 62
     2
100
AcDbLine
 10
49.1901433459101
 20
175.5279513707283
 30
0.0
 11
49.4600614340234
 21
175.2580332826153
 31
0.0
  0
LINE
  5
C5
102
{ACAD_REACTORS
330
2D0
330
2D0
102
}
330
33
100
AcDbEntity
  8
1
  6
Continuous
 62
     2
100
AcDbLine
 10
44.4809968249905
 20
171.1782838596103
 30
0.0
 11
45.460465472495
 21
170.3946614291803
 31
0.0
  0
LINE
  5
C6
330
33
100
AcDbEntity
  8
1
  6
Continuous
 62
     2
100
AcDbLine
 10
49.6759578945756
 20
176.0137659193943
 30
0.0
 11
49.9458759826889
 21
175.7438478312813
 31
0.0
  0
LINE
  5
C7
330
33
100
AcDbEntity
  8
1
  6
Continuous
 62
     2
100
AcDbLine
 10
52.3481992305732
 20
178.6860072553923
 30
0.0
 11
52.6181173186866
 21
178.4160891672783
 31
0.0
  0
LINE
  5
C8
102
{ACAD_REACTORS
330
2D3
330
2D3
102
}
330
33
100
AcDbEntity
  8
1
  6
Continuous
 62
     2
100
AcDbLine
 10
51.1875657054085
 20
178.8749166583743
 30
0.0
 11
50.9986087900014
 21
179.0638735737813
 31
0.0
  0
LINE
  5
C9
102
{ACAD_REACTORS
330
2D0
330
2D0
102
}
330
33
100
AcDbEntity
  8
1
  6
Continuous
 62
     2
100
AcDbLine
 10
43.5468075187943
 20
170.7482964106683
 30
0.0
 11
43.9471947267749
 21
171.1486836186483
 31
0.0
  0
LINE
  5
CA
102
{ACAD_REACTORS
330
2D1
330
2D1
102
}
330
33
100
AcDbEntity
  8
1
  6
Continuous
 62
     2
100
AcDbLine
 10
50.0809062953843
 20
177.2823951872583
 30
0.0
 11
50.2912913146012
 21
177.0720101680413
 31
0.0
  0
LINE
  5
CB
102
{ACAD_REACTORS
330
2CE
330
2CE
102
}
330
33
100
AcDbEntity
  8
1
  6
Continuous
 62
     2
100
AcDbLine
 10
42.7390487763149
 20
168.8068912005943
 30
0.0
 11
43.1844302510521
 21
169.2522726753313
 31
0.0
  0
LINE
  5
CC
102
{ACAD_REACTORS
330
2D2
330
2D2
102
}
330
33
100
AcDbEntity
  8
1
  6
Continuous
 62
     2
100
AcDbLine
 10
44.5205271628382
 20
171.7220160547123
 30
0.0
 11
45.6541736304322
 21
170.5883695871183
 31
0.0
  0
LINE
  5
CD
102
{ACAD_REACTORS
330
2CE
330
2CE
102
}
330
33
100
AcDbEntity
  8
1
  6
Continuous
 62
     2
100
AcDbLine
 10
43.3058720101111
 20
168.2400679667983
 30
0.0
 11
42.9009711217281
 21
167.8351670784133
 31
0.0
  0
LINE
  5
CE
102
{ACAD_REACTORS
330
2D2
330
2D2
102
}
330
33
100
AcDbEntity
  8
1
  6
Continuous
 62
     2
100
AcDbLine
 10
44.5205271628382
 20
171.7220160547123
 30
0.0
 11
44.8444193660902
 21
172.0459082579633
 31
0.0
  0
LINE
  5
CF
102
{ACAD_REACTORS
330
2D2
330
2D2
102
}
330
33
100
AcDbEntity
  8
1
  6
Continuous
 62
     2
100
AcDbLine
 10
44.8444193660902
 20
172.0459082579633
 30
0.0
 11
45.0548043853072
 21
171.8355232387473
 31
0.0
  0
LINE
  5
D0
102
{ACAD_REACTORS
330
2D2
330
2D2
102
}
330
33
100
AcDbEntity
  8
1
  6
Continuous
 62
     2
100
AcDbLine
 10
46.0185464200375
 20
172.4912897327003
 30
0.0
 11
46.7878200980261
 21
171.7220160547123
 31
0.0
  0
LINE
  5
D1
102
{ACAD_REACTORS
330
2D2
330
2D2
102
}
330
33
100
AcDbEntity
  8
1
  6
Continuous
 62
     2
100
AcDbLine
 10
46.7878200980261
 20
171.7220160547123
 30
0.0
 11
46.4639278947741
 21
171.3981238514603
 31
0.0
  0
LINE
  5
D2
102
{ACAD_REACTORS
330
2D2
330
2D2
102
}
330
33
100
AcDbEntity
  8
1
  6
Continuous
 62
     2
100
AcDbLine
 10
45.8701176034084
 20
171.9919341428263
 30
0.0
 11
46.4639278947741
 21
171.3981238514603
 31
0.0
  0
LINE
  5
D3
102
{ACAD_REACTORS
330
2D2
330
2D2
102
}
330
33
100
AcDbEntity
  8
1
  6
Continuous
 62
     2
100
AcDbLine
 10
45.3842555423183
 20
171.5060720817363
 30
0.0
 11
45.9780658336841
 21
170.9122617903703
 31
0.0
  0
LINE
  5
D4
102
{ACAD_REACTORS
330
2D2
330
2D2
102
}
330
33
100
AcDbEntity
  8
1
  6
Continuous
 62
     2
100
AcDbLine
 10
45.9780658336841
 20
170.9122617903703
 30
0.0
 11
45.6541736304322
 21
170.5883695871183
 31
0.0
  0
LINE
  5
D5
102
{ACAD_REACTORS
330
2D1
330
2D1
102
}
330
33
100
AcDbEntity
  8
1
  6
Continuous
 62
     2
100
AcDbLine
 10
51.2145527629782
 20
176.1487487196643
 30
0.0
 11
50.890613047301
 21
175.8248090039873
 31
0.0
  0
LINE
  5
D6
102
{ACAD_REACTORS
330
2D1
330
2D1
102
}
330
33
100
AcDbEntity
  8
1
  6
Continuous
 62
     2
100
AcDbLine
 10
50.6207424716123
 20
176.7425590110303
 30
0.0
 11
51.2145527629782
 21
176.1487487196643
 31
0.0
  0
LINE
  5
D7
102
{ACAD_REACTORS
330
2D1
330
2D1
102
}
330
33
100
AcDbEntity
  8
1
  6
Continuous
 62
     2
100
AcDbLine
 10
51.1066045327032
 20
177.2284210721213
 30
0.0
 11
51.7004148240689
 21
176.6346107807543
 31
0.0
  0
LINE
  5
D8
102
{ACAD_REACTORS
330
2D1
330
2D1
102
}
330
33
100
AcDbEntity
  8
1
  6
Continuous
 62
     2
100
AcDbLine
 10
52.024307027321
 20
176.9585029840073
 30
0.0
 11
51.7004148240689
 21
176.6346107807543
 31
0.0
  0
LINE
  5
D9
102
{ACAD_REACTORS
330
2D1
330
2D1
102
}
330
33
100
AcDbEntity
  8
1
  6
Continuous
 62
     2
100
AcDbLine
 10
51.2550333493324
 20
177.7277766619953
 30
0.0
 11
52.024307027321
 21
176.9585029840073
 31
0.0
  0
LINE
  5
DA
102
{ACAD_REACTORS
330
2D1
330
2D1
102
}
330
33
100
AcDbEntity
  8
1
  6
Continuous
 62
     2
100
AcDbLine
 10
49.7569665797074
 20
176.9584554715803
 30
0.0
 11
50.890613047301
 21
175.8248090039873
 31
0.0
  0
LINE
  5
DB
102
{ACAD_REACTORS
330
2D1
330
2D1
102
}
330
33
100
AcDbEntity
  8
1
  6
Continuous
 62
     2
100
AcDbLine
 10
49.7569665797074
 20
176.9584554715803
 30
0.0
 11
50.0809062953843
 21
177.2823951872583
 31
0.0
  0
LINE
  5
DC
102
{ACAD_REACTORS
330
2D0
330
2D0
102
}
330
33
100
AcDbEntity
  8
1
  6
Continuous
 62
     2
100
AcDbLine
 10
44.4151921159536
 20
170.6397305188643
 30
0.0
 11
44.2148322184747
 21
170.0569906225923
 31
0.0
  0
LINE
  5
DD
102
{ACAD_REACTORS
330
2CF
330
2CF
102
}
330
33
100
AcDbEntity
  8
1
  6
Continuous
 62
     2
100
AcDbLine
 10
48.0280844479873
 20
173.5560906960393
 30
0.0
 11
48.4084214124933
 21
173.9364276605453
 31
0.0
  0
LINE
  5
DE
102
{ACAD_REACTORS
330
2CD
330
2CD
102
}
330
33
100
AcDbEntity
  8
1
  6
Continuous
 62
     2
100
AcDbLine
 10
46.2459883999355
 20
173.4474772918093
 30
0.0
 11
46.6464231203414
 21
173.8479120122153
 31
0.0
  0
LINE
  5
DF
102
{ACAD_REACTORS
330
2CF
330
2CF
102
}
330
33
100
AcDbEntity
  8
1
  6
Continuous
 62
     2
100
AcDbLine
 10
47.9998620673611
 20
174.4552158323663
 30
0.0
 11
48.8540879617811
 21
174.7118304413973
 31
0.0
  0
LINE
  5
E0
102
{ACAD_REACTORS
330
2CD
330
2CD
102
}
330
33
100
AcDbEntity
  8
1
  6
Continuous
 62
     2
100
AcDbLine
 10
46.3009602760045
 20
172.8006906462373
 30
0.0
 11
46.5995283565727
 21
173.0992587268053
 31
0.0
  0
LINE
  5
E1
102
{ACAD_REACTORS
330
2CF
330
2CF
102
}
330
33
100
AcDbEntity
  8
1
  6
Continuous
 62
     2
100
AcDbLine
 10
48.5679206242165
 20
175.1755992247243
 30
0.0
 11
48.2103421114294
 21
174.8180207119373
 31
0.0
  0
LINE
  5
E2
102
{ACAD_REACTORS
330
2CE
330
2CE
102
}
330
33
100
AcDbEntity
  8
1
  6
Continuous
 62
     2
100
AcDbLine
 10
41.3354367081814
 20
169.4007014919603
 30
0.0
 11
42.9009711217281
 21
167.8351670784133
 31
0.0
  0
LINE
  5
E3
102
{ACAD_REACTORS
330
2CD
330
2CD
102
}
330
33
100
AcDbEntity
  8
1
  6
Continuous
 62
     2
100
AcDbLine
 10
46.9093093695112
 20
173.5439750275883
 30
0.0
 11
46.9325429454815
 21
173.5207414516183
 31
0.0
  0
LINE
  5
E4
102
{ACAD_REACTORS
330
2CD
330
2CD
102
}
330
33
100
AcDbEntity
  8
1
  6
Continuous
 62
     2
100
AcDbLine
 10
46.6275606874987
 20
172.6304061139703
 30
0.0
 11
46.9655165686376
 21
173.3240400108873
 31
0.0
  0
LINE
  5
E5
102
{ACAD_REACTORS
330
2CD
330
2CD
102
}
330
33
100
AcDbEntity
  8
1
  6
Continuous
 62
     2
100
AcDbLine
 10
47.2514463440776
 20
172.1856423007633
 30
0.0
 11
47.344903284638
 21
172.2788141667713
 31
0.0
  0
LINE
  5
E6
102
{ACAD_REACTORS
330
2CD
330
2CD
102
}
330
33
100
AcDbEntity
  8
1
  6
Continuous
 62
     2
100
AcDbLine
 10
47.8338061409468
 20
172.7680020976323
 30
0.0
 11
47.6232310720288
 21
172.9363861328863
 31
0.0
  0
LINE
  5
E7
102
{ACAD_REACTORS
330
2CD
330
2CD
102
}
330
33
100
AcDbEntity
  8
1
  6
Continuous
 62
     2
100
AcDbLine
 10
48.1596938660615
 20
173.0938898227473
 30
0.0
 11
47.8338061409468
 21
172.7680020976323
 31
0.0
  0
LINE
  5
E8
102
{ACAD_REACTORS
330
2CD
330
2CD
102
}
330
33
100
AcDbEntity
  8
1
  6
Continuous
 62
     2
100
AcDbLine
 10
47.1143729970947
 20
173.3389114000053
 30
0.0
 11
47.4699559880206
 21
172.9833284090793
 31
0.0
  0
LINE
  5
E9
102
{ACAD_REACTORS
330
2CD
330
2CD
102
}
330
33
100
AcDbEntity
  8
1
  6
Continuous
 62
     2
100
AcDbLine
 10
47.1143729970947
 20
173.3389114000053
 30
0.0
 11
46.9140130996167
 21
172.7561715037343
 31
0.0
  0
LINE
  5
EA
102
{ACAD_REACTORS
330
2CE
330
2CE
102
}
330
33
100
AcDbEntity
  8
1
  6
Continuous
 62
     2
100
AcDbLine
 10
42.7390487763149
 20
168.8068912005943
 30
0.0
 11
43.3058720101111
 21
168.2400679667983
 31
0.0
  0
LINE
  5
EB
102
{ACAD_REACTORS
330
2CD
330
2CD
102
}
330
33
100
AcDbEntity
  8
1
  6
Continuous
 62
     2
100
AcDbLine
 10
47.1801777061318
 20
173.8774647407513
 30
0.0
 11
48.1596938660615
 21
173.0938898227473
 31
0.0
  0
LINE
  5
EC
330
33
100
AcDbEntity
  8
1
  6
Continuous
 62
     7
100
AcDbLine
 10
78.8120961110684
 20
182.1286235533183
 30
0.0
 11
53.3562519883527
 21
156.6727794306023
 31
0.0
  0
LINE
  5
ED
330
33
100
AcDbEntity
  8
1
  6
Continuous
 62
     7
100
AcDbLine
 10
39.2141163646218
 20
167.9864879295873
 30
0.0
 11
50.5278248636065
 21
156.6727794306023
 31
0.0
  0
LINE
  5
EE
330
33
100
AcDbEntity
  8
1
  6
Continuous
 62
     7
100
AcDbLine
 10
55.4775723319123
 20
187.0783710216243
 30
0.0
 11
69.61970795564329
 21
172.9362353978933
 31
0.0
  0
LINE
  5
EF
330
33
100
AcDbEntity
  8
1
  6
Continuous
 62
     7
100
AcDbLine
 10
59.7202130190316
 20
182.8357303345053
 30
0.0
 11
70.3268147368299
 21
193.4423320523033
 31
0.0
  0
LINE
  5
F0
330
33
100
AcDbEntity
  8
1
  6
Continuous
 62
     7
100
AcDbLine
 10
57.9215538988861
 20
139.0692518306883
 30
0.0
 11
81.9215538988861
 21
139.0692518306883
 31
0.0
  0
LINE
  5
F1
330
33
100
AcDbEntity
  8
DEFAULT_1
  6
PHANTOM
 62
     4
100
AcDbLine
 10
182.728202835628
 20
103.7566727060393
 30
0.0
 11
250.006253683128
 21
103.7566727060393
 31
0.0
  0
LINE
  5
240
102
{ACAD_REACTORS
330
2CC
330
2CC
102
}
330
33
100
AcDbEntity
  8
1
  6
Continuous
 62
     2
100
AcDbLine
 10
206.730096473593
 20
62.313333310903
 30
0.0
 11
206.171542230768
 21
61.7547790680778
 31
0.0
  0
LINE
  5
241
102
{ACAD_REACTORS
330
2CC
330
2CC
102
}
330
33
100
AcDbEntity
  8
1
  6
Continuous
 62
     2
100
AcDbLine
 10
206.171542230768
 20
61.7547790680778
 30
0.0
 11
208.572139695741
 21
59.9127358459309
 31
0.0
  0
LINE
  5
242
102
{ACAD_REACTORS
330
2CC
330
2CC
102
}
330
33
100
AcDbEntity
  8
1
  6
Continuous
 62
     2
100
AcDbLine
 10
208.572139695741
 20
59.9127358459309
 30
0.0
 11
206.730096473593
 21
62.313333310903
 31
0.0
  0
ARC
  5
243
330
33
100
AcDbEntity
  8
0
  6
Continuous
 62
     7
100
AcDbCircle
 10
259.120114960131
 20
198.4658972473073
 30
0.0
 40
0.5
100
AcDbArc
 50
90.0
 51
176.0348420797677
  0
ARC
  5
244
330
33
100
AcDbEntity
  8
0
  6
Continuous
 62
     9
100
AcDbCircle
 10
182.728202835628
 20
103.7566727060393
 30
0.0
 40
52.99999999999993
100
AcDbArc
 50
68.99247458020037
 51
70.14611497360016
  0
ARC
  5
245
330
33
100
AcDbEntity
  8
0
  6
Continuous
 62
     7
100
AcDbCircle
 10
182.728202835628
 20
103.7566727060393
 30
0.0
 40
56.99640081271983
100
AcDbArc
 50
71.59031565128608
 51
108.4096843487139
  0
ARC
  5
246
330
33
100
AcDbEntity
  8
0
  6
Continuous
 62
     9
100
AcDbCircle
 10
182.728202835628
 20
103.7566727060393
 30
0.0
 40
53.00000000000045
100
AcDbArc
 50
109.8538850263998
 51
111.0075254197992
  0
ARC
  5
247
330
33
100
AcDbEntity
  8
0
  6
Continuous
 62
     7
100
AcDbCircle
 10
182.728202835628
 20
103.7566727060393
 30
0.0
 40
56.99640081270951
100
AcDbArc
 50
109.4724998283552
 51
134.4973672581864
  0
ARC
  5
248
330
33
100
AcDbEntity
  8
0
  6
Continuous
 62
     7
100
AcDbCircle
 10
182.728202835628
 20
103.7566727060393
 30
0.0
 40
56.99640081268185
100
AcDbArc
 50
135.50263274167
 51
-135.5026327417428
  0
ARC
  5
249
330
33
100
AcDbEntity
  8
0
  6
Continuous
 62
     7
100
AcDbCircle
 10
182.728202835628
 20
103.7566727060393
 30
0.0
 40
56.99640081261071
100
AcDbArc
 50
-134.4973672582579
 51
-45.5026327416704
  0
ARC
  5
24A
330
33
100
AcDbEntity
  8
0
  6
Continuous
 62
     7
100
AcDbCircle
 10
182.728202835628
 20
103.7566727060393
 30
0.0
 40
56.99640081268204
100
AcDbArc
 50
-44.49736725818671
 51
44.4973672582595
  0
ARC
  5
24B
330
33
100
AcDbEntity
  8
0
  6
Continuous
 62
     7
100
AcDbCircle
 10
182.728202835628
 20
103.7566727060393
 30
0.0
 40
55.54076996550103
100
AcDbArc
 50
71.08977492950001
 51
108.9102250705003
  0
ARC
  5
24C
330
33
100
AcDbEntity
  8
0
  6
Continuous
 62
     7
100
AcDbCircle
 10
182.728202835628
 20
103.7566727060393
 30
0.0
 40
56.99640081275321
100
AcDbArc
 50
45.50263274174191
 51
70.52750017164482
  0
ARC
  5
24D
330
33
100
AcDbEntity
  8
0
  6
Continuous
 62
     7
100
AcDbCircle
 10
182.728202835628
 20
103.7566727060393
 30
0.0
 40
53.00000000000045
100
AcDbArc
 50
70.14611497360016
 51
109.8538850263998
  0
ARC
  5
24E
330
33
100
AcDbEntity
  8
0
  6
Continuous
 62
     7
100
AcDbCircle
 10
182.728202835628
 20
103.7566727060393
 30
0.0
 40
51.99999999999919
100
AcDbArc
 50
110.252246742188
 51
111.4312545037964
  0
ARC
  5
24F
330
33
100
AcDbEntity
  8
0
  6
Continuous
 62
     7
100
AcDbCircle
 10
182.728202835628
 20
103.7566727060393
 30
0.0
 40
52.00000000007093
100
AcDbArc
 50
68.56874549620359
 51
69.74775325781204
  0
ARC
  5
250
330
33
100
AcDbEntity
  8
0
  6
Continuous
 62
     7
100
AcDbCircle
 10
144.367659956328
 20
142.1172155854403
 30
0.0
 40
0.50000000000951
100
AcDbArc
 50
-134.9999999999977
 51
44.99999999991709
  0
ARC
  5
251
330
33
100
AcDbEntity
  8
0
  6
Continuous
 62
     7
100
AcDbCircle
 10
144.367659956328
 20
65.39612982673981
 30
0.0
 40
0.50000000000953
100
AcDbArc
 50
-45.0
 51
135.0
  0
ARC
  5
252
330
33
100
AcDbEntity
  8
0
  6
Continuous
 62
     7
100
AcDbCircle
 10
221.088745715028
 20
65.39612982673981
 30
0.0
 40
0.5000000000094899
100
AcDbArc
 50
45.0
 51
-135.0
  0
ARC
  5
253
330
33
100
AcDbEntity
  8
0
  6
Continuous
 62
     7
100
AcDbCircle
 10
221.088745715028
 20
142.1172155854403
 30
0.0
 40
0.5000000000088066
100
AcDbArc
 50
135.0000000000829
 51
-45.0000000000023
  0
ARC
  5
254
330
33
100
AcDbEntity
  8
0
  6
Continuous
 62
     7
100
AcDbCircle
 10
200.228202835628
 20
199.4658972473073
 30
0.0
 40
0.5
100
AcDbArc
 50
-90.0
 51
0.0
  0
ARC
  5
255
330
33
100
AcDbEntity
  8
0
  6
Continuous
 62
     7
100
AcDbCircle
 10
165.228202835628
 20
199.4658972473073
 30
0.0
 40
0.5
100
AcDbArc
 50
180.0
 51
-90.0
  0
ARC
  5
256
330
33
100
AcDbEntity
  8
0
  6
Continuous
 62
     7
100
AcDbCircle
 10
164.228202835628
 20
255.4060310895073
 30
0.0
 40
0.5
100
AcDbArc
 50
0.0
 51
108.8106215031226
  0
ARC
  5
257
330
33
100
AcDbEntity
  8
0
  6
Continuous
 62
     7
100
AcDbCircle
 10
201.228202835628
 20
255.4060310895073
 30
0.0
 40
0.4999999999997258
100
AcDbArc
 50
71.18937849687437
 51
180.0
  0
ARC
  5
258
102
{ACAD_REACTORS
330
2CF
330
2CF
102
}
330
33
100
AcDbEntity
  8
1
  6
Continuous
 62
     2
100
AcDbCircle
 10
48.6017620435339
 20
174.2453229829403
 30
0.0
 40
0.1408693898798075
100
AcDbArc
 50
52.2603877116093
 51
109.1019968652272
  0
ARC
  5
259
102
{ACAD_REACTORS
330
2CD
330
2CD
102
}
330
33
100
AcDbEntity
  8
1
  6
Continuous
 62
     2
100
AcDbCircle
 10
46.4754131478741
 20
173.2180147212743
 30
0.0
 40
0.3244823357953663
100
AcDbArc
 50
134.9952775440697
 51
171.0749880300144
  0
ARC
  5
25A
102
{ACAD_REACTORS
330
2CD
330
2CD
102
}
330
33
100
AcDbEntity
  8
1
  6
Continuous
 62
     2
100
AcDbCircle
 10
46.8836528428773
 20
173.2310583990983
 30
0.0
 40
0.3626564350938468
100
AcDbArc
 50
107.4901923227429
 51
168.8579285622774
  0
ARC
  5
25B
102
{ACAD_REACTORS
330
2D1
330
2D1
102
}
330
33
100
AcDbEntity
  8
1
  6
Continuous
 62
     2
100
AcDbCircle
 10
50.9029211022256
 20
177.2222985388913
 30
0.0
 40
0.6298234606001442
100
AcDbArc
 50
127.034672446319
 51
-166.1949037216845
  0
ARC
  5
25C
102
{ACAD_REACTORS
330
2CD
330
2CD
102
}
330
33
100
AcDbEntity
  8
1
  6
Continuous
 62
     2
100
AcDbCircle
 10
46.7016415974125
 20
173.1825190751293
 30
0.0
 40
0.5534785184950906
100
AcDbArc
 50
171.0782575144968
 51
-136.3801518007056
  0
ARC
  5
25D
102
{ACAD_REACTORS
330
2CD
330
2CD
102
}
330
33
100
AcDbEntity
  8
1
  6
Continuous
 62
     2
100
AcDbCircle
 10
46.9298104506844
 20
173.5644990506283
 30
0.0
 40
0.4007883304119729
100
AcDbArc
 50
51.34078301747939
 51
134.9974090307934
  0
ARC
  5
25E
102
{ACAD_REACTORS
330
2CF
330
2CF
102
}
330
33
100
AcDbEntity
  8
1
  6
Continuous
 62
     2
100
AcDbCircle
 10
48.2817437884595
 20
174.0046554165973
 30
0.0
 40
0.5153187067612429
100
AcDbArc
 50
-119.4877713223187
 51
-59.46657935778676
  0
ARC
  5
25F
102
{ACAD_REACTORS
330
2CE
330
2CE
102
}
330
33
100
AcDbEntity
  8
1
  6
Continuous
 62
     2
100
AcDbCircle
 10
42.6850746611768
 20
169.7516282652063
 30
0.0
 40
0.7061954476482505
100
AcDbArc
 50
-44.99999999998248
 51
45.0000000000053
  0
ARC
  5
260
102
{ACAD_REACTORS
330
2CF
330
2CF
102
}
330
33
100
AcDbEntity
  8
1
  6
Continuous
 62
     2
100
AcDbCircle
 10
48.5359581515154
 20
174.1547198721613
 30
0.0
 40
0.2528183329044879
100
AcDbArc
 50
-120.2955132559497
 51
53.03503728316233
  0
ARC
  5
261
102
{ACAD_REACTORS
330
2CF
330
2CF
102
}
330
33
100
AcDbEntity
  8
1
  6
Continuous
 62
     2
100
AcDbCircle
 10
48.05009142363
 20
174.6171883461933
 30
0.0
 40
0.2569317459375318
100
AcDbArc
 50
51.41249293114033
 51
162.4575022828867
  0
ARC
  5
262
102
{ACAD_REACTORS
330
2CD
330
2CD
102
}
330
33
100
AcDbEntity
  8
1
  6
Continuous
 62
     2
100
AcDbCircle
 10
46.7338243693658
 20
173.2606242694453
 30
0.0
 40
0.2099386991565884
100
AcDbArc
 50
168.8730374975265
 51
-129.7688233324011
  0
ARC
  5
263
102
{ACAD_REACTORS
330
2CD
330
2CD
102
}
330
33
100
AcDbEntity
  8
1
  6
Continuous
 62
     2
100
AcDbCircle
 10
46.8148186693166
 20
173.4495291415883
 30
0.0
 40
0.1335983450705441
100
AcDbArc
 50
44.98640991553324
 51
107.4935768753588
  0
ARC
  5
264
102
{ACAD_REACTORS
330
2D1
330
2D1
102
}
330
33
100
AcDbEntity
  8
1
  6
Continuous
 62
     2
100
AcDbCircle
 10
50.8906507079825
 20
177.3633564994023
 30
0.0
 40
0.5153414054987646
100
AcDbArc
 50
45.00294978128329
 51
135.4213236203731
  0
ARC
  5
265
102
{ACAD_REACTORS
330
2D1
330
2D1
102
}
330
33
100
AcDbEntity
  8
1
  6
Continuous
 62
     2
100
AcDbCircle
 10
50.8636735021571
 20
176.9854900415753
 30
0.0
 40
0.3435563581195011
100
AcDbArc
 50
44.99999999998827
 51
-134.9999999999748
  0
ARC
  5
266
102
{ACAD_REACTORS
330
2D2
330
2D2
102
}
330
33
100
AcDbEntity
  8
1
  6
Continuous
 62
     2
100
AcDbCircle
 10
45.6271865728623
 20
171.7490031122803
 30
0.0
 40
0.3435563581195011
100
AcDbArc
 50
44.99999999998827
 51
-135.0000000000017
  0
ARC
  5
267
102
{ACAD_REACTORS
330
2D2
330
2D2
102
}
330
33
100
AcDbEntity
  8
1
  6
Continuous
 62
     2
100
AcDbCircle
 10
45.6541639515319
 20
172.1269169078863
 30
0.0
 40
0.5153078097769904
100
AcDbArc
 50
44.9992417992243
 51
135.4176153528058
  0
ARC
  5
268
102
{ACAD_REACTORS
330
2D2
330
2D2
102
}
330
33
100
AcDbEntity
  8
1
  6
Continuous
 62
     2
100
AcDbCircle
 10
45.6664370097356
 20
171.9858195831103
 30
0.0
 40
0.6298281181361788
100
AcDbArc
 50
127.0292617505175
 51
-166.1942609000266
  0
ARC
  5
269
102
{ACAD_REACTORS
330
2CD
330
2CD
102
}
330
33
100
AcDbEntity
  8
1
  6
Continuous
 62
     2
100
AcDbCircle
 10
46.833536183946
 20
172.9432573071003
 30
0.0
 40
0.6376800610280912
100
AcDbArc
 50
-45.64543214772999
 51
3.60277643669354
  0
ARC
  5
26A
102
{ACAD_REACTORS
330
2CD
330
2CD
102
}
330
33
100
AcDbEntity
  8
1
  6
Continuous
 62
     2
100
AcDbCircle
 10
47.138715499676
 20
172.6788569083433
 30
0.0
 40
0.2376314694077404
100
AcDbArc
 50
161.0129138537523
 51
-53.71804508135931
  0
ARC
  5
26B
102
{ACAD_REACTORS
330
2CD
330
2CD
102
}
330
33
100
AcDbEntity
  8
1
  6
Continuous
 62
     2
100
AcDbCircle
 10
46.8428059556881
 20
172.8790241557713
 30
0.0
 40
0.7825303563658176
100
AcDbArc
 50
-50.08630099827295
 51
4.20373427360063
  0
ARC
  5
26C
102
{ACAD_REACTORS
330
2CD
330
2CD
102
}
330
33
100
AcDbEntity
  8
1
  6
Continuous
 62
     2
100
AcDbCircle
 10
46.9767782393667
 20
172.4603107574483
 30
0.0
 40
0.3884396077166057
100
AcDbArc
 50
154.0304157285927
 51
-45.00003671088276
  0
ARC
  5
26D
102
{ACAD_REACTORS
330
2CD
330
2CD
102
}
330
33
100
AcDbEntity
  8
1
  6
Continuous
 62
     2
100
AcDbCircle
 10
46.8111061302467
 20
173.3992702005753
 30
0.0
 40
0.1717619425966111
100
AcDbArc
 50
-25.97577087018263
 51
45.00812252343523
  0
ARC
  5
26E
102
{ACAD_REACTORS
330
2CF
330
2CF
102
}
330
33
100
AcDbEntity
  8
1
  6
Continuous
 62
     2
100
AcDbCircle
 10
47.9760551989677
 20
174.6347691517243
 30
0.0
 40
0.1811247124912306
100
AcDbArc
 50
160.7008488613163
 51
-82.44723994384907
  0
ARC
  5
26F
102
{ACAD_REACTORS
330
2CE
330
2CE
102
}
330
33
100
AcDbEntity
  8
1
  6
Continuous
 62
     2
100
AcDbCircle
 10
42.6850746611768
 20
169.7516282652063
 30
0.0
 40
0.706195447647969
100
AcDbArc
 50
45.0000000000053
 51
134.9999999999715
  0
ARC
  5
270
102
{ACAD_REACTORS
330
2D0
330
2D0
102
}
330
33
100
AcDbEntity
  8
1
  6
Continuous
 62
     2
100
AcDbCircle
 10
44.4395346185347
 20
169.9796760272023
 30
0.0
 40
0.2376314694080912
100
AcDbArc
 50
161.0129138540278
 51
-53.71804508159386
  0
ARC
  5
271
330
33
100
AcDbEntity
  8
1
  6
Continuous
 62
     2
100
AcDbCircle
 10
49.7029687083561
 20
175.5009405569483
 30
0.0
 40
0.3435227617606141
100
AcDbArc
 50
-134.9999999999623
 51
45.00000000002347
  0
ARC
  5
272
102
{ACAD_REACTORS
330
2D0
330
2D0
102
}
330
33
100
AcDbEntity
  8
1
  6
Continuous
 62
     2
100
AcDbCircle
 10
44.2306320486356
 20
170.8652734271343
 30
0.0
 40
0.4008217210656815
100
AcDbArc
 50
51.34505507089239
 51
135.0027422795797
  0
ARC
  5
273
330
33
100
AcDbEntity
  8
1
  6
Continuous
 62
     2
100
AcDbCircle
 10
49.4330506202429
 20
175.7708586450613
 30
0.0
 40
0.343522761760594
100
AcDbArc
 50
45.00000000003436
 51
-134.999999999974
  0
ARC
  5
274
102
{ACAD_REACTORS
330
2D0
330
2D0
102
}
330
33
100
AcDbEntity
  8
1
  6
Continuous
 62
     2
100
AcDbCircle
 10
44.0024607162712
 20
170.4833381939873
 30
0.0
 40
0.553478518495645
100
AcDbArc
 50
171.0782575144016
 51
-136.3801518007563
  0
ARC
  5
275
102
{ACAD_REACTORS
330
2D0
330
2D0
102
}
330
33
100
AcDbEntity
  8
1
  6
Continuous
 62
     2
100
AcDbCircle
 10
43.7762322667325
 20
170.5188338401323
 30
0.0
 40
0.3244823357958034
100
AcDbArc
 50
134.9952775438914
 51
171.0749880298436
  0
ARC
  5
276
102
{ACAD_REACTORS
330
2D0
330
2D0
102
}
330
33
100
AcDbEntity
  8
1
  6
Continuous
 62
     2
100
AcDbCircle
 10
44.1844719617365
 20
170.5318775179573
 30
0.0
 40
0.3626564350938766
100
AcDbArc
 50
107.4901923227579
 51
168.8579285622727
  0
ARC
  5
277
102
{ACAD_REACTORS
330
2D0
330
2D0
102
}
330
33
100
AcDbEntity
  8
1
  6
Continuous
 62
     2
100
AcDbCircle
 10
44.0346654329241
 20
170.5613815961953
 30
0.0
 40
0.2099721637829783
100
AcDbArc
 50
168.8576486572127
 51
-129.7858837869625
  0
ARC
  5
278
102
{ACAD_REACTORS
330
2CE
330
2CE
102
}
330
33
100
AcDbEntity
  8
1
  6
Continuous
 62
     2
100
AcDbCircle
 10
42.5770789184759
 20
169.5626713497983
 30
0.0
 40
0.3817218209415496
100
AcDbArc
 50
45.00000000007315
 51
134.9999999998733
  0
ARC
  5
279
102
{ACAD_REACTORS
330
2CF
330
2CF
102
}
330
33
100
AcDbEntity
  8
1
  6
Continuous
 62
     2
100
AcDbCircle
 10
48.8902920340018
 20
174.3702167289783
 30
0.0
 40
0.3435268015141331
100
AcDbArc
 50
-31.39055207565006
 51
96.049600125683
  0
ARC
  5
27A
102
{ACAD_REACTORS
330
2D0
330
2D0
102
}
330
33
100
AcDbEntity
  8
1
  6
Continuous
 62
     2
100
AcDbCircle
 10
44.1118712883753
 20
170.7000802738423
 30
0.0
 40
0.1718064932270724
100
AcDbArc
 50
-25.96517718214292
 51
44.99752883596593
  0
ARC
  5
27B
102
{ACAD_REACTORS
330
2D0
330
2D0
102
}
330
33
100
AcDbEntity
  8
1
  6
Continuous
 62
     2
100
AcDbCircle
 10
44.1156241233899
 20
170.7502924592923
 30
0.0
 40
0.1336474611635155
100
AcDbArc
 50
44.99918823719913
 51
107.480798553404
  0
ARC
  5
27C
102
{ACAD_REACTORS
330
2D0
330
2D0
102
}
330
33
100
AcDbEntity
  8
1
  6
Continuous
 62
     2
100
AcDbCircle
 10
44.1344050358483
 20
170.2440573139883
 30
0.0
 40
0.63763162763387
100
AcDbArc
 50
-45.64742692037326
 51
3.60477120933869
  0
ARC
  5
27D
330
33
100
AcDbEntity
  8
1
  6
Continuous
 62
     2
100
AcDbCircle
 10
52.5911134142005
 20
178.9289158782043
 30
0.0
 40
0.343528600911903
100
AcDbArc
 50
61.12640102807588
 51
-135.000655817807
  0
ARC
  5
27E
102
{ACAD_REACTORS
330
2CE
330
2CE
102
}
330
33
100
AcDbEntity
  8
1
  6
Continuous
 62
     2
100
AcDbCircle
 10
42.5770789184759
 20
169.5626713497983
 30
0.0
 40
0.3817218209400725
100
AcDbArc
 50
-44.99999999987256
 51
45.00000000007315
  0
ARC
  5
27F
102
{ACAD_REACTORS
330
2D0
330
2D0
102
}
330
33
100
AcDbEntity
  8
1
  6
Continuous
 62
     2
100
AcDbCircle
 10
44.138365958802
 20
170.1817694494733
 30
0.0
 40
0.7876375059132369
100
AcDbArc
 50
-50.2540851211975
 51
4.03595015076572
  0
ARC
  5
280
102
{ACAD_REACTORS
330
2CF
330
2CF
102
}
330
33
100
AcDbEntity
  8
1
  6
Continuous
 62
     2
100
AcDbCircle
 10
48.9117643546797
 20
173.6641785339703
 30
0.0
 40
1.731770296198026
100
AcDbArc
 50
119.5680779359876
 51
149.5731240903446
  0
ARC
  5
281
102
{ACAD_REACTORS
330
2CF
330
2CF
102
}
330
33
100
AcDbEntity
  8
1
  6
Continuous
 62
     2
100
AcDbCircle
 10
47.6030822183499
 20
175.1554972312493
 30
0.0
 40
1.851364516235564
100
AcDbArc
 50
-59.47032675987924
 51
-31.38673698189836
  0
ARC
  5
282
102
{ACAD_REACTORS
330
2D0
330
2D0
102
}
330
33
100
AcDbEntity
  8
1
  6
Continuous
 62
     2
100
AcDbCircle
 10
44.2775973582254
 20
169.7611298763073
 30
0.0
 40
0.3884396077165933
100
AcDbArc
 50
154.0304157285965
 51
-45.00003671085386
  0
ARC
  5
283
330
33
100
AcDbEntity
  8
1
  6
Continuous
 62
     2
100
AcDbCircle
 10
52.8610334761672
 20
178.6590090180093
 30
0.0
 40
0.3435379359609513
100
AcDbArc
 50
-134.9995644463215
 51
28.86261256516098
  0
ARC
  5
284
102
{ACAD_REACTORS
330
2CF
330
2CF
102
}
330
33
100
AcDbEntity
  8
1
  6
Continuous
 62
     2
100
AcDbCircle
 10
48.3170590715276
 20
174.7298376916833
 30
0.0
 40
0.5115025542033522
100
AcDbArc
 50
60.63046355102827
 51
120.5315098262005
  0
ARC
  5
285
102
{ACAD_REACTORS
330
2CF
330
2CF
102
}
330
33
100
AcDbEntity
  8
1
  6
Continuous
 62
     2
100
AcDbCircle
 10
47.7085079951541
 20
174.3642862768933
 30
0.0
 40
0.3397172329626342
100
AcDbArc
 50
148.6136143302918
 51
-67.6131263458817
  0
ARC
  5
286
330
33
100
AcDbEntity
  8
1
  6
Continuous
 62
     7
100
AcDbCircle
 10
51.9420384259796
 20
158.0869929929753
 30
0.0
 40
1.999999999999931
100
AcDbArc
 50
-135.0000000000022
 51
-44.9999999999977
  0
ARC
  5
287
330
33
100
AcDbEntity
  8
1
  6
Continuous
 62
     7
100
AcDbCircle
 10
51.9420384259796
 20
158.0869929929753
 30
0.0
 40
1.999999999999931
100
AcDbArc
 50
-135.0000000000022
 51
-44.9999999999977
  0
ARC
  5
288
330
33
100
AcDbEntity
  8
1
  6
Continuous
 62
     7
100
AcDbCircle
 10
66.0841740497106
 20
194.8565456146763
 30
0.0
 40
1.999999999999956
100
AcDbArc
 50
44.99999999999827
 51
135.0000000000014
  0
ARC
  5
289
330
33
100
AcDbEntity
  8
1
  6
Continuous
 62
     7
100
AcDbCircle
 10
40.6283299269949
 20
169.4007014919603
 30
0.0
 40
1.999999999999951
100
AcDbArc
 50
135.0000000000016
 51
-135.0000000000022
  0
ARC
  5
28A
330
33
100
AcDbEntity
  8
1
  6
Continuous
 62
     7
100
AcDbCircle
 10
77.39788254869529
 20
183.5428371156913
 30
0.0
 40
1.999999999999936
100
AcDbArc
 50
-44.9999999999977
 51
44.9999999999977
  0
CIRCLE
  5
28B
330
33
100
AcDbEntity
  8
0
  6
Continuous
 62
     7
100
AcDbCircle
 10
182.728202835628
 20
103.7566727060393
 30
0.0
 40
58.5
  0
CIRCLE
  5
28C
330
33
100
AcDbEntity
  8
1
  6
Continuous
 62
     3
100
AcDbCircle
 10
117.852913736015
 20
152.1732076705073
 30
0.0
 40
4.0
  0
CIRCLE
  5
28D
330
33
100
AcDbEntity
  8
1
  6
Continuous
 62
     3
100
AcDbCircle
 10
94.8529137360151
 20
152.1732076705073
 30
0.0
 40
4.000000000000199
  0
CIRCLE
  5
28E
102
{ACAD_REACTORS
330
2CA
330
2CA
102
}
330
33
100
AcDbEntity
  8
1
  6
Continuous
 62
     2
100
AcDbCircle
 10
135.176033409337
 20
182.1777310902963
 30
0.0
 40
0.75
  0
CIRCLE
  5
28F
102
{ACAD_REACTORS
330
2CB
330
2CB
102
}
330
33
100
AcDbEntity
  8
1
  6
Continuous
 62
     2
100
AcDbCircle
 10
77.5297940626929
 20
182.1777310902963
 30
0.0
 40
0.75
  0
SPLINE
  5
290
330
33
100
AcDbEntity
  8
0
  6
Continuous
 62
     9
100
AcDbSpline
210
0.0
220
0.0
230
1.0
 70
     8
 71
     3
 72
     9
 73
     5
 74
     3
 42
0.0000000001
 43
0.0000000001
 44
0.00000001
 40
0.0
 40
0.0
 40
0.0
 40
0.0
 40
0.1407816232057511
 40
0.2815632464119356
 40
0.2815632464119356
 40
0.2815632464119356
 40
0.2815632464119356
 10
330.984350063131
 20
256.7137761591063
 30
0.0
 10
331.0283670279553
 20
256.7300452180022
 30
0.0
 10
331.116400957604
 20
256.762583335794
 30
0.0
 10
331.2042238633553
 20
256.7956867964022
 30
0.0
 10
331.248135316231
 20
256.8122385267063
 30
0.0
 11
330.984350063131
 21
256.7137761591063
 31
0.0
 11
331.1163482016295
 21
256.7627246714981
 31
0.0
 11
331.248135316231
 21
256.8122385267063
 31
0.0
  0
SPLINE
  5
291
330
33
100
AcDbEntity
  8
0
  6
Continuous
 62
     7
100
AcDbSpline
210
0.0
220
0.0
230
1.0
 70
     8
 71
     3
 72
     9
 73
     5
 74
     3
 42
0.0000000001
 43
0.0000000001
 44
0.00000001
 40
0.0
 40
0.0
 40
0.0
 40
0.0
 40
0.3822500494212038
 40
0.7645000988425551
 40
0.7645000988425551
 40
0.7645000988425551
 40
0.7645000988425551
 10
235.884410701428
 20
115.4696052581393
 30
0.0
 10
235.8485046515148
 20
115.5918595855412
 30
0.0
 10
235.7766925516883
 20
115.836368240345
 30
0.0
 10
235.7018232181815
 20
116.0799581474752
 30
0.0
 10
235.664388551428
 20
116.2017531010403
 30
0.0
 11
235.884410701428
 21
115.4696052581393
 31
0.0
 11
235.7759282432682
 21
115.8361385534265
 31
0.0
 11
235.664388551428
 21
116.2017531010403
 31
0.0
  0
SPLINE
  5
292
330
33
100
AcDbEntity
  8
0
  6
Continuous
 62
     7
100
AcDbSpline
210
0.0
220
0.0
230
1.0
 70
     8
 71
     3
 72
    39
 73
    35
 74
    33
 42
0.0000000001
 43
0.0000000001
 44
0.00000001
 40
0.0
 40
0.0
 40
0.0
 40
0.0
 40
1.129753868527976
 40
2.259507737055308
 40
2.534128546748974
 40
2.808749354041207
 40
3.083370161809333
 40
3.357990970148572
 40
3.624723675341663
 40
3.891456380323813
 40
4.158189084965718
 40
4.424921789587629
 40
4.682280674673141
 40
4.939639559693059
 40
5.196998444272015
 40
5.454357328785083
 40
5.700313605565452
 40
5.946269882281288
 40
6.192226158529173
 40
6.438182434710312
 40
6.671372572582306
 40
6.904562710387918
 40
7.137752847749005
 40
7.370942985046825
 40
7.589432825054236
 40
7.807922664973396
 40
8.02641250435137
 40
8.244902343738733
 40
8.447494613608939
 40
8.650086883158085
 40
8.852679152115558
 40
9.055271421958789
 40
9.759252050263825
 40
10.46323267856842
 40
10.46323267856842
 40
10.46323267856842
 40
10.46323267856842
 10
235.812475873728
 20
105.0066727060393
 30
0.0
 10
235.8131115253644
 20
105.3832568355195
 30
0.0
 10
235.8143828286375
 20
106.1364250944798
 30
0.0
 10
235.817112668575
 20
106.9811305543678
 30
0.0
 10
235.8192900034918
 20
107.5407914739505
 30
0.0
 10
235.8204408239345
 20
107.81540987686
 30
0.0
 10
235.82167077199
 20
108.0900279336024
 30
0.0
 10
235.8229680200482
 20
108.3620162844418
 30
0.0
 10
235.8243295629392
 20
108.6313749196452
 30
0.0
 10
235.8257527275304
 20
108.898103831397
 30
0.0
 10
235.8272506661263
 20
109.1648323334688
 30
0.0
 10
235.828804838237
 20
109.4284358534861
 30
0.0
 10
235.8304120948768
 20
109.6889143895308
 30
0.0
 10
235.8320693694866
 20
109.9462679414352
 30
0.0
 10
235.8337958539617
 20
110.2036210381291
 30
0.0
 10
235.8355649417244
 20
110.4571728849046
 30
0.0
 10
235.8373730217788
 20
110.7069234888677
 30
0.0
 10
235.8392166115937
 20
110.9528728586451
 30
0.0
 10
235.8411231999702
 20
111.19882174791
 30
0.0
 10
235.8430586838022
 20
111.4405148977682
 30
0.0
 10
235.845019280993
 20
111.677952322859
 30
0.0
 10
235.8470013719937
 20
111.9111340389092
 30
0.0
 10
235.8490401443528
 20
112.1443152660631
 30
0.0
 10
235.8510916153461
 20
112.3725960888651
 30
0.0
 10
235.8531517345245
 20
112.5959765303685
 30
0.0
 10
235.8552166620317
 20
112.8144566141174
 30
0.0
 10
235.8573317317019
 20
113.0329362179973
 30
0.0
 10
235.8594445832019
 20
113.2461163993441
 30
0.0
 10
235.8615511351172
 20
113.4539971875281
 30
0.0
 10
235.8636476851275
 20
113.6565786098502
 30
0.0
 10
235.865787673511
 20
113.8591595789715
 30
0.0
 10
235.8697760295768
 20
114.228859786666
 30
0.0
 10
235.875798330249
 20
114.7656772771382
 30
0.0
 10
235.881539911035
 20
115.2349625978056
 30
0.0
 10
235.884410701428
 20
115.4696052581393
 30
0.0
 11
235.812475873728
 21
105.0066727060393
 31
0.0
 11
235.8146735053425
 21
106.1364244371153
 31
0.0
 11
235.8182334036281
 21
107.2661726969399
 31
0.0
 11
235.8193037416602
 21
107.5407914207977
 31
0.0
 11
235.8204540118695
 21
107.8154098190821
 31
0.0
 11
235.8216840787599
 21
108.0900278720114
 31
0.0
 11
235.8229938068282
 21
108.3646455571398
 31
0.0
 11
235.8243420483314
 21
108.631374854864
 31
0.0
 11
235.8257651898653
 21
108.8981037632622
 31
0.0
 11
235.8272631087046
 21
109.1648322618609
 31
0.0
 11
235.8288356821277
 21
109.4315603307396
 31
0.0
 11
235.8304236444894
 21
109.6889143167355
 31
0.0
 11
235.8320809044654
 21
109.9462678657456
 31
0.0
 11
235.8338073743211
 21
110.2036209593224
 31
0.0
 11
235.8356029663279
 21
110.4609735798398
 31
0.0
 11
235.8373835260447
 21
110.7069234115021
 31
0.0
 11
235.8392271113554
 21
110.952872778749
 31
0.0
 11
235.8411336952259
 21
111.1988216652349
 31
0.0
 11
235.8431032506282
 21
111.4447700554399
 31
0.0
 11
235.8450287194349
 21
111.6779522438048
 31
0.0
 11
235.8470108188884
 21
111.9111339576066
 31
0.0
 11
235.8490495997102
 21
112.1443151822694
 31
0.0
 11
235.8511451126282
 21
112.3774959039395
 31
0.0
 11
235.8531600674283
 21
112.5959764526014
 31
0.0
 11
235.8552250190609
 21
112.8144565343541
 31
0.0
 11
235.8573401150499
 21
113.0329361358742
 31
0.0
 11
235.8595055029281
 21
113.2514152447401
 31
0.0
 11
235.8615584175311
 21
113.4539971130126
 31
0.0
 11
235.8636549248585
 21
113.6565785345154
 31
0.0
 11
235.8657952512412
 21
113.8591594972052
 31
0.0
 11
235.8679796230281
 21
114.0617399906396
 31
0.0
 11
235.8759175372712
 21
114.7656758645275
 31
0.0
 11
235.884410701428
 21
115.4696052581393
 31
0.0
  0
SPLINE
  5
293
330
33
100
AcDbEntity
  8
0
  6
Continuous
 62
     7
100
AcDbSpline
210
0.0
220
0.0
230
1.0
 70
     8
 71
     3
 72
     9
 73
     5
 74
     3
 42
0.0000000001
 43
0.0000000001
 44
0.00000001
 40
0.0
 40
0.0
 40
0.0
 40
0.0
 40
0.382250049421346
 40
0.7645000988425473
 40
0.7645000988425473
 40
0.7645000988425473
 40
0.7645000988425473
 10
129.792017119828
 20
116.2017531010403
 30
0.0
 10
129.7545824530745
 20
116.0799581474752
 30
0.0
 10
129.6797131195676
 20
115.836368240345
 30
0.0
 10
129.6079010197412
 20
115.5918595855412
 30
0.0
 10
129.571994969828
 20
115.4696052581393
 30
0.0
 11
129.792017119828
 21
116.2017531010403
 31
0.0
 11
129.6804774279877
 21
115.8361385534266
 31
0.0
 11
129.571994969828
 21
115.4696052581393
 31
0.0
  0
SPLINE
  5
294
330
33
100
AcDbEntity
  8
0
  6
Continuous
 62
     7
100
AcDbSpline
210
0.0
220
0.0
230
1.0
 70
     8
 71
     3
 72
    35
 73
    31
 74
    29
 42
0.0000000001
 43
0.0000000001
 44
0.00000001
 40
0.0
 40
0.0
 40
0.0
 40
0.0
 40
0.7950227869222893
 40
1.59004557384456
 40
1.819504626153698
 40
2.048963677187154
 40
2.278422729021273
 40
2.507881781314104
 40
2.754625058785449
 40
3.001368336236552
 40
3.248111614461139
 40
3.49485489281467
 40
3.758267393221732
 40
4.02167989372053
 40
4.28509239486631
 40
4.548504896101534
 40
4.825607813706372
 40
5.102710731403032
 40
5.379813649679169
 40
5.65691656804008
 40
5.944487992825509
 40
6.232059417633103
 40
6.519630842893801
 40
6.807202268437348
 40
7.104725389103356
 40
7.402248509044664
 40
7.699771628493405
 40
7.997294751038779
 40
9.230263685268978
 40
10.4632326194992
 40
10.4632326194992
 40
10.4632326194992
 40
10.4632326194992
 10
235.884410701428
 20
92.0437401540398
 30
0.0
 10
235.8811767506322
 20
92.30872803363954
 30
0.0
 10
235.8747088490408
 20
92.83870379283908
 30
0.0
 10
235.8680002778346
 20
93.4451683665381
 30
0.0
 10
235.8635788179876
 20
93.86312527440948
 30
0.0
 10
235.8612095302543
 20
94.09257209712551
 30
0.0
 10
235.8588956395229
 20
94.32201948372361
 30
0.0
 10
235.856580796958
 20
94.55722855596576
 30
0.0
 10
235.8542695384651
 20
94.79819934383715
 30
0.0
 10
235.8519668886353
 20
95.04493187970604
 30
0.0
 10
235.8497279443382
 20
95.29166500218041
 30
0.0
 10
235.847503574102
 20
95.54395488495187
 30
0.0
 10
235.845298723828
 20
95.8018015546302
 30
0.0
 10
235.8431186204493
 20
96.0652050367628
 30
0.0
 10
235.8410107625609
 20
96.32860910723755
 30
0.0
 10
235.8389398716328
 20
96.59657708195449
 30
0.0
 10
235.8369103793069
 20
96.86910897476983
 30
0.0
 10
235.8349269133672
 20
97.14620479768854
 30
0.0
 10
235.833023542222
 20
97.42330118263487
 30
0.0
 10
235.8311773929694
 20
97.70388753359308
 30
0.0
 10
235.8293921272847
 20
97.98796385090213
 30
0.0
 10
235.8276715276851
 20
98.27553013279399
 30
0.0
 10
235.8260376664785
 20
98.56309692089552
 30
0.0
 10
235.8244728652384
 20
98.85398137353445
 30
0.0
 10
235.8229807505468
 20
99.14818348353796
 30
0.0
 10
235.821565365335
 20
99.44570324099206
 30
0.0
 10
235.8202427116807
 20
99.74322342926173
 30
0.0
 10
235.8177317684751
 20
100.3525566388559
 30
0.0
 10
235.8145961791722
 20
101.2737054268855
 30
0.0
 10
235.8131826422095
 20
102.0956836129884
 30
0.0
 10
235.812475873728
 20
102.5066727060398
 30
0.0
 11
235.884410701428
 21
92.0437401540398
 31
0.0
 11
235.8748601873361
 21
92.83870557429798
 31
0.0
 11
235.8660143444281
 21
93.63367914793983
 31
0.0
 11
235.8635884788827
 21
93.86312537663615
 31
0.0
 11
235.8612187630906
 21
94.09257219083987
 31
0.0
 11
235.8589049307114
 21
94.32201957619942
 31
0.0
 11
235.8566467154285
 21
94.55146751613975
 31
0.0
 11
235.8542801828594
 21
94.79819944455782
 31
0.0
 11
235.8519775062269
 21
95.0449319771668
 31
0.0
 11
235.8497385379168
 21
95.2916650968932
 31
0.0
 11
235.8475631303276
 21
95.53839878533981
 31
0.0
 11
235.8453107668406
 21
95.80180165591912
 31
0.0
 11
235.8431306613665
 21
96.06520513455817
 31
0.0
 11
235.8410228013959
 21
96.32860920188861
 31
0.0
 11
235.8389871744279
 21
96.59201383743978
 31
0.0
 11
235.8369237140973
 21
96.86910907210934
 31
0.0
 11
235.8349402625012
 21
97.14620489112465
 31
0.0
 11
235.8330369057166
 21
97.42330127246173
 31
0.0
 11
235.8312137298279
 21
97.70039819303973
 31
0.0
 11
235.8294065598319
 21
97.98796393941737
 31
0.0
 11
235.8276859840851
 21
98.27553021696912
 31
0.0
 11
235.8260521505832
 21
98.56309700088993
 31
0.0
 11
235.8245052073278
 21
98.85066426563978
 31
0.0
 11
235.8229963427751
 21
99.14818356023864
 31
0.0
 11
235.8215808205943
 21
99.44570331285443
 31
0.0
 11
235.8202588165823
 21
99.74322349521506
 31
0.0
 11
235.8190305065278
 21
100.0407440822398
 31
0.0
 11
235.814942295343
 21
101.2737062387175
 31
0.0
 11
235.812475873728
 21
102.5066727060398
 31
0.0
  0
SPLINE
  5
295
330
33
100
AcDbEntity
  8
0
  6
Continuous
 62
     7
100
AcDbSpline
210
0.0
220
0.0
230
1.0
 70
     8
 71
     3
 72
     9
 73
     5
 74
     3
 42
0.0000000001
 43
0.0000000001
 44
0.00000001
 40
0.0
 40
0.0
 40
0.0
 40
0.0
 40
0.3822500494688399
 40
0.7645000989378659
 40
0.7645000989378659
 40
0.7645000989378659
 40
0.7645000989378659
 10
235.664388551428
 20
91.3115923110398
 30
0.0
 10
235.7018232182105
 20
91.43338726461266
 30
0.0
 10
235.7766925517755
 20
91.67697717175841
 30
0.0
 10
235.8485046515439
 20
91.92148582661267
 30
0.0
 10
235.884410701428
 20
92.0437401540398
 30
0.0
 11
235.664388551428
 21
91.3115923110398
 31
0.0
 11
235.7759282433263
 21
91.67720685868548
 31
0.0
 11
235.884410701428
 21
92.0437401540398
 31
0.0
  0
SPLINE
  5
296
330
33
100
AcDbEntity
  8
0
  6
Continuous
 62
     7
100
AcDbSpline
210
0.0
220
0.0
230
1.0
 70
     8
 71
     3
 72
    35
 73
    31
 74
    29
 42
0.0000000001
 43
0.0000000001
 44
0.00000001
 40
0.0
 40
0.0
 40
0.0
 40
0.0
 40
1.232952765456127
 40
2.465905530912154
 40
2.763422073695721
 40
3.060938613382844
 40
3.358455153562745
 40
3.655971694467423
 40
3.943545598758793
 40
4.231119502767421
 40
4.518693406323274
 40
4.806267309856959
 40
5.083372981873532
 40
5.360478653805334
 40
5.637584325157529
 40
5.914689996417863
 40
6.17810463169925
 40
6.44151926689125
 40
6.704933901436227
 40
6.968348535889375
 40
7.215093616608817
 40
7.461838697199304
 40
7.708583777016299
 40
7.95532885685358
 40
8.18478961308905
 40
8.414250368865767
 40
8.643711123841761
 40
8.873171880093523
 40
9.66820224979938
 40
10.4632326195052
 40
10.4632326195052
 40
10.4632326195052
 40
10.4632326195052
 10
129.643929797528
 20
102.5066727060398
 30
0.0
 10
129.6432230403507
 20
102.0956890025705
 30
0.0
 10
129.6418095259962
 20
101.2737215956319
 30
0.0
 10
129.6386740057925
 20
100.3525857798972
 30
0.0
 10
129.6361631257528
 20
99.74326234622464
 30
0.0
 10
129.6348405146222
 20
99.44574873759302
 30
0.0
 10
129.6334251760103
 20
99.14823555975343
 30
0.0
 10
129.6319330965266
 20
98.85403700987577
 30
0.0
 10
129.630368315764
 20
98.5631530978896
 30
0.0
 10
129.6287344570711
 20
98.27558383098564
 30
0.0
 10
129.6270138584616
 20
97.98801507029525
 30
0.0
 10
129.6252285914829
 20
97.70393618255936
 30
0.0
 10
129.6233824385885
 20
97.42334716954754
 30
0.0
 10
129.6214790614097
 20
97.14624803092197
 30
0.0
 10
129.619495587834
 20
96.86914945433163
 30
0.0
 10
129.6174660876374
 20
96.59661501438518
 30
0.0
 10
129.6153951888662
 20
96.32864469907622
 30
0.0
 10
129.6132873233932
 20
96.06523849454754
 30
0.0
 10
129.611107211259
 20
95.80183287836812
 30
0.0
 10
129.608902351821
 20
95.54398418520802
 30
0.0
 10
129.6066779721517
 20
95.29169238951934
 30
0.0
 10
129.6044390183048
 20
95.04495746469146
 30
0.0
 10
129.6021363580097
 20
94.79822312647579
 30
0.0
 10
129.5998250883237
 20
94.55725056907217
 30
0.0
 10
129.5975102339145
 20
94.32203976011203
 30
0.0
 10
129.5951963307377
 20
94.09259066961013
 30
0.0
 10
129.5928270297649
 20
93.86314214299736
 30
0.0
 10
129.5884055383551
 20
93.44518157169865
 30
0.0
 10
129.5816969128578
 20
92.83871137508251
 30
0.0
 10
129.575228950838
 20
92.30873056105405
 30
0.0
 10
129.571994969828
 20
92.0437401540398
 30
0.0
 11
129.643929797528
 21
102.5066727060398
 31
0.0
 11
129.6414634189103
 21
101.2737224074379
 31
0.0
 11
129.6373752932278
 21
100.0407764195398
 31
0.0
 11
129.6361470215576
 21
99.74326241217446
 31
0.0
 11
129.6348250600423
 21
99.44574880945157
 31
0.0
 11
129.6334095844679
 21
99.14823563644991
 31
0.0
 11
129.6319007706278
 21
98.85072292143981
 31
0.0
 11
129.6303538314059
 21
98.56315317788457
 31
0.0
 11
129.6287200004172
 21
98.27558391516155
 31
0.0
 11
129.6269994256601
 21
97.98801515881125
 31
0.0
 11
129.6251922551281
 21
97.70044693363978
 31
0.0
 11
129.6233690748245
 21
97.42334725937556
 31
0.0
 11
129.6214657120086
 21
97.14624812435929
 31
0.0
 11
129.6194822527792
 21
96.86914955167254
 31
0.0
 11
129.6174187832281
 21
96.5920515633398
 31
0.0
 11
129.6153831498374
 21
96.32864479372837
 31
0.0
 11
129.6132752822809
 21
96.06523859234409
 31
0.0
 11
129.6110951680501
 21
95.80183297965824
 31
0.0
 11
129.6088427946278
 21
95.53842797503978
 31
0.0
 11
129.6066673784185
 21
95.29169248423321
 31
0.0
 11
129.6044284005606
 21
95.04495756215334
 31
0.0
 11
129.6021257134646
 21
94.79822322719764
 31
0.0
 11
129.5997591695282
 21
94.55148949643976
 31
0.0
 11
129.5975009425935
 21
94.32203985258894
 31
0.0
 11
129.595187097769
 21
94.09259076332566
 31
0.0
 11
129.5928173687303
 21
93.86314224522533
 31
0.0
 11
129.5903914891282
 21
93.63369431263978
 31
0.0
 11
129.5815455717068
 21
92.83871315657404
 31
0.0
 11
129.571994969828
 21
92.0437401540398
 31
0.0
  0
SPLINE
  5
297
330
33
100
AcDbEntity
  8
0
  6
Continuous
 62
     7
100
AcDbSpline
210
0.0
220
0.0
230
1.0
 70
     8
 71
     3
 72
     9
 73
     5
 74
     3
 42
0.0000000001
 43
0.0000000001
 44
0.00000001
 40
0.0
 40
0.0
 40
0.0
 40
0.0
 40
0.3822500494684492
 40
0.7645000989369618
 40
0.7645000989369618
 40
0.7645000989369618
 40
0.7645000989369618
 10
129.571994969828
 20
92.0437401540398
 30
0.0
 10
129.6079010197635
 20
91.92148582662811
 30
0.0
 10
129.6797131196346
 20
91.67697717180477
 30
0.0
 10
129.7545824530968
 20
91.43338726462815
 30
0.0
 10
129.792017119828
 20
91.3115923110398
 30
0.0
 11
129.571994969828
 21
92.0437401540398
 31
0.0
 11
129.6804774280324
 21
91.67720685871647
 31
0.0
 11
129.792017119828
 21
91.3115923110398
 31
0.0
  0
SPLINE
  5
298
330
33
100
AcDbEntity
  8
0
  6
Continuous
 62
     7
100
AcDbSpline
210
0.0
220
0.0
230
1.0
 70
     8
 71
     3
 72
    39
 73
    35
 74
    33
 42
0.0000000001
 43
0.0000000001
 44
0.00000001
 40
0.0
 40
0.0
 40
0.0
 40
0.0
 40
0.7039777018817625
 40
1.407955403763501
 40
1.610546597515844
 40
1.813137790382519
 40
2.015728983840886
 40
2.218320177620173
 40
2.436810000254123
 40
2.655299822878615
 40
2.873789646044452
 40
3.092279469298645
 40
3.325471101692296
 40
3.558662734149266
 40
3.791854367050665
 40
4.025046000018378
 40
4.271004490488932
 40
4.516962981026245
 40
4.762921472031532
 40
5.008879963101275
 40
5.266240670339223
 40
5.523601377643118
 40
5.780962085387982
 40
6.038322793198553
 40
6.305055754955539
 40
6.571788716732385
 40
6.838521678849174
 40
7.105254641176782
 40
7.379874257716286
 40
7.654493873684809
 40
7.929113489177563
 40
8.203733107071722
 40
9.333482892821083
 40
10.46323267857082
 40
10.46323267857082
 40
10.46323267857082
 40
10.46323267857082
 10
129.571994969828
 20
115.4696052581393
 30
0.0
 10
129.5748657485489
 20
115.2349635732103
 30
0.0
 10
129.5806073059906
 20
114.7656802033522
 30
0.0
 10
129.5866295834277
 20
114.2288650224115
 30
0.0
 10
129.5906179237476
 20
113.8591665075139
 30
0.0
 10
129.5927579023764
 20
113.6565866144404
 30
0.0
 10
129.594854443091
 20
113.4540062681707
 30
0.0
 10
129.5969609898087
 20
113.2461262029495
 30
0.0
 10
129.5990738399545
 20
113.0329463914734
 30
0.0
 10
129.6011889118332
 20
112.8144668043691
 30
0.0
 10
129.6032538415446
 20
112.595986737395
 30
0.0
 10
129.6053139676142
 20
112.3726058087381
 30
0.0
 10
129.6073654497565
 20
112.1443239948501
 30
0.0
 10
129.6094042370951
 20
111.9111412726741
 30
0.0
 10
129.6113863423453
 20
111.6779580615951
 30
0.0
 10
129.6133469550716
 20
111.4405189017464
 30
0.0
 10
129.6152824555099
 20
111.1988237773997
 30
0.0
 10
129.6171890613094
 20
110.9528726739139
 30
0.0
 10
129.6190326674179
 20
110.7069210899069
 30
0.0
 10
129.6208407616651
 20
110.4571684022239
 30
0.0
 10
129.622609861596
 20
110.2036146022394
 30
0.0
 10
129.6243363563126
 20
109.9462596828481
 30
0.0
 10
129.6259936401743
 20
109.6889043082405
 30
0.0
 10
129.6276009018254
 20
109.4284244713401
 30
0.0
 10
129.629155075194
 20
109.1648201723184
 30
0.0
 10
129.6306530117891
 20
108.8980914130964
 30
0.0
 10
129.6320761742345
 20
108.6313622441947
 30
0.0
 10
129.6334377123557
 20
108.3620038348137
 30
0.0
 10
129.6347349534978
 20
108.090016192771
 30
0.0
 10
129.6359648929864
 20
107.8153993278018
 30
0.0
 10
129.6371157055421
 20
107.5407821166693
 30
0.0
 10
129.6392930268912
 20
106.9811233525091
 30
0.0
 10
129.6420228509617
 20
106.1364210117085
 30
0.0
 10
129.6432941486726
 20
105.3832554745957
 30
0.0
 10
129.643929797528
 20
105.0066727060393
 30
0.0
 11
129.571994969828
 21
115.4696052581393
 31
0.0
 11
129.5804880999175
 21
114.7656787907522
 31
0.0
 11
129.588425984528
 21
114.0617458431396
 31
0.0
 11
129.5906103460966
 21
113.8591664257485
 31
0.0
 11
129.592750662722
 21
113.6565865391065
 31
0.0
 11
129.5948471607548
 21
113.4540061936559
 31
0.0
 11
129.5969000665278
 21
113.25142540144
 31
0.0
 11
129.5990654566075
 21
113.0329463093501
 31
0.0
 11
129.6011805548033
 21
112.8144667246057
 31
0.0
 11
129.6032455086387
 21
112.5959866596279
 31
0.0
 11
129.6052604656283
 21
112.3775061277401
 31
0.0
 11
129.6073559942747
 21
112.1443239110552
 31
0.0
 11
129.6093947900788
 21
111.9111411913703
 31
0.0
 11
129.6113769037841
 21
111.6779579825398
 31
0.0
 11
129.613302386128
 21
111.4447742991401
 31
0.0
 11
129.6152719600681
 21
111.1988236947231
 31
0.0
 11
129.6171785613595
 21
110.9528725940163
 31
0.0
 11
129.6190221629616
 21
110.7069210125399
 31
0.0
 11
129.6208027378277
 21
110.4609689666398
 31
0.0
 11
129.6225983410709
 21
110.2036145234316
 31
0.0
 11
129.6243248211689
 21
109.9462596071575
 31
0.0
 11
129.6259820903976
 21
109.6889042354443
 31
0.0
 11
129.6275700610277
 21
109.4315484267396
 31
0.0
 11
129.6291426325919
 21
109.1648201007105
 31
0.0
 11
129.63064054943
 21
108.8980913449615
 31
0.0
 11
129.6320636888178
 21
108.6313621794136
 31
0.0
 11
129.6334119280274
 21
108.3646326245399
 31
0.0
 11
129.6347216468424
 21
108.0900161311807
 31
0.0
 11
129.6359517051646
 21
107.8153992700246
 31
0.0
 11
129.6371019674916
 21
107.5407820635171
 31
0.0
 11
129.6381722983277
 21
107.2661645314398
 31
0.0
 11
129.6417321763552
 21
106.1364203543496
 31
0.0
 11
129.643929797528
 21
105.0066727060393
 31
0.0
  0
SPLINE
  5
299
330
33
100
AcDbEntity
  8
0
  6
Continuous
 62
     7
100
AcDbSpline
210
0.0
220
0.0
230
1.0
 70
     8
 71
     3
 72
    59
 73
    55
 74
    53
 42
0.0000000001
 43
0.0000000001
 44
0.00000001
 40
0.0
 40
0.0
 40
0.0
 40
0.0
 40
2.226121166400409
 40
4.452269220968896
 40
5.082671078378278
 40
5.712230687957091
 40
6.341780206610366
 40
6.971585193025645
 40
7.672419437620915
 40
8.373182529480577
 40
9.074001801090933
 40
9.774856866061999
 40
10.54783379548319
 40
11.32080588593549
 40
12.093765917124
 40
12.86673846961833
 40
13.70202686531733
 40
14.53731364833661
 40
15.37259560001418
 40
16.20788459460524
 40
17.08834798943452
 40
17.96881009314835
 40
18.84927254585751
 40
19.72973943904266
 40
20.63383012262837
 40
21.53791884312219
 40
22.4420067406183
 40
23.3460975447955
 40
24.25018834894785
 40
25.15427624641935
 40
26.05836496688865
 40
26.9624556504496
 40
27.84292254365948
 40
28.72338499639323
 40
29.60384710013145
 40
30.4843104949851
 40
31.31959948955165
 40
32.15488144120484
 40
32.99016822419986
 40
33.82545661987471
 40
34.59842917236867
 40
35.3713892035568
 40
36.14436129400933
 40
36.91733822343095
 40
37.61819328842426
 40
38.31901256005673
 40
39.01977565193733
 40
39.72060989655339
 40
40.35041488296849
 40
40.97996440162159
 40
41.60952401120096
 40
42.2399258686109
 40
44.46607392317931
 40
46.69219508957959
 40
46.69219508957959
 40
46.69219508957959
 40
46.69219508957959
 10
201.728202835628
 20
97.7566727060398
 30
0.0
 10
201.6374543911575
 20
97.01098670117727
 30
0.0
 10
201.455956406113
 20
95.51960568469603
 30
0.0
 10
200.4836218503594
 20
94.06736212967297
 30
0.0
 10
199.7157637167928
 20
93.1981942942351
 30
0.0
 10
199.2663336603438
 20
92.75564196463934
 30
0.0
 10
198.7923432781541
 20
92.34088355628563
 30
0.0
 10
198.2781035874524
 20
91.9372951004031
 30
0.0
 10
197.7250669695024
 20
91.54609408714013
 30
0.0
 10
197.1337857789525
 20
91.16943647840291
 30
0.0
 10
196.5263718710872
 20
90.8194609433186
 30
0.0
 10
195.8839533990898
 20
90.48328972308126
 30
0.0
 10
195.2072724835764
 20
90.16189054543594
 30
0.0
 10
194.4968253520532
 20
89.8569106408762
 30
0.0
 10
193.7760706049561
 20
89.577224598569
 30
0.0
 10
193.0269667172452
 20
89.31441210500766
 30
0.0
 10
192.2501622123693
 20
89.06898045375203
 30
0.0
 10
191.4461336928317
 20
88.8421481037973
 30
0.0
 10
190.6357710178212
 20
88.63915061026887
 30
0.0
 10
189.80534984913
 20
88.45567521000584
 30
0.0
 10
188.9554488670018
 20
88.29201802489662
 30
0.0
 10
188.0865746057845
 20
88.1489954196658
 30
0.0
 10
187.2142490021593
 20
88.02883834711042
 30
0.0
 10
186.3313275743227
 20
87.93003968881737
 30
0.0
 10
185.4383655420982
 20
87.852640752585
 30
0.0
 10
184.5358885787748
 20
87.79713153934478
 30
0.0
 10
183.6323153746159
 20
87.7639911794046
 30
0.0
 10
182.7282028356366
 20
87.75301346347406
 30
0.0
 10
181.8240902966653
 20
87.76399117940878
 30
0.0
 10
180.9205170925312
 20
87.79713153935094
 30
0.0
 10
180.0180401292325
 20
87.85264075259032
 30
0.0
 10
179.1250780970159
 20
87.9300396888195
 30
0.0
 10
178.2421566691706
 20
88.02883834710795
 30
0.0
 10
177.3698310655202
 20
88.14899541966079
 30
0.0
 10
176.500956804278
 20
88.29201802489138
 30
0.0
 10
175.6510558221418
 20
88.45567521000162
 30
0.0
 10
174.8206346534596
 20
88.63915061026736
 30
0.0
 10
174.0102719784743
 20
88.84214810379652
 30
0.0
 10
173.2062434589622
 20
89.06898045375247
 30
0.0
 10
172.4294389541041
 20
89.31441210501012
 30
0.0
 10
171.6803350664031
 20
89.57722459857449
 30
0.0
 10
170.9595803193074
 20
89.8569106408847
 30
0.0
 10
170.2491331877837
 20
90.16189054544358
 30
0.0
 10
169.5724522722605
 20
90.4832897230858
 30
0.0
 10
168.9300338002436
 20
90.81946094331776
 30
0.0
 10
168.3226198923515
 20
91.16943647839923
 30
0.0
 10
167.7313387017756
 20
91.54609408713542
 30
0.0
 10
167.1783020838084
 20
91.93729510039827
 30
0.0
 10
166.6640623930991
 20
92.34088355628211
 30
0.0
 10
166.1900720109095
 20
92.75564196463607
 30
0.0
 10
165.7406419544614
 20
93.19819429423326
 30
0.0
 10
164.9727838208977
 20
94.06736212967425
 30
0.0
 10
164.0004492651421
 20
95.51960568469563
 30
0.0
 10
163.8189512800982
 20
97.01098670117715
 30
0.0
 10
163.728202835628
 20
97.7566727060398
 30
0.0
 11
201.728202835628
 21
97.7566727060398
 31
0.0
 11
201.2883999592945
 21
95.5744287055979
 31
0.0
 11
200.1281105732279
 21
93.67456984203977
 31
0.0
 11
199.7100291556909
 21
93.20274950532732
 31
0.0
 11
199.2622146908948
 21
92.76024808484102
 31
0.0
 11
198.7888167862802
 21
92.3452456506999
 31
0.0
 11
198.2937858699282
 21
91.95588885703978
 31
0.0
 11
197.7218954134515
 21
91.55078400124522
 31
0.0
 11
197.1311140657077
 21
91.1738936855423
 31
0.0
 11
196.5241036287303
 21
90.82362809936372
 31
0.0
 11
195.9033384925283
 21
90.4982844844398
 31
0.0
 11
195.2052626656569
 21
90.16634552415475
 31
0.0
 11
194.4951034760224
 21
89.86112465659176
 31
0.0
 11
193.7746169957408
 21
89.58118458881573
 31
0.0
 11
193.0453400482286
 21
89.32497822523982
 31
0.0
 11
192.2489257213155
 21
89.07312325928311
 31
0.0
 11
191.4450764779402
 21
88.84612016720814
 31
0.0
 11
190.6348812278969
 21
88.64294636081175
 31
0.0
 11
189.8193076285282
 21
88.46253735743983
 31
0.0
 11
188.9547509061286
 21
88.29593164508866
 31
0.0
 11
188.0859996898782
 21
88.15280638407714
 31
0.0
 11
187.2137891916627
 21
88.032544264383
 31
0.0
 11
186.3387965479274
 21
87.93451455763982
 31
0.0
 11
185.4380865817161
 21
87.85640232483215
 31
0.0
 11
184.5357056048149
 21
87.80085966509334
 31
0.0
 11
183.6322265698494
 21
87.76768497931045
 31
0.0
 11
182.7282028356282
 21
87.75667270603978
 31
0.0
 11
181.824179101432
 21
87.76768497931431
 31
0.0
 11
180.9207000664912
 21
87.80085966509904
 31
0.0
 11
180.0183190896144
 21
87.85640232483684
 31
0.0
 11
179.1176091234276
 21
87.93451455763977
 31
0.0
 11
178.2426164796671
 21
88.03254426438056
 31
0.0
 11
177.3704059814265
 21
88.15280638407252
 31
0.0
 11
176.5016547651514
 21
88.29593164508415
 31
0.0
 11
175.6370980427279
 21
88.46253735743977
 31
0.0
 11
174.821524443384
 21
88.64294636081048
 31
0.0
 11
174.011329193366
 21
88.84612016720742
 31
0.0
 11
173.2074799500161
 21
89.07312325928329
 31
0.0
 11
172.4110656231283
 21
89.32497822523975
 31
0.0
 11
171.6817886756182
 21
89.58118458882079
 31
0.0
 11
170.9613021953381
 21
89.86112465659951
 31
0.0
 11
170.2511430057029
 21
90.16634552416141
 31
0.0
 11
169.5530671788278
 21
90.49828448443982
 31
0.0
 11
168.9323020426002
 21
90.82362809936274
 31
0.0
 11
168.3252916055961
 21
91.17389368553916
 31
0.0
 11
167.7345102578269
 21
91.55078400124137
 31
0.0
 11
167.1626198013275
 21
91.95588885703984
 31
0.0
 11
166.6675888849734
 21
92.34524565069688
 31
0.0
 11
166.1941909803588
 21
92.76024808483774
 31
0.0
 11
165.7463765155634
 21
93.20274950532554
 31
0.0
 11
165.3282950980275
 21
93.67456984203974
 31
0.0
 11
164.1680057119613
 21
95.57442870559797
 31
0.0
 11
163.728202835628
 21
97.7566727060398
 31
0.0
  0
SPLINE
  5
29A
330
33
100
AcDbEntity
  8
0
  6
Continuous
 62
     7
100
AcDbSpline
210
0.0
220
0.0
230
1.0
 70
     8
 71
     3
 72
    59
 73
    55
 74
    53
 42
0.0000000001
 43
0.0000000001
 44
0.00000001
 40
0.0
 40
0.0
 40
0.0
 40
0.0
 40
1.881880150265101
 40
3.76380562744259
 40
4.335115455055591
 40
4.905583310561888
 40
5.475967055438216
 40
6.046610759151374
 40
6.702736259481054
 40
7.358789730759334
 40
8.014942389474871
 40
8.671132287106548
 40
9.408809937570812
 40
10.14648369617288
 40
10.88413816842609
 40
11.62180543589752
 40
12.42753939529295
 40
13.23327226312523
 40
14.03900489770669
 40
14.84474465091529
 40
15.69893632012081
 40
16.55312695878974
 40
17.40731786383372
 40
18.26151323029592
 40
19.14082170128914
 40
20.02012831624587
 40
20.89943455456613
 40
21.77874366617939
 40
22.65805277779266
 40
23.53735901611304
 40
24.41666563107003
 40
25.29597410206343
 40
26.15016946855017
 40
27.0043603736185
 40
27.85855101231199
 40
28.71274268154211
 40
29.51848243475074
 40
30.3242150693324
 40
31.12994793716463
 40
31.93568189656013
 40
32.6733491640309
 40
33.41100363628331
 40
34.14867739488599
 40
34.886355045351
 40
35.54254494298468
 40
36.19869760170233
 40
36.85475107297911
 40
37.51087657330716
 40
38.08152027699898
 40
38.65190402185358
 40
39.222371877343
 40
39.79368170494066
 40
41.6756071821337
 40
43.55748733241445
 40
43.55748733241445
 40
43.55748733241445
 40
43.55748733241445
 10
164.728202835628
 20
97.7566727060398
 30
0.0
 10
164.8080665655871
 20
97.12648871729237
 30
0.0
 10
164.9677959491009
 20
95.86610556120368
 30
0.0
 10
165.8060393414362
 20
94.63448549148629
 30
0.0
 10
166.4722012995802
 20
93.88097445406561
 30
0.0
 10
166.8799584265275
 20
93.48042881560771
 30
0.0
 10
167.3098673568214
 20
93.1051462317593
 30
0.0
 10
167.7815768935052
 20
92.73544512197687
 30
0.0
 10
168.2942848081364
 20
92.37302192815288
 30
0.0
 10
168.8480473964952
 20
92.02068526458802
 30
0.0
 10
169.4169030556293
 20
91.69331585886624
 30
0.0
 10
170.0225821231037
 20
91.37656873066884
 30
0.0
 10
170.6645890207965
 20
91.07173732397753
 30
0.0
 10
171.342661112563
 20
90.78084937646214
 30
0.0
 10
172.0305626253525
 20
90.514106058431
 30
0.0
 10
172.7481872704784
 20
90.26244371853299
 30
0.0
 10
173.4949937466689
 20
90.02654327725722
 30
0.0
 10
174.2706002723772
 20
89.80782338226297
 30
0.0
 10
175.0523150400131
 20
89.61209285766472
 30
0.0
 10
175.8549552091285
 20
89.43480162832529
 30
0.0
 10
176.6779867930408
 20
89.27634077485527
 30
0.0
 10
177.5209423047644
 20
89.1376281873287
 30
0.0
 10
178.3672450459183
 20
89.0210991624687
 30
0.0
 10
179.2245507950642
 20
88.92518964154662
 30
0.0
 10
180.0923266947188
 20
88.84998094356538
 30
0.0
 10
180.970066651538
 20
88.79600601824073
 30
0.0
 10
181.8488726118746
 20
88.76378648049888
 30
0.0
 10
182.728202835628
 20
88.75311581299849
 30
0.0
 10
183.6075330593814
 20
88.76378648050036
 30
0.0
 10
184.486339019718
 20
88.79600601824316
 30
0.0
 10
185.3640789765375
 20
88.84998094356772
 30
0.0
 10
186.2318548762005
 20
88.92518964154776
 30
0.0
 10
187.0891606253631
 20
89.02109916246795
 30
0.0
 10
187.9354633665419
 20
89.13762818732695
 30
0.0
 10
188.7784188782902
 20
89.2763407748534
 30
0.0
 10
189.6014504622192
 20
89.4348016283234
 30
0.0
 10
190.4040906313431
 20
89.61209285766309
 30
0.0
 10
191.1858053989791
 20
89.80782338226095
 30
0.0
 10
191.9614119246875
 20
90.02654327725564
 30
0.0
 10
192.7082184008773
 20
90.26244371853261
 30
0.0
 10
193.425843046002
 20
90.51410605843277
 30
0.0
 10
194.1137445587906
 20
90.7808493764656
 30
0.0
 10
194.7918166505571
 20
91.07173732398115
 30
0.0
 10
195.4338235482522
 20
91.37656873067002
 30
0.0
 10
196.0395026157317
 20
91.69331585886135
 30
0.0
 10
196.6083582748697
 20
92.02068526457805
 30
0.0
 10
197.1621208632286
 20
92.37302192814249
 30
0.0
 10
197.6748287778471
 20
92.73544512197067
 30
0.0
 10
198.1465383145042
 20
93.10514623176333
 30
0.0
 10
198.5764472447656
 20
93.48042881561815
 30
0.0
 10
198.9842043716864
 20
93.88097445407767
 30
0.0
 10
199.6503663298172
 20
94.63448549149847
 30
0.0
 10
200.4886097222917
 20
95.86610556114772
 30
0.0
 10
200.6483391057144
 20
97.1264887172737
 30
0.0
 10
200.728202835628
 20
97.7566727060398
 30
0.0
 11
164.728202835628
 21
97.7566727060398
 31
0.0
 11
165.1098018100774
 21
95.91388809500654
 31
0.0
 11
166.0983712504277
 21
94.31252181483978
 31
0.0
 11
166.4774866836878
 21
93.88512690683169
 31
0.0
 11
166.8836969397562
 21
93.48459375960073
 31
0.0
 11
167.3130202656333
 21
93.10906866286682
 31
0.0
 11
167.7617498142278
 21
92.75654060893967
 31
0.0
 11
168.297266300727
 21
92.3774327550637
 31
0.0
 11
168.8505314931119
 21
92.02486533729574
 31
0.0
 11
169.4190102204769
 21
91.69719439248544
 31
0.0
 11
170.000280774328
 21
91.39271167543976
 31
0.0
 11
170.6665116506036
 21
91.07600244682213
 31
0.0
 11
171.3443058295415
 21
90.78487081829658
 31
0.0
 11
172.0319438256175
 21
90.51787249098395
 31
0.0
 11
172.7279386413284
 21
90.2734461953398
 31
0.0
 11
173.4961876930298
 21
90.03054578800575
 31
0.0
 11
174.2716180750448
 21
89.8116550002753
 31
0.0
 11
175.0531711905258
 21
89.61574735338156
 31
0.0
 11
175.8399010531277
 21
89.44175691343978
 31
0.0
 11
176.678664263497
 21
89.28014105818065
 31
0.0
 11
177.5214998848372
 21
89.14132548776551
 31
0.0
 11
178.3676904782927
 21
89.024691094008
 31
0.0
 11
179.2165770393283
 21
88.92960518243976
 31
0.0
 11
180.0925980027073
 21
88.85364032950818
 31
0.0
 11
180.9702444084814
 21
88.79963190851194
 31
0.0
 11
181.8489588929358
 21
88.7673779853574
 31
0.0
 11
182.728202835628
 21
88.75667270603977
 31
0.0
 11
183.6074467783201
 21
88.7673779853588
 31
0.0
 11
184.4861612627747
 21
88.79963190851419
 31
0.0
 11
185.363807668549
 21
88.85364032951018
 31
0.0
 11
186.2398286319284
 21
88.92960518243981
 31
0.0
 11
187.0887151929887
 21
89.02469109400725
 31
0.0
 11
187.934905786469
 21
89.14132548776388
 31
0.0
 11
188.7777414078341
 21
89.28014105817903
 31
0.0
 11
189.6165046182281
 21
89.44175691343982
 31
0.0
 11
190.4032344808303
 21
89.61574735338012
 31
0.0
 11
191.1847875963117
 21
89.81165500027345
 31
0.0
 11
191.9602179783265
 21
90.0305457880043
 31
0.0
 11
192.7284670300275
 21
90.27344619533973
 31
0.0
 11
193.4244618457371
 21
90.51787249098564
 31
0.0
 11
194.1120998418117
 21
90.78487081829957
 31
0.0
 11
194.7898940207503
 21
91.07600244682523
 31
0.0
 11
195.4561248970281
 21
91.39271167543987
 31
0.0
 11
196.0373954508839
 21
91.69719439248074
 31
0.0
 11
196.6058741782536
 21
92.02486533728728
 31
0.0
 11
197.159139370637
 21
92.37743275505491
 31
0.0
 11
197.6946558571278
 21
92.75654060893986
 31
0.0
 11
198.143385405692
 21
93.10906866287095
 31
0.0
 11
198.5727087315365
 21
93.48459375960907
 31
0.0
 11
198.9789189875801
 21
93.88512690684126
 31
0.0
 11
199.3580344208278
 21
94.31252181483977
 31
0.0
 11
200.3466038612614
 21
95.91388809497343
 31
0.0
 11
200.728202835628
 21
97.7566727060398
 31
0.0
  0
SPLINE
  5
29B
330
33
100
AcDbEntity
  8
0
  6
Continuous
 62
     9
100
AcDbSpline
210
0.0
220
0.0
230
1.0
 70
     8
 71
     3
 72
     9
 73
     5
 74
     3
 42
0.0000000001
 43
0.0000000001
 44
0.00000001
 40
0.0
 40
0.0
 40
0.0
 40
0.0
 40
0.0230623360000674
 40
0.046124671999428
 40
0.046124671999428
 40
0.046124671999428
 40
0.046124671999428
 10
164.066975276928
 20
255.8319196829063
 30
0.0
 10
164.0669764068451
 20
255.8396071281566
 30
0.0
 10
164.0669786666795
 20
255.854982018657
 30
0.0
 10
164.0669809273118
 20
255.8703569091573
 30
0.0
 10
164.066982057628
 20
255.8780443544073
 30
0.0
 11
164.066975276928
 21
255.8319196829063
 31
0.0
 11
164.066978666879
 21
255.8549820186572
 31
0.0
 11
164.066982057628
 21
255.8780443544073
 31
0.0
  0
SPLINE
  5
29C
330
33
100
AcDbEntity
  8
0
  6
Continuous
 62
     7
100
AcDbSpline
210
0.0
220
0.0
230
1.0
 70
     8
 71
     3
 72
   139
 73
   135
 74
   133
 42
0.0000000001
 43
0.0000000001
 44
0.00000001
 40
0.0
 40
0.0
 40
0.0
 40
0.0
 40
0.1031003712064044
 40
0.2065864299137852
 40
0.2600560044860334
 40
0.3129339690840205
 40
0.3647129913567492
 40
0.4166555271646116
 40
0.4941879395563683
 40
0.5716497436015233
 40
0.6497722379919663
 40
0.7279153083264016
 40
0.8368330514195934
 40
0.9457417692265081
 40
1.054368939221745
 40
1.162998851701028
 40
1.304518188795407
 40
1.446036712082676
 40
1.587666426277976
 40
1.729296474091204
 40
1.896809613865232
 40
2.064322602949496
 40
2.231796921457252
 40
2.399271305241642
 40
2.58485794811438
 40
2.770444560077266
 40
2.956042948942841
 40
3.141641349332511
 40
3.338293106042029
 40
3.534944855452383
 40
3.731593073767205
 40
3.928241292831171
 40
4.141899970413196
 40
4.355558647676543
 40
4.569218409173947
 40
4.782878173295527
 40
5.030913641827075
 40
5.27894911337267
 40
5.526984298208339
 40
5.775019493191221
 40
6.064881960420246
 40
6.354744441561134
 40
6.644607170636103
 40
6.934469917107197
 40
7.264707050708319
 40
7.594944212618269
 40
7.925181632089187
 40
8.255419088984317
 40
8.629644141034431
 40
9.003869237335795
 40
9.378094722907687
 40
9.75232027097674
 40
10.17712999133014
 40
10.60193979546665
 40
11.02675037368896
 40
11.45156105971463
 40
11.93353806046285
 40
12.41551518521749
 40
12.89749329649126
 40
13.37947158470367
 40
13.93059541174842
 40
14.48171946897763
 40
15.03284569437293
 40
15.58397217278522
 40
16.21885941405522
 40
16.85374720961157
 40
17.48863679974702
 40
18.12352616988717
 40
18.75758903129419
 40
19.39165210186958
 40
20.02571335630028
 40
20.65977406411255
 40
21.2107200561716
 40
21.76166579742015
 40
22.31260939346799
 40
22.86355275958226
 40
23.34551592267014
 40
23.8274789094513
 40
24.30944090784287
 40
24.79140278225329
 40
25.21626337041733
 40
25.64112385091897
 40
26.06598355844692
 40
26.49084318223571
 40
26.86518083534818
 40
27.23951842604308
 40
27.61385562767914
 40
27.98819278505366
 40
28.31859259508705
 40
28.64899236776307
 40
28.9793918825359
 40
29.30979136886665
 40
29.59971221760839
 40
29.88963304891571
 40
30.17955363188026
 40
30.46947420088215
 40
30.71727716701319
 40
30.96508012289323
 40
31.21288336471482
 40
31.46068660357943
 40
31.67432846620292
 40
31.88797032623319
 40
32.10161110265133
 40
32.31525187938184
 40
32.51190840425274
 40
32.70856492837998
 40
32.90522498358403
 40
33.10188504607739
 40
33.28740702740902
 40
33.47292899721697
 40
33.65843919676169
 40
33.84394942719723
 40
34.01135657353414
 40
34.17876365459878
 40
34.34620938240927
 40
34.51365526094622
 40
34.6552591602301
 40
34.7968627258677
 40
34.93835513742076
 40
35.07984836320842
 40
35.18848080371403
 40
35.29711050136525
 40
35.40602174444425
 40
35.5149420142411
 40
35.59308915787511
 40
35.6712157214271
 40
35.74868155822329
 40
35.82621801783328
 40
35.87815650097963
 40
35.92993146535694
 40
35.98280525367905
 40
36.03627065327789
 40
36.13973688772775
 40
36.24281754138068
 40
36.24281754138068
 40
36.24281754138068
 40
36.24281754138068
 10
164.728202835628
 20
252.3807709949073
 30
0.0
 10
164.7472562421585
 20
252.3499436859773
 30
0.0
 10
164.7854343319827
 20
252.2881737464401
 30
0.0
 10
164.8788116955438
 20
252.2780461080899
 30
0.0
 10
164.9470908841838
 20
252.2682903723499
 30
0.0
 10
164.9997614113591
 20
252.2631469335461
 30
0.0
 10
165.0517917179104
 20
252.2595648319057
 30
0.0
 10
165.1121791010738
 20
252.2570546911695
 30
0.0
 10
165.1811551431032
 20
252.2560468927341
 30
0.0
 10
165.2588637846559
 20
252.2569782708187
 30
0.0
 10
165.3367357122652
 20
252.2594989708189
 30
0.0
 10
165.4250327295306
 20
252.2636929488454
 30
0.0
 10
165.5235193789787
 20
252.2695244106475
 30
0.0
 10
165.6320641744197
 20
252.2772611371669
 30
0.0
 10
165.7404263243257
 20
252.2861190580779
 30
0.0
 10
165.8595330355023
 20
252.2968960910443
 30
0.0
 10
165.9894609482705
 20
252.3097024294893
 30
0.0
 10
166.1302236542485
 20
252.3246773468766
 30
0.0
 10
166.2709237292348
 20
252.3405588577259
 30
0.0
 10
166.420145494887
 20
252.358175927063
 30
0.0
 10
166.5778565427531
 20
252.3774616895403
 30
0.0
 10
166.7440384128164
 20
252.3984379628764
 30
0.0
 10
166.910138432539
 20
252.4199515770175
 30
0.0
 10
167.0821543613919
 20
252.4426872002959
 30
0.0
 10
167.260106499781
 20
252.4665827644754
 30
0.0
 10
167.4440016834165
 20
252.4916115866355
 30
0.0
 10
167.6278654546818
 20
252.5168986647057
 30
0.0
 10
167.8153569516794
 20
252.542878326409
 30
0.0
 10
168.0064809227526
 20
252.5694867964657
 30
0.0
 10
168.2012415533559
 20
252.5966850765488
 30
0.0
 10
168.3959961551424
 20
252.6239179565732
 30
0.0
 10
168.596366894454
 20
252.651923147853
 30
0.0
 10
168.8023623817703
 20
252.6806474942206
 30
0.0
 10
169.0139885950954
 20
252.7100504803568
 30
0.0
 10
169.2256343967326
 20
252.7393148365987
 30
0.0
 10
169.4486562554586
 20
252.769966538021
 30
0.0
 10
169.6830639189903
 20
252.8019306631787
 30
0.0
 10
169.9288674731267
 20
252.8351300088472
 30
0.0
 10
170.1747175474586
 20
252.8679825321285
 30
0.0
 10
170.4344405489744
 20
252.9022796380478
 30
0.0
 10
170.7080516446278
 20
252.9379019410938
 30
0.0
 10
170.9955661810565
 20
252.9747234406989
 30
0.0
 10
171.2831615102529
 20
253.0109094776276
 30
0.0
 10
171.5841972101502
 20
253.048074356028
 30
0.0
 10
171.8986904302405
 20
253.086064272778
 30
0.0
 10
172.2266575228255
 20
253.1247234051765
 30
0.0
 10
172.5547381837816
 20
253.1624078610382
 30
0.0
 10
172.8975046241414
 20
253.2007162673546
 30
0.0
 10
173.2549753979968
 20
253.2394517463597
 30
0.0
 10
173.6271683805706
 20
253.2784071699178
 30
0.0
 10
173.9995045156568
 20
253.3159718653417
 30
0.0
 10
174.3887641284153
 20
253.3537431777789
 30
0.0
 10
174.7949673253765
 20
253.3914519623467
 30
0.0
 10
175.2181319425768
 20
253.4288215821327
 30
0.0
 10
175.6414623754931
 20
253.4642680447113
 30
0.0
 10
176.0839479082835
 20
253.4992684855685
 30
0.0
 10
176.5456061656005
 20
253.5334755990552
 30
0.0
 10
177.0264515038475
 20
253.5665240197464
 30
0.0
 10
177.5074685148506
 20
253.5969799857855
 30
0.0
 10
178.0116546459709
 20
253.6261489862131
 30
0.0
 10
178.539022518487
 20
253.6535446394892
 30
0.0
 10
179.0895783231434
 20
253.6786597747351
 30
0.0
 10
179.6402834590076
 20
253.7002793261595
 30
0.0
 10
180.2190214332513
 20
253.7193010980904
 30
0.0
 10
180.8257898795515
 20
253.7350518521936
 30
0.0
 10
181.4605746486111
 20
253.7468275106625
 30
0.0
 10
182.0954300806416
 20
253.753894148532
 30
0.0
 10
182.7300455385917
 20
253.7562413170708
 30
0.0
 10
183.3643853657472
 20
253.7538667824444
 30
0.0
 10
183.9984140558886
 20
253.746787116952
 30
0.0
 10
184.6323721146539
 20
253.7350107060398
 30
0.0
 10
185.238529311675
 20
253.7192663090527
 30
0.0
 10
185.8168714751525
 20
253.7002519021955
 30
0.0
 10
186.3673961043021
 20
253.6786352421268
 30
0.0
 10
186.9177714862935
 20
253.6535253088323
 30
0.0
 10
187.4450140820508
 20
253.6261343666487
 30
0.0
 10
187.9491300269351
 20
253.5969682770216
 30
0.0
 10
188.4301318789261
 20
253.5665122617961
 30
0.0
 10
188.9109620638995
 20
253.5334639625595
 30
0.0
 10
189.3726267941689
 20
253.4992555718753
 30
0.0
 10
189.8151403994884
 20
253.4642520695577
 30
0.0
 10
190.2385204763666
 20
253.4288004266538
 30
0.0
 10
190.6617346953759
 20
253.3914251910994
 30
0.0
 10
191.0680081003582
 20
253.3537085053984
 30
0.0
 10
191.4573585005132
 20
253.3159267455964
 30
0.0
 10
191.8298059789977
 20
253.2783488514831
 30
0.0
 10
192.2021102162179
 20
253.2393794434528
 30
0.0
 10
192.5597088184329
 20
253.200627526763
 30
0.0
 10
192.9026196455651
 20
253.162300112672
 30
0.0
 10
193.2308612406537
 20
253.1245940043907
 30
0.0
 10
193.5589891581466
 20
253.0859123685195
 30
0.0
 10
193.8736086165569
 20
253.0479034746212
 30
0.0
 10
194.174736016912
 20
253.0107235550679
 30
0.0
 10
194.4623885558282
 20
252.974526784751
 30
0.0
 10
194.7499602859814
 20
252.9376944884531
 30
0.0
 10
195.0235326201401
 20
252.9020740295544
 30
0.0
 10
195.2831209897075
 20
252.8677920416688
 30
0.0
 10
195.528740620971
 20
252.8349683347363
 30
0.0
 10
195.7743138380518
 20
252.8017986142916
 30
0.0
 10
196.0085620557671
 20
252.7698552379905
 30
0.0
 10
196.2314953070791
 20
252.7392150087271
 30
0.0
 10
196.4431233018403
 20
252.7099525671712
 30
0.0
 10
196.6547317276778
 20
252.6805516362464
 30
0.0
 10
196.8607181007283
 20
252.6518282919255
 30
0.0
 10
197.0610883965559
 20
252.6238230322895
 30
0.0
 10
197.2558512270283
 20
252.5965890228402
 30
0.0
 10
197.4506201108435
 20
252.5693897889263
 30
0.0
 10
197.6417243909477
 20
252.5427844584392
 30
0.0
 10
197.8291682459731
 20
252.5168119828871
 30
0.0
 10
198.0129564084924
 20
252.4915360105736
 30
0.0
 10
198.1967759848498
 20
252.4665182965197
 30
0.0
 10
198.3746555371177
 20
252.4426333545607
 30
0.0
 10
198.5466018937028
 20
252.4199078309762
 30
0.0
 10
198.7126353372381
 20
252.3984037211699
 30
0.0
 10
198.8787505879585
 20
252.3774366998298
 30
0.0
 10
199.0364085611557
 20
252.3581581468577
 30
0.0
 10
199.1855908226507
 20
252.3405463756668
 30
0.0
 10
199.32626498915
 20
252.3246683556478
 30
0.0
 10
199.4670017678432
 20
252.3096966759824
 30
0.0
 10
199.596913225064
 20
252.2968922700416
 30
0.0
 10
199.716012966393
 20
252.2861160906309
 30
0.0
 10
199.8243776593233
 20
252.2772582578005
 30
0.0
 10
199.932925006971
 20
252.2695217916499
 30
0.0
 10
200.0314147280155
 20
252.2636907279683
 30
0.0
 10
200.1197153319438
 20
252.2594972850023
 30
0.0
 10
200.1975913435043
 20
252.2569772669512
 30
0.0
 10
200.275304049813
 20
252.2560468868219
 30
0.0
 10
200.3442814185901
 20
252.2570558974548
 30
0.0
 10
200.4046674012394
 20
252.2595671716952
 30
0.0
 10
200.4566935329399
 20
252.2631502914974
 30
0.0
 10
200.5093597767438
 20
252.2682952121909
 30
0.0
 10
200.5776291830161
 20
252.2780531826369
 30
0.0
 10
200.6709901867271
 20
252.2881864817857
 30
0.0
 10
200.7091557017313
 20
252.3499479225262
 30
0.0
 10
200.728202835628
 20
252.3807709949073
 30
0.0
 11
164.728202835628
 21
252.3807709949073
 31
0.0
 11
164.7943295182904
 21
252.3016701201778
 31
0.0
 11
164.8944736003278
 21
252.2755832043066
 31
0.0
 11
164.9474902371352
 21
252.2686383049863
 31
0.0
 11
165.000105011321
 21
252.2633690851765
 31
0.0
 11
165.0517610092929
 21
252.2598018704305
 31
0.0
 11
165.1036566926283
 21
252.2575961784063
 31
0.0
 11
165.1811797281108
 21
252.2563903837056
 31
0.0
 11
165.2586369002775
 21
252.2572374763025
 31
0.0
 11
165.3367207244822
 21
252.2596952247336
 31
0.0
 11
165.4147790682279
 21
252.2633331380067
 31
0.0
 11
165.5235080809699
 21
252.2697422369031
 31
0.0
 11
165.6321432540299
 21
252.2774563790171
 31
0.0
 11
165.7404118381018
 21
252.2862754358966
 31
0.0
 11
165.8486025806279
 21
252.2960335667066
 31
0.0
 11
165.9894425183647
 21
252.3098840074919
 31
0.0
 11
166.1301702588295
 21
252.3248237363071
 31
0.0
 11
166.2709097073967
 21
252.3406788162516
 31
0.0
 11
166.4115665228279
 21
252.3572538190063
 31
0.0
 11
166.5778432145987
 21
252.3775691770071
 31
0.0
 11
166.7440396929022
 21
252.3985294277565
 31
0.0
 11
166.9101289609899
 21
252.4200236685138
 31
0.0
 11
167.0761617384278
 21
252.4419505023072
 31
0.0
 11
167.2600990847089
 21
252.4666376377391
 31
0.0
 11
167.443991911455
 21
252.4916540086035
 31
0.0
 11
167.6278611592157
 21
252.516929721796
 31
0.0
 11
167.811704705328
 21
252.5423917873066
 31
0.0
 11
168.0064790204108
 21
252.5695004501464
 31
0.0
 11
168.201241908903
 21
252.596691033302
 31
0.0
 11
168.3959964439389
 21
252.6239158904977
 31
0.0
 11
168.5907527122276
 21
252.6511283513067
 31
0.0
 11
168.8023648067413
 21
252.6806300794192
 31
0.0
 11
169.0139914420333
 21
252.7100273174682
 31
0.0
 11
169.2256383693591
 21
252.7392860227826
 31
0.0
 11
169.437309127328
 21
252.7683718445066
 31
0.0
 11
169.6830709984791
 21
252.8018785056054
 31
0.0
 11
169.9288753362734
 21
252.8350722198649
 31
0.0
 11
170.1747259749108
 21
252.8679190826994
 31
0.0
 11
170.4206271866282
 21
252.9003852501063
 31
0.0
 11
170.7080645738638
 21
252.9378018016216
 31
0.0
 11
170.995579549141
 21
252.9746175178915
 31
0.0
 11
171.2831754287068
 21
253.0107977854915
 31
0.0
 11
171.570854839428
 21
253.0463079029066
 31
0.0
 11
171.8987092140593
 21
253.0859068100155
 31
0.0
 11
172.2266763477686
 21
253.124560947088
 31
0.0
 11
172.5547571466795
 21
253.1622404190164
 31
0.0
 11
172.8829518066276
 21
253.1989152485065
 31
0.0
 11
173.2549995221311
 21
253.2392251352654
 31
0.0
 11
173.6271920828332
 21
253.2781753658139
 31
0.0
 11
173.9995279482324
 21
253.3157348837688
 31
0.0
 11
174.3720045669278
 21
253.3518725283068
 31
0.0
 11
174.7949959435471
 21
253.3911356638469
 31
0.0
 11
175.2181592679987
 21
253.4285010292224
 31
0.0
 11
175.6414887791384
 21
253.4639432691032
 31
0.0
 11
176.0649770279281
 21
253.4974368819066
 31
0.0
 11
176.5456366705467
 21
253.533047796077
 31
0.0
 11
177.0264797164767
 21
253.5660919176033
 31
0.0
 11
177.5074948866615
 21
253.5965436137658
 31
0.0
 11
177.9886688330276
 21
253.6243771124067
 31
0.0
 11
178.5390506920344
 21
253.6529652570238
 31
0.0
 11
179.0896023424386
 21
253.6780771405473
 31
0.0
 11
179.6403044849185
 21
253.6996934905276
 31
0.0
 11
180.1911336196278
 21
253.717794859607
 31
0.0
 11
180.8258070993271
 21
253.7342685748471
 31
0.0
 11
181.460585709389
 21
253.7460426631048
 31
0.0
 11
182.0954359880812
 21
253.753107739663
 31
0.0
 11
182.7303210215275
 21
253.7554543591067
 31
0.0
 11
183.3643794463812
 21
253.7530824215638
 31
0.0
 11
183.9984030089375
 21
253.7460043151126
 31
0.0
 11
184.6323549215111
 21
253.7342294726713
 31
0.0
 11
185.2662018880281
 21
253.7177672666069
 31
0.0
 11
185.8168504572515
 21
253.6996664550737
 31
0.0
 11
186.3673720899556
 21
253.6780529934168
 31
0.0
 11
186.9177433286483
 21
253.6529463081318
 31
0.0
 11
187.4679448724283
 21
253.6243656523069
 31
0.0
 11
187.9491036556498
 21
253.5965319335021
 31
0.0
 11
188.4301036679427
 21
253.5660801880468
 31
0.0
 11
188.9109315601802
 21
253.5330361879866
 31
0.0
 11
189.3915760566285
 21
253.4974255657068
 31
0.0
 11
189.8151139890395
 21
253.4639272197161
 31
0.0
 11
190.2384931434781
 21
253.4284798012068
 31
0.0
 11
190.6617060697591
 21
253.391108821699
 31
0.0
 11
191.0847470037283
 21
253.3518396466068
 31
0.0
 11
191.4573350532709
 21
253.3156896275775
 31
0.0
 11
191.8297822618573
 21
253.2781169164234
 31
0.0
 11
192.2020860771788
 21
253.2391527068746
 31
0.0
 11
192.574244957928
 21
253.1988280882067
 31
0.0
 11
192.9026006640382
 21
253.162132519878
 31
0.0
 11
193.2308423976422
 21
253.1244314044431
 31
0.0
 11
193.5589703567202
 21
253.0857547728233
 31
0.0
 11
193.8869854507278
 21
253.0461325736069
 31
0.0
 11
194.1747220947444
 21
253.0106118440928
 31
0.0
 11
194.4623751852401
 21
252.9744208513711
 31
0.0
 11
194.7499473552777
 21
252.9375943466987
 31
0.0
 11
195.0374419283281
 21
252.900166993106
 31
0.0
 11
195.2831125813955
 21
252.8677287403052
 31
0.0
 11
195.5287327757919
 21
252.8349106805272
 31
0.0
 11
195.7743067747801
 21
252.8017465782745
 31
0.0
 11
196.0198384045278
 21
252.7682702585066
 31
0.0
 11
196.2314913374604
 21
252.7391862174141
 31
0.0
 11
196.4431204578927
 21
252.709929427736
 31
0.0
 11
196.6547293060708
 21
252.6805342457965
 31
0.0
 11
196.8663236336278
 21
252.6510347199067
 31
0.0
 11
197.0610881111267
 21
252.6238209903044
 31
0.0
 11
197.2558508755763
 21
252.5965950088573
 31
0.0
 11
197.4506220179735
 21
252.5694034770477
 31
0.0
 11
197.6454046156281
 21
252.542294072207
 31
0.0
 11
197.8291725425948
 21
252.5168430491319
 31
0.0
 11
198.012966178144
 21
252.4915784333014
 31
0.0
 11
198.1967833985497
 21
252.466573161509
 31
0.0
 11
198.3806451302284
 21
252.4418970755069
 31
0.0
 11
198.5466113612624
 21
252.4199798950083
 31
0.0
 11
198.7126340591403
 21
252.3984951427422
 31
0.0
 11
198.8787639084806
 21
252.3775441303525
 31
0.0
 11
199.0449739258281
 21
252.3572376690072
 31
0.0
 11
199.1856048408276
 21
252.340666306999
 31
0.0
 11
199.3263183671963
 21
252.3248147046142
 31
0.0
 11
199.4670201911702
 21
252.3098781970738
 31
0.0
 11
199.6078341748278
 21
252.2960306359069
 31
0.0
 11
199.7160274540603
 21
252.2862724875619
 31
0.0
 11
199.8242985820805
 21
252.2774535279277
 31
0.0
 11
199.9329363059494
 21
252.2697396559034
 31
0.0
 11
200.0416678791279
 21
252.2633310549066
 31
0.0
 11
200.1197303210878
 21
252.2596935814136
 31
0.0
 11
200.1978182383356
 21
252.2572365278222
 31
0.0
 11
200.2752794545272
 21
252.2563904447019
 31
0.0
 11
200.3528065157279
 21
252.2575976524068
 31
0.0
 11
200.4046981047464
 21
252.2598042381588
 31
0.0
 11
200.4563499621171
 21
252.2633725103494
 31
0.0
 11
200.5089603879724
 21
252.2686432392225
 31
0.0
 11
200.5619725217282
 21
252.2755903702072
 31
0.0
 11
200.6620955034234
 21
252.3016796440129
 31
0.0
 11
200.728202835628
 21
252.3807709949073
 31
0.0
  0
SPLINE
  5
29D
330
33
100
AcDbEntity
  8
0
  6
Continuous
 62
     9
100
AcDbSpline
210
0.0
220
0.0
230
1.0
 70
    24
 71
     3
 72
     9
 73
     5
 74
     3
 42
0.0000000001
 43
0.0000000001
 44
0.00000001
 40
0.0
 40
0.0
 40
0.0
 40
0.0
 40
0.0230728336988651
 40
0.0461456673986112
 40
0.0461456673986112
 40
0.0461456673986112
 40
0.0461456673986112
 10
201.389430397528
 20
255.8318969840073
 30
0.0
 10
201.3894292669279
 20
255.8395879284905
 30
0.0
 10
201.389427005728
 20
255.8549698174572
 30
0.0
 10
201.389424744528
 20
255.8703517064239
 30
0.0
 10
201.389423613928
 20
255.8780426509073
 30
0.0
 11
201.389430397528
 21
255.8318969840073
 31
0.0
 11
201.389427005728
 21
255.8549698174569
 31
0.0
 11
201.389423613928
 21
255.8780426509073
 31
0.0
  0
SPLINE
  5
29E
330
33
100
AcDbEntity
  8
0
  6
Continuous
 62
     7
100
AcDbSpline
210
0.0
220
0.0
230
1.0
 70
     8
 71
     3
 72
    91
 73
    87
 74
    85
 42
0.0000000001
 43
0.0000000001
 44
0.00000001
 40
0.0
 40
0.0
 40
0.0
 40
0.0
 40
0.3679591402852587
 40
0.7359182825130834
 40
0.9158426170020434
 40
1.09576545860149
 40
1.275684384078268
 40
1.455603764768128
 40
1.678570440344343
 40
1.901536989256025
 40
2.124505067911158
 40
2.347473192044994
 40
2.620055913310743
 40
2.892638612459261
 40
3.165220566440267
 40
3.437802524600325
 40
3.768656862827992
 40
4.099511200225995
 40
4.430365832698071
 40
4.761220477488482
 40
5.155692681206292
 40
5.550164916730981
 40
5.944637429305204
 40
6.339109984697565
 40
6.799227693441681
 40
7.259345487716687
 40
7.71946409656992
 40
8.179582801770788
 40
8.70970447266461
 40
9.239826310601025
 40
9.769949516694915
 40
10.30007287759681
 40
10.90178604579636
 40
11.5034995060403
 40
12.10521474921682
 40
12.70693012138986
 40
13.36364343662134
 40
14.02035709798484
 40
14.67707230065592
 40
15.33378752740918
 40
16.02055664302152
 40
16.70732604840775
 40
17.3940960758549
 40
18.08086596305243
 40
18.76775842678234
 40
19.4546510322356
 40
20.14154302327726
 40
20.82843472488072
 40
21.48541489920395
 40
22.14239505024479
 40
22.79937366217563
 40
23.45635192796938
 40
24.05845159121603
 40
24.66055112586179
 40
25.26264887780779
 40
25.864746337307
 40
26.3953380537487
 40
26.92592961546655
 40
27.4565198058152
 40
27.98710982838401
 40
28.44763821246739
 40
28.90816649997064
 40
29.3686939701437
 40
29.82922135441449
 40
30.22399871681536
 40
30.61877603619749
 40
31.0135530769931
 40
31.4083300858633
 40
31.73945584770847
 40
32.07058159720778
 40
32.40170705131479
 40
32.73283250622939
 40
33.0055989405334
 40
33.2783653706673
 40
33.55113254668053
 40
33.82389974479897
 40
34.0469391559985
 40
34.26997852174598
 40
34.49301635720618
 40
34.71605431919532
 40
34.89596926992234
 40
35.07588376552747
 40
35.25580217522391
 40
35.43572207728163
 40
35.80360946518945
 40
36.17149685115592
 40
36.17149685115592
 40
36.17149685115592
 40
36.17149685115592
 10
200.728047991628
 20
251.8643781117073
 30
0.0
 10
200.6057819812578
 20
251.8741958128646
 30
0.0
 10
200.3612499598719
 20
251.8938312152312
 30
0.0
 10
200.0577843436244
 20
251.92737848235
 30
0.0
 10
199.8168247800198
 20
251.9555354063269
 30
0.0
 10
199.6382287897237
 20
251.9773515489621
 30
0.0
 10
199.4597241854275
 20
251.99987950679
 30
0.0
 10
199.2670678451672
 20
252.0248565626002
 30
0.0
 10
199.0602608790814
 20
252.0522841706189
 30
0.0
 10
198.8393077097888
 20
252.0821859865721
 30
0.0
 10
198.6184163325398
 20
252.1125437439639
 30
0.0
 10
198.3811885543356
 20
252.1455024611985
 30
0.0
 10
198.1276144612287
 20
252.1809846942187
 30
0.0
 10
197.8576877065713
 20
252.218941890519
 30
0.0
 10
197.5877719490313
 20
252.2569753118691
 30
0.0
 10
197.2986176938427
 20
252.2976861402191
 30
0.0
 10
196.9902045497676
 20
252.3409311231738
 30
0.0
 10
196.6625128992997
 20
252.3865697215402
 30
0.0
 10
196.3347649977868
 20
252.4318036606953
 30
0.0
 10
195.9859363536944
 20
252.4793986490823
 30
0.0
 10
195.6159946970336
 20
252.529109874319
 30
0.0
 10
195.2249088539976
 20
252.58069095449
 30
0.0
 10
194.8336862727234
 20
252.6312261029541
 30
0.0
 10
194.4206087373967
 20
252.6833637235943
 30
0.0
 10
193.9856370574155
 20
252.7367619654182
 30
0.0
 10
193.5287345370747
 20
252.791073763022
 30
0.0
 10
193.0716174138585
 20
252.8435527602195
 30
0.0
 10
192.5910912984313
 20
252.8966830991077
 30
0.0
 10
192.0871156768082
 20
252.9500152402128
 30
0.0
 10
191.5596543475696
 20
253.0030874478515
 30
0.0
 10
191.031919480393
 20
253.0533745410252
 30
0.0
 10
190.4801521458827
 20
253.1029419433851
 30
0.0
 10
189.9043202659292
 20
253.1512413120263
 30
0.0
 10
189.304399227161
 20
253.1977104132437
 30
0.0
 10
188.7041892139357
 20
253.2402975424847
 30
0.0
 10
188.0854170955789
 20
253.2801229711826
 30
0.0
 10
187.4480788367394
 20
253.316692140879
 30
0.0
 10
186.7921796269423
 20
253.3495143031421
 30
0.0
 10
186.1360555966041
 20
253.3775024715693
 30
0.0
 10
185.4697295063471
 20
253.4009724062998
 30
0.0
 10
184.7932282919811
 20
253.4196217586679
 30
0.0
 10
184.1065853428414
 20
253.4331672497956
 30
0.0
 10
183.4198568858552
 20
253.4413201152772
 30
0.0
 10
182.7330444755852
 20
253.4440677935386
 30
0.0
 10
182.0461909010332
 20
253.4413964354051
 30
0.0
 10
181.3593389772675
 20
253.4333175437204
 30
0.0
 10
180.6725720030326
 20
253.4198439126123
 30
0.0
 10
179.9958988284054
 20
253.4012618488732
 30
0.0
 10
179.3293529410143
 20
253.3778533437181
 30
0.0
 10
178.6729613966631
 20
253.349919544827
 30
0.0
 10
178.0167943999281
 20
253.3171473441507
 30
0.0
 10
177.379148520104
 20
253.2806197087628
 30
0.0
 10
176.760029088778
 20
253.2408266259607
 30
0.0
 10
176.1594322124735
 20
253.1982620189307
 30
0.0
 10
175.5591244171172
 20
253.1518097824556
 30
0.0
 10
174.982878168487
 20
253.1035175684588
 30
0.0
 10
174.4306689600682
 20
253.0539474883448
 30
0.0
 10
173.9024648023226
 20
253.0036478802534
 30
0.0
 10
173.3745345793936
 20
252.9505574720234
 30
0.0
 10
172.8701100723522
 20
252.897202447308
 30
0.0
 10
172.3891550519733
 20
252.844045413425
 30
0.0
 10
171.9316289566961
 20
252.7915367934781
 30
0.0
 10
171.4743178642407
 20
252.7371914076901
 30
0.0
 10
171.0389727932959
 20
252.6837594003061
 30
0.0
 10
170.6255569681607
 20
252.6315887344164
 30
0.0
 10
170.2340311146906
 20
252.5810220911129
 30
0.0
 10
169.8426422701935
 20
252.529407305793
 30
0.0
 10
169.4724090419242
 20
252.4796615195523
 30
0.0
 10
169.1233002076862
 20
252.4320315496904
 30
0.0
 10
168.7952834386138
 20
252.3867626883313
 30
0.0
 10
168.4673230692131
 20
252.3410880817453
 30
0.0
 10
168.1586699384056
 20
252.2978101523442
 30
0.0
 10
167.8693043812892
 20
252.2570697862866
 30
0.0
 10
167.59920595924
 20
252.2190105731879
 30
0.0
 10
167.3290965511311
 20
252.1810275046597
 30
0.0
 10
167.0753771535163
 20
252.1455247458916
 30
0.0
 10
166.8380414146627
 20
252.1125508882501
 30
0.0
 10
166.6170794208469
 20
252.0821833768338
 30
0.0
 10
166.3960555925039
 20
252.0522721196935
 30
0.0
 10
166.1892029318711
 20
252.0248388061101
 30
0.0
 10
165.9965258898787
 20
251.9998595800228
 30
0.0
 10
165.8180256111599
 20
251.9773327315039
 30
0.0
 10
165.6394339377661
 20
251.9555177953541
 30
0.0
 10
165.3985009370101
 20
251.9273650791707
 30
0.0
 10
165.0950841705754
 20
251.8938248432733
 30
0.0
 10
164.8505998056621
 20
251.8741936696787
 30
0.0
 10
164.728357623528
 20
251.8643780829073
 30
0.0
 11
200.728047991628
 21
251.8643781117073
 31
0.0
 11
200.3614211010827
 21
251.8956615266193
 31
0.0
 11
199.9955466747284
 21
251.9347746253071
 31
0.0
 11
199.816842265691
 21
251.9556911339041
 31
0.0
 11
199.6382424521547
 21
251.9774703793922
 31
0.0
 11
199.4597371947276
 21
251.9999802175873
 31
0.0
 11
199.2813080868281
 21
252.0230894582074
 31
0.0
 11
199.060273974614
 21
252.0523821135191
 31
0.0
 11
198.8393185934362
 21
252.0822618970222
 31
0.0
 11
198.6184238447306
 21
252.1125979167586
 31
0.0
 11
198.3975739314281
 21
252.1432589698066
 31
0.0
 11
198.1276187400852
 21
252.1810152222643
 31
0.0
 11
197.857689251479
 21
252.2189546352262
 31
0.0
 11
197.5877712307434
 21
252.2569702072766
 31
0.0
 11
197.3178488940281
 21
252.2949551524065
 31
0.0
 11
196.990197472958
 21
252.3408805200677
 31
0.0
 11
196.6625036384216
 21
252.3865022624923
 31
0.0
 11
196.3347534262097
 21
252.4317193634977
 31
0.0
 11
196.0069338196279
 21
252.4764306766067
 31
0.0
 11
195.6159735220316
 21
252.5289508175942
 31
0.0
 11
195.2248861752375
 21
252.5805166180577
 31
0.0
 11
194.8336620634715
 21
252.6310364908749
 31
0.0
 11
194.4422926791281
 21
252.6804186937067
 31
0.0
 11
193.9856017827979
 21
252.7364698409651
 31
0.0
 11
193.5286990946054
 21
252.7907682583548
 31
0.0
 11
193.0715815062241
 21
252.8432339100276
 31
0.0
 11
192.6142483011279
 21
252.8937864806067
 31
0.0
 11
192.0870690086596
 21
252.9495626362998
 31
0.0
 11
191.5596093052362
 21
253.0026232084938
 31
0.0
 11
191.0318754837804
 21
253.0528987227221
 31
0.0
 11
190.5038773202274
 21
253.1003193623069
 31
0.0
 11
189.9042689393634
 21
253.1506038169866
 31
0.0
 11
189.3043517795392
 21
253.1970633648438
 31
0.0
 11
188.7041448327718
 21
253.2396409989166
 31
0.0
 11
188.1036713000275
 21
253.2782793941069
 31
0.0
 11
187.448036016363
 21
253.3158925994535
 31
0.0
 11
186.7921427761505
 21
253.3487086087333
 31
0.0
 11
186.1360239892309
 21
253.3766906542361
 31
0.0
 11
185.4797155525278
 21
253.399801797907
 31
0.0
 11
184.7932071936769
 21
253.4187251006564
 31
0.0
 11
184.1065713417211
 21
253.432268474808
 31
0.0
 11
183.4198496834816
 21
253.4404192235195
 31
0.0
 11
182.7330852837277
 21
253.4431646182067
 31
0.0
 11
182.0461980069718
 21
253.4404952063283
 31
0.0
 11
181.3593528884097
 21
253.4324184165118
 31
0.0
 11
180.6725930138832
 21
253.4189468873663
 31
0.0
 11
179.9859601067277
 21
253.4000932261065
 31
0.0
 11
179.329384494085
 21
253.3770408002768
 31
0.0
 11
178.6729982028624
 21
253.3491131158621
 31
0.0
 11
178.0168371844443
 21
253.3163470595979
 31
0.0
 11
177.3609339074276
 21
253.2787793484071
 31
0.0
 11
176.7600734775551
 21
253.240169138681
 31
0.0
 11
176.1594796779296
 21
253.1976140276831
 31
0.0
 11
175.5591757714332
 21
253.1511713453351
 31
0.0
 11
174.9591808115281
 21
253.1008981037066
 31
0.0
 11
174.4307130149469
 21
253.0534707114823
 31
0.0
 11
173.9025099095203
 21
253.0031826931894
 31
0.0
 11
173.3745813204699
 21
252.9501039313587
 31
0.0
 11
172.846933582028
 21
252.8943039657073
 31
0.0
 11
172.3891910234113
 21
252.8437258817434
 31
0.0
 11
171.9316644647255
 21
252.7912306277884
 31
0.0
 11
171.4743532072748
 21
252.7368986427989
 31
0.0
 11
171.0172541530283
 21
252.6808100854073
 31
0.0
 11
170.6255812228166
 21
252.6313987344485
 31
0.0
 11
170.2340538379626
 21
252.580847386218
 31
0.0
 11
169.842663489369
 21
252.5292479001055
 31
0.0
 11
169.4514004551279
 21
252.4766919797066
 31
0.0
 11
169.1233118075804
 21
252.4319470413558
 31
0.0
 11
168.7952927241375
 21
252.386695048264
 31
0.0
 11
168.4673301669555
 21
252.3410373277322
 31
0.0
 11
168.1394101487274
 21
252.2950750765069
 31
0.0
 11
167.869305105843
 21
252.2570646372654
 31
0.0
 11
167.5992044164492
 21
252.2190233045206
 31
0.0
 11
167.3290922697701
 21
252.1810580503182
 31
0.0
 11
167.058954405428
 21
252.1432760623073
 31
0.0
 11
166.8380338981897
 21
252.1126050918335
 31
0.0
 11
166.6170685299033
 21
252.0822593393941
 31
0.0
 11
166.3960424871477
 21
252.0523701361499
 31
0.0
 11
166.1749376551281
 21
252.0230685023071
 31
0.0
 11
165.9965128793508
 21
251.9999603028116
 31
0.0
 11
165.8180119464757
 21
251.9774515780243
 31
0.0
 11
165.6394164501688
 21
251.9556735421486
 31
0.0
 11
165.4607163482278
 21
251.9347583629067
 31
0.0
 11
165.0949130898204
 21
251.8956545738296
 31
0.0
 11
164.728357623528
 21
251.8643780829073
 31
0.0
  0
LWPOLYLINE
  5
29F
330
33
100
AcDbEntity
  8
0
  6
Continuous
 62
     7
100
AcDbPolyline
 90
       22
 70
     0
 43
0.0
 10
330.848181504031
 20
256.7652658549063
 10
330.729961416931
 20
256.7213587690073
 10
330.574252369731
 20
256.6646448880073
 10
330.383742935331
 20
256.5969657270073
 10
330.160089463631
 20
256.5199518277073
 10
329.903343648831
 20
256.4347840670073
 10
329.614306686631
 20
256.3430699117073
 10
329.293154983931
 20
256.2463648300073
 10
328.940065081531
 20
256.1463853852073
 10
328.554536001531
 20
256.0448331420073
 10
328.136100416731
 20
255.9436546590073
 10
327.684289741231
 20
255.8449866361073
 10
327.198513843531
 20
255.7512051893063
 10
326.678265770031
 20
255.6649097096073
 10
326.123246988831
 20
255.5889679081073
 10
325.533988132131
 20
255.5265126961063
 10
324.912794575231
 20
255.4808365009063
 10
324.264340352331
 20
255.4550813515063
 10
323.596697211831
 20
255.4517571869063
 10
322.921764829931
 20
255.4720753631073
 10
322.254336902731
 20
255.5153510043063
 10
321.683883356031
 20
255.5704654439073
  0
LWPOLYLINE
  5
2A0
330
33
100
AcDbEntity
  8
0
  6
Continuous
 62
     7
100
AcDbPolyline
 90
        4
 70
     0
 43
0.0
 10
331.263595905331
 20
256.8180989955073
 10
331.163052091431
 20
256.8354717897073
 10
331.055536396431
 20
256.8312853252063
 10
330.951409100931
 20
256.8041945924073
  0
LWPOLYLINE
  5
2A1
330
33
100
AcDbEntity
  8
0
  6
Continuous
 62
     7
100
AcDbPolyline
 90
       87
 70
     0
 43
0.0
 10
372.000443355431
 20
207.6686308832073
 10
371.940644247231
 20
208.4487075120073
 10
371.869454136831
 20
209.2278773414073
 10
371.786887424931
 20
210.0059827582073
 10
371.692960813431
 20
210.7828663642073
 10
371.587693302231
 20
211.5583710087073
 10
371.471106185031
 20
212.3323398196063
 10
371.343223045631
 20
213.1046162357063
 10
371.204069752731
 20
213.8750440382073
 10
371.053674454731
 20
214.6434673819073
 10
370.892067574031
 20
215.4097308276063
 10
370.719281801331
 20
216.1736793724073
 10
370.535352088131
 20
216.9351584822073
 10
370.340315640531
 20
217.6940141221063
 10
370.134211911131
 20
218.4500927880063
 10
369.917082591431
 20
219.2032415376063
 10
369.688971603131
 20
219.9533080211063
 10
369.449925089331
 20
220.7001405124073
 10
369.199991405331
 20
221.4435879393073
 10
368.939221108531
 20
222.1834999147063
 10
368.667666948531
 20
222.9197267665073
 10
368.385383856331
 20
223.6521195678063
 10
368.092428933131
 20
224.3805301677073
 10
367.788861439031
 20
225.1048112205073
 10
367.474742780731
 20
225.8248162161073
 10
367.150136499331
 20
226.5403995091073
 10
366.815108257331
 20
227.2514163487073
 10
366.469725825431
 20
227.9577229079073
 10
366.114059069031
 20
228.6591763124063
 10
365.748179933531
 20
229.3556346695073
 10
365.372162430431
 20
230.0469570971073
 10
364.986082621931
 20
230.7330037520073
 10
364.590018605631
 20
231.4136358581063
 10
364.184050498731
 20
232.0887157347073
 10
363.768260422131
 20
232.7581068241073
 10
363.342732483231
 20
233.4216737194073
 10
362.907552759531
 20
234.0792821919073
 10
362.462809280631
 20
234.7307992181073
 10
362.008592011031
 20
235.3760930068073
 10
361.544992831331
 20
236.0150330255073
 10
361.072105520131
 20
236.6474900272063
 10
360.590025734831
 20
237.2733360760073
 10
360.098850992331
 20
237.8924445736073
 10
359.598680649231
 20
238.5046902844073
 10
359.089615881831
 20
239.1099493611063
 10
358.571759665531
 20
239.7080993696063
 10
358.045216754431
 20
240.2990193140073
 10
357.510093659331
 20
240.8825896608073
 10
356.966498626931
 20
241.4586923632063
 10
356.414541617731
 20
242.0272108852073
 10
355.854334283631
 20
242.5880302246073
 10
355.285989945331
 20
243.1410369369063
 10
354.709623569731
 20
243.6861191577073
 10
354.125351746231
 20
244.2231666260073
 10
353.533292663531
 20
244.7520707058063
 10
352.933566085531
 20
245.2727244083063
 10
352.326293327131
 20
245.7850224139063
 10
351.711597229731
 20
246.2888610930063
 10
351.089602136231
 20
246.7841385273073
 10
350.460433866031
 20
247.2707545302063
 10
349.824219689831
 20
247.7486106673073
 10
349.181088303231
 20
248.2176102761073
 10
348.531169801231
 20
248.6776584856073
 10
347.874595651631
 20
249.1286622355073
 10
347.211498668931
 20
249.5705302952073
 10
346.542012986531
 20
250.0031732819073
 10
345.866274030631
 20
250.4265036791073
 10
345.184418492231
 20
250.8404358539073
 10
344.496584299431
 20
251.2448860746073
 10
343.802910589931
 20
251.6397725275063
 10
343.103537682631
 20
252.0250153335073
 10
342.398607049231
 20
252.4005365644073
 10
341.688261285631
 20
252.7662602582073
 10
340.972644083331
 20
253.1221124351063
 10
340.251900199831
 20
253.4680211119063
 10
339.526175430031
 20
253.8039163170073
 10
338.795616576131
 20
254.1297301043073
 10
338.060371418131
 20
254.4453965670073
 10
337.320588684331
 20
254.7508518508073
 10
336.576418020631
 20
255.0460341672073
 10
335.828009960631
 20
255.3308838055063
 10
335.075515895031
 20
255.6053431455073
 10
334.319088041031
 20
255.8693566683063
 10
333.558879411731
 20
256.1228709685073
 10
332.795043785031
 20
256.3658347641063
 10
332.027735672131
 20
256.5981989076073
 10
331.286229836431
 20
256.8117488809073
  0
LWPOLYLINE
  5
2A2
330
33
100
AcDbEntity
  8
0
  6
Continuous
 62
     7
100
AcDbPolyline
 90
       83
 70
     0
 43
0.0
 10
164.049708031328
 20
255.8734386549073
 10
163.281313447228
 20
255.6053431455073
 10
162.528819381628
 20
255.3308838055063
 10
161.780411321528
 20
255.0460341672073
 10
161.036240657828
 20
254.7508518508073
 10
160.296457924028
 20
254.4453965670073
 10
159.561212766128
 20
254.1297301043073
 10
158.830653912128
 20
253.8039163170073
 10
158.104929142328
 20
253.4680211119063
 10
157.384185258928
 20
253.1221124351063
 10
156.668568056528
 20
252.7662602582073
 10
155.958222292928
 20
252.4005365644073
 10
155.253291659528
 20
252.0250153335073
 10
154.553918752228
 20
251.6397725275063
 10
153.860245042728
 20
251.2448860746073
 10
153.172410850028
 20
250.8404358539073
 10
152.490555311528
 20
250.4265036791073
 10
151.814816355628
 20
250.0031732819073
 10
151.145330673328
 20
249.5705302952073
 10
150.482233690528
 20
249.1286622355073
 10
149.825659541028
 20
248.6776584856073
 10
149.175741039028
 20
248.2176102761073
 10
148.532609652328
 20
247.7486106673073
 10
147.896395476128
 20
247.2707545302063
 10
147.267227206028
 20
246.7841385273073
 10
146.645232112528
 20
246.2888610930063
 10
146.030536015028
 20
245.7850224139063
 10
145.423263256628
 20
245.2727244083063
 10
144.823536678628
 20
244.7520707058063
 10
144.231477595928
 20
244.2231666260073
 10
143.647205772428
 20
243.6861191577073
 10
143.070839396828
 20
243.1410369369063
 10
142.502495058528
 20
242.5880302246073
 10
141.942287724428
 20
242.0272108852073
 10
141.390330715228
 20
241.4586923632063
 10
140.846735682928
 20
240.8825896608073
 10
140.311612587828
 20
240.2990193140073
 10
139.785069676628
 20
239.7080993696063
 10
139.267213460428
 20
239.1099493611063
 10
138.758148692928
 20
238.5046902844073
 10
138.257978349828
 20
237.8924445736073
 10
137.766803607328
 20
237.2733360760073
 10
137.284723822028
 20
236.6474900272063
 10
136.811836510828
 20
236.0150330255073
 10
136.348237331228
 20
235.3760930068073
 10
135.894020061528
 20
234.7307992181073
 10
135.449276582628
 20
234.0792821919073
 10
135.014096858928
 20
233.4216737194073
 10
134.588568920028
 20
232.7581068241073
 10
134.172778843428
 20
232.0887157347073
 10
133.766810736628
 20
231.4136358581063
 10
133.370746720328
 20
230.7330037520073
 10
132.984666911728
 20
230.0469570971073
 10
132.608649408628
 20
229.3556346695073
 10
132.242770273228
 20
228.6591763124063
 10
131.887103516728
 20
227.9577229079073
 10
131.541721084928
 20
227.2514163487073
 10
131.206692842928
 20
226.5403995091073
 10
130.882086561428
 20
225.8248162161073
 10
130.567967903128
 20
225.1048112205073
 10
130.264400409028
 20
224.3805301677073
 10
129.971445485828
 20
223.6521195678063
 10
129.689162393628
 20
222.9197267665073
 10
129.417608233628
 20
222.1834999147063
 10
129.156837936828
 20
221.4435879393073
 10
128.906904252828
 20
220.7001405124073
 10
128.667857739028
 20
219.9533080211063
 10
128.439746750728
 20
219.2032415376063
 10
128.222617431028
 20
218.4500927880063
 10
128.016513701728
 20
217.6940141221063
 10
127.821477254128
 20
216.9351584822073
 10
127.637547540928
 20
216.1736793724073
 10
127.464761768128
 20
215.4097308276063
 10
127.303154887528
 20
214.6434673819073
 10
127.152759589528
 20
213.8750440382073
 10
127.013606296528
 20
213.1046162357063
 10
126.885723157228
 20
212.3323398196063
 10
126.769136040028
 20
211.5583710087073
 10
126.663868528728
 20
210.7828663642073
 10
126.569941917228
 20
210.0059827582073
 10
126.487375205328
 20
209.2278773414073
 10
126.416185095028
 20
208.4487075120073
 10
126.356385986728
 20
207.6686308832073
  0
LWPOLYLINE
  5
2A3
330
33
100
AcDbEntity
  8
0
  6
Continuous
 62
     7
100
AcDbPolyline
 90
       11
 70
     0
 43
0.0
 10
166.671965776928
 20
255.6214742237073
 10
166.215034403128
 20
255.5683472830063
 10
166.001295072028
 20
255.5447940199073
 10
165.798230247528
 20
255.5234916484063
 10
165.606521011228
 20
255.5046247645073
 10
165.426793199428
 20
255.4883707338073
 10
165.259736378928
 20
255.4748717434073
 10
165.106107308228
 20
255.4642545740073
 10
164.966608560428
 20
255.4566131107073
 10
164.841985290928
 20
255.4519689259073
 10
164.733099440028
 20
255.4502692055073
  0
LWPOLYLINE
  5
2A4
330
33
100
AcDbEntity
  8
0
  6
Continuous
 62
     7
100
AcDbPolyline
 90
        9
 70
     0
 43
0.0
 10
200.692140171628
 20
255.4504790763063
 10
200.567802804528
 20
255.4534192909073
 10
200.424678280028
 20
255.4599053095073
 10
200.263644230528
 20
255.4700000321073
 10
200.085396774128
 20
255.4836699496073
 10
199.890674275428
 20
255.5008011018073
 10
199.680107365128
 20
255.5212649991073
 10
199.454015662928
 20
255.5449125323073
 10
199.212735450728
 20
255.5715770166073
  0
LWPOLYLINE
  5
2A5
330
33
100
AcDbEntity
  8
0
  6
Continuous
 62
     7
100
AcDbPolyline
 90
       37
 70
     0
 43
0.0
 10
193.461559772228
 20
256.2553992055073
 10
192.988582035228
 20
256.3040149011073
 10
192.503856700328
 20
256.3518953069073
 10
192.008558720528
 20
256.3987195303073
 10
191.503856858828
 20
256.4441883135073
 10
190.990963716928
 20
256.4880156426073
 10
190.471130999728
 20
256.5299319462063
 10
189.945602630428
 20
256.5696990795073
 10
189.415604969628
 20
256.6071127888073
 10
188.882385503828
 20
256.6419916113073
 10
188.347210942528
 20
256.6741778765073
 10
187.811268502228
 20
256.7035474055073
 10
187.275423897428
 20
256.7300281300073
 10
186.740474855728
 20
256.7535717071073
 10
186.207221274428
 20
256.7741464153073
 10
185.676462241128
 20
256.7917380391063
 10
185.148983530128
 20
256.8063574340073
 10
184.625560750628
 20
256.8180366966073
 10
184.106965400028
 20
256.8268235040073
 10
183.593963470028
 20
256.8327808222073
 10
183.087312137228
 20
256.8359908306073
 10
182.587754330228
 20
256.8365556087073
 10
182.095711669328
 20
256.8345883753073
 10
181.611049709828
 20
256.8302018432073
 10
181.133570920028
 20
256.8235035357063
 10
180.663073118128
 20
256.8146004247073
 10
180.199348105428
 20
256.8035946454073
 10
179.742181387628
 20
256.7905815276073
 10
179.291352905028
 20
256.7756497808073
 10
178.846640201428
 20
256.7588833622063
 10
178.407824865928
 20
256.7403657430063
 10
177.974685982428
 20
256.7201752741073
 10
177.546998891128
 20
256.6983841083073
 10
177.124535832028
 20
256.6750584552073
 10
176.707097561528
 20
256.6502611315073
 10
176.294646948128
 20
256.6240656079063
 10
175.484764869328
 20
256.5677905040073
  0
LWPOLYLINE
  5
2A6
330
33
100
AcDbEntity
  8
0
  6
Continuous
 62
     7
100
AcDbPolyline
 90
       83
 70
     0
 43
0.0
 10
201.406704565228
 20
255.8734362935073
 10
202.175092224128
 20
255.6053431455073
 10
202.927586289728
 20
255.3308838055063
 10
203.675994349728
 20
255.0460341672073
 10
204.420165013528
 20
254.7508518508073
 10
205.159947747328
 20
254.4453965670073
 10
205.895192905228
 20
254.1297301043073
 10
206.625751759128
 20
253.8039163170073
 10
207.351476529028
 20
253.4680211119063
 10
208.072220412428
 20
253.1221124351063
 10
208.787837614828
 20
252.7662602582073
 10
209.498183378328
 20
252.4005365644073
 10
210.203114011728
 20
252.0250153335073
 10
210.902486919028
 20
251.6397725275063
 10
211.596160628528
 20
251.2448860746073
 10
212.283994821328
 20
250.8404358539073
 10
212.965850359828
 20
250.4265036791073
 10
213.641589315628
 20
250.0031732819073
 10
214.311074998028
 20
249.5705302952073
 10
214.974171980828
 20
249.1286622355073
 10
215.630746130328
 20
248.6776584856073
 10
216.280664632328
 20
248.2176102761073
 10
216.923796018928
 20
247.7486106673073
 10
217.560010195228
 20
247.2707545302063
 10
218.189178465328
 20
246.7841385273073
 10
218.811173558828
 20
246.2888610930063
 10
219.425869656228
 20
245.7850224139063
 10
220.033142414628
 20
245.2727244083063
 10
220.632868992628
 20
244.7520707058063
 10
221.224928075328
 20
244.2231666260073
 10
221.809199898828
 20
243.6861191577073
 10
222.385566274528
 20
243.1410369369063
 10
222.953910612728
 20
242.5880302246073
 10
223.514117946928
 20
242.0272108852073
 10
224.066074956028
 20
241.4586923632063
 10
224.609669988428
 20
240.8825896608073
 10
225.144793083528
 20
240.2990193140073
 10
225.671335994728
 20
239.7080993696063
 10
226.189192210928
 20
239.1099493611063
 10
226.698256978328
 20
238.5046902844073
 10
227.198427321428
 20
237.8924445736073
 10
227.689602064028
 20
237.2733360760073
 10
228.171681849228
 20
236.6474900272063
 10
228.644569160428
 20
236.0150330255073
 10
229.108168340128
 20
235.3760930068073
 10
229.562385609828
 20
234.7307992181073
 10
230.007129088628
 20
234.0792821919073
 10
230.442308812428
 20
233.4216737194073
 10
230.867836751228
 20
232.7581068241073
 10
231.283626827828
 20
232.0887157347073
 10
231.689594934728
 20
231.4136358581063
 10
232.085658951028
 20
230.7330037520073
 10
232.471738759528
 20
230.0469570971073
 10
232.847756262628
 20
229.3556346695073
 10
233.213635398128
 20
228.6591763124063
 10
233.569302154528
 20
227.9577229079073
 10
233.914684586428
 20
227.2514163487073
 10
234.249712828428
 20
226.5403995091073
 10
234.574319109828
 20
225.8248162161073
 10
234.888437768228
 20
225.1048112205073
 10
235.192005262328
 20
224.3805301677073
 10
235.484960185428
 20
223.6521195678063
 10
235.767243277628
 20
222.9197267665073
 10
236.038797437628
 20
222.1834999147063
 10
236.299567734428
 20
221.4435879393073
 10
236.549501418528
 20
220.7001405124073
 10
236.788547932228
 20
219.9533080211063
 10
237.016658920528
 20
219.2032415376063
 10
237.233788240228
 20
218.4500927880063
 10
237.439891969628
 20
217.6940141221063
 10
237.634928417228
 20
216.9351584822073
 10
237.818858130428
 20
216.1736793724073
 10
237.991643903228
 20
215.4097308276063
 10
238.153250783828
 20
214.6434673819073
 10
238.303646081828
 20
213.8750440382073
 10
238.442799374728
 20
213.1046162357063
 10
238.570682514128
 20
212.3323398196063
 10
238.687269631328
 20
211.5583710087073
 10
238.792537142528
 20
210.7828663642073
 10
238.886463754028
 20
210.0059827582073
 10
238.969030465928
 20
209.2278773414073
 10
239.040220576328
 20
208.4487075120073
 10
239.100019684628
 20
207.6686308832073
  0
LWPOLYLINE
  5
2A7
330
33
100
AcDbEntity
  8
0
  6
Continuous
 62
     7
100
AcDbPolyline
 90
        3
 70
     0
 43
0.0
 10
263.492825653831
 20
215.0100836368073
 10
262.809403555731
 20
211.3144754048073
 10
262.408592866831
 20
207.6706869310073
  0
LWPOLYLINE
  5
2A8
330
33
100
AcDbEntity
  8
0
  6
Continuous
 62
     7
100
AcDbPolyline
 90
        5
 70
     0
 43
0.0
 10
261.711297315131
 20
198.9976052920073
 10
261.685330260331
 20
198.9318597253073
 10
261.664386080431
 20
198.8892991993063
 10
261.652955102131
 20
198.8706238428073
 10
261.652226967531
 20
198.8696142579073
  0
LEADER
  5
2A9
330
33
100
AcDbEntity
  8
1
  6
Continuous
 62
     2
100
AcDbLeader
  3
Standard
 71
     0
 76
     2
 10
135.176033409337
 20
182.1777310902963
 30
0.0
 10
119.852913736015
 20
155.6373092856443
 30
0.0
  0
LEADER
  5
2AA
330
33
100
AcDbEntity
  8
1
  6
Continuous
 62
     2
100
AcDbLeader
  3
Standard
 71
     0
 76
     2
 10
77.5297940626929
 20
182.1777310902963
 30
0.0
 10
92.8529137360151
 20
155.6373092856443
 30
0.0
  0
LEADER
  5
2AB
330
33
100
AcDbEntity
  8
1
  6
Continuous
 62
     2
100
AcDbLeader
  3
Standard
 71
     0
 76
     3
 10
208.572139695741
 20
59.9127358459309
 30
0.0
 10
201.128151906368
 20
67.3567236353025
 30
0.0
 10
199.466550134631
 20
69.0183254070399
 30
0.0
  0
MTEXT
  5
2AD
330
33
100
AcDbEntity
  8
1
 62
     3
100
AcDbMText
 10
117.852913736015
 20
152.1732076705073
 30
0.0
 40
4.0
 41
0.0
 71
     5
 72
     1
  1
1
  7
CONVERTER_11
 73
     1
 44
1.0
  0
MTEXT
  5
2AF
330
33
100
AcDbEntity
  8
1
 62
     2
100
AcDbMText
 10
57.9524460660651
 20
186.0177108498443
 30
0.0
 40
2.0
 41
0.0
 71
     1
 72
     1
  1
LOT.NO.
  7
CONVERTER_12
 11
0.707106781186548
 21
0.707106781186547
 31
0.0
 73
     1
 44
1.0
  0
MTEXT
  5
2B1
330
33
100
AcDbEntity
  8
1
 62
     7
100
AcDbMText
 10
69.9215538988861
 20
142.5692518306883
 30
0.0
 40
5.0
 41
0.0
 71
     5
 72
     1
  1
A 2Y
  7
CONVERTER_13
 73
     1
 44
1.0
  0
MTEXT
  5
2B2
330
33
100
AcDbEntity
  8
1
 62
     3
100
AcDbMText
 10
94.8529137360151
 20
152.1732076705073
 30
0.0
 40
4.0
 41
0.0
 71
     5
 72
     1
  1
2
  7
CONVERTER_11
 73
     1
 44
1.0
  0
MTEXT
  5
2B3
330
33
100
AcDbEntity
  8
1
 62
     7
100
AcDbMText
 10
196.358863227367
 20
72.126012314303
 30
0.0
 40
3.0
 41
0.0
 71
     5
 72
     1
  1
A
  7
CONVERTER_13
 11
0.707106781186548
 21
0.707106781186547
 31
0.0
 73
     1
 44
1.0
  0
DIMENSION
  5
2BE
330
33
100
AcDbEntity
  8
1
100
AcDbDimension
  2
*D2
 10
110.846433585057
 20
256.8302018432074
 30
0.0
 11
108.627683585057
 21
216.8980495452573
 31
0.0
 70
    32
  1
80
 71
     5
 42
-1.0
 53
90.0
  3
ME10_DIM_10
100
AcDbAlignedDimension
 13
124.228202835628
 23
176.9658972473073
 33
0.0
 14
181.611049709828
 24
256.8302018432073
 34
0.0
 50
90.0
100
AcDbRotatedDimension
  0
DIMENSION
  5
2C9
330
33
100
AcDbEntity
  8
1
100
AcDbDimension
  2
*D3
 10
241.228202835628
 20
267.5718386522993
 30
0.0
 11
182.728202835628
 21
270.0718386522993
 31
0.0
 70
    32
  1
Æ117
 71
     5
 42
-1.0
 53
0.00013888888889
  3
ME10_DIM_11
100
AcDbAlignedDimension
 13
124.228202835628
 23
176.9658972473073
 33
0.0
 14
241.228202835628
 24
176.9658972473073
 34
0.0
100
AcDbRotatedDimension
  0
HATCH
  5
2CA
330
33
100
AcDbEntity
  8
1
  6
Continuous
 62
     2
100
AcDbHatch
 10
0.0
 20
0.0
 30
0.0
210
0.0
220
0.0
230
1.0
  2
SOLID
 70
     1
 71
     1
 91
        1
 92
        1
 93
        1
 72
     2
 10
135.176033409337
 20
182.1777310902963
 40
0.75
 50
0.0
 51
360.0
 73
     1
 97
        1
330
28E
 75
     0
 76
     1
 98
        1
 10
0.0
 20
0.0
  0
HATCH
  5
2CB
330
33
100
AcDbEntity
  8
1
  6
Continuous
 62
     2
100
AcDbHatch
 10
0.0
 20
0.0
 30
0.0
210
0.0
220
0.0
230
1.0
  2
SOLID
 70
     1
 71
     1
 91
        1
 92
        1
 93
        1
 72
     2
 10
77.5297940626929
 20
182.1777310902963
 40
0.75
 50
0.0
 51
360.0
 73
     1
 97
        1
330
28F
 75
     0
 76
     1
 98
        1
 10
0.0
 20
0.0
  0
HATCH
  5
2CC
330
33
100
AcDbEntity
  8
1
  6
Continuous
 62
     2
100
AcDbHatch
 10
0.0
 20
0.0
 30
0.0
210
0.0
220
0.0
230
1.0
  2
SOLID
 70
     1
 71
     1
 91
        1
 92
        1
 93
        3
 72
     1
 10
206.730096473593
 20
62.313333310903
 11
206.171542230768
 21
61.7547790680778
 72
     1
 10
206.171542230768
 20
61.7547790680778
 11
208.572139695741
 21
59.9127358459309
 72
     1
 10
208.572139695741
 20
59.9127358459309
 11
206.730096473593
 21
62.313333310903
 97
        3
330
240
330
241
330
242
 75
     0
 76
     1
 98
        1
 10
0.0
 20
0.0
  0
HATCH
  5
2CD
330
33
100
AcDbEntity
  8
1
  6
Continuous
 62
     2
100
AcDbHatch
 10
0.0
 20
0.0
 30
0.0
210
0.0
220
0.0
230
1.0
  2
CUSTOM0
 70
     0
 71
     1
 91
        2
 92
        1
 93
       17
 72
     2
 10
46.9298104506844
 20
173.5644990506283
 40
0.4007883304119729
 50
51.34078301747939
 51
134.9974090307934
 73
     1
 72
     1
 10
46.6464231203414
 20
173.8479120122153
 11
46.2459883999355
 21
173.4474772918093
 72
     2
 10
46.4754131478741
 20
173.2180147212743
 40
0.3244823357953663
 50
134.9952775440697
 51
171.0749880300144
 73
     1
 72
     2
 10
46.7016415974125
 20
173.1825190751293
 40
0.5534785184950906
 50
171.0782575144968
 51
223.6198481992945
 73
     1
 72
     1
 10
46.3009602760045
 20
172.8006906462373
 11
46.5995283565727
 21
173.0992587268053
 72
     2
 10
46.7338243693658
 20
173.2606242694453
 40
0.2099386991565884
 50
129.7688233324011
 51
191.1269625024734
 73
     0
 72
     2
 10
46.8836528428773
 20
173.2310583990983
 40
0.3626564350938468
 50
191.1420714377226
 51
252.5098076772571
 73
     0
 72
     2
 10
46.8148186693166
 20
173.4495291415883
 40
0.1335983450705441
 50
252.5064231246411
 51
315.0135900844667
 73
     0
 72
     1
 10
46.9093093695112
 20
173.5439750275883
 11
46.9325429454815
 21
173.5207414516183
 72
     2
 10
46.8111061302467
 20
173.3992702005753
 40
0.1717619425966111
 50
314.9918774765648
 51
385.9757708701826
 73
     0
 72
     1
 10
46.9655165686376
 20
173.3240400108873
 11
46.6275606874987
 21
172.6304061139703
 72
     2
 10
46.9767782393667
 20
172.4603107574483
 40
0.3884396077166057
 50
154.0304157285927
 51
314.9999632891173
 73
     1
 72
     1
 10
47.2514463440776
 20
172.1856423007633
 11
47.344903284638
 21
172.2788141667713
 72
     2
 10
46.8428059556881
 20
172.8790241557713
 40
0.7825303563658176
 50
309.9136990017271
 51
364.2037342736006
 73
     1
 72
     1
 10
47.6232310720288
 20
172.9363861328863
 11
47.8338061409468
 21
172.7680020976323
 72
     1
 10
47.8338061409468
 20
172.7680020976323
 11
48.1596938660615
 21
173.0938898227473
 72
     1
 10
48.1596938660615
 20
173.0938898227473
 11
47.1801777061318
 21
173.8774647407513
 97
       17
330
25D
330
DE
330
259
330
25C
330
E0
330
262
330
25A
330
263
330
E3
330
26D
330
E4
330
26C
330
E5
330
26B
330
E6
330
E7
330
EB
 92
       16
 93
        4
 72
     2
 10
47.138715499676
 20
172.6788569083433
 40
0.2376314694077404
 50
161.0129138537523
 51
306.2819549186407
 73
     1
 72
     2
 10
46.833536183946
 20
172.9432573071003
 40
0.6376800610280912
 50
314.35456785227
 51
363.6027764366935
 73
     1
 72
     1
 10
47.4699559880206
 20
172.9833284090793
 11
47.1143729970947
 21
173.3389114000053
 72
     1
 10
47.1143729970947
 20
173.3389114000053
 11
46.9140130996167
 21
172.7561715037343
 97
        4
330
26A
330
269
330
E8
330
E9
 75
     1
 76
     2
 52
0.0
 41
1.0
 77
     0
 78
     2
 53
44.99999999999998
 43
-52.2533356177462
 44
52.25333561774622
 45
-0.0883883476483184
 46
0.0
 79
     0
 53
134.9999999999997
 43
0.0300016218074412
 44
0.0300016218074409
 45
-0.0000000000000004
 46
-0.0883883476483184
 79
     0
 98
        1
 10
0.0
 20
0.0
  0
HATCH
  5
2CE
330
33
100
AcDbEntity
  8
1
  6
Continuous
 62
     2
100
AcDbHatch
 10
0.0
 20
0.0
 30
0.0
210
0.0
220
0.0
230
1.0
  2
CUSTOM1
 70
     0
 71
     1
 91
        2
 92
        1
 93
        7
 72
     2
 10
42.6850746611768
 20
169.7516282652063
 40
0.706195447647969
 50
45.0000000000053
 51
134.9999999999715
 73
     1
 72
     1
 10
42.1857190713023
 20
170.2509838550813
 11
41.3354367081814
 21
169.4007014919603
 72
     1
 10
41.3354367081814
 20
169.4007014919603
 11
42.9009711217281
 21
167.8351670784133
 72
     1
 10
42.9009711217281
 20
167.8351670784133
 11
43.3058720101111
 21
168.2400679667983
 72
     1
 10
43.3058720101111
 20
168.2400679667983
 11
42.7390487763149
 21
168.8068912005943
 72
     1
 10
42.7390487763149
 20
168.8068912005943
 11
43.1844302510521
 21
169.2522726753313
 72
     2
 10
42.6850746611768
 20
169.7516282652063
 40
0.7061954476482505
 50
315.0000000000175
 51
405.0000000000053
 73
     1
 97
        7
330
26F
330
B3
330
E2
330
CD
330
EA
330
CB
330
25F
 92
       16
 93
        5
 72
     2
 10
42.5770789184759
 20
169.5626713497983
 40
0.3817218209400725
 50
315.0000000001274
 51
405.0000000000731
 73
     1
 72
     2
 10
42.5770789184759
 20
169.5626713497983
 40
0.3817218209415496
 50
45.00000000007315
 51
134.9999999998733
 73
     1
 72
     1
 10
42.3071608303621
 20
169.8325894379133
 11
42.0102556846792
 21
169.5356842922303
 72
     1
 10
42.0102556846792
 20
169.5356842922303
 11
42.5500918609072
 21
168.9958481160023
 72
     1
 10
42.5500918609072
 20
168.9958481160023
 11
42.8469970065901
 21
169.2927532616853
 97
        5
330
27E
330
278
330
AF
330
B1
330
B4
 75
     1
 76
     2
 52
0.0
 41
1.0
 77
     0
 78
     2
 53
44.99999999999998
 43
-52.2533356177462
 44
52.25333561774622
 45
-0.0883883476483184
 46
0.0
 79
     0
 53
134.9999999999997
 43
0.0300016218074412
 44
0.0300016218074409
 45
-0.0000000000000004
 46
-0.0883883476483184
 79
     0
 98
        1
 10
0.0
 20
0.0
  0
HATCH
  5
2CF
330
33
100
AcDbEntity
  8
1
  6
Continuous
 62
     2
100
AcDbHatch
 10
0.0
 20
0.0
 30
0.0
210
0.0
220
0.0
230
1.0
  2
CUSTOM2
 70
     0
 71
     1
 91
        1
 92
        1
 93
       14
 72
     2
 10
47.6030822183499
 20
175.1554972312493
 40
1.851364516235564
 50
31.38673698189836
 51
59.47032675987924
 73
     0
 72
     2
 10
48.2817437884595
 20
174.0046554165973
 40
0.5153187067612429
 50
59.46657935778676
 51
119.4877713223187
 73
     0
 72
     1
 10
48.0280844479873
 20
173.5560906960393
 11
48.4084214124933
 21
173.9364276605453
 72
     2
 10
48.5359581515154
 20
174.1547198721613
 40
0.2528183329044879
 50
239.7044867440503
 51
413.0350372831624
 73
     1
 72
     2
 10
48.6017620435339
 20
174.2453229829403
 40
0.1408693898798075
 50
52.2603877116093
 51
109.1019968652272
 73
     1
 72
     1
 10
48.5556624184892
 20
174.3784357530873
 11
47.8378922095227
 21
174.0501724067063
 72
     2
 10
47.7085079951541
 20
174.3642862768933
 40
0.3397172329626342
 50
67.6131263458817
 51
211.3863856697082
 73
     0
 72
     2
 10
48.9117643546797
 20
173.6641785339703
 40
1.731770296198026
 50
210.4268759096554
 51
240.4319220640124
 73
     0
 72
     2
 10
48.3170590715276
 20
174.7298376916833
 40
0.5115025542033522
 50
239.4684901737996
 51
299.3695364489718
 73
     0
 72
     1
 10
48.5679206242165
 20
175.1755992247243
 11
48.2103421114294
 21
174.8180207119373
 72
     2
 10
48.05009142363
 20
174.6171883461933
 40
0.2569317459375318
 50
51.41249293114033
 51
162.4575022828867
 73
     1
 72
     2
 10
47.9760551989677
 20
174.6347691517243
 40
0.1811247124912306
 50
160.7008488613163
 51
277.5527600561509
 73
     1
 72
     1
 10
47.9998620673611
 20
174.4552158323663
 11
48.8540879617811
 21
174.7118304413973
 72
     2
 10
48.8902920340018
 20
174.3702167289783
 40
0.3435268015141331
 50
263.950399874317
 51
391.3905520756501
 73
     0
 97
       14
330
DF
330
26E
330
261
330
E1
330
284
330
280
330
285
330
B2
330
258
330
260
330
DD
330
25E
330
281
330
279
 75
     1
 76
     2
 52
0.0
 41
1.0
 77
     0
 78
     2
 53
44.99999999999998
 43
-52.2533356177462
 44
52.25333561774622
 45
-0.0883883476483184
 46
0.0
 79
     0
 53
134.9999999999997
 43
0.0300016218074412
 44
0.0300016218074409
 45
-0.0000000000000004
 46
-0.0883883476483184
 79
     0
 98
        1
 10
0.0
 20
0.0
  0
HATCH
  5
2D0
330
33
100
AcDbEntity
  8
1
  6
Continuous
 62
     2
100
AcDbHatch
 10
0.0
 20
0.0
 30
0.0
210
0.0
220
0.0
230
1.0
  2
CUSTOM3
 70
     0
 71
     1
 91
        2
 92
        1
 93
       17
 72
     2
 10
44.2306320486356
 20
170.8652734271343
 40
0.4008217210656815
 50
51.34505507089239
 51
135.0027422795797
 73
     1
 72
     1
 10
43.9471947267749
 20
171.1486836186483
 11
43.5468075187943
 21
170.7482964106683
 72
     2
 10
43.7762322667325
 20
170.5188338401323
 40
0.3244823357958034
 50
134.9952775438914
 51
171.0749880298436
 73
     1
 72
     2
 10
44.0024607162712
 20
170.4833381939873
 40
0.553478518495645
 50
171.0782575144016
 51
223.6198481992437
 73
     1
 72
     1
 10
43.6017793948625
 20
170.1015097650953
 11
43.9002999630061
 21
170.4000303332393
 72
     2
 10
44.0346654329241
 20
170.5613815961953
 40
0.2099721637829783
 50
129.7858837869625
 51
191.1423513427872
 73
     0
 72
     2
 10
44.1844719617365
 20
170.5318775179573
 40
0.3626564350938766
 50
191.1420714377273
 51
252.5098076772421
 73
     0
 72
     2
 10
44.1156241233899
 20
170.7502924592923
 40
0.1336474611635155
 50
252.519201446596
 51
315.0008117628009
 73
     0
 72
     1
 10
44.2101284883701
 20
170.8447941464473
 11
44.2333620643402
 21
170.8215605704773
 72
     2
 10
44.1118712883753
 20
170.7000802738423
 40
0.1718064932270724
 50
315.002471164034
 51
385.9651771821429
 73
     0
 72
     1
 10
44.2663356874965
 20
170.6248591297463
 11
43.9283798063574
 21
169.9312252328293
 72
     2
 10
44.2775973582254
 20
169.7611298763073
 40
0.3884396077165933
 50
154.0304157285965
 51
314.9999632891461
 73
     1
 72
     1
 10
44.5522654629366
 20
169.4864614196223
 11
44.6419689218973
 21
169.5761648785833
 72
     2
 10
44.138365958802
 20
170.1817694494733
 40
0.7876375059132369
 50
309.7459148788025
 51
364.0359501507658
 73
     1
 72
     1
 10
44.9240501908878
 20
170.2372052517453
 11
45.1345777473803
 21
170.0687737040663
 72
     1
 10
45.1345777473803
 20
170.0687737040663
 11
45.460465472495
 21
170.3946614291803
 72
     1
 10
45.460465472495
 20
170.3946614291803
 11
44.4809968249905
 21
171.1782838596103
 97
       17
330
272
330
C9
330
275
330
274
330
BB
330
277
330
276
330
27B
330
B7
330
27A
330
B8
330
282
330
B0
330
27F
330
B9
330
B6
330
C5
 92
       16
 93
        4
 72
     2
 10
44.1344050358483
 20
170.2440573139883
 40
0.63763162763387
 50
314.3525730796267
 51
363.6047712093387
 73
     1
 72
     1
 10
44.7707751068793
 20
170.2841475279383
 11
44.4151921159536
 21
170.6397305188643
 72
     1
 10
44.4151921159536
 20
170.6397305188643
 11
44.2148322184747
 21
170.0569906225923
 72
     2
 10
44.4395346185347
 20
169.9796760272023
 40
0.2376314694080912
 50
161.0129138540278
 51
306.2819549184061
 73
     1
 97
        4
330
27C
330
B5
330
DC
330
270
 75
     1
 76
     2
 52
0.0
 41
1.0
 77
     0
 78
     2
 53
44.99999999999998
 43
-52.2533356177462
 44
52.25333561774622
 45
-0.0883883476483184
 46
0.0
 79
     0
 53
134.9999999999997
 43
0.0300016218074412
 44
0.0300016218074409
 45
-0.0000000000000004
 46
-0.0883883476483184
 79
     0
 98
        1
 10
0.0
 20
0.0
  0
HATCH
  5
2D1
330
33
100
AcDbEntity
  8
1
  6
Continuous
 62
     2
100
AcDbHatch
 10
0.0
 20
0.0
 30
0.0
210
0.0
220
0.0
230
1.0
  2
CUSTOM4
 70
     0
 71
     1
 91
        1
 92
        1
 93
       11
 72
     2
 10
50.8906507079825
 20
177.3633564994023
 40
0.5153414054987646
 50
45.00294978128329
 51
135.4213236203731
 73
     1
 72
     2
 10
50.9029211022256
 20
177.2222985388913
 40
0.6298234606001442
 50
127.034672446319
 51
193.8050962783155
 73
     1
 72
     1
 10
50.2912913146012
 20
177.0720101680413
 11
50.0809062953843
 21
177.2823951872583
 72
     1
 10
50.0809062953843
 20
177.2823951872583
 11
49.7569665797074
 21
176.9584554715803
 72
     1
 10
49.7569665797074
 20
176.9584554715803
 11
50.890613047301
 21
175.8248090039873
 72
     1
 10
50.890613047301
 20
175.8248090039873
 11
51.2145527629782
 21
176.1487487196643
 72
     1
 10
51.2145527629782
 20
176.1487487196643
 11
50.6207424716123
 21
176.7425590110303
 72
     2
 10
50.8636735021571
 20
176.9854900415753
 40
0.3435563581195011
 50
134.9999999999748
 51
315.0000000000118
 73
     0
 72
     1
 10
51.1066045327032
 20
177.2284210721213
 11
51.7004148240689
 21
176.6346107807543
 72
     1
 10
51.7004148240689
 20
176.6346107807543
 11
52.024307027321
 21
176.9585029840073
 72
     1
 10
52.024307027321
 20
176.9585029840073
 11
51.2550333493324
 21
177.7277766619953
 97
       11
330
264
330
25B
330
CA
330
DB
330
DA
330
D5
330
D6
330
265
330
D7
330
D8
330
D9
 75
     1
 76
     2
 52
0.0
 41
1.0
 77
     0
 78
     2
 53
44.99999999999998
 43
-52.2533356177462
 44
52.25333561774622
 45
-0.0883883476483184
 46
0.0
 79
     0
 53
134.9999999999997
 43
0.0300016218074412
 44
0.0300016218074409
 45
-0.0000000000000004
 46
-0.0883883476483184
 79
     0
 98
        1
 10
0.0
 20
0.0
  0
HATCH
  5
2D2
330
33
100
AcDbEntity
  8
1
  6
Continuous
 62
     2
100
AcDbHatch
 10
0.0
 20
0.0
 30
0.0
210
0.0
220
0.0
230
1.0
  2
CUSTOM5
 70
     0
 71
     1
 91
        1
 92
        1
 93
       11
 72
     2
 10
45.6541639515319
 20
172.1269169078863
 40
0.5153078097769904
 50
44.9992417992243
 51
135.4176153528058
 73
     1
 72
     2
 10
45.6664370097356
 20
171.9858195831103
 40
0.6298281181361788
 50
127.0292617505175
 51
193.8057390999733
 73
     1
 72
     1
 10
45.0548043853072
 20
171.8355232387473
 11
44.8444193660902
 21
172.0459082579633
 72
     1
 10
44.8444193660902
 20
172.0459082579633
 11
44.5205271628382
 21
171.7220160547123
 72
     1
 10
44.5205271628382
 20
171.7220160547123
 11
45.6541736304322
 21
170.5883695871183
 72
     1
 10
45.6541736304322
 20
170.5883695871183
 11
45.9780658336841
 21
170.9122617903703
 72
     1
 10
45.9780658336841
 20
170.9122617903703
 11
45.3842555423183
 21
171.5060720817363
 72
     2
 10
45.6271865728623
 20
171.7490031122803
 40
0.3435563581195011
 50
135.0000000000017
 51
315.0000000000118
 73
     0
 72
     1
 10
45.8701176034084
 20
171.9919341428263
 11
46.4639278947741
 21
171.3981238514603
 72
     1
 10
46.4639278947741
 20
171.3981238514603
 11
46.7878200980261
 21
171.7220160547123
 72
     1
 10
46.7878200980261
 20
171.7220160547123
 11
46.0185464200375
 21
172.4912897327003
 97
       11
330
267
330
268
330
CF
330
CE
330
CC
330
D4
330
D3
330
266
330
D2
330
D1
330
D0
 75
     1
 76
     2
 52
0.0
 41
1.0
 77
     0
 78
     2
 53
44.99999999999998
 43
-52.2533356177462
 44
52.25333561774622
 45
-0.0883883476483184
 46
0.0
 79
     0
 53
134.9999999999997
 43
0.0300016218074412
 44
0.0300016218074409
 45
-0.0000000000000004
 46
-0.0883883476483184
 79
     0
 98
        1
 10
0.0
 20
0.0
  0
HATCH
  5
2D3
330
33
100
AcDbEntity
  8
1
  6
Continuous
 62
     2
100
AcDbHatch
 10
0.0
 20
0.0
 30
0.0
210
0.0
220
0.0
230
1.0
  2
CUSTOM6
 70
     0
 71
     1
 91
        1
 92
        1
 93
        4
 72
     1
 10
51.1875657054085
 20
178.8749166583743
 11
50.8636735021567
 21
178.5510244551223
 72
     1
 10
50.8636735021567
 20
178.5510244551223
 11
50.6747165867502
 21
178.7399813705293
 72
     1
 10
50.6747165867502
 20
178.7399813705293
 11
50.9986087900014
 21
179.0638735737813
 72
     1
 10
50.9986087900014
 20
179.0638735737813
 11
51.1875657054085
 21
178.8749166583743
 97
        4
330
C0
330
C2
330
BC
330
C8
 75
     1
 76
     2
 52
0.0
 41
1.0
 77
     0
 78
     2
 53
44.99999999999998
 43
-52.2533356177462
 44
52.25333561774622
 45
-0.0883883476483184
 46
0.0
 79
     0
 53
134.9999999999997
 43
0.0300016218074412
 44
0.0300016218074409
 45
-0.0000000000000004
 46
-0.0883883476483184
 79
     0
 98
        1
 10
0.0
 20
0.0
  0
HATCH
  5
2D4
330
33
100
AcDbEntity
  8
1
  6
Continuous
 62
     2
100
AcDbHatch
 10
0.0
 20
0.0
 30
0.0
210
0.0
220
0.0
230
1.0
  2
CUSTOM7
 70
     0
 71
     1
 91
        1
 92
        1
 93
        4
 72
     1
 10
52.564143203548
 20
177.4983391602333
 11
52.2402510002968
 21
177.1744469569823
 72
     1
 10
52.2402510002968
 20
177.1744469569823
 11
51.1605786478401
 21
178.2541193094393
 72
     1
 10
51.1605786478401
 20
178.2541193094393
 11
51.4844708510919
 21
178.5780115126913
 72
     1
 10
51.4844708510919
 20
178.5780115126913
 11
52.564143203548
 21
177.4983391602333
 97
        4
330
BD
330
BE
330
BF
330
C1
 75
     1
 76
     2
 52
0.0
 41
1.0
 77
     0
 78
     2
 53
44.99999999999998
 43
-52.2533356177462
 44
52.25333561774622
 45
-0.0883883476483184
 46
0.0
 79
     0
 53
134.9999999999997
 43
0.0300016218074412
 44
0.0300016218074409
 45
-0.0000000000000004
 46
-0.0883883476483184
 79
     0
 98
        1
 10
0.0
 20
0.0
  0
ENDBLK
  5
35
330
33
100
AcDbEntity
  8
0
100
AcDbBlockEnd
  0
BLOCK
  5
2BB
330
2B4
100
AcDbEntity
  8
0
100
AcDbBlockBegin
  2
*D2
 70
     1
 71
     0
 10
0.0
 20
0.0
 30
0.0
  3
*D2
  1

  0
LINE
  5
2B5
330
2B4
100
AcDbEntity
  8
1
  6
Continuous
 62
     2
100
AcDbLine
 10
110.846433585057
 20
176.9658972473073
 30
0.0
 11
110.846433585057
 21
256.8302018432074
 31
0.0
  0
LINE
  5
2B6
330
2B4
100
AcDbEntity
  8
1
  6
Continuous
 62
     2
100
AcDbLine
 10
181.1110497098279
 20
256.8302018432074
 30
0.0
 11
110.046433585057
 21
256.8302018432074
 31
0.0
  0
LINE
  5
2B7
330
2B4
100
AcDbEntity
  8
1
  6
Continuous
 62
     2
100
AcDbLine
 10
123.7282028356279
 20
176.9658972473073
 30
0.0
 11
110.046433585057
 21
176.9658972473073
 31
0.0
  0
SOLID
  5
2B8
330
2B4
100
AcDbEntity
  8
1
 62
     2
100
AcDbTrace
 10
111.1755648290255
 20
254.3302018432074
 30
0.0
 11
110.5173023410885
 21
254.3302018432074
 31
0.0
 12
110.846433585057
 22
256.8302018432074
 32
0.0
 13
110.846433585057
 23
256.8302018432074
 33
0.0
  0
SOLID
  5
2B9
330
2B4
100
AcDbEntity
  8
1
 62
     2
100
AcDbTrace
 10
110.5173023410885
 20
179.4658972473073
 30
0.0
 11
111.1755648290255
 21
179.4658972473073
 31
0.0
 12
110.846433585057
 22
176.9658972473073
 32
0.0
 13
110.846433585057
 23
176.9658972473073
 33
0.0
  0
MTEXT
  5
2BA
330
2B4
100
AcDbEntity
  8
1
 62
     2
100
AcDbMText
 10
110.127683585057
 20
215.0980495452573
 30
0.0
 40
3.0
 41
0.0
 71
     7
 72
     1
  1
80
  7
CONVERTER_11
 11
0.0
 21
1.0
 31
0.0
 73
     1
 44
0.60024009603842
  0
ENDBLK
  5
2BC
330
2B4
100
AcDbEntity
  8
0
100
AcDbBlockEnd
  0
BLOCK
  5
2C6
330
2BF
100
AcDbEntity
  8
0
100
AcDbBlockBegin
  2
*D3
 70
     1
 71
     0
 10
0.0
 20
0.0
 30
0.0
  3
*D3
  1

  0
LINE
  5
2C0
330
2BF
100
AcDbEntity
  8
1
  6
Continuous
 62
     2
100
AcDbLine
 10
124.228202835628
 20
267.5718386522993
 30
0.0
 11
241.228202835628
 21
267.5718386522993
 31
0.0
  0
LINE
  5
2C1
330
2BF
100
AcDbEntity
  8
1
  6
Continuous
 62
     2
100
AcDbLine
 10
241.228202835628
 20
177.4658972473068
 30
0.0
 11
241.228202835628
 21
268.3718386522993
 31
0.0
  0
LINE
  5
2C2
330
2BF
100
AcDbEntity
  8
1
  6
Continuous
 62
     2
100
AcDbLine
 10
124.228202835628
 20
177.4658972473068
 30
0.0
 11
124.228202835628
 21
268.3718386522993
 31
0.0
  0
SOLID
  5
2C3
330
2BF
100
AcDbEntity
  8
1
 62
     2
100
AcDbTrace
 10
238.728202835628
 20
267.2427074083308
 30
0.0
 11
238.728202835628
 21
267.9009698962678
 31
0.0
 12
241.228202835628
 22
267.5718386522993
 32
0.0
 13
241.228202835628
 23
267.5718386522993
 33
0.0
  0
SOLID
  5
2C4
330
2BF
100
AcDbEntity
  8
1
 62
     2
100
AcDbTrace
 10
126.728202835628
 20
267.9009698962678
 30
0.0
 11
126.728202835628
 21
267.2427074083308
 31
0.0
 12
124.228202835628
 22
267.5718386522993
 32
0.0
 13
124.228202835628
 23
267.5718386522993
 33
0.0
  0
MTEXT
  5
2C5
330
2BF
100
AcDbEntity
  8
1
 62
     2
100
AcDbMText
 10
177.4148731384562
 20
268.5718138460036
 30
0.0
 40
3.0
 41
0.0
 71
     7
 72
     1
  1
\C2;Æ\C2;117
  7
CONVERTER_11
 11
0.999999999988248
 21
4.848136811095759E-6
 31
0.0
 73
     1
 44
0.60024009603842
  0
ENDBLK
  5
2C7
330
2BF
100
AcDbEntity
  8
0
100
AcDbBlockEnd
  0
ENDSEC
  0
SECTION
  2
ENTITIES
  0
INSERT
  5
36
330
1F
100
AcDbEntity
  8
0
100
AcDbBlockReference
  2
TOP
 10
-635.891450019907
 20
738.0662868168373
 30
0.0
  0
ENDSEC
  0
SECTION
  2
OBJECTS
  0
DICTIONARY
  5
C
330
0
100
AcDbDictionary
281
     1
  3
ACAD_GROUP
350
D
  3
ACAD_LAYOUT
350
1A
  3
ACAD_MLINESTYLE
350
17
  3
ACAD_PLOTSETTINGS
350
19
  3
ACAD_PLOTSTYLENAME
350
E
  0
DICTIONARY
  5
D
102
{ACAD_REACTORS
330
C
102
}
330
C
100
AcDbDictionary
281
     1
  0
DICTIONARY
  5
1A
102
{ACAD_REACTORS
330
C
102
}
330
C
100
AcDbDictionary
281
     1
  3
Layout1
350
1E
  3
Layout2
350
26
  3
Model
350
22
  0
DICTIONARY
  5
17
102
{ACAD_REACTORS
330
C
102
}
330
C
100
AcDbDictionary
281
     1
  3
Standard
350
18
  0
DICTIONARY
  5
19
102
{ACAD_REACTORS
330
C
102
}
330
C
100
AcDbDictionary
281
     1
  0
ACDBDICTIONARYWDFLT
  5
E
102
{ACAD_REACTORS
330
C
102
}
330
C
100
AcDbDictionary
281
     1
  3
Normal
350
F
100
AcDbDictionaryWithDefault
340
F
  0
LAYOUT
  5
1E
102
{ACAD_REACTORS
330
1A
102
}
330
1A
100
AcDbPlotSettings
  1

  2

  4

  6

 40
0.0
 41
0.0
 42
0.0
 43
0.0
 44
0.0
 45
0.0
 46
0.0
 47
0.0
 48
0.0
 49
0.0
140
0.0
141
0.0
142
1.0
143
1.0
 70
   688
 72
     0
 73
     0
 74
     5
  7

 75
    16
147
1.0
148
0.0
149
0.0
100
AcDbLayout
  1
Layout1
 70
     1
 71
     1
 10
0.0
 20
0.0
 11
0.0
 21
0.0
 12
0.0
 22
0.0
 32
0.0
 14
0.0
 24
0.0
 34
0.0
 15
0.0
 25
0.0
 35
0.0
146
0.0
 13
0.0
 23
0.0
 33
0.0
 16
1.0
 26
0.0
 36
0.0
 17
0.0
 27
1.0
 37
0.0
 76
     0
330
1B
  0
LAYOUT
  5
26
102
{ACAD_REACTORS
330
1A
102
}
330
1A
100
AcDbPlotSettings
  1

  2

  4

  6

 40
0.0
 41
0.0
 42
0.0
 43
0.0
 44
0.0
 45
0.0
 46
0.0
 47
0.0
 48
0.0
 49
0.0
140
0.0
141
0.0
142
1.0
143
1.0
 70
   688
 72
     0
 73
     0
 74
     5
  7

 75
    16
147
1.0
148
0.0
149
0.0
100
AcDbLayout
  1
Layout2
 70
     1
 71
     2
 10
0.0
 20
0.0
 11
0.0
 21
0.0
 12
0.0
 22
0.0
 32
0.0
 14
0.0
 24
0.0
 34
0.0
 15
0.0
 25
0.0
 35
0.0
146
0.0
 13
0.0
 23
0.0
 33
0.0
 16
1.0
 26
0.0
 36
0.0
 17
0.0
 27
1.0
 37
0.0
 76
     0
330
23
  0
LAYOUT
  5
22
102
{ACAD_REACTORS
330
1A
102
}
330
1A
100
AcDbPlotSettings
  1

  2

  4

  6

 40
0.0
 41
0.0
 42
0.0
 43
0.0
 44
0.0
 45
0.0
 46
0.0
 47
0.0
 48
0.0
 49
0.0
140
0.0
141
0.0
142
1.0
143
1.0
 70
  1712
 72
     0
 73
     0
 74
     0
  7

 75
     0
147
1.0
148
0.0
149
0.0
100
AcDbLayout
  1
Model
 70
     1
 71
     0
 10
0.0
 20
0.0
 11
0.0
 21
0.0
 12
0.0
 22
0.0
 32
0.0
 14
38.62832992699497
 24
41.9831896552398
 34
0.0
 15
374.128626506531
 25
271.5718481708035
 35
0.0
146
0.0
 13
0.0
 23
0.0
 33
0.0
 16
1.0
 26
0.0
 36
0.0
 17
0.0
 27
1.0
 37
0.0
 76
     0
330
1F
  0
MLINESTYLE
  5
18
102
{ACAD_REACTORS
330
17
102
}
330
17
100
AcDbMlineStyle
  2
Standard
 70
     0
  3

 62
   256
 51
90.0
 52
90.0
 71
     2
 49
0.5
 62
   256
  6
BYLAYER
 49
-0.5
 62
   256
  6
BYLAYER
  0
ACDBPLACEHOLDER
  5
F
102
{ACAD_REACTORS
330
E
102
}
330
E
  0
ENDSEC
  0
EOF
