  0
SECTION
  2
HEADER
  9
$ACADVER
  1
AC1015
  9
$ACADMAINTVER
 70
     6
  9
$DWGCODEPAGE
  3
ANSI_1252
  9
$INSBASE
 10
0.0
 20
0.0
 30
0.0
  9
$EXTMIN
 10
9158.70336067496
 20
-4083.4244312048
 30
0.0
  9
$EXTMAX
 10
9321.05578794428
 20
-3847.922943660325
 30
0.0
  9
$LIMMIN
 10
0.0
 20
0.0
  9
$LIMMAX
 10
12.0
 20
9.0
  9
$ORTHOMODE
 70
     0
  9
$REGENMODE
 70
     1
  9
$FILLMODE
 70
     1
  9
$QTEXTMODE
 70
     0
  9
$MIRRTEXT
 70
     1
  9
$LTSCALE
 40
1.0
  9
$ATTMODE
 70
     1
  9
$TEXTSIZE
 40
0.2
  9
$TRACEWID
 40
0.05
  9
$TEXTSTYLE
  7
Standard
  9
$CLAYER
  8
0
  9
$CELTYPE
  6
ByLayer
  9
$CECOLOR
 62
   256
  9
$CELTSCALE
 40
1.0
  9
$DISPSILH
 70
     0
  9
$DIMSCALE
 40
1.0
  9
$DIMASZ
 40
0.18
  9
$DIMEXO
 40
0.0625
  9
$DIMDLI
 40
0.38
  9
$DIMRND
 40
0.0
  9
$DIMDLE
 40
0.0
  9
$DIMEXE
 40
0.18
  9
$DIMTP
 40
0.0
  9
$DIMTM
 40
0.0
  9
$DIMTXT
 40
0.18
  9
$DIMCEN
 40
0.09
  9
$DIMTSZ
 40
0.0
  9
$DIMTOL
 70
     0
  9
$DIMLIM
 70
     0
  9
$DIMTIH
 70
     1
  9
$DIMTOH
 70
     1
  9
$DIMSE1
 70
     0
  9
$DIMSE2
 70
     0
  9
$DIMTAD
 70
     0
  9
$DIMZIN
 70
     0
  9
$DIMBLK
  1

  9
$DIMASO
 70
     1
  9
$DIMSHO
 70
     1
  9
$DIMPOST
  1

  9
$DIMAPOST
  1

  9
$DIMALT
 70
     0
  9
$DIMALTD
 70
     2
  9
$DIMALTF
 40
25.4
  9
$DIMLFAC
 40
1.0
  9
$DIMTOFL
 70
     0
  9
$DIMTVP
 40
0.0
  9
$DIMTIX
 70
     0
  9
$DIMSOXD
 70
     0
  9
$DIMSAH
 70
     0
  9
$DIMBLK1
  1

  9
$DIMBLK2
  1

  9
$DIMSTYLE
  2
Standard
  9
$DIMCLRD
 70
     0
  9
$DIMCLRE
 70
     0
  9
$DIMCLRT
 70
     0
  9
$DIMTFAC
 40
1.0
  9
$DIMGAP
 40
0.09
  9
$DIMJUST
 70
     0
  9
$DIMSD1
 70
     0
  9
$DIMSD2
 70
     0
  9
$DIMTOLJ
 70
     1
  9
$DIMTZIN
 70
     0
  9
$DIMALTZ
 70
     0
  9
$DIMALTTZ
 70
     0
  9
$DIMUPT
 70
     0
  9
$DIMDEC
 70
     4
  9
$DIMTDEC
 70
     4
  9
$DIMALTU
 70
     2
  9
$DIMALTTD
 70
     2
  9
$DIMTXSTY
  7
Standard
  9
$DIMAUNIT
 70
     0
  9
$DIMADEC
 70
     0
  9
$DIMALTRND
 40
0.0
  9
$DIMAZIN
 70
     0
  9
$DIMDSEP
 70
    46
  9
$DIMATFIT
 70
     3
  9
$DIMFRAC
 70
     0
  9
$DIMLDRBLK
  1

  9
$DIMLUNIT
 70
     2
  9
$DIMLWD
 70
    -2
  9
$DIMLWE
 70
    -2
  9
$DIMTMOVE
 70
     0
  9
$LUNITS
 70
     2
  9
$LUPREC
 70
     4
  9
$SKETCHINC
 40
0.1
  9
$FILLETRAD
 40
0.5
  9
$AUNITS
 70
     0
  9
$AUPREC
 70
     0
  9
$MENU
  1
.
  9
$ELEVATION
 40
0.0
  9
$PELEVATION
 40
0.0
  9
$THICKNESS
 40
0.0
  9
$LIMCHECK
 70
     0
  9
$CHAMFERA
 40
0.5
  9
$CHAMFERB
 40
0.5
  9
$CHAMFERC
 40
1.0
  9
$CHAMFERD
 40
0.0
  9
$SKPOLY
 70
     0
  9
$TDCREATE
 40
2456267.703344317
  9
$TDUCREATE
 40
2456267.328344317
  9
$TDUPDATE
 40
2456267.703344329
  9
$TDUUPDATE
 40
2456267.328344329
  9
$TDINDWG
 40
0.0000000116
  9
$TDUSRTIMER
 40
0.0000000116
  9
$USRTIMER
 70
     1
  9
$ANGBASE
 50
0.0
  9
$ANGDIR
 70
     0
  9
$PDMODE
 70
     0
  9
$PDSIZE
 40
0.0
  9
$PLINEWID
 40
0.0
  9
$SPLFRAME
 70
     0
  9
$SPLINETYPE
 70
     6
  9
$SPLINESEGS
 70
     8
  9
$HANDSEED
  5
11C
  9
$SURFTAB1
 70
     6
  9
$SURFTAB2
 70
     6
  9
$SURFTYPE
 70
     6
  9
$SURFU
 70
     6
  9
$SURFV
 70
     6
  9
$UCSBASE
  2

  9
$UCSNAME
  2

  9
$UCSORG
 10
0.0
 20
0.0
 30
0.0
  9
$UCSXDIR
 10
1.0
 20
0.0
 30
0.0
  9
$UCSYDIR
 10
0.0
 20
1.0
 30
0.0
  9
$UCSORTHOREF
  2

  9
$UCSORTHOVIEW
 70
     0
  9
$UCSORGTOP
 10
0.0
 20
0.0
 30
0.0
  9
$UCSORGBOTTOM
 10
0.0
 20
0.0
 30
0.0
  9
$UCSORGLEFT
 10
0.0
 20
0.0
 30
0.0
  9
$UCSORGRIGHT
 10
0.0
 20
0.0
 30
0.0
  9
$UCSORGFRONT
 10
0.0
 20
0.0
 30
0.0
  9
$UCSORGBACK
 10
0.0
 20
0.0
 30
0.0
  9
$PUCSBASE
  2

  9
$PUCSNAME
  2

  9
$PUCSORG
 10
0.0
 20
0.0
 30
0.0
  9
$PUCSXDIR
 10
1.0
 20
0.0
 30
0.0
  9
$PUCSYDIR
 10
0.0
 20
1.0
 30
0.0
  9
$PUCSORTHOREF
  2

  9
$PUCSORTHOVIEW
 70
     0
  9
$PUCSORGTOP
 10
0.0
 20
0.0
 30
0.0
  9
$PUCSORGBOTTOM
 10
0.0
 20
0.0
 30
0.0
  9
$PUCSORGLEFT
 10
0.0
 20
0.0
 30
0.0
  9
$PUCSORGRIGHT
 10
0.0
 20
0.0
 30
0.0
  9
$PUCSORGFRONT
 10
0.0
 20
0.0
 30
0.0
  9
$PUCSORGBACK
 10
0.0
 20
0.0
 30
0.0
  9
$USERI1
 70
     0
  9
$USERI2
 70
     0
  9
$USERI3
 70
     0
  9
$USERI4
 70
     0
  9
$USERI5
 70
     0
  9
$USERR1
 40
14.5
  9
$USERR2
 40
0.0
  9
$USERR3
 40
0.0
  9
$USERR4
 40
0.0
  9
$USERR5
 40
0.0
  9
$WORLDVIEW
 70
     1
  9
$SHADEDGE
 70
     3
  9
$SHADEDIF
 70
    70
  9
$TILEMODE
 70
     1
  9
$MAXACTVP
 70
    64
  9
$PINSBASE
 10
0.0
 20
0.0
 30
0.0
  9
$PLIMCHECK
 70
     0
  9
$PEXTMIN
 10
1.00000000000000E+20
 20
1.00000000000000E+20
 30
1.00000000000000E+20
  9
$PEXTMAX
 10
-1.00000000000000E+20
 20
-1.00000000000000E+20
 30
-1.00000000000000E+20
  9
$PLIMMIN
 10
0.0
 20
0.0
  9
$PLIMMAX
 10
12.0
 20
9.0
  9
$UNITMODE
 70
     0
  9
$VISRETAIN
 70
     1
  9
$PLINEGEN
 70
     0
  9
$PSLTSCALE
 70
     1
  9
$TREEDEPTH
 70
  3020
  9
$CMLSTYLE
  2
Standard
  9
$CMLJUST
 70
     0
  9
$CMLSCALE
 40
1.0
  9
$PROXYGRAPHICS
 70
     1
  9
$MEASUREMENT
 70
     1
  9
$CELWEIGHT
370
    -1
  9
$ENDCAPS
280
     0
  9
$JOINSTYLE
280
     0
  9
$LWDISPLAY
290
     0
  9
$INSUNITS
 70
     1
  9
$HYPERLINKBASE
  1

  9
$STYLESHEET
  1

  9
$XEDIT
290
     1
  9
$CEPSNTYPE
380
     0
  9
$PSTYLEMODE
290
     1
  9
$FINGERPRINTGUID
  2
{896A6763-958A-457C-B1F9-31A526E799F3}
  9
$VERSIONGUID
  2
{FAEB1C32-E019-11D5-929B-00C0DF256EC4}
  9
$EXTNAMES
290
     1
  9
$PSVPSCALE
 40
0.0
  9
$OLESTARTUP
290
     0
  0
ENDSEC
  0
SECTION
  2
CLASSES
  0
CLASS
  1
ACDBDICTIONARYWDFLT
  2
AcDbDictionaryWithDefault
  3
ObjectDBX Classes
 90
        0
280
     0
281
     0
  0
CLASS
  1

  2
exOdDbCircle
  3

 90
        0
280
     0
281
     1
  0
CLASS
  1

  2
exOdDbPolyline
  3

 90
        0
280
     0
281
     1
  0
CLASS
  1
ACDBPLACEHOLDER
  2
AcDbPlaceHolder
  3
ObjectDBX Classes
 90
        0
280
     0
281
     0
  0
CLASS
  1
LAYOUT
  2
AcDbLayout
  3
ObjectDBX Classes
 90
        0
280
     0
281
     0
  0
ENDSEC
  0
SECTION
  2
TABLES
  0
TABLE
  2
VPORT
  5
8
330
0
100
AcDbSymbolTable
 70
     1
  0
VPORT
  5
29
330
8
100
AcDbSymbolTableRecord
100
AcDbViewportTableRecord
  2
*Active
 70
     0
 10
0.0
 20
0.0
 11
1.0
 21
1.0
 12
9239.87957430962
 22
-3965.673687432562
 13
0.0
 23
0.0
 14
0.5
 24
0.5
 15
0.5
 25
0.5
 16
0.0
 26
0.0
 36
1.0
 17
0.0
 27
0.0
 37
0.0
 40
259.0516362989224
 41
1.60267857142857
 42
50.0
 43
0.0
 44
0.0
 50
0.0
 51
0.0
 71
     0
 72
   100
 73
     1
 74
     3
 75
     0
 76
     0
 77
     0
 78
     0
281
     0
 65
     1
110
0.0
120
0.0
130
0.0
111
1.0
121
0.0
131
0.0
112
0.0
122
1.0
132
0.0
 79
     0
146
0.0
  0
ENDTAB
  0
TABLE
  2
LTYPE
  5
5
330
0
100
AcDbSymbolTable
 70
     8
  0
LTYPE
  5
14
330
5
100
AcDbSymbolTableRecord
100
AcDbLinetypeTableRecord
  2
ByBlock
 70
     0
  3

 72
    65
 73
     0
 40
0.0
  0
LTYPE
  5
15
330
5
100
AcDbSymbolTableRecord
100
AcDbLinetypeTableRecord
  2
ByLayer
 70
     0
  3

 72
    65
 73
     0
 40
0.0
  0
LTYPE
  5
16
330
5
100
AcDbSymbolTableRecord
100
AcDbLinetypeTableRecord
  2
Continuous
 70
     0
  3
Solid line
 72
    65
 73
     0
 40
0.0
  0
LTYPE
  5
2A
330
5
100
AcDbSymbolTableRecord
100
AcDbLinetypeTableRecord
  2
DASHED
 70
     0
  3
Dashed
 72
    65
 73
     2
 40
15.0
 49
7.0
 74
     0
 49
-8.0
 74
     0
  0
LTYPE
  5
2B
330
5
100
AcDbSymbolTableRecord
100
AcDbLinetypeTableRecord
  2
DOTTED
 70
     0
  3
Dotted
 72
    65
 73
     2
 40
1.0
 49
0.0
 74
     0
 49
-1.0
 74
     0
  0
LTYPE
  5
2C
330
5
100
AcDbSymbolTableRecord
100
AcDbLinetypeTableRecord
  2
DOT_CENTER
 70
     0
  3
Dot_Center
 72
    65
 73
     4
 40
14.0
 49
12.0
 74
     0
 49
-1.0
 74
     0
 49
0.0
 74
     0
 49
-1.0
 74
     0
  0
LTYPE
  5
2D
330
5
100
AcDbSymbolTableRecord
100
AcDbLinetypeTableRecord
  2
LONG_DASHED
 70
     0
  3
Long_Dashed
 72
    65
 73
     2
 40
15.0
 49
10.0
 74
     0
 49
-5.0
 74
     0
  0
LTYPE
  5
2E
330
5
100
AcDbSymbolTableRecord
100
AcDbLinetypeTableRecord
  2
DASH_CENTER
 70
     0
  3
Dash_Center
 72
    65
 73
     4
 40
14.0
 49
11.0
 74
     0
 49
-1.0
 74
     0
 49
1.0
 74
     0
 49
-1.0
 74
     0
  0
LTYPE
  5
2F
330
5
100
AcDbSymbolTableRecord
100
AcDbLinetypeTableRecord
  2
PHANTOM
 70
     0
  3
Phantom
 72
    65
 73
     6
 40
13.0
 49
10.0
 74
     0
 49
-1.0
 74
     0
 49
0.0
 74
     0
 49
-1.0
 74
     0
 49
0.0
 74
     0
 49
-1.0
 74
     0
  0
LTYPE
  5
30
330
5
100
AcDbSymbolTableRecord
100
AcDbLinetypeTableRecord
  2
CENTER_DASH_DASH
 70
     0
  3
Center_Dash_Dash
 72
    65
 73
     6
 40
14.0
 49
9.0
 74
     0
 49
-1.0
 74
     0
 49
1.0
 74
     0
 49
-1.0
 74
     0
 49
1.0
 74
     0
 49
-1.0
 74
     0
  0
ENDTAB
  0
TABLE
  2
LAYER
  5
2
330
0
100
AcDbSymbolTable
 70
     2
  0
LAYER
  5
10
330
2
100
AcDbSymbolTableRecord
100
AcDbLayerTableRecord
  2
0
 70
     0
 62
     7
  6
Continuous
370
    -3
390
F
  0
LAYER
  5
31
330
2
100
AcDbSymbolTableRecord
100
AcDbLayerTableRecord
  2
1
 70
     0
 62
     7
  6
Continuous
370
    -3
390
F
  0
ENDTAB
  0
TABLE
  2
STYLE
  5
3
330
0
100
AcDbSymbolTable
 70
     3
  0
STYLE
  5
11
330
3
100
AcDbSymbolTableRecord
100
AcDbTextStyleTableRecord
  2
Standard
 70
     0
 40
0.0
 41
1.0
 50
0.0
 71
     0
 42
0.2
  3
txt
  4

  0
STYLE
  5
43
330
3
100
AcDbSymbolTableRecord
100
AcDbTextStyleTableRecord
  2
CONVERTER_11
 70
     0
 40
0.0
 41
0.72
 50
0.0
 71
     0
 42
0.2
  3
txt.shx
  4

  0
STYLE
  5
C6
330
3
100
AcDbSymbolTableRecord
100
AcDbTextStyleTableRecord
  2
CONVERTER_12
 70
     0
 40
0.0
 41
0.81
 50
0.0
 71
     0
 42
0.2
  3
txt.shx
  4

  0
ENDTAB
  0
TABLE
  2
VIEW
  5
6
330
0
100
AcDbSymbolTable
 70
     0
  0
ENDTAB
  0
TABLE
  2
UCS
  5
7
330
0
100
AcDbSymbolTable
 70
     0
  0
ENDTAB
  0
TABLE
  2
APPID
  5
9
330
0
100
AcDbSymbolTable
 70
     1
  0
APPID
  5
12
330
9
100
AcDbSymbolTableRecord
100
AcDbRegAppTableRecord
  2
ACAD
 70
     0
  0
ENDTAB
  0
TABLE
  2
DIMSTYLE
  5
A
330
0
100
AcDbSymbolTable
 70
     7
100
AcDbDimStyleTable
  0
DIMSTYLE
105
27
330
A
100
AcDbSymbolTableRecord
100
AcDbDimStyleTableRecord
  2
Standard
 70
     0
340
11
  0
DIMSTYLE
105
D2
102
{ACAD_REACTORS
330
D3
102
}
330
A
100
AcDbSymbolTableRecord
100
AcDbDimStyleTableRecord
  2
ME10_DIM_10
 70
     0
  3
{\Fgdt;n}<>
 41
2.5
 42
0.5
 44
0.8
 73
     0
 74
     0
 77
     1
 78
    12
140
3.0
147
1.0
172
     1
173
     1
176
     2
177
     2
178
     2
271
     3
340
43
  0
DIMSTYLE
105
DD
102
{ACAD_REACTORS
330
DE
102
}
330
A
100
AcDbSymbolTableRecord
100
AcDbDimStyleTableRecord
  2
ME10_DIM_11
 70
     0
  3
(<>)
 41
2.5
 42
0.5
 44
0.8
 73
     0
 74
     0
 77
     1
 78
    12
140
3.0
147
1.0
172
     1
173
     1
176
     2
177
     2
178
     2
271
     3
340
43
  0
DIMSTYLE
105
E8
102
{ACAD_REACTORS
330
E9
102
}
330
A
100
AcDbSymbolTableRecord
100
AcDbDimStyleTableRecord
  2
ME10_DIM_12
 70
     0
 41
2.5
 42
0.5
 44
0.8
 73
     0
 74
     0
 77
     1
 78
    12
140
3.0
147
1.0
172
     1
173
     1
176
     2
177
     2
178
     2
271
     3
340
43
  0
DIMSTYLE
105
F3
102
{ACAD_REACTORS
330
F4
102
}
330
A
100
AcDbSymbolTableRecord
100
AcDbDimStyleTableRecord
  2
ME10_DIM_13
 70
     0
 41
2.5
 42
0.5
 44
0.8
 73
     0
 74
     0
 77
     1
 78
    12
140
3.0
147
1.0
172
     1
173
     1
176
     2
177
     2
178
     2
271
     3
340
43
  0
DIMSTYLE
105
FE
102
{ACAD_REACTORS
330
FF
102
}
330
A
100
AcDbSymbolTableRecord
100
AcDbDimStyleTableRecord
  2
ME10_DIM_14
 70
     0
 41
2.5
 42
0.5
 44
0.8
 73
     0
 74
     0
 77
     1
 78
    12
140
3.0
147
1.0
172
     1
173
     1
176
     2
177
     2
178
     2
271
     3
340
43
  0
DIMSTYLE
105
109
102
{ACAD_REACTORS
330
10A
102
}
330
A
100
AcDbSymbolTableRecord
100
AcDbDimStyleTableRecord
  2
ME10_DIM_15
 70
     0
  3
{\Fgdt;n}<>
 41
2.5
 42
0.5
 44
0.8
 73
     0
 74
     0
 77
     1
 78
    12
140
3.0
147
1.0
172
     1
173
     1
176
     2
177
     2
178
     2
271
     3
340
43
  0
ENDTAB
  0
TABLE
  2
BLOCK_RECORD
  5
1
330
0
100
AcDbSymbolTable
 70
    10
  0
BLOCK_RECORD
  5
1F
330
1
100
AcDbSymbolTableRecord
100
AcDbBlockTableRecord
  2
*Model_Space
340
22
  0
BLOCK_RECORD
  5
1B
330
1
100
AcDbSymbolTableRecord
100
AcDbBlockTableRecord
  2
*Paper_Space
340
1E
  0
BLOCK_RECORD
  5
23
330
1
100
AcDbSymbolTableRecord
100
AcDbBlockTableRecord
  2
*Paper_Space0
340
26
  0
BLOCK_RECORD
  5
32
330
1
100
AcDbSymbolTableRecord
100
AcDbBlockTableRecord
  2
_D10
340
0
102
{BLKREFS
331
36
102
}
  0
BLOCK_RECORD
  5
35
330
1
100
AcDbSymbolTableRecord
100
AcDbBlockTableRecord
  2
APPEA-SMOKE-DOME-COVER-E__2001_03_04__9_00_20
340
0
102
{BLKREFS
331
3A
102
}
  0
BLOCK_RECORD
  5
39
330
1
100
AcDbSymbolTableRecord
100
AcDbBlockTableRecord
  2
appea-smoke-dome-cover-e__2005_01_11_14_53_43
340
0
102
{BLKREFS
331
3D
102
}
  0
BLOCK_RECORD
  5
C9
330
1
100
AcDbSymbolTableRecord
100
AcDbBlockTableRecord
  2
*D4
340
0
  0
BLOCK_RECORD
  5
D4
330
1
100
AcDbSymbolTableRecord
100
AcDbBlockTableRecord
  2
*D5
340
0
  0
BLOCK_RECORD
  5
DF
330
1
100
AcDbSymbolTableRecord
100
AcDbBlockTableRecord
  2
*D6
340
0
  0
BLOCK_RECORD
  5
EA
330
1
100
AcDbSymbolTableRecord
100
AcDbBlockTableRecord
  2
*D7
340
0
  0
BLOCK_RECORD
  5
F5
330
1
100
AcDbSymbolTableRecord
100
AcDbBlockTableRecord
  2
*D8
340
0
  0
BLOCK_RECORD
  5
100
330
1
100
AcDbSymbolTableRecord
100
AcDbBlockTableRecord
  2
*D9
340
0
  0
ENDTAB
  0
ENDSEC
  0
SECTION
  2
BLOCKS
  0
BLOCK
  5
20
330
1F
100
AcDbEntity
  8
0
100
AcDbBlockBegin
  2
*Model_Space
 70
     0
 71
     0
 10
0.0
 20
0.0
 30
0.0
  3
*Model_Space
  1

  0
ENDBLK
  5
21
330
1F
100
AcDbEntity
  8
0
100
AcDbBlockEnd
  0
BLOCK
  5
1C
330
1B
100
AcDbEntity
 67
     1
  8
0
100
AcDbBlockBegin
  2
*Paper_Space
 70
     0
 71
     0
 10
0.0
 20
0.0
 30
0.0
  3
*Paper_Space
  1

  0
ENDBLK
  5
1D
330
1B
100
AcDbEntity
 67
     1
  8
0
100
AcDbBlockEnd
  0
BLOCK
  5
24
330
23
100
AcDbEntity
  8
0
100
AcDbBlockBegin
  2
*Paper_Space0
 70
     0
 71
     0
 10
0.0
 20
0.0
 30
0.0
  3
*Paper_Space0
  1

  0
ENDBLK
  5
25
330
23
100
AcDbEntity
  8
0
100
AcDbBlockEnd
  0
BLOCK
  5
33
330
32
100
AcDbEntity
  8
0
100
AcDbBlockBegin
  2
_D10
 70
     0
 71
     0
 10
0.0
 20
0.0
 30
0.0
  3
_D10
  1

  0
LINE
  5
3E
102
{ACAD_REACTORS
330
45
330
45
102
}
330
32
100
AcDbEntity
  8
1
  6
Continuous
 62
     2
100
AcDbLine
 10
9271.84553230716
 20
-3875.08675143334
 30
0.0
 11
9273.36552901215
 21
-3873.07480277778
 31
0.0
  0
LINE
  5
3F
102
{ACAD_REACTORS
330
45
330
45
102
}
330
32
100
AcDbEntity
  8
1
  6
Continuous
 62
     2
100
AcDbLine
 10
9272.79300575056
 20
-3872.74995417003
 30
0.0
 11
9271.84553230716
 21
-3875.08675143334
 31
0.0
  0
LINE
  5
40
102
{ACAD_REACTORS
330
45
330
45
102
}
330
32
100
AcDbEntity
  8
1
  6
Continuous
 62
     2
100
AcDbLine
 10
9273.36552901215
 20
-3873.07480277778
 30
0.0
 11
9272.79300575056
 21
-3872.74995417003
 31
0.0
  0
LINE
  5
41
330
32
100
AcDbEntity
  8
1
  6
Continuous
 62
     2
100
AcDbLine
 10
9275.91025587946
 20
-3867.92295654085
 30
0.0
 11
9289.09025587946
 21
-3867.92295654085
 31
0.0
  0
LINE
  5
42
330
32
100
AcDbEntity
  8
1
  6
Continuous
 62
     2
100
AcDbLine
 10
9271.84553230716
 20
-3875.08675143334
 30
0.0
 11
9275.91025587946
 21
-3867.92295654085
 31
0.0
  0
MTEXT
  5
44
330
32
100
AcDbEntity
  8
1
 62
     2
100
AcDbMText
 10
9280.57025587947
 20
-3866.92296846727
 30
0.0
 40
3.0
 41
0.0
 71
     7
 72
     1
  1
SR55
  7
CONVERTER_11
 11
0.999999999997062
 21
2.424068405545310E-6
 31
0.0
 73
     1
 44
1.0
  0
HATCH
  5
45
330
32
100
AcDbEntity
  8
1
  6
Continuous
 62
     2
100
AcDbHatch
 10
0.0
 20
0.0
 30
0.0
210
0.0
220
0.0
230
1.0
  2
SOLID
 70
     1
 71
     1
 91
        1
 92
        1
 93
        3
 72
     1
 10
9272.79300575056
 20
-3872.74995417003
 11
9271.84553230716
 21
-3875.08675143334
 72
     1
 10
9271.84553230716
 20
-3875.08675143334
 11
9273.36552901215
 21
-3873.07480277778
 72
     1
 10
9273.36552901215
 20
-3873.07480277778
 11
9272.79300575056
 21
-3872.74995417003
 97
        3
330
3E
330
3F
330
40
 75
     0
 76
     1
 98
        1
 10
0.0
 20
0.0
  0
ENDBLK
  5
34
330
32
100
AcDbEntity
  8
0
100
AcDbBlockEnd
  0
BLOCK
  5
37
330
35
100
AcDbEntity
  8
0
100
AcDbBlockBegin
  2
APPEA-SMOKE-DOME-COVER-E__2001_03_04__9_00_20
 70
     0
 71
     0
 10
8030.29026285536
 20
-4269.4964616847
 30
0.0
  3
APPEA-SMOKE-DOME-COVER-E__2001_03_04__9_00_20
  1

  0
INSERT
  5
36
330
35
100
AcDbEntity
  8
1
100
AcDbBlockReference
  2
_D10
 10
0.0
 20
0.0
 30
0.0
  0
POINT
  5
46
330
35
100
AcDbEntity
  8
1
 62
     7
100
AcDbPoint
 10
9189.70336067496
 20
-3922.92295654085
 30
0.0
  0
POINT
  5
47
330
35
100
AcDbEntity
  8
1
 62
     7
100
AcDbPoint
 10
9299.70336067496
 20
-3922.92295654085
 30
0.0
  0
POINT
  5
48
330
35
100
AcDbEntity
  8
1
 62
     7
100
AcDbPoint
 10
9187.70402855496
 20
-3941.92295654085
 30
0.0
  0
POINT
  5
49
330
35
100
AcDbEntity
  8
1
 62
     7
100
AcDbPoint
 10
9244.70336067496
 20
-3867.92295654085
 30
0.0
  0
POINT
  5
4A
330
35
100
AcDbEntity
  8
1
 62
     7
100
AcDbPoint
 10
9244.70336067496
 20
-3867.92295654085
 30
0.0
  0
POINT
  5
4B
330
35
100
AcDbEntity
  8
1
 62
     7
100
AcDbPoint
 10
9184.70336067496
 20
-3928.92295654085
 30
0.0
  0
POINT
  5
4C
330
35
100
AcDbEntity
  8
1
 62
     7
100
AcDbPoint
 10
9184.70336067496
 20
-3928.92295654085
 30
0.0
  0
POINT
  5
4D
330
35
100
AcDbEntity
  8
1
 62
     7
100
AcDbPoint
 10
9187.70402855496
 20
-3941.92295654085
 30
0.0
  0
POINT
  5
4E
330
35
100
AcDbEntity
  8
1
 62
     7
100
AcDbPoint
 10
9184.70355415906
 20
-3928.92295654085
 30
0.0
  0
POINT
  5
4F
330
35
100
AcDbEntity
  8
1
 62
     7
100
AcDbPoint
 10
9185.20405784796
 20
-3927.92295654085
 30
0.0
  0
POINT
  5
50
330
35
100
AcDbEntity
  8
1
 62
     7
100
AcDbPoint
 10
9184.70336067496
 20
-3928.42295654085
 30
0.0
  0
POINT
  5
51
330
35
100
AcDbEntity
  8
1
 62
     7
100
AcDbPoint
 10
9304.70336067496
 20
-3928.42295654085
 30
0.0
  0
LINE
  5
52
102
{ACAD_REACTORS
330
119
330
119
102
}
330
35
100
AcDbEntity
  8
0
  6
Continuous
 62
     7
100
AcDbLine
 10
9302.20336067496
 20
-3931.52295654085
 30
0.0
 11
9187.20336067496
 21
-3931.52295654085
 31
0.0
  0
LINE
  5
53
330
35
100
AcDbEntity
  8
0
  6
Continuous
 62
     7
100
AcDbLine
 10
9187.20336067496
 20
-3931.52295654085
 30
0.0
 11
9186.93891580251
 21
-3931.52295654085
 31
0.0
  0
LINE
  5
54
330
35
100
AcDbEntity
  8
1
  6
Continuous
 62
     7
100
AcDbLine
 10
9185.15548501943
 20
-3930.17295654085
 30
0.0
 11
9185.25548501943
 21
-3930.17295654085
 31
0.0
  0
LINE
  5
55
330
35
100
AcDbEntity
  8
1
  6
Continuous
 62
     7
100
AcDbLine
 10
9185.15548501943
 20
-3930.32295654085
 30
0.0
 11
9185.15548501943
 21
-3930.17295654085
 31
0.0
  0
LINE
  5
56
330
35
100
AcDbEntity
  8
1
  6
Continuous
 62
     7
100
AcDbLine
 10
9185.25548501943
 20
-3930.32295654085
 30
0.0
 11
9185.15548501943
 21
-3930.32295654085
 31
0.0
  0
LINE
  5
57
330
35
100
AcDbEntity
  8
1
  6
PHANTOM
 62
     4
100
AcDbLine
 10
9188.00336067496
 20
-3930.17295654085
 30
0.0
 11
9188.00336067496
 21
-3930.32295654085
 31
0.0
  0
LINE
  5
58
330
35
100
AcDbEntity
  8
1
  6
PHANTOM
 62
     4
100
AcDbLine
 10
9187.90123633049
 20
-3930.17295654085
 30
0.0
 11
9188.00336067496
 21
-3930.17295654085
 31
0.0
  0
LINE
  5
59
330
35
100
AcDbEntity
  8
1
  6
PHANTOM
 62
     4
100
AcDbLine
 10
9188.00336067496
 20
-3930.32295654085
 30
0.0
 11
9187.90123633049
 21
-3930.32295654085
 31
0.0
  0
LINE
  5
5A
330
35
100
AcDbEntity
  8
0
  6
PHANTOM
 62
     4
100
AcDbLine
 10
9188.00336067496
 20
-3928.92295654085
 30
0.0
 11
9188.00336067496
 21
-3931.52295654085
 31
0.0
  0
LINE
  5
5B
330
35
100
AcDbEntity
  8
1
  6
Continuous
 62
     7
100
AcDbLine
 10
9304.15123633049
 20
-3930.17295654085
 30
0.0
 11
9304.2512363305
 21
-3930.17295654085
 31
0.0
  0
LINE
  5
5C
330
35
100
AcDbEntity
  8
1
  6
Continuous
 62
     7
100
AcDbLine
 10
9304.2512363305
 20
-3930.17295654085
 30
0.0
 11
9304.2512363305
 21
-3930.32295654085
 31
0.0
  0
LINE
  5
5D
330
35
100
AcDbEntity
  8
1
  6
Continuous
 62
     7
100
AcDbLine
 10
9304.2512363305
 20
-3930.32295654085
 30
0.0
 11
9304.15123633049
 21
-3930.32295654085
 31
0.0
  0
LINE
  5
5E
330
35
100
AcDbEntity
  8
1
  6
PHANTOM
 62
     4
100
AcDbLine
 10
9301.40336067496
 20
-3930.32295654085
 30
0.0
 11
9301.40336067496
 21
-3930.17295654085
 31
0.0
  0
LINE
  5
5F
330
35
100
AcDbEntity
  8
1
  6
PHANTOM
 62
     4
100
AcDbLine
 10
9301.40336067496
 20
-3930.17295654085
 30
0.0
 11
9301.50548501943
 21
-3930.17295654085
 31
0.0
  0
LINE
  5
60
330
35
100
AcDbEntity
  8
1
  6
PHANTOM
 62
     4
100
AcDbLine
 10
9301.50548501943
 20
-3930.32295654085
 30
0.0
 11
9301.40336067496
 21
-3930.32295654085
 31
0.0
  0
LINE
  5
61
330
35
100
AcDbEntity
  8
1
  6
Continuous
 62
     2
100
AcDbLine
 10
9217.61983073395
 20
-3932.24262053875
 30
0.0
 11
9217.61983073395
 21
-3937.34973192249
 31
0.0
  0
LINE
  5
62
330
35
100
AcDbEntity
  8
1
  6
Continuous
 62
     2
100
AcDbLine
 10
9215.25400153798
 20
-3937.36380369323
 30
0.0
 11
9215.25400153798
 21
-3932.19363310103
 31
0.0
  0
LINE
  5
63
330
35
100
AcDbEntity
  8
1
  6
Continuous
 62
     2
100
AcDbLine
 10
9194.0339690799
 20
-3937.51829612706
 30
0.0
 11
9194.0339690799
 21
-3932.34477909765
 31
0.0
  0
LINE
  5
64
330
35
100
AcDbEntity
  8
1
  6
Continuous
 62
     2
100
AcDbLine
 10
9271.78689061597
 20
-3939.30922505993
 30
0.0
 11
9271.78689061597
 21
-3934.13905446765
 31
0.0
  0
LINE
  5
65
330
35
100
AcDbEntity
  8
1
  6
Continuous
 62
     2
100
AcDbLine
 10
9295.36592324754
 20
-3939.14077554928
 30
0.0
 11
9295.36592324754
 21
-3933.97060495704
 31
0.0
  0
LINE
  5
66
330
35
100
AcDbEntity
  8
1
  6
Continuous
 62
     2
100
AcDbLine
 10
9274.15271981195
 20
-3939.29517501229
 30
0.0
 11
9274.15271981195
 21
-3934.12500442003
 31
0.0
  0
LINE
  5
67
330
35
100
AcDbEntity
  8
0
  6
Continuous
 62
     7
100
AcDbLine
 10
9184.70336067496
 20
-3928.42295654085
 30
0.0
 11
9184.70336067496
 21
-3928.92295654085
 31
0.0
  0
LINE
  5
68
102
{ACAD_REACTORS
330
119
330
119
102
}
330
35
100
AcDbEntity
  8
0
  6
Continuous
 62
     7
100
AcDbLine
 10
9187.20336067496
 20
-3931.52295654085
 30
0.0
 11
9187.20336067496
 21
-3937.65927785846
 31
0.0
  0
LINE
  5
69
102
{ACAD_REACTORS
330
119
330
119
102
}
330
35
100
AcDbEntity
  8
0
  6
Continuous
 62
     7
100
AcDbLine
 10
9187.20336067496
 20
-3937.65927785846
 30
0.0
 11
9187.20336067496
 21
-3939.92295654085
 31
0.0
  0
LINE
  5
6A
102
{ACAD_REACTORS
330
117
330
117
102
}
330
35
100
AcDbEntity
  8
0
  6
Continuous
 62
     7
100
AcDbLine
 10
9189.70336067496
 20
-3922.92295654085
 30
0.0
 11
9189.70336067496
 21
-3927.92295654085
 31
0.0
  0
LINE
  5
6B
330
35
100
AcDbEntity
  8
0
  6
Continuous
 62
     2
100
AcDbLine
 10
9271.78689061597
 20
-3939.24671306355
 30
0.0
 11
9295.36592324754
 21
-3939.16461070605
 31
0.0
  0
LINE
  5
6C
330
35
100
AcDbEntity
  8
0
  6
Continuous
 62
     2
100
AcDbLine
 10
9295.36592324754
 20
-3938.55295654085
 30
0.0
 11
9271.78689061597
 21
-3938.63385541725
 31
0.0
  0
LINE
  5
6D
330
35
100
AcDbEntity
  8
0
  6
Continuous
 62
     2
100
AcDbLine
 10
9295.36592324754
 20
-3938.25295654085
 30
0.0
 11
9271.78689061597
 21
-3938.33385541725
 31
0.0
  0
LINE
  5
6E
330
35
100
AcDbEntity
  8
0
  6
Continuous
 62
     7
100
AcDbLine
 10
9187.70402855496
 20
-3941.92295654085
 30
0.0
 11
9301.70269279486
 21
-3941.92295654085
 31
0.0
  0
LINE
  5
6F
330
35
100
AcDbEntity
  8
0
  6
Continuous
 62
     2
100
AcDbLine
 10
9271.78689061597
 20
-3937.44621117565
 30
0.0
 11
9295.36592324754
 21
-3937.36438692895
 31
0.0
  0
LINE
  5
70
330
35
100
AcDbEntity
  8
0
  6
Continuous
 62
     2
100
AcDbLine
 10
9194.0339690799
 20
-3937.49460493475
 30
0.0
 11
9217.61983073395
 21
-3937.41279113095
 31
0.0
  0
LINE
  5
71
330
35
100
AcDbEntity
  8
0
  6
Continuous
 62
     2
100
AcDbLine
 10
9295.36592324754
 20
-3935.79421633675
 30
0.0
 11
9271.86305324227
 21
-3935.87604058345
 31
0.0
  0
LINE
  5
72
330
35
100
AcDbEntity
  8
0
  6
Continuous
 62
     2
100
AcDbLine
 10
9217.61983073395
 20
-3935.84262053875
 30
0.0
 11
9194.0339690799
 21
-3935.92443434255
 31
0.0
  0
LINE
  5
73
330
35
100
AcDbEntity
  8
0
  6
Continuous
 62
     2
100
AcDbLine
 10
9271.78689061597
 20
-3935.64671306355
 30
0.0
 11
9295.34163306344
 21
-3935.56461070605
 31
0.0
  0
LINE
  5
74
330
35
100
AcDbEntity
  8
0
  6
Continuous
 62
     2
100
AcDbLine
 10
9194.0534369075
 20
-3935.69442561335
 30
0.0
 11
9217.61983073395
 21
-3935.61230279175
 31
0.0
  0
LINE
  5
75
330
35
100
AcDbEntity
  8
0
  6
Continuous
 62
     2
100
AcDbLine
 10
9295.36592324754
 20
-3933.99444011375
 30
0.0
 11
9282.31302617936
 21
-3934.07654247135
 31
0.0
  0
LINE
  5
76
330
35
100
AcDbEntity
  8
0
  6
Continuous
 62
     2
100
AcDbLine
 10
9217.61983073395
 20
-3934.04213219955
 30
0.0
 11
9194.0339690799
 21
-3934.12425502105
 31
0.0
  0
LINE
  5
77
330
35
100
AcDbEntity
  8
0
  6
Continuous
 62
     2
100
AcDbLine
 10
9194.0339690799
 20
-3933.89460493475
 30
0.0
 11
9217.61983073395
 21
-3933.81279113095
 31
0.0
  0
LINE
  5
78
330
35
100
AcDbEntity
  8
0
  6
Continuous
 62
     2
100
AcDbLine
 10
9295.36592324754
 20
-3936.73273182175
 30
0.0
 11
9271.78689061597
 21
-3936.81363069815
 31
0.0
  0
LINE
  5
79
330
35
100
AcDbEntity
  8
0
  6
Continuous
 62
     2
100
AcDbLine
 10
9217.61983073395
 20
-3936.77520373195
 30
0.0
 11
9194.0339690799
 21
-3936.85610260835
 31
0.0
  0
LINE
  5
7A
330
35
100
AcDbEntity
  8
0
  6
Continuous
 62
     2
100
AcDbLine
 10
9295.36592324754
 20
-3936.43273182175
 30
0.0
 11
9271.78689061597
 21
-3936.51363069815
 31
0.0
  0
LINE
  5
7B
330
35
100
AcDbEntity
  8
0
  6
Continuous
 62
     2
100
AcDbLine
 10
9217.61983073395
 20
-3936.47520373195
 30
0.0
 11
9194.03396907991
 21
-3936.55610260835
 31
0.0
  0
LINE
  5
7C
330
35
100
AcDbEntity
  8
0
  6
Continuous
 62
     2
100
AcDbLine
 10
9217.61983073395
 20
-3933.17520373195
 30
0.0
 11
9194.0339690799
 21
-3933.25610260835
 31
0.0
  0
LINE
  5
7D
330
35
100
AcDbEntity
  8
0
  6
Continuous
 62
     2
100
AcDbLine
 10
9295.36592324734
 20
-3934.95295654085
 30
0.0
 11
9271.78689061577
 21
-3935.03385541725
 31
0.0
  0
LINE
  5
7E
330
35
100
AcDbEntity
  8
0
  6
Continuous
 62
     2
100
AcDbLine
 10
9217.61983073395
 20
-3934.95497901285
 30
0.0
 11
9194.0339690799
 21
-3935.03587788925
 31
0.0
  0
LINE
  5
7F
330
35
100
AcDbEntity
  8
0
  6
Continuous
 62
     2
100
AcDbLine
 10
9295.36592324734
 20
-3934.65295654085
 30
0.0
 11
9271.78689061577
 21
-3934.73385541725
 31
0.0
  0
LINE
  5
80
330
35
100
AcDbEntity
  8
0
  6
Continuous
 62
     2
100
AcDbLine
 10
9217.61983073395
 20
-3934.65497901285
 30
0.0
 11
9194.0339690799
 21
-3934.73587788925
 31
0.0
  0
LINE
  5
81
330
35
100
AcDbEntity
  8
0
  6
Continuous
 62
     2
100
AcDbLine
 10
9295.36592324754
 20
-3937.63534631635
 30
0.0
 11
9271.78689061597
 21
-3937.71761100765
 31
0.0
  0
LINE
  5
82
330
35
100
AcDbEntity
  8
0
  6
Continuous
 62
     2
100
AcDbLine
 10
9282.31302617936
 20
-3934.07654247135
 30
0.0
 11
9271.78689061597
 21
-3934.15834543885
 31
0.0
  0
LINE
  5
83
330
35
100
AcDbEntity
  8
0
  6
Continuous
 62
     7
100
AcDbLine
 10
9185.20336067496
 20
-3927.92295654085
 30
0.0
 11
9184.70336067496
 21
-3928.42295654085
 31
0.0
  0
LINE
  5
84
330
35
100
AcDbEntity
  8
0
  6
Continuous
 62
     2
100
AcDbLine
 10
9217.61983073395
 20
-3932.24262053875
 30
0.0
 11
9194.0339690799
 21
-3932.32443434255
 31
0.0
  0
LINE
  5
85
330
35
100
AcDbEntity
  8
0
  6
Continuous
 62
     2
100
AcDbLine
 10
9217.61983073395
 20
-3932.87520373195
 30
0.0
 11
9194.03396907991
 21
-3932.95610260835
 31
0.0
  0
LINE
  5
86
330
35
100
AcDbEntity
  8
0
  6
Continuous
 62
     7
100
AcDbLine
 10
9302.46780554742
 20
-3931.52295654085
 30
0.0
 11
9302.20336067496
 21
-3931.52295654085
 31
0.0
  0
LINE
  5
87
330
35
100
AcDbEntity
  8
0
  6
Continuous
 62
     7
100
AcDbLine
 10
9184.70355415906
 20
-3928.92295654085
 30
0.0
 11
9304.70316719086
 21
-3928.92295654085
 31
0.0
  0
LINE
  5
88
330
35
100
AcDbEntity
  8
0
  6
Continuous
 62
     2
100
AcDbLine
 10
9184.70336067496
 20
-3928.42295654085
 30
0.0
 11
9304.70336067496
 21
-3928.42295654085
 31
0.0
  0
LINE
  5
89
330
35
100
AcDbEntity
  8
0
  6
Continuous
 62
     7
100
AcDbLine
 10
9185.20405784796
 20
-3927.92295654085
 30
0.0
 11
9189.70336067496
 21
-3927.92295654085
 31
0.0
  0
LINE
  5
8A
330
35
100
AcDbEntity
  8
0
  6
Continuous
 62
     7
100
AcDbLine
 10
9304.20336067496
 20
-3927.92295654085
 30
0.0
 11
9304.70336067496
 21
-3928.42295654085
 31
0.0
  0
LINE
  5
8B
102
{ACAD_REACTORS
330
117
330
117
102
}
330
35
100
AcDbEntity
  8
0
  6
Continuous
 62
     7
100
AcDbLine
 10
9299.70336067496
 20
-3922.92295654085
 30
0.0
 11
9299.70336067496
 21
-3927.92295654085
 31
0.0
  0
LINE
  5
8C
330
35
100
AcDbEntity
  8
0
  6
PHANTOM
 62
     4
100
AcDbLine
 10
9301.40336067496
 20
-3931.52295654085
 30
0.0
 11
9301.40336067496
 21
-3928.92295654085
 31
0.0
  0
LINE
  5
8D
102
{ACAD_REACTORS
330
119
330
119
102
}
330
35
100
AcDbEntity
  8
0
  6
Continuous
 62
     7
100
AcDbLine
 10
9302.20336067496
 20
-3931.52295654085
 30
0.0
 11
9302.20336067496
 21
-3939.92295654085
 31
0.0
  0
LINE
  5
8E
330
35
100
AcDbEntity
  8
0
  6
Continuous
 62
     7
100
AcDbLine
 10
9304.70336067496
 20
-3928.42295654085
 30
0.0
 11
9304.70336067496
 21
-3928.92295654085
 31
0.0
  0
LINE
  5
8F
330
35
100
AcDbEntity
  8
1
  6
Continuous
 62
     7
100
AcDbLine
 10
9301.70336067496
 20
-3941.92295654085
 30
0.0
 11
9302.20336067496
 21
-3939.92295654085
 31
0.0
  0
LINE
  5
90
330
35
100
AcDbEntity
  8
1
  6
Continuous
 62
     7
100
AcDbLine
 10
9187.70402855496
 20
-3941.92295654085
 30
0.0
 11
9187.20336067496
 21
-3939.92295654085
 31
0.0
  0
LINE
  5
91
102
{ACAD_REACTORS
330
119
330
119
102
}
330
35
100
AcDbEntity
  8
1
  6
Continuous
 62
     2
100
AcDbLine
 10
9187.20336067496
 20
-3939.92295654085
 30
0.0
 11
9302.20336067496
 21
-3939.92295654085
 31
0.0
  0
LINE
  5
92
330
35
100
AcDbEntity
  8
1
  6
Continuous
 62
     7
100
AcDbLine
 10
9217.61983073395
 20
-4069.14654084088
 30
0.0
 11
9215.25400153798
 21
-4069.08699377739
 31
0.0
  0
LINE
  5
93
330
35
100
AcDbEntity
  8
1
  6
Continuous
 62
     7
100
AcDbLine
 10
9193.98125103888
 20
-4045.50796114582
 30
0.0
 11
9194.04079810238
 21
-4047.87379034179
 31
0.0
  0
LINE
  5
94
330
35
100
AcDbEntity
  8
1
  6
Continuous
 62
     7
100
AcDbLine
 10
9193.98125103888
 20
-3991.34090126379
 30
0.0
 11
9194.04079810238
 21
-3988.97507206782
 31
0.0
  0
LINE
  5
95
330
35
100
AcDbEntity
  8
1
  6
Continuous
 62
     7
100
AcDbLine
 10
9217.61983073395
 20
-3967.70232156873
 30
0.0
 11
9215.25400153798
 21
-3967.76186863222
 31
0.0
  0
LINE
  5
96
330
35
100
AcDbEntity
  8
1
  6
Continuous
 62
     7
100
AcDbLine
 10
9295.42547031104
 20
-3991.34090126379
 30
0.0
 11
9295.36592324754
 21
-3988.97507206782
 31
0.0
  0
LINE
  5
97
330
35
100
AcDbEntity
  8
1
  6
Continuous
 62
     7
100
AcDbLine
 10
9271.78689061597
 20
-3967.70232156873
 30
0.0
 11
9274.15271981195
 21
-3967.76186863222
 31
0.0
  0
LINE
  5
98
330
35
100
AcDbEntity
  8
1
  6
Continuous
 62
     7
100
AcDbLine
 10
9271.78689061597
 20
-4069.14654084088
 30
0.0
 11
9274.15271981195
 21
-4069.08699377739
 31
0.0
  0
LINE
  5
99
330
35
100
AcDbEntity
  8
1
  6
Continuous
 62
     7
100
AcDbLine
 10
9295.42547031104
 20
-4045.50796114582
 30
0.0
 11
9295.36592324754
 21
-4047.87379034179
 31
0.0
  0
LINE
  5
9A
330
35
100
AcDbEntity
  8
1
  6
PHANTOM
 62
     4
100
AcDbLine
 10
9178.10336067496
 20
-4018.4244312048
 30
0.0
 11
9309.94682149529
 21
-4018.4244312048
 31
0.0
  0
LINE
  5
9B
330
35
100
AcDbEntity
  8
1
  6
PHANTOM
 62
     4
100
AcDbLine
 10
9244.70336067496
 20
-4083.4244312048
 30
0.0
 11
9244.70336067496
 21
-3953.4244312048
 31
0.0
  0
LINE
  5
9C
330
35
100
AcDbEntity
  8
1
  6
PHANTOM
 62
     4
100
AcDbLine
 10
9244.70336067496
 20
-3945.96451372737
 30
0.0
 11
9244.70336067496
 21
-3864.96451372737
 31
0.0
  0
LINE
  5
9D
102
{ACAD_REACTORS
330
118
330
118
102
}
330
35
100
AcDbEntity
  8
1
  6
Continuous
 62
     7
100
AcDbLine
 10
9187.70336067496
 20
-4025.99080418001
 30
0.0
 11
9187.70336067496
 21
-4010.85805822959
 31
0.0
  0
LINE
  5
9E
330
35
100
AcDbEntity
  8
0
  6
Continuous
 62
     7
100
AcDbLine
 10
9299.70336067496
 20
-3927.92295654085
 30
0.0
 11
9304.20266350196
 21
-3927.92295654085
 31
0.0
  0
LINE
  5
9F
102
{ACAD_REACTORS
330
117
330
117
102
}
330
35
100
AcDbEntity
  8
0
  6
Continuous
 62
     7
100
AcDbLine
 10
9189.70336067496
 20
-3927.92295654085
 30
0.0
 11
9299.70336067496
 21
-3927.92295654085
 31
0.0
  0
ARC
  5
A0
102
{ACAD_REACTORS
330
117
330
117
102
}
330
35
100
AcDbEntity
  8
0
  6
Continuous
 62
     7
100
AcDbCircle
 10
9244.70336067496
 20
-3922.92295654085
 30
0.0
 40
55.0
100
AcDbArc
 50
0.0
 51
90.0
  0
ARC
  5
A1
330
35
100
AcDbEntity
  8
1
  6
PHANTOM
 62
     4
100
AcDbCircle
 10
9186.57836067496
 20
-3930.24795654085
 30
0.0
 40
1.325000000001195
100
AcDbArc
 50
-74.20971578974012
 51
-3.24489167175984
  0
ARC
  5
A2
330
35
100
AcDbEntity
  8
1
  6
Continuous
 62
     7
100
AcDbCircle
 10
9186.57836067496
 20
-3930.24795654085
 30
0.0
 40
1.324999999999818
100
AcDbArc
 50
90.0
 51
176.7551083282553
  0
ARC
  5
A3
330
35
100
AcDbEntity
  8
1
  6
Continuous
 62
     7
100
AcDbCircle
 10
9186.57836067496
 20
-3930.24795654085
 30
0.0
 40
1.325000000000273
100
AcDbArc
 50
-90.0
 51
-74.20971578974012
  0
ARC
  5
A4
330
35
100
AcDbEntity
  8
1
  6
PHANTOM
 62
     4
100
AcDbCircle
 10
9186.57836067496
 20
-3930.24795654085
 30
0.0
 40
1.324999999998576
100
AcDbArc
 50
3.24489167174021
 51
90.0
  0
ARC
  5
A5
330
35
100
AcDbEntity
  8
1
  6
Continuous
 62
     7
100
AcDbCircle
 10
9186.57836067496
 20
-3930.24795654085
 30
0.0
 40
1.324999999996785
100
AcDbArc
 50
-176.7551083282357
 51
-90.0
  0
ARC
  5
A6
330
35
100
AcDbEntity
  8
1
  6
PHANTOM
 62
     4
100
AcDbCircle
 10
9302.82836067496
 20
-3930.24795654085
 30
0.0
 40
1.324999999996785
100
AcDbArc
 50
-176.7551083282357
 51
-105.7902842098058
  0
ARC
  5
A7
330
35
100
AcDbEntity
  8
1
  6
Continuous
 62
     7
100
AcDbCircle
 10
9302.82836067496
 20
-3930.24795654085
 30
0.0
 40
1.324999999998576
100
AcDbArc
 50
3.24489167174021
 51
90.0
  0
ARC
  5
A8
330
35
100
AcDbEntity
  8
1
  6
Continuous
 62
     7
100
AcDbCircle
 10
9302.82836067496
 20
-3930.24795654085
 30
0.0
 40
1.324999999998225
100
AcDbArc
 50
-105.7902842098058
 51
-90.0
  0
ARC
  5
A9
330
35
100
AcDbEntity
  8
1
  6
PHANTOM
 62
     4
100
AcDbCircle
 10
9302.82836067496
 20
-3930.24795654085
 30
0.0
 40
1.324999999999818
100
AcDbArc
 50
90.0
 51
176.7551083282553
  0
ARC
  5
AA
330
35
100
AcDbEntity
  8
1
  6
Continuous
 62
     7
100
AcDbCircle
 10
9302.82836067496
 20
-3930.24795654085
 30
0.0
 40
1.325000000000273
100
AcDbArc
 50
-90.0
 51
-3.24489167175984
  0
ARC
  5
AB
330
35
100
AcDbEntity
  8
1
  6
Continuous
 62
     7
100
AcDbCircle
 10
9244.70336067496
 20
-4018.4244312048
 30
0.0
 40
58.60000000000172
100
AcDbArc
 50
-149.0161608986095
 51
-120.1687703905575
  0
ARC
  5
AC
330
35
100
AcDbEntity
  8
1
  6
Continuous
 62
     7
100
AcDbCircle
 10
9244.70336067496
 20
-4018.4244312048
 30
0.0
 40
58.59999999999935
100
AcDbArc
 50
-149.8312296094279
 51
-149.0161608986095
  0
ARC
  5
AD
330
35
100
AcDbEntity
  8
1
  6
Continuous
 62
     7
100
AcDbCircle
 10
9244.70336067496
 20
-4018.4244312048
 30
0.0
 40
58.59999999999589
100
AcDbArc
 50
30.16877039056277
 51
59.83122960942833
  0
ARC
  5
AE
102
{ACAD_REACTORS
330
117
330
117
102
}
330
35
100
AcDbEntity
  8
0
  6
Continuous
 62
     7
100
AcDbCircle
 10
9244.70336067496
 20
-3922.92295654085
 30
0.0
 40
55.0
100
AcDbArc
 50
90.0
 51
180.0
  0
ARC
  5
AF
330
35
100
AcDbEntity
  8
1
  6
Continuous
 62
     7
100
AcDbCircle
 10
9244.70336067496
 20
-4018.4244312048
 30
0.0
 40
58.60000000000879
100
AcDbArc
 50
-59.83122960943324
 51
-30.16877039057123
  0
ARC
  5
B0
102
{ACAD_REACTORS
330
118
330
118
102
}
330
35
100
AcDbEntity
  8
1
  6
Continuous
 62
     7
100
AcDbCircle
 10
9244.70336067496
 20
-4018.4244312048
 30
0.0
 40
57.4999999999999
100
AcDbArc
 50
-172.4385702943445
 51
0.0
  0
ARC
  5
B1
330
35
100
AcDbEntity
  8
1
  6
Continuous
 62
     7
100
AcDbCircle
 10
9244.70336067496
 20
-4018.4244312048
 30
0.0
 40
58.59999999999465
100
AcDbArc
 50
120.1687703905624
 51
149.8312296094363
  0
ARC
  5
B2
102
{ACAD_REACTORS
330
118
330
118
102
}
330
35
100
AcDbEntity
  8
1
  6
Continuous
 62
     7
100
AcDbCircle
 10
9244.70336067496
 20
-4018.4244312048
 30
0.0
 40
57.5
100
AcDbArc
 50
0.0
 51
172.4385702943445
  0
CIRCLE
  5
B3
102
{ACAD_REACTORS
330
11A
330
11A
102
}
330
35
100
AcDbEntity
  8
1
  6
Continuous
 62
     2
100
AcDbCircle
 10
9263.26443920314
 20
-3936.14736039304
 30
0.0
 40
0.4750000000003638
  0
CIRCLE
  5
B4
102
{ACAD_REACTORS
330
11B
330
11B
102
}
330
35
100
AcDbEntity
  8
1
  6
Continuous
 62
     2
100
AcDbCircle
 10
9298.16459541754
 20
-3930.18344902611
 30
0.0
 40
0.4750000000003638
  0
CIRCLE
  5
B5
102
{ACAD_REACTORS
330
111
330
111
102
}
330
35
100
AcDbEntity
  8
1
  6
Continuous
 62
     7
100
AcDbCircle
 10
9244.70336067496
 20
-4018.4244312048
 30
0.0
 40
59.54787565554034
  0
CIRCLE
  5
B6
102
{ACAD_REACTORS
330
111
330
111
102
}
330
35
100
AcDbEntity
  8
0
  6
Continuous
 62
     7
100
AcDbCircle
 10
9244.70336067496
 20
-4018.4244312048
 30
0.0
 40
60.0
  0
CIRCLE
  5
B7
102
{ACAD_REACTORS
330
112
330
112
330
118
330
118
102
}
330
35
100
AcDbEntity
  8
1
  6
Continuous
 62
     2
100
AcDbCircle
 10
9244.70336067496
 20
-4018.4244312048
 30
0.0
 40
57.0
  0
CIRCLE
  5
B8
102
{ACAD_REACTORS
330
112
330
112
330
114
330
114
102
}
330
35
100
AcDbEntity
  8
1
  6
Continuous
 62
     7
100
AcDbCircle
 10
9244.70336067496
 20
-4018.4244312048
 30
0.0
 40
56.5
  0
CIRCLE
  5
B9
102
{ACAD_REACTORS
330
113
330
113
330
115
330
115
102
}
330
35
100
AcDbEntity
  8
1
  6
Continuous
 62
     7
100
AcDbCircle
 10
9244.70336067496
 20
-4018.4244312048
 30
0.0
 40
53.73092960785107
  0
CIRCLE
  5
BA
102
{ACAD_REACTORS
330
114
330
114
330
116
330
116
102
}
330
35
100
AcDbEntity
  8
1
  6
Continuous
 62
     2
100
AcDbCircle
 10
9244.70336067496
 20
-4018.4244312048
 30
0.0
 40
56.00740278626108
  0
CIRCLE
  5
BB
102
{ACAD_REACTORS
330
115
330
115
330
116
330
116
102
}
330
35
100
AcDbEntity
  8
1
  6
Continuous
 62
     7
100
AcDbCircle
 10
9244.70336067496
 20
-4018.4244312048
 30
0.0
 40
55.67383202188103
  0
CIRCLE
  5
BC
330
35
100
AcDbEntity
  8
1
  6
Continuous
 62
     2
100
AcDbCircle
 10
9279.49036385422
 20
-3951.92295654085
 30
0.0
 40
4.0
  0
CIRCLE
  5
BD
330
35
100
AcDbEntity
  8
1
  6
Continuous
 62
     2
100
AcDbCircle
 10
9317.05578794428
 20
-3952.51568303232
 30
0.0
 40
4.0
  0
LEADER
  5
C4
330
35
100
AcDbEntity
  8
1
  6
Continuous
 62
     2
100
AcDbLeader
  3
Standard
 71
     0
 76
     2
 10
9263.26443920314
 20
-3936.14736039304
 30
0.0
 10
9276.55981906724
 20
-3949.20047472246
 30
0.0
  0
LEADER
  5
C5
330
35
100
AcDbEntity
  8
1
  6
Continuous
 62
     2
100
AcDbLeader
  3
Standard
 71
     0
 76
     2
 10
9298.16459541754
 20
-3930.18344902611
 30
0.0
 10
9314.5319927022
 20
-3949.41238517745
 30
0.0
  0
MTEXT
  5
C7
330
35
100
AcDbEntity
  8
1
 62
     2
100
AcDbMText
 10
9279.49036385422
 20
-3951.92295654085
 30
0.0
 40
4.8
 41
0.0
 71
     5
 72
     1
  1
1
  7
CONVERTER_12
 73
     1
 44
1.0
  0
MTEXT
  5
C8
330
35
100
AcDbEntity
  8
1
 62
     2
100
AcDbMText
 10
9317.05578794428
 20
-3952.51568303232
 30
0.0
 40
4.8
 41
0.0
 71
     5
 72
     1
  1
2
  7
CONVERTER_12
 73
     1
 44
1.0
  0
DIMENSION
  5
D3
330
35
100
AcDbEntity
  8
1
100
AcDbDimension
  2
*D4
 10
9299.70336067496
 20
-3857.92295654085
 30
0.0
 11
9244.70336067496
 21
-3855.42295654085
 31
0.0
 70
    32
  1
{\Fgdt;n}110
 71
     5
 42
-1.0
 53
0.00013888888889
  3
ME10_DIM_10
100
AcDbAlignedDimension
 13
9189.70336067496
 23
-3922.92295654085
 33
0.0
 14
9299.70336067496
 24
-3922.92295654085
 34
0.0
100
AcDbRotatedDimension
  0
DIMENSION
  5
DE
330
35
100
AcDbEntity
  8
1
100
AcDbDimension
  2
*D5
 10
9162.70336067496
 20
-3867.92295654085
 30
0.0
 11
9160.20336067496
 21
-3904.92295654085
 31
0.0
 70
    32
  1
(74
 71
     5
 42
-1.0
 53
90.0
  3
ME10_DIM_11
100
AcDbAlignedDimension
 13
9187.70402855496
 23
-3941.92295654085
 33
0.0
 14
9244.70336067496
 24
-3867.92295654085
 34
0.0
 50
90.0
100
AcDbRotatedDimension
  0
DIMENSION
  5
E9
330
35
100
AcDbEntity
  8
1
100
AcDbDimension
  2
*D6
 10
9168.70336067496
 20
-3928.92295654085
 30
0.0
 11
9166.20336067496
 21
-3898.42295654085
 31
0.0
 70
    32
  1
61
 71
     5
 42
-1.0
 53
90.0
  3
ME10_DIM_12
100
AcDbAlignedDimension
 13
9244.70336067496
 23
-3867.92295654085
 33
0.0
 14
9184.70336067496
 24
-3928.92295654085
 34
0.0
 50
90.0
100
AcDbRotatedDimension
  0
DIMENSION
  5
F4
330
35
100
AcDbEntity
  8
1
100
AcDbDimension
  2
*D7
 10
9168.70336067496
 20
-3941.92295654085
 30
0.0
 11
9166.20336067496
 21
-3935.42295654085
 31
0.0
 70
    32
  1
13
 71
     5
 42
-1.0
 53
90.0
  3
ME10_DIM_13
100
AcDbAlignedDimension
 13
9184.70336067496
 23
-3928.92295654085
 33
0.0
 14
9187.70402855496
 24
-3941.92295654085
 34
0.0
 50
90.0
100
AcDbRotatedDimension
  0
DIMENSION
  5
FF
330
35
100
AcDbEntity
  8
1
100
AcDbDimension
  2
*D8
 10
9174.70336067496
 20
-3927.92295654085
 30
0.0
 11
9172.20336067496
 21
-3923.34160509393
 31
0.0
 70
    32
  1
1
 71
     5
 42
-1.0
 53
90.0
  3
ME10_DIM_14
100
AcDbAlignedDimension
 13
9184.70355415906
 23
-3928.92295654085
 33
0.0
 14
9185.20405784796
 24
-3927.92295654085
 34
0.0
 50
90.0
100
AcDbRotatedDimension
  0
DIMENSION
  5
10A
330
35
100
AcDbEntity
  8
1
100
AcDbDimension
  2
*D9
 10
9304.70336067496
 20
-3851.92295654085
 30
0.0
 11
9244.70336067496
 21
-3849.42295654085
 31
0.0
 70
    32
  1
{\Fgdt;n}120
 71
     5
 42
-1.0
 53
0.00013888888889
  3
ME10_DIM_15
100
AcDbAlignedDimension
 13
9184.70336067496
 23
-3928.42295654085
 33
0.0
 14
9304.70336067496
 24
-3928.42295654085
 34
0.0
100
AcDbRotatedDimension
  0
HATCH
  5
10B
330
35
100
AcDbEntity
  8
1
  6
DOTTED
 62
     2
100
AcDbHatch
 10
0.0
 20
0.0
 30
0.0
210
0.0
220
0.0
230
1.0
  2
_USER
 70
     0
 71
     0
 91
        1
 92
        1
 93
       14
 72
     1
 10
9193.98125103888
 20
-4045.50796114582
 11
9194.04079810238
 21
-4047.87379034179
 72
     1
 10
9194.04079810238
 20
-4047.87379034179
 11
9194.46484590708
 21
-4048.59149327451
 72
     1
 10
9194.46484590708
 20
-4048.59149327451
 11
9201.45954146402
 21
-4057.97101260005
 72
     1
 10
9201.45954146402
 20
-4057.97101260005
 11
9210.17823162913
 21
-4065.77393452183
 72
     1
 10
9210.17823162913
 20
-4065.77393452183
 11
9215.25400153798
 21
-4069.08699377739
 72
     1
 10
9215.25400153798
 20
-4069.08699377739
 11
9217.61983073395
 21
-4069.14654084088
 72
     1
 10
9217.61983073395
 20
-4069.14654084088
 11
9216.73784309924
 21
-4068.66564761844
 72
     1
 10
9216.73784309924
 20
-4068.66564761844
 11
9208.43922280688
 21
-4063.04687292065
 72
     1
 10
9208.43922280688
 20
-4063.04687292065
 11
9206.37083114495
 21
-4061.28311970353
 72
     1
 10
9206.37083114495
 20
-4061.28311970353
 11
9203.5709126434
 21
-4058.60367608236
 72
     1
 10
9203.5709126434
 20
-4058.60367608236
 11
9200.29366011503
 21
-4054.15646859672
 72
     1
 10
9200.29366011503
 20
-4054.15646859672
 11
9197.84912355667
 21
-4051.75505472227
 72
     1
 10
9197.84912355667
 20
-4051.75505472227
 11
9195.63601095263
 21
-4048.40184255446
 72
     1
 10
9195.63601095263
 20
-4048.40184255446
 11
9193.98125103888
 21
-4045.50796114582
 97
        0
 75
     1
 76
     0
 52
44.99999999999998
 41
1.2
 77
     0
 78
     1
 53
44.99999999999998
 43
0.0
 44
0.0
 45
-0.8485281374238567
 46
0.8485281374238574
 79
     0
 98
        1
 10
0.0
 20
0.0
  0
HATCH
  5
10C
330
35
100
AcDbEntity
  8
1
  6
DOTTED
 62
     2
100
AcDbHatch
 10
0.0
 20
0.0
 30
0.0
210
0.0
220
0.0
230
1.0
  2
_USER
 70
     0
 71
     0
 91
        1
 92
        1
 93
       16
 72
     1
 10
9271.78689061597
 20
-4069.14654084088
 11
9274.15271981195
 21
-4069.08699377739
 72
     1
 10
9274.15271981195
 20
-4069.08699377739
 11
9283.63079070662
 21
-4062.22643105789
 72
     1
 10
9283.63079070662
 20
-4062.22643105789
 11
9291.55694780855
 21
-4053.61962082946
 72
     1
 10
9291.55694780855
 20
-4053.61962082946
 11
9295.36592324754
 21
-4047.87379034179
 72
     1
 10
9295.36592324754
 20
-4047.87379034179
 11
9295.42547031104
 21
-4045.50796114582
 72
     1
 10
9295.42547031104
 20
-4045.50796114582
 11
9294.87149975343
 21
-4046.52083349057
 72
     1
 10
9294.87149975343
 20
-4046.52083349057
 11
9294.0753217904
 21
-4047.89746049627
 72
     1
 10
9294.0753217904
 20
-4047.89746049627
 11
9292.85247378091
 21
-4049.85551306831
 72
     1
 10
9292.85247378091
 20
-4049.85551306831
 11
9289.33178192076
 21
-4054.68121011727
 72
     1
 10
9289.33178192076
 20
-4054.68121011727
 11
9287.24632295833
 21
-4057.10706762163
 72
     1
 10
9287.24632295833
 20
-4057.10706762163
 11
9285.68328855645
 21
-4058.75922401236
 72
     1
 10
9285.68328855645
 20
-4058.75922401236
 11
9282.70377255583
 21
-4061.57786324543
 72
     1
 10
9282.70377255583
 20
-4061.57786324543
 11
9281.10964256183
 21
-4062.93097723091
 72
     1
 10
9281.10964256183
 20
-4062.93097723091
 11
9279.08164046154
 21
-4064.51547023535
 72
     1
 10
9279.08164046154
 20
-4064.51547023535
 11
9275.58651146162
 21
-4066.92681256375
 72
     1
 10
9275.58651146162
 20
-4066.92681256375
 11
9271.78689061597
 21
-4069.14654084088
 97
        0
 75
     1
 76
     0
 52
44.99999999999998
 41
1.2
 77
     0
 78
     1
 53
44.99999999999998
 43
0.0
 44
0.0
 45
-0.8485281374238567
 46
0.8485281374238574
 79
     0
 98
        1
 10
0.0
 20
0.0
  0
HATCH
  5
10D
330
35
100
AcDbEntity
  8
1
  6
DOTTED
 62
     2
100
AcDbHatch
 10
0.0
 20
0.0
 30
0.0
210
0.0
220
0.0
230
1.0
  2
_USER
 70
     0
 71
     0
 91
        1
 92
        1
 93
       13
 72
     1
 10
9271.78689061597
 20
-3967.70232156873
 11
9274.15271981195
 21
-3967.76186863222
 72
     1
 10
9274.15271981195
 20
-3967.76186863222
 11
9283.63079070662
 21
-3974.62243135171
 72
     1
 10
9283.63079070662
 20
-3974.62243135171
 11
9291.55694780855
 21
-3983.22924158014
 72
     1
 10
9291.55694780855
 20
-3983.22924158014
 11
9295.36592324754
 21
-3988.97507206782
 72
     1
 10
9295.36592324754
 20
-3988.97507206782
 11
9295.42547031104
 21
-3991.34090126379
 72
     1
 10
9295.42547031104
 20
-3991.34090126379
 11
9294.8435188505
 21
-3990.27812526367
 72
     1
 10
9294.8435188505
 20
-3990.27812526367
 11
9292.74037419858
 21
-3986.82228995248
 72
     1
 10
9292.74037419858
 20
-3986.82228995248
 11
9289.94500490889
 21
-3982.93579038818
 72
     1
 10
9289.94500490889
 20
-3982.93579038818
 11
9286.15069931356
 21
-3978.5700949316
 72
     1
 10
9286.15069931356
 20
-3978.5700949316
 11
9281.62950111631
 21
-3974.34824543396
 72
     1
 10
9281.62950111631
 20
-3974.34824543396
 11
9277.8127093662
 21
-3971.41357044645
 72
     1
 10
9277.8127093662
 20
-3971.41357044645
 11
9273.38504317457
 21
-3968.58858979532
 72
     1
 10
9273.38504317457
 20
-3968.58858979532
 11
9271.78689061597
 21
-3967.70232156873
 97
        0
 75
     1
 76
     0
 52
44.99999999999998
 41
1.2
 77
     0
 78
     1
 53
44.99999999999998
 43
0.0
 44
0.0
 45
-0.8485281374238567
 46
0.8485281374238574
 79
     0
 98
        1
 10
0.0
 20
0.0
  0
HATCH
  5
10E
330
35
100
AcDbEntity
  8
1
  6
DOTTED
 62
     2
100
AcDbHatch
 10
0.0
 20
0.0
 30
0.0
210
0.0
220
0.0
230
1.0
  2
_USER
 70
     0
 71
     0
 91
        1
 92
        1
 93
       10
 72
     1
 10
9193.98125103888
 20
-3991.34090126379
 11
9194.04079810238
 21
-3988.97507206782
 72
     1
 10
9194.04079810238
 20
-3988.97507206782
 11
9200.90136082187
 21
-3979.49700117314
 72
     1
 10
9200.90136082187
 20
-3979.49700117314
 11
9209.5081710503
 21
-3971.57084407122
 72
     1
 10
9209.5081710503
 20
-3971.57084407122
 11
9215.25400153798
 21
-3967.76186863222
 72
     1
 10
9215.25400153798
 20
-3967.76186863222
 11
9217.61983073395
 21
-3967.70232156873
 72
     1
 10
9217.61983073395
 20
-3967.70232156873
 11
9212.39087874107
 21
-3970.86232957681
 72
     1
 10
9212.39087874107
 20
-3970.86232957681
 11
9206.49550723347
 21
-3975.45455878943
 72
     1
 10
9206.49550723347
 20
-3975.45455878943
 11
9203.92016116017
 21
-3977.89073365157
 72
     1
 10
9203.92016116017
 20
-3977.89073365157
 11
9197.35964337777
 21
-3985.79281413664
 72
     1
 10
9197.35964337777
 20
-3985.79281413664
 11
9193.98125103888
 21
-3991.34090126379
 97
        0
 75
     1
 76
     0
 52
44.99999999999998
 41
1.2
 77
     0
 78
     1
 53
44.99999999999998
 43
0.0
 44
0.0
 45
-0.8485281374238567
 46
0.8485281374238574
 79
     0
 98
        1
 10
0.0
 20
0.0
  0
HATCH
  5
10F
330
35
100
AcDbEntity
  8
1
  6
DOTTED
 62
     2
100
AcDbHatch
 10
0.0
 20
0.0
 30
0.0
210
0.0
220
0.0
230
1.0
  2
_USER
 70
     0
 71
     0
 91
        1
 92
        1
 93
        8
 72
     1
 10
9184.70355415906
 20
-3928.92295654085
 11
9304.70316719086
 21
-3928.92295654085
 72
     1
 10
9304.70316719086
 20
-3928.92295654085
 11
9304.70336067496
 21
-3928.42295654085
 72
     1
 10
9304.70336067496
 20
-3928.42295654085
 11
9304.20266350196
 21
-3927.92295654085
 72
     1
 10
9304.20266350196
 20
-3927.92295654085
 11
9186.18151361586
 21
-3927.92295654085
 72
     1
 10
9186.18151361586
 20
-3927.92295654085
 11
9185.20336067496
 21
-3927.92295654085
 72
     1
 10
9185.20336067496
 20
-3927.92295654085
 11
9184.70336067496
 21
-3928.42295654085
 72
     1
 10
9184.70336067496
 20
-3928.42295654085
 11
9184.70336067496
 21
-3928.92295654085
 72
     1
 10
9184.70336067496
 20
-3928.92295654085
 11
9184.70355415906
 21
-3928.92295654085
 97
        0
 75
     1
 76
     0
 52
44.99999999999998
 41
1.2
 77
     0
 78
     1
 53
44.99999999999998
 43
0.0
 44
0.0
 45
-0.8485281374238567
 46
0.8485281374238574
 79
     0
 98
        1
 10
0.0
 20
0.0
  0
HATCH
  5
110
330
35
100
AcDbEntity
  8
1
  6
DOTTED
 62
     2
100
AcDbHatch
 10
0.0
 20
0.0
 30
0.0
210
0.0
220
0.0
230
1.0
  2
_USER
 70
     0
 71
     0
 91
        1
 92
        1
 93
        4
 72
     1
 10
9187.20336067496
 20
-3939.92295654085
 11
9187.70402855496
 21
-3941.92295654085
 72
     1
 10
9187.70402855496
 20
-3941.92295654085
 11
9301.70269279486
 21
-3941.92295654085
 72
     1
 10
9301.70269279486
 20
-3941.92295654085
 11
9302.20336067496
 21
-3939.92295654085
 72
     1
 10
9302.20336067496
 20
-3939.92295654085
 11
9187.20336067496
 21
-3939.92295654085
 97
        0
 75
     1
 76
     0
 52
44.99999999999998
 41
1.2
 77
     0
 78
     1
 53
44.99999999999998
 43
0.0
 44
0.0
 45
-0.8485281374238567
 46
0.8485281374238574
 79
     0
 98
        1
 10
0.0
 20
0.0
  0
HATCH
  5
111
330
35
100
AcDbEntity
  8
1
  6
DOTTED
 62
     2
100
AcDbHatch
 10
0.0
 20
0.0
 30
0.0
210
0.0
220
0.0
230
1.0
  2
_USER
 70
     0
 71
     1
 91
        2
 92
        1
 93
        1
 72
     2
 10
9244.70336067496
 20
-4018.4244312048
 40
60.0
 50
0.0
 51
360.0
 73
     1
 97
        1
330
B6
 92
       16
 93
        1
 72
     2
 10
9244.70336067496
 20
-4018.4244312048
 40
59.54787565554034
 50
0.0
 51
360.0
 73
     1
 97
        1
330
B5
 75
     1
 76
     0
 52
44.99999999999998
 41
1.2
 77
     0
 78
     1
 53
44.99999999999998
 43
0.0
 44
0.0
 45
-0.8485281374238567
 46
0.8485281374238574
 79
     0
 98
        1
 10
0.0
 20
0.0
  0
HATCH
  5
112
330
35
100
AcDbEntity
  8
1
  6
DOTTED
 62
     2
100
AcDbHatch
 10
0.0
 20
0.0
 30
0.0
210
0.0
220
0.0
230
1.0
  2
_USER
 70
     0
 71
     1
 91
        2
 92
        1
 93
        1
 72
     2
 10
9244.70336067496
 20
-4018.4244312048
 40
57.0
 50
0.0
 51
360.0
 73
     1
 97
        1
330
B7
 92
       16
 93
        1
 72
     2
 10
9244.70336067496
 20
-4018.4244312048
 40
56.5
 50
0.0
 51
360.0
 73
     1
 97
        1
330
B8
 75
     1
 76
     0
 52
44.99999999999998
 41
1.2
 77
     0
 78
     1
 53
44.99999999999998
 43
0.0
 44
0.0
 45
-0.8485281374238567
 46
0.8485281374238574
 79
     0
 98
        1
 10
0.0
 20
0.0
  0
HATCH
  5
113
330
35
100
AcDbEntity
  8
1
  6
DOTTED
 62
     2
100
AcDbHatch
 10
0.0
 20
0.0
 30
0.0
210
0.0
220
0.0
230
1.0
  2
_USER
 70
     0
 71
     1
 91
        1
 92
        1
 93
        1
 72
     2
 10
9244.70336067496
 20
-4018.4244312048
 40
53.73092960785107
 50
0.0
 51
360.0
 73
     1
 97
        1
330
B9
 75
     1
 76
     0
 52
44.99999999999998
 41
1.2
 77
     0
 78
     1
 53
44.99999999999998
 43
0.0
 44
0.0
 45
-0.8485281374238567
 46
0.8485281374238574
 79
     0
 98
        1
 10
0.0
 20
0.0
  0
HATCH
  5
114
330
35
100
AcDbEntity
  8
1
  6
DOTTED
 62
     2
100
AcDbHatch
 10
0.0
 20
0.0
 30
0.0
210
0.0
220
0.0
230
1.0
  2
_USER
 70
     0
 71
     1
 91
        2
 92
        1
 93
        1
 72
     2
 10
9244.70336067496
 20
-4018.4244312048
 40
56.5
 50
0.0
 51
360.0
 73
     1
 97
        1
330
B8
 92
       16
 93
        1
 72
     2
 10
9244.70336067496
 20
-4018.4244312048
 40
56.00740278626108
 50
0.0
 51
360.0
 73
     1
 97
        1
330
BA
 75
     1
 76
     0
 52
44.99999999999998
 41
1.2
 77
     0
 78
     1
 53
44.99999999999998
 43
0.0
 44
0.0
 45
-0.8485281374238567
 46
0.8485281374238574
 79
     0
 98
        1
 10
0.0
 20
0.0
  0
HATCH
  5
115
330
35
100
AcDbEntity
  8
1
  6
DOTTED
 62
     2
100
AcDbHatch
 10
0.0
 20
0.0
 30
0.0
210
0.0
220
0.0
230
1.0
  2
_USER
 70
     0
 71
     1
 91
        2
 92
        1
 93
        1
 72
     2
 10
9244.70336067496
 20
-4018.4244312048
 40
55.67383202188103
 50
0.0
 51
360.0
 73
     1
 97
        1
330
BB
 92
       16
 93
        1
 72
     2
 10
9244.70336067496
 20
-4018.4244312048
 40
53.73092960785107
 50
0.0
 51
360.0
 73
     1
 97
        1
330
B9
 75
     1
 76
     0
 52
44.99999999999998
 41
1.2
 77
     0
 78
     1
 53
44.99999999999998
 43
0.0
 44
0.0
 45
-0.8485281374238567
 46
0.8485281374238574
 79
     0
 98
        1
 10
0.0
 20
0.0
  0
HATCH
  5
116
330
35
100
AcDbEntity
  8
1
  6
DOTTED
 62
     2
100
AcDbHatch
 10
0.0
 20
0.0
 30
0.0
210
0.0
220
0.0
230
1.0
  2
_USER
 70
     0
 71
     1
 91
        2
 92
        1
 93
        1
 72
     2
 10
9244.70336067496
 20
-4018.4244312048
 40
56.00740278626108
 50
0.0
 51
360.0
 73
     1
 97
        1
330
BA
 92
       16
 93
        1
 72
     2
 10
9244.70336067496
 20
-4018.4244312048
 40
55.67383202188103
 50
0.0
 51
360.0
 73
     1
 97
        1
330
BB
 75
     1
 76
     0
 52
44.99999999999998
 41
1.2
 77
     0
 78
     1
 53
44.99999999999998
 43
0.0
 44
0.0
 45
-0.8485281374238567
 46
0.8485281374238574
 79
     0
 98
        1
 10
0.0
 20
0.0
  0
HATCH
  5
117
330
35
100
AcDbEntity
  8
1
  6
DOTTED
 62
     2
100
AcDbHatch
 10
0.0
 20
0.0
 30
0.0
210
0.0
220
0.0
230
1.0
  2
_USER
 70
     0
 71
     1
 91
        1
 92
        1
 93
        5
 72
     2
 10
9244.70336067496
 20
-3922.92295654085
 40
55.0
 50
90.0
 51
180.0
 73
     1
 72
     1
 10
9189.70336067496
 20
-3922.92295654085
 11
9189.70336067496
 21
-3927.92295654085
 72
     1
 10
9189.70336067496
 20
-3927.92295654085
 11
9299.70336067496
 21
-3927.92295654085
 72
     1
 10
9299.70336067496
 20
-3927.92295654085
 11
9299.70336067496
 21
-3922.92295654085
 72
     2
 10
9244.70336067496
 20
-3922.92295654085
 40
55.0
 50
0.0
 51
90.0
 73
     1
 97
        5
330
AE
330
6A
330
9F
330
8B
330
A0
 75
     1
 76
     0
 52
44.99999999999998
 41
1.2
 77
     0
 78
     1
 53
44.99999999999998
 43
0.0
 44
0.0
 45
-0.8485281374238567
 46
0.8485281374238574
 79
     0
 98
        1
 10
0.0
 20
0.0
  0
HATCH
  5
118
330
35
100
AcDbEntity
  8
1
  6
DOTTED
 62
     2
100
AcDbHatch
 10
0.0
 20
0.0
 30
0.0
210
0.0
220
0.0
230
1.0
  2
_USER
 70
     0
 71
     1
 91
        2
 92
        1
 93
        3
 72
     1
 10
9187.70336067496
 20
-4010.85805822959
 11
9187.70336067496
 21
-4025.99080418001
 72
     2
 10
9244.70336067496
 20
-4018.4244312048
 40
57.4999999999999
 50
187.5614297056555
 51
360.0
 73
     1
 72
     2
 10
9244.70336067496
 20
-4018.4244312048
 40
57.5
 50
0.0
 51
172.4385702943445
 73
     1
 97
        3
330
B0
330
9D
330
B2
 92
       16
 93
        1
 72
     2
 10
9244.70336067496
 20
-4018.4244312048
 40
57.0
 50
0.0
 51
360.0
 73
     1
 97
        1
330
B7
 75
     1
 76
     0
 52
44.99999999999998
 41
1.2
 77
     0
 78
     1
 53
44.99999999999998
 43
0.0
 44
0.0
 45
-0.8485281374238567
 46
0.8485281374238574
 79
     0
 98
        1
 10
0.0
 20
0.0
  0
HATCH
  5
119
330
35
100
AcDbEntity
  8
1
  6
DOTTED
 62
     2
100
AcDbHatch
 10
0.0
 20
0.0
 30
0.0
210
0.0
220
0.0
230
1.0
  2
_USER
 70
     0
 71
     1
 91
        1
 92
        1
 93
        5
 72
     1
 10
9302.20336067496
 20
-3931.52295654085
 11
9302.20336067496
 21
-3939.92295654085
 72
     1
 10
9302.20336067496
 20
-3939.92295654085
 11
9187.20336067496
 21
-3939.92295654085
 72
     1
 10
9187.20336067496
 20
-3939.92295654085
 11
9187.20336067496
 21
-3937.65927785846
 72
     1
 10
9187.20336067496
 20
-3937.65927785846
 11
9187.20336067496
 21
-3931.52295654085
 72
     1
 10
9187.20336067496
 20
-3931.52295654085
 11
9302.20336067496
 21
-3931.52295654085
 97
        5
330
8D
330
91
330
69
330
68
330
52
 75
     1
 76
     0
 52
44.99999999999998
 41
1.2
 77
     0
 78
     1
 53
44.99999999999998
 43
0.0
 44
0.0
 45
-0.8485281374238567
 46
0.8485281374238574
 79
     0
 98
        1
 10
0.0
 20
0.0
  0
HATCH
  5
11A
330
35
100
AcDbEntity
  8
1
  6
Continuous
 62
     2
100
AcDbHatch
 10
0.0
 20
0.0
 30
0.0
210
0.0
220
0.0
230
1.0
  2
SOLID
 70
     1
 71
     1
 91
        1
 92
        1
 93
        1
 72
     2
 10
9263.26443920314
 20
-3936.14736039304
 40
0.4750000000003638
 50
0.0
 51
360.0
 73
     1
 97
        1
330
B3
 75
     0
 76
     1
 98
        1
 10
0.0
 20
0.0
  0
HATCH
  5
11B
330
35
100
AcDbEntity
  8
1
  6
Continuous
 62
     2
100
AcDbHatch
 10
0.0
 20
0.0
 30
0.0
210
0.0
220
0.0
230
1.0
  2
SOLID
 70
     1
 71
     1
 91
        1
 92
        1
 93
        1
 72
     2
 10
9298.16459541754
 20
-3930.18344902611
 40
0.4750000000003638
 50
0.0
 51
360.0
 73
     1
 97
        1
330
B4
 75
     0
 76
     1
 98
        1
 10
0.0
 20
0.0
  0
ENDBLK
  5
38
330
35
100
AcDbEntity
  8
0
100
AcDbBlockEnd
  0
BLOCK
  5
3B
330
39
100
AcDbEntity
  8
0
100
AcDbBlockBegin
  2
appea-smoke-dome-cover-e__2005_01_11_14_53_43
 70
     0
 71
     0
 10
7453.72586443255
 20
-3678.01208277755
 30
0.0
  3
appea-smoke-dome-cover-e__2005_01_11_14_53_43
  1

  0
INSERT
  5
3A
330
39
100
AcDbEntity
  8
0
100
AcDbBlockReference
  2
APPEA-SMOKE-DOME-COVER-E__2001_03_04__9_00_20
 10
8030.29026285536
 20
-4269.4964616847
 30
0.0
  0
ENDBLK
  5
3C
330
39
100
AcDbEntity
  8
0
100
AcDbBlockEnd
  0
BLOCK
  5
D0
330
C9
100
AcDbEntity
  8
0
100
AcDbBlockBegin
  2
*D4
 70
     1
 71
     0
 10
0.0
 20
0.0
 30
0.0
  3
*D4
  1

  0
LINE
  5
CA
330
C9
100
AcDbEntity
  8
1
  6
Continuous
 62
     2
100
AcDbLine
 10
9189.70336067496
 20
-3857.92295654085
 30
0.0
 11
9299.70336067496
 21
-3857.92295654085
 31
0.0
  0
LINE
  5
CB
330
C9
100
AcDbEntity
  8
1
  6
Continuous
 62
     2
100
AcDbLine
 10
9189.70336067496
 20
-3922.42295654085
 30
0.0
 11
9189.70336067496
 21
-3857.12295654085
 31
0.0
  0
LINE
  5
CC
330
C9
100
AcDbEntity
  8
1
  6
Continuous
 62
     2
100
AcDbLine
 10
9299.70336067496
 20
-3922.42295654085
 30
0.0
 11
9299.70336067496
 21
-3857.12295654085
 31
0.0
  0
SOLID
  5
CD
330
C9
100
AcDbEntity
  8
1
 62
     2
100
AcDbTrace
 10
9297.20336067496
 20
-3858.252087784818
 30
0.0
 11
9297.20336067496
 21
-3857.593825296882
 31
0.0
 12
9299.70336067496
 22
-3857.92295654085
 32
0.0
 13
9299.70336067496
 23
-3857.92295654085
 33
0.0
  0
SOLID
  5
CE
330
C9
100
AcDbEntity
  8
1
 62
     2
100
AcDbTrace
 10
9192.20336067496
 20
-3857.593825296882
 30
0.0
 11
9192.20336067496
 21
-3858.252087784818
 31
0.0
 12
9189.70336067496
 22
-3857.92295654085
 32
0.0
 13
9189.70336067496
 23
-3857.92295654085
 33
0.0
  0
MTEXT
  5
CF
330
C9
100
AcDbEntity
  8
1
 62
     2
100
AcDbMText
 10
9239.78336431112
 20
-3856.922980393679
 30
0.0
 40
3.0
 41
0.0
 71
     7
 72
     1
  1
\C2;{\Fgdt;n}\C2;110
  7
CONVERTER_11
 11
0.999999999988248
 21
4.848136811095759E-6
 31
0.0
 73
     1
 44
0.60024009603842
  0
ENDBLK
  5
D1
330
C9
100
AcDbEntity
  8
0
100
AcDbBlockEnd
  0
BLOCK
  5
DB
330
D4
100
AcDbEntity
  8
0
100
AcDbBlockBegin
  2
*D5
 70
     1
 71
     0
 10
0.0
 20
0.0
 30
0.0
  3
*D5
  1

  0
LINE
  5
D5
330
D4
100
AcDbEntity
  8
1
  6
Continuous
 62
     2
100
AcDbLine
 10
9162.70336067496
 20
-3941.92295654085
 30
0.0
 11
9162.70336067496
 21
-3867.92295654085
 31
0.0
  0
LINE
  5
D6
330
D4
100
AcDbEntity
  8
1
  6
Continuous
 62
     2
100
AcDbLine
 10
9187.20402855496
 20
-3941.92295654085
 30
0.0
 11
9161.90336067496
 21
-3941.92295654085
 31
0.0
  0
LINE
  5
D7
330
D4
100
AcDbEntity
  8
1
  6
Continuous
 62
     2
100
AcDbLine
 10
9244.20336067496
 20
-3867.92295654085
 30
0.0
 11
9161.90336067496
 21
-3867.92295654085
 31
0.0
  0
SOLID
  5
D8
330
D4
100
AcDbEntity
  8
1
 62
     2
100
AcDbTrace
 10
9163.032491918928
 20
-3870.42295654085
 30
0.0
 11
9162.37422943099
 21
-3870.42295654085
 31
0.0
 12
9162.70336067496
 22
-3867.92295654085
 32
0.0
 13
9162.70336067496
 23
-3867.92295654085
 33
0.0
  0
SOLID
  5
D9
330
D4
100
AcDbEntity
  8
1
 62
     2
100
AcDbTrace
 10
9162.37422943099
 20
-3939.42295654085
 30
0.0
 11
9163.032491918928
 21
-3939.42295654085
 31
0.0
 12
9162.70336067496
 22
-3941.92295654085
 32
0.0
 13
9162.70336067496
 23
-3941.92295654085
 33
0.0
  0
MTEXT
  5
DA
330
D4
100
AcDbEntity
  8
1
 62
     2
100
AcDbMText
 10
9161.70336067496
 20
-3909.15415654085
 30
0.0
 40
3.0
 41
0.0
 71
     7
 72
     1
  1
\C2;(\C2;74\C2;)
  7
CONVERTER_11
 11
0.0
 21
1.0
 31
0.0
 73
     1
 44
0.60024009603842
  0
ENDBLK
  5
DC
330
D4
100
AcDbEntity
  8
0
100
AcDbBlockEnd
  0
BLOCK
  5
E6
330
DF
100
AcDbEntity
  8
0
100
AcDbBlockBegin
  2
*D6
 70
     1
 71
     0
 10
0.0
 20
0.0
 30
0.0
  3
*D6
  1

  0
LINE
  5
E0
330
DF
100
AcDbEntity
  8
1
  6
Continuous
 62
     2
100
AcDbLine
 10
9168.70336067496
 20
-3867.92295654085
 30
0.0
 11
9168.70336067496
 21
-3928.92295654085
 31
0.0
  0
LINE
  5
E1
330
DF
100
AcDbEntity
  8
1
  6
Continuous
 62
     2
100
AcDbLine
 10
9244.20336067496
 20
-3867.92295654085
 30
0.0
 11
9167.90336067496
 21
-3867.92295654085
 31
0.0
  0
LINE
  5
E2
330
DF
100
AcDbEntity
  8
1
  6
Continuous
 62
     2
100
AcDbLine
 10
9184.20336067496
 20
-3928.92295654085
 30
0.0
 11
9167.90336067496
 21
-3928.92295654085
 31
0.0
  0
SOLID
  5
E3
330
DF
100
AcDbEntity
  8
1
 62
     2
100
AcDbTrace
 10
9168.37422943099
 20
-3926.42295654085
 30
0.0
 11
9169.032491918928
 21
-3926.42295654085
 31
0.0
 12
9168.70336067496
 22
-3928.92295654085
 32
0.0
 13
9168.70336067496
 23
-3928.92295654085
 33
0.0
  0
SOLID
  5
E4
330
DF
100
AcDbEntity
  8
1
 62
     2
100
AcDbTrace
 10
9169.032491918928
 20
-3870.42295654085
 30
0.0
 11
9168.37422943099
 21
-3870.42295654085
 31
0.0
 12
9168.70336067496
 22
-3867.92295654085
 32
0.0
 13
9168.70336067496
 23
-3867.92295654085
 33
0.0
  0
MTEXT
  5
E5
330
DF
100
AcDbEntity
  8
1
 62
     2
100
AcDbMText
 10
9167.70336067496
 20
-3900.19415654085
 30
0.0
 40
3.0
 41
0.0
 71
     7
 72
     1
  1
61
  7
CONVERTER_11
 11
0.0
 21
1.0
 31
0.0
 73
     1
 44
0.60024009603842
  0
ENDBLK
  5
E7
330
DF
100
AcDbEntity
  8
0
100
AcDbBlockEnd
  0
BLOCK
  5
F1
330
EA
100
AcDbEntity
  8
0
100
AcDbBlockBegin
  2
*D7
 70
     1
 71
     0
 10
0.0
 20
0.0
 30
0.0
  3
*D7
  1

  0
LINE
  5
EB
330
EA
100
AcDbEntity
  8
1
  6
Continuous
 62
     2
100
AcDbLine
 10
9168.70336067496
 20
-3928.92295654085
 30
0.0
 11
9168.70336067496
 21
-3941.92295654085
 31
0.0
  0
LINE
  5
EC
330
EA
100
AcDbEntity
  8
1
  6
Continuous
 62
     2
100
AcDbLine
 10
9184.20336067496
 20
-3928.92295654085
 30
0.0
 11
9167.90336067496
 21
-3928.92295654085
 31
0.0
  0
LINE
  5
ED
330
EA
100
AcDbEntity
  8
1
  6
Continuous
 62
     2
100
AcDbLine
 10
9187.20402855496
 20
-3941.92295654085
 30
0.0
 11
9167.90336067496
 21
-3941.92295654085
 31
0.0
  0
SOLID
  5
EE
330
EA
100
AcDbEntity
  8
1
 62
     2
100
AcDbTrace
 10
9168.37422943099
 20
-3939.42295654085
 30
0.0
 11
9169.032491918928
 21
-3939.42295654085
 31
0.0
 12
9168.70336067496
 22
-3941.92295654085
 32
0.0
 13
9168.70336067496
 23
-3941.92295654085
 33
0.0
  0
SOLID
  5
EF
330
EA
100
AcDbEntity
  8
1
 62
     2
100
AcDbTrace
 10
9169.032491918928
 20
-3931.42295654085
 30
0.0
 11
9168.37422943099
 21
-3931.42295654085
 31
0.0
 12
9168.70336067496
 22
-3928.92295654085
 32
0.0
 13
9168.70336067496
 23
-3928.92295654085
 33
0.0
  0
MTEXT
  5
F0
330
EA
100
AcDbEntity
  8
1
 62
     2
100
AcDbMText
 10
9167.70336067496
 20
-3937.19415654085
 30
0.0
 40
3.0
 41
0.0
 71
     7
 72
     1
  1
13
  7
CONVERTER_11
 11
0.0
 21
1.0
 31
0.0
 73
     1
 44
0.60024009603842
  0
ENDBLK
  5
F2
330
EA
100
AcDbEntity
  8
0
100
AcDbBlockEnd
  0
BLOCK
  5
FC
330
F5
100
AcDbEntity
  8
0
100
AcDbBlockBegin
  2
*D8
 70
     1
 71
     0
 10
0.0
 20
0.0
 30
0.0
  3
*D8
  1

  0
LINE
  5
F6
330
F5
100
AcDbEntity
  8
1
  6
Continuous
 62
     2
100
AcDbLine
 10
9174.70336067496
 20
-3933.92295654085
 30
0.0
 11
9174.70336067496
 21
-3922.45600509393
 31
0.0
  0
LINE
  5
F7
330
F5
100
AcDbEntity
  8
1
  6
Continuous
 62
     2
100
AcDbLine
 10
9184.20355415906
 20
-3928.92295654085
 30
0.0
 11
9173.90336067496
 21
-3928.92295654085
 31
0.0
  0
LINE
  5
F8
330
F5
100
AcDbEntity
  8
1
  6
Continuous
 62
     2
100
AcDbLine
 10
9184.70405784796
 20
-3927.92295654085
 30
0.0
 11
9173.90336067496
 21
-3927.92295654085
 31
0.0
  0
SOLID
  5
F9
330
F5
100
AcDbEntity
  8
1
 62
     2
100
AcDbTrace
 10
9174.37422943099
 20
-3925.42295654085
 30
0.0
 11
9175.032491918928
 21
-3925.42295654085
 31
0.0
 12
9174.70336067496
 22
-3927.92295654085
 32
0.0
 13
9174.70336067496
 23
-3927.92295654085
 33
0.0
  0
SOLID
  5
FA
330
F5
100
AcDbEntity
  8
1
 62
     2
100
AcDbTrace
 10
9175.032491918928
 20
-3931.42295654085
 30
0.0
 11
9174.37422943099
 21
-3931.42295654085
 31
0.0
 12
9174.70336067496
 22
-3928.92295654085
 32
0.0
 13
9174.70336067496
 23
-3928.92295654085
 33
0.0
  0
MTEXT
  5
FB
330
F5
100
AcDbEntity
  8
1
 62
     2
100
AcDbMText
 10
9173.70336067496
 20
-3924.22720509393
 30
0.0
 40
3.0
 41
0.0
 71
     7
 72
     1
  1
1
  7
CONVERTER_11
 11
0.0
 21
1.0
 31
0.0
 73
     1
 44
0.60024009603842
  0
ENDBLK
  5
FD
330
F5
100
AcDbEntity
  8
0
100
AcDbBlockEnd
  0
BLOCK
  5
107
330
100
100
AcDbEntity
  8
0
100
AcDbBlockBegin
  2
*D9
 70
     1
 71
     0
 10
0.0
 20
0.0
 30
0.0
  3
*D9
  1

  0
LINE
  5
101
330
100
100
AcDbEntity
  8
1
  6
Continuous
 62
     2
100
AcDbLine
 10
9184.70336067496
 20
-3851.92295654085
 30
0.0
 11
9304.70336067496
 21
-3851.92295654085
 31
0.0
  0
LINE
  5
102
330
100
100
AcDbEntity
  8
1
  6
Continuous
 62
     2
100
AcDbLine
 10
9184.70336067496
 20
-3927.92295654085
 30
0.0
 11
9184.70336067496
 21
-3851.12295654085
 31
0.0
  0
LINE
  5
103
330
100
100
AcDbEntity
  8
1
  6
Continuous
 62
     2
100
AcDbLine
 10
9304.70336067496
 20
-3927.92295654085
 30
0.0
 11
9304.70336067496
 21
-3851.12295654085
 31
0.0
  0
SOLID
  5
104
330
100
100
AcDbEntity
  8
1
 62
     2
100
AcDbTrace
 10
9302.20336067496
 20
-3852.252087784818
 30
0.0
 11
9302.20336067496
 21
-3851.593825296882
 31
0.0
 12
9304.70336067496
 22
-3851.92295654085
 32
0.0
 13
9304.70336067496
 23
-3851.92295654085
 33
0.0
  0
SOLID
  5
105
330
100
100
AcDbEntity
  8
1
 62
     2
100
AcDbTrace
 10
9187.20336067496
 20
-3851.593825296882
 30
0.0
 11
9187.20336067496
 21
-3852.252087784818
 31
0.0
 12
9184.70336067496
 22
-3851.92295654085
 32
0.0
 13
9184.70336067496
 23
-3851.92295654085
 33
0.0
  0
MTEXT
  5
106
330
100
100
AcDbEntity
  8
1
 62
     2
100
AcDbMText
 10
9239.78336431112
 20
-3850.922980393679
 30
0.0
 40
3.0
 41
0.0
 71
     7
 72
     1
  1
\C2;{\Fgdt;n}\C2;120
  7
CONVERTER_11
 11
0.999999999988248
 21
4.848136811095759E-6
 31
0.0
 73
     1
 44
0.60024009603842
  0
ENDBLK
  5
108
330
100
100
AcDbEntity
  8
0
100
AcDbBlockEnd
  0
ENDSEC
  0
SECTION
  2
ENTITIES
  0
INSERT
  5
3D
330
1F
100
AcDbEntity
  8
0
100
AcDbBlockReference
  2
appea-smoke-dome-cover-e__2005_01_11_14_53_43
 10
7453.72586443255
 20
-3678.01208277755
 30
0.0
  0
ENDSEC
  0
SECTION
  2
OBJECTS
  0
DICTIONARY
  5
C
330
0
100
AcDbDictionary
281
     1
  3
ACAD_GROUP
350
D
  3
ACAD_LAYOUT
350
1A
  3
ACAD_MLINESTYLE
350
17
  3
ACAD_PLOTSETTINGS
350
19
  3
ACAD_PLOTSTYLENAME
350
E
  0
DICTIONARY
  5
D
102
{ACAD_REACTORS
330
C
102
}
330
C
100
AcDbDictionary
281
     1
  0
DICTIONARY
  5
1A
102
{ACAD_REACTORS
330
C
102
}
330
C
100
AcDbDictionary
281
     1
  3
Layout1
350
1E
  3
Layout2
350
26
  3
Model
350
22
  0
DICTIONARY
  5
17
102
{ACAD_REACTORS
330
C
102
}
330
C
100
AcDbDictionary
281
     1
  3
Standard
350
18
  0
DICTIONARY
  5
19
102
{ACAD_REACTORS
330
C
102
}
330
C
100
AcDbDictionary
281
     1
  0
ACDBDICTIONARYWDFLT
  5
E
102
{ACAD_REACTORS
330
C
102
}
330
C
100
AcDbDictionary
281
     1
  3
Normal
350
F
100
AcDbDictionaryWithDefault
340
F
  0
LAYOUT
  5
1E
102
{ACAD_REACTORS
330
1A
102
}
330
1A
100
AcDbPlotSettings
  1

  2

  4

  6

 40
0.0
 41
0.0
 42
0.0
 43
0.0
 44
0.0
 45
0.0
 46
0.0
 47
0.0
 48
0.0
 49
0.0
140
0.0
141
0.0
142
1.0
143
1.0
 70
   688
 72
     0
 73
     0
 74
     5
  7

 75
    16
147
1.0
148
0.0
149
0.0
100
AcDbLayout
  1
Layout1
 70
     1
 71
     1
 10
0.0
 20
0.0
 11
0.0
 21
0.0
 12
0.0
 22
0.0
 32
0.0
 14
0.0
 24
0.0
 34
0.0
 15
0.0
 25
0.0
 35
0.0
146
0.0
 13
0.0
 23
0.0
 33
0.0
 16
1.0
 26
0.0
 36
0.0
 17
0.0
 27
1.0
 37
0.0
 76
     0
330
1B
  0
LAYOUT
  5
26
102
{ACAD_REACTORS
330
1A
102
}
330
1A
100
AcDbPlotSettings
  1

  2

  4

  6

 40
0.0
 41
0.0
 42
0.0
 43
0.0
 44
0.0
 45
0.0
 46
0.0
 47
0.0
 48
0.0
 49
0.0
140
0.0
141
0.0
142
1.0
143
1.0
 70
   688
 72
     0
 73
     0
 74
     5
  7

 75
    16
147
1.0
148
0.0
149
0.0
100
AcDbLayout
  1
Layout2
 70
     1
 71
     2
 10
0.0
 20
0.0
 11
0.0
 21
0.0
 12
0.0
 22
0.0
 32
0.0
 14
0.0
 24
0.0
 34
0.0
 15
0.0
 25
0.0
 35
0.0
146
0.0
 13
0.0
 23
0.0
 33
0.0
 16
1.0
 26
0.0
 36
0.0
 17
0.0
 27
1.0
 37
0.0
 76
     0
330
23
  0
LAYOUT
  5
22
102
{ACAD_REACTORS
330
1A
102
}
330
1A
100
AcDbPlotSettings
  1

  2

  4

  6

 40
0.0
 41
0.0
 42
0.0
 43
0.0
 44
0.0
 45
0.0
 46
0.0
 47
0.0
 48
0.0
 49
0.0
140
0.0
141
0.0
142
1.0
143
1.0
 70
  1712
 72
     0
 73
     0
 74
     0
  7

 75
     0
147
1.0
148
0.0
149
0.0
100
AcDbLayout
  1
Model
 70
     1
 71
     0
 10
0.0
 20
0.0
 11
0.0
 21
0.0
 12
0.0
 22
0.0
 32
0.0
 14
9158.70336067496
 24
-4083.4244312048
 34
0.0
 15
9321.05578794428
 25
-3847.922943660325
 35
0.0
146
0.0
 13
0.0
 23
0.0
 33
0.0
 16
1.0
 26
0.0
 36
0.0
 17
0.0
 27
1.0
 37
0.0
 76
     0
330
1F
  0
MLINESTYLE
  5
18
102
{ACAD_REACTORS
330
17
102
}
330
17
100
AcDbMlineStyle
  2
Standard
 70
     0
  3

 62
   256
 51
90.0
 52
90.0
 71
     2
 49
0.5
 62
   256
  6
BYLAYER
 49
-0.5
 62
   256
  6
BYLAYER
  0
ACDBPLACEHOLDER
  5
F
102
{ACAD_REACTORS
330
E
102
}
330
E
  0
ENDSEC
  0
EOF
