  0
SECTION
  2
HEADER
  9
$ACADVER
  1
AC1015
  9
$ACADMAINTVER
 70
     6
  9
$DWGCODEPAGE
  3
ANSI_1252
  9
$INSBASE
 10
0.0
 20
0.0
 30
0.0
  9
$EXTMIN
 10
628.4130978196
 20
186.0720304799
 30
0.0
  9
$EXTMAX
 10
790.765525088921
 20
421.5735180243775
 30
0.0
  9
$LIMMIN
 10
0.0
 20
0.0
  9
$LIMMAX
 10
12.0
 20
9.0
  9
$ORTHOMODE
 70
     0
  9
$REGENMODE
 70
     1
  9
$FILLMODE
 70
     1
  9
$QTEXTMODE
 70
     0
  9
$MIRRTEXT
 70
     1
  9
$LTSCALE
 40
1.0
  9
$ATTMODE
 70
     1
  9
$TEXTSIZE
 40
0.2
  9
$TRACEWID
 40
0.05
  9
$TEXTSTYLE
  7
Standard
  9
$CLAYER
  8
0
  9
$CELTYPE
  6
ByLayer
  9
$CECOLOR
 62
   256
  9
$CELTSCALE
 40
1.0
  9
$DISPSILH
 70
     0
  9
$DIMSCALE
 40
1.0
  9
$DIMASZ
 40
0.18
  9
$DIMEXO
 40
0.0625
  9
$DIMDLI
 40
0.38
  9
$DIMRND
 40
0.0
  9
$DIMDLE
 40
0.0
  9
$DIMEXE
 40
0.18
  9
$DIMTP
 40
0.0
  9
$DIMTM
 40
0.0
  9
$DIMTXT
 40
0.18
  9
$DIMCEN
 40
0.09
  9
$DIMTSZ
 40
0.0
  9
$DIMTOL
 70
     0
  9
$DIMLIM
 70
     0
  9
$DIMTIH
 70
     1
  9
$DIMTOH
 70
     1
  9
$DIMSE1
 70
     0
  9
$DIMSE2
 70
     0
  9
$DIMTAD
 70
     0
  9
$DIMZIN
 70
     0
  9
$DIMBLK
  1

  9
$DIMASO
 70
     1
  9
$DIMSHO
 70
     1
  9
$DIMPOST
  1

  9
$DIMAPOST
  1

  9
$DIMALT
 70
     0
  9
$DIMALTD
 70
     2
  9
$DIMALTF
 40
25.4
  9
$DIMLFAC
 40
1.0
  9
$DIMTOFL
 70
     0
  9
$DIMTVP
 40
0.0
  9
$DIMTIX
 70
     0
  9
$DIMSOXD
 70
     0
  9
$DIMSAH
 70
     0
  9
$DIMBLK1
  1

  9
$DIMBLK2
  1

  9
$DIMSTYLE
  2
Standard
  9
$DIMCLRD
 70
     0
  9
$DIMCLRE
 70
     0
  9
$DIMCLRT
 70
     0
  9
$DIMTFAC
 40
1.0
  9
$DIMGAP
 40
0.09
  9
$DIMJUST
 70
     0
  9
$DIMSD1
 70
     0
  9
$DIMSD2
 70
     0
  9
$DIMTOLJ
 70
     1
  9
$DIMTZIN
 70
     0
  9
$DIMALTZ
 70
     0
  9
$DIMALTTZ
 70
     0
  9
$DIMUPT
 70
     0
  9
$DIMDEC
 70
     4
  9
$DIMTDEC
 70
     4
  9
$DIMALTU
 70
     2
  9
$DIMALTTD
 70
     2
  9
$DIMTXSTY
  7
Standard
  9
$DIMAUNIT
 70
     0
  9
$DIMADEC
 70
     0
  9
$DIMALTRND
 40
0.0
  9
$DIMAZIN
 70
     0
  9
$DIMDSEP
 70
    46
  9
$DIMATFIT
 70
     3
  9
$DIMFRAC
 70
     0
  9
$DIMLDRBLK
  1

  9
$DIMLUNIT
 70
     2
  9
$DIMLWD
 70
    -2
  9
$DIMLWE
 70
    -2
  9
$DIMTMOVE
 70
     0
  9
$LUNITS
 70
     2
  9
$LUPREC
 70
     4
  9
$SKETCHINC
 40
0.1
  9
$FILLETRAD
 40
0.5
  9
$AUNITS
 70
     0
  9
$AUPREC
 70
     0
  9
$MENU
  1
.
  9
$ELEVATION
 40
0.0
  9
$PELEVATION
 40
0.0
  9
$THICKNESS
 40
0.0
  9
$LIMCHECK
 70
     0
  9
$CHAMFERA
 40
0.5
  9
$CHAMFERB
 40
0.5
  9
$CHAMFERC
 40
1.0
  9
$CHAMFERD
 40
0.0
  9
$SKPOLY
 70
     0
  9
$TDCREATE
 40
2456267.703121505
  9
$TDUCREATE
 40
2456267.328121505
  9
$TDUPDATE
 40
2456267.703121516
  9
$TDUUPDATE
 40
2456267.328121516
  9
$TDINDWG
 40
0.0000000116
  9
$TDUSRTIMER
 40
0.0000000116
  9
$USRTIMER
 70
     1
  9
$ANGBASE
 50
0.0
  9
$ANGDIR
 70
     0
  9
$PDMODE
 70
     0
  9
$PDSIZE
 40
0.0
  9
$PLINEWID
 40
0.0
  9
$SPLFRAME
 70
     0
  9
$SPLINETYPE
 70
     6
  9
$SPLINESEGS
 70
     8
  9
$HANDSEED
  5
11C
  9
$SURFTAB1
 70
     6
  9
$SURFTAB2
 70
     6
  9
$SURFTYPE
 70
     6
  9
$SURFU
 70
     6
  9
$SURFV
 70
     6
  9
$UCSBASE
  2

  9
$UCSNAME
  2

  9
$UCSORG
 10
0.0
 20
0.0
 30
0.0
  9
$UCSXDIR
 10
1.0
 20
0.0
 30
0.0
  9
$UCSYDIR
 10
0.0
 20
1.0
 30
0.0
  9
$UCSORTHOREF
  2

  9
$UCSORTHOVIEW
 70
     0
  9
$UCSORGTOP
 10
0.0
 20
0.0
 30
0.0
  9
$UCSORGBOTTOM
 10
0.0
 20
0.0
 30
0.0
  9
$UCSORGLEFT
 10
0.0
 20
0.0
 30
0.0
  9
$UCSORGRIGHT
 10
0.0
 20
0.0
 30
0.0
  9
$UCSORGFRONT
 10
0.0
 20
0.0
 30
0.0
  9
$UCSORGBACK
 10
0.0
 20
0.0
 30
0.0
  9
$PUCSBASE
  2

  9
$PUCSNAME
  2

  9
$PUCSORG
 10
0.0
 20
0.0
 30
0.0
  9
$PUCSXDIR
 10
1.0
 20
0.0
 30
0.0
  9
$PUCSYDIR
 10
0.0
 20
1.0
 30
0.0
  9
$PUCSORTHOREF
  2

  9
$PUCSORTHOVIEW
 70
     0
  9
$PUCSORGTOP
 10
0.0
 20
0.0
 30
0.0
  9
$PUCSORGBOTTOM
 10
0.0
 20
0.0
 30
0.0
  9
$PUCSORGLEFT
 10
0.0
 20
0.0
 30
0.0
  9
$PUCSORGRIGHT
 10
0.0
 20
0.0
 30
0.0
  9
$PUCSORGFRONT
 10
0.0
 20
0.0
 30
0.0
  9
$PUCSORGBACK
 10
0.0
 20
0.0
 30
0.0
  9
$USERI1
 70
     0
  9
$USERI2
 70
     0
  9
$USERI3
 70
     0
  9
$USERI4
 70
     0
  9
$USERI5
 70
     0
  9
$USERR1
 40
14.5
  9
$USERR2
 40
0.0
  9
$USERR3
 40
0.0
  9
$USERR4
 40
0.0
  9
$USERR5
 40
0.0
  9
$WORLDVIEW
 70
     1
  9
$SHADEDGE
 70
     3
  9
$SHADEDIF
 70
    70
  9
$TILEMODE
 70
     1
  9
$MAXACTVP
 70
    64
  9
$PINSBASE
 10
0.0
 20
0.0
 30
0.0
  9
$PLIMCHECK
 70
     0
  9
$PEXTMIN
 10
1.00000000000000E+20
 20
1.00000000000000E+20
 30
1.00000000000000E+20
  9
$PEXTMAX
 10
-1.00000000000000E+20
 20
-1.00000000000000E+20
 30
-1.00000000000000E+20
  9
$PLIMMIN
 10
0.0
 20
0.0
  9
$PLIMMAX
 10
12.0
 20
9.0
  9
$UNITMODE
 70
     0
  9
$VISRETAIN
 70
     1
  9
$PLINEGEN
 70
     0
  9
$PSLTSCALE
 70
     1
  9
$TREEDEPTH
 70
  3020
  9
$CMLSTYLE
  2
Standard
  9
$CMLJUST
 70
     0
  9
$CMLSCALE
 40
1.0
  9
$PROXYGRAPHICS
 70
     1
  9
$MEASUREMENT
 70
     1
  9
$CELWEIGHT
370
    -1
  9
$ENDCAPS
280
     0
  9
$JOINSTYLE
280
     0
  9
$LWDISPLAY
290
     0
  9
$INSUNITS
 70
     1
  9
$HYPERLINKBASE
  1

  9
$STYLESHEET
  1

  9
$XEDIT
290
     1
  9
$CEPSNTYPE
380
     0
  9
$PSTYLEMODE
290
     1
  9
$FINGERPRINTGUID
  2
{45663AB5-5483-4B8C-885E-7EE499BE69CD}
  9
$VERSIONGUID
  2
{FAEB1C32-E019-11D5-929B-00C0DF256EC4}
  9
$EXTNAMES
290
     1
  9
$PSVPSCALE
 40
0.0
  9
$OLESTARTUP
290
     0
  0
ENDSEC
  0
SECTION
  2
CLASSES
  0
CLASS
  1
ACDBDICTIONARYWDFLT
  2
AcDbDictionaryWithDefault
  3
ObjectDBX Classes
 90
        0
280
     0
281
     0
  0
CLASS
  1

  2
exOdDbCircle
  3

 90
        0
280
     0
281
     1
  0
CLASS
  1

  2
exOdDbPolyline
  3

 90
        0
280
     0
281
     1
  0
CLASS
  1
ACDBPLACEHOLDER
  2
AcDbPlaceHolder
  3
ObjectDBX Classes
 90
        0
280
     0
281
     0
  0
CLASS
  1
LAYOUT
  2
AcDbLayout
  3
ObjectDBX Classes
 90
        0
280
     0
281
     0
  0
ENDSEC
  0
SECTION
  2
TABLES
  0
TABLE
  2
VPORT
  5
8
330
0
100
AcDbSymbolTable
 70
     1
  0
VPORT
  5
29
330
8
100
AcDbSymbolTableRecord
100
AcDbViewportTableRecord
  2
*Active
 70
     0
 10
0.0
 20
0.0
 11
1.0
 21
1.0
 12
709.5893114542605
 22
303.8227742521387
 13
0.0
 23
0.0
 14
0.5
 24
0.5
 15
0.5
 25
0.5
 16
0.0
 26
0.0
 36
1.0
 17
0.0
 27
0.0
 37
0.0
 40
259.0516362989252
 41
1.60267857142857
 42
50.0
 43
0.0
 44
0.0
 50
0.0
 51
0.0
 71
     0
 72
   100
 73
     1
 74
     3
 75
     0
 76
     0
 77
     0
 78
     0
281
     0
 65
     1
110
0.0
120
0.0
130
0.0
111
1.0
121
0.0
131
0.0
112
0.0
122
1.0
132
0.0
 79
     0
146
0.0
  0
ENDTAB
  0
TABLE
  2
LTYPE
  5
5
330
0
100
AcDbSymbolTable
 70
     8
  0
LTYPE
  5
14
330
5
100
AcDbSymbolTableRecord
100
AcDbLinetypeTableRecord
  2
ByBlock
 70
     0
  3

 72
    65
 73
     0
 40
0.0
  0
LTYPE
  5
15
330
5
100
AcDbSymbolTableRecord
100
AcDbLinetypeTableRecord
  2
ByLayer
 70
     0
  3

 72
    65
 73
     0
 40
0.0
  0
LTYPE
  5
16
330
5
100
AcDbSymbolTableRecord
100
AcDbLinetypeTableRecord
  2
Continuous
 70
     0
  3
Solid line
 72
    65
 73
     0
 40
0.0
  0
LTYPE
  5
2A
330
5
100
AcDbSymbolTableRecord
100
AcDbLinetypeTableRecord
  2
DASHED
 70
     0
  3
Dashed
 72
    65
 73
     2
 40
15.0
 49
7.0
 74
     0
 49
-8.0
 74
     0
  0
LTYPE
  5
2B
330
5
100
AcDbSymbolTableRecord
100
AcDbLinetypeTableRecord
  2
DOTTED
 70
     0
  3
Dotted
 72
    65
 73
     2
 40
1.0
 49
0.0
 74
     0
 49
-1.0
 74
     0
  0
LTYPE
  5
2C
330
5
100
AcDbSymbolTableRecord
100
AcDbLinetypeTableRecord
  2
DOT_CENTER
 70
     0
  3
Dot_Center
 72
    65
 73
     4
 40
14.0
 49
12.0
 74
     0
 49
-1.0
 74
     0
 49
0.0
 74
     0
 49
-1.0
 74
     0
  0
LTYPE
  5
2D
330
5
100
AcDbSymbolTableRecord
100
AcDbLinetypeTableRecord
  2
LONG_DASHED
 70
     0
  3
Long_Dashed
 72
    65
 73
     2
 40
15.0
 49
10.0
 74
     0
 49
-5.0
 74
     0
  0
LTYPE
  5
2E
330
5
100
AcDbSymbolTableRecord
100
AcDbLinetypeTableRecord
  2
DASH_CENTER
 70
     0
  3
Dash_Center
 72
    65
 73
     4
 40
14.0
 49
11.0
 74
     0
 49
-1.0
 74
     0
 49
1.0
 74
     0
 49
-1.0
 74
     0
  0
LTYPE
  5
2F
330
5
100
AcDbSymbolTableRecord
100
AcDbLinetypeTableRecord
  2
PHANTOM
 70
     0
  3
Phantom
 72
    65
 73
     6
 40
13.0
 49
10.0
 74
     0
 49
-1.0
 74
     0
 49
0.0
 74
     0
 49
-1.0
 74
     0
 49
0.0
 74
     0
 49
-1.0
 74
     0
  0
LTYPE
  5
30
330
5
100
AcDbSymbolTableRecord
100
AcDbLinetypeTableRecord
  2
CENTER_DASH_DASH
 70
     0
  3
Center_Dash_Dash
 72
    65
 73
     6
 40
14.0
 49
9.0
 74
     0
 49
-1.0
 74
     0
 49
1.0
 74
     0
 49
-1.0
 74
     0
 49
1.0
 74
     0
 49
-1.0
 74
     0
  0
ENDTAB
  0
TABLE
  2
LAYER
  5
2
330
0
100
AcDbSymbolTable
 70
     2
  0
LAYER
  5
10
330
2
100
AcDbSymbolTableRecord
100
AcDbLayerTableRecord
  2
0
 70
     0
 62
     7
  6
Continuous
370
    -3
390
F
  0
LAYER
  5
31
330
2
100
AcDbSymbolTableRecord
100
AcDbLayerTableRecord
  2
1
 70
     0
 62
     7
  6
Continuous
370
    -3
390
F
  0
ENDTAB
  0
TABLE
  2
STYLE
  5
3
330
0
100
AcDbSymbolTable
 70
     3
  0
STYLE
  5
11
330
3
100
AcDbSymbolTableRecord
100
AcDbTextStyleTableRecord
  2
Standard
 70
     0
 40
0.0
 41
1.0
 50
0.0
 71
     0
 42
0.2
  3
txt
  4

  0
STYLE
  5
3B
330
3
100
AcDbSymbolTableRecord
100
AcDbTextStyleTableRecord
  2
CONVERTER_11
 70
     0
 40
0.0
 41
0.72
 50
0.0
 71
     0
 42
0.2
  3
txt.shx
  4

  0
STYLE
  5
BE
330
3
100
AcDbSymbolTableRecord
100
AcDbTextStyleTableRecord
  2
CONVERTER_12
 70
     0
 40
0.0
 41
0.81
 50
0.0
 71
     0
 42
0.2
  3
txt.shx
  4

  0
ENDTAB
  0
TABLE
  2
VIEW
  5
6
330
0
100
AcDbSymbolTable
 70
     0
  0
ENDTAB
  0
TABLE
  2
UCS
  5
7
330
0
100
AcDbSymbolTable
 70
     0
  0
ENDTAB
  0
TABLE
  2
APPID
  5
9
330
0
100
AcDbSymbolTable
 70
     1
  0
APPID
  5
12
330
9
100
AcDbSymbolTableRecord
100
AcDbRegAppTableRecord
  2
ACAD
 70
     0
  0
ENDTAB
  0
TABLE
  2
DIMSTYLE
  5
A
330
0
100
AcDbSymbolTable
 70
     7
100
AcDbDimStyleTable
  0
DIMSTYLE
105
27
330
A
100
AcDbSymbolTableRecord
100
AcDbDimStyleTableRecord
  2
Standard
 70
     0
340
11
  0
DIMSTYLE
105
CA
102
{ACAD_REACTORS
330
CB
102
}
330
A
100
AcDbSymbolTableRecord
100
AcDbDimStyleTableRecord
  2
ME10_DIM_10
 70
     0
  3
{\Fgdt;n}<>
 41
2.5
 42
0.5
 44
0.8
 73
     0
 74
     0
 77
     1
 78
    12
140
3.0
147
1.0
172
     1
173
     1
176
     2
177
     2
178
     2
271
     3
340
3B
  0
DIMSTYLE
105
D5
102
{ACAD_REACTORS
330
D6
102
}
330
A
100
AcDbSymbolTableRecord
100
AcDbDimStyleTableRecord
  2
ME10_DIM_11
 70
     0
 41
2.5
 42
0.5
 44
0.8
 73
     0
 74
     0
 77
     1
 78
    12
140
3.0
147
1.0
172
     1
173
     1
176
     2
177
     2
178
     2
271
     3
340
3B
  0
DIMSTYLE
105
E0
102
{ACAD_REACTORS
330
E1
102
}
330
A
100
AcDbSymbolTableRecord
100
AcDbDimStyleTableRecord
  2
ME10_DIM_12
 70
     0
 41
2.5
 42
0.5
 44
0.8
 73
     0
 74
     0
 77
     1
 78
    12
140
3.0
147
1.0
172
     1
173
     1
176
     2
177
     2
178
     2
271
     3
340
3B
  0
DIMSTYLE
105
EB
102
{ACAD_REACTORS
330
EC
102
}
330
A
100
AcDbSymbolTableRecord
100
AcDbDimStyleTableRecord
  2
ME10_DIM_13
 70
     0
 41
2.5
 42
0.5
 44
0.8
 73
     0
 74
     0
 77
     1
 78
    12
140
3.0
147
1.0
172
     1
173
     1
176
     2
177
     2
178
     2
271
     3
340
3B
  0
DIMSTYLE
105
F6
102
{ACAD_REACTORS
330
F7
102
}
330
A
100
AcDbSymbolTableRecord
100
AcDbDimStyleTableRecord
  2
ME10_DIM_14
 70
     0
  3
(<>)
 41
2.5
 42
0.5
 44
0.8
 73
     0
 74
     0
 77
     1
 78
    12
140
3.0
147
1.0
172
     1
173
     1
176
     2
177
     2
178
     2
271
     3
340
3B
  0
DIMSTYLE
105
101
102
{ACAD_REACTORS
330
102
102
}
330
A
100
AcDbSymbolTableRecord
100
AcDbDimStyleTableRecord
  2
ME10_DIM_15
 70
     0
  3
{\Fgdt;n}<>
 41
2.5
 42
0.5
 44
0.8
 73
     0
 74
     0
 77
     1
 78
    12
140
3.0
147
1.0
172
     1
173
     1
176
     2
177
     2
178
     2
271
     3
340
3B
  0
ENDTAB
  0
TABLE
  2
BLOCK_RECORD
  5
1
330
0
100
AcDbSymbolTable
 70
     8
  0
BLOCK_RECORD
  5
1F
330
1
100
AcDbSymbolTableRecord
100
AcDbBlockTableRecord
  2
*Model_Space
340
22
  0
BLOCK_RECORD
  5
1B
330
1
100
AcDbSymbolTableRecord
100
AcDbBlockTableRecord
  2
*Paper_Space
340
1E
  0
BLOCK_RECORD
  5
23
330
1
100
AcDbSymbolTableRecord
100
AcDbBlockTableRecord
  2
*Paper_Space0
340
26
  0
BLOCK_RECORD
  5
32
330
1
100
AcDbSymbolTableRecord
100
AcDbBlockTableRecord
  2
_D8
340
0
102
{BLKREFS
331
35
102
}
  0
BLOCK_RECORD
  5
C1
330
1
100
AcDbSymbolTableRecord
100
AcDbBlockTableRecord
  2
*D2
340
0
  0
BLOCK_RECORD
  5
CC
330
1
100
AcDbSymbolTableRecord
100
AcDbBlockTableRecord
  2
*D3
340
0
  0
BLOCK_RECORD
  5
D7
330
1
100
AcDbSymbolTableRecord
100
AcDbBlockTableRecord
  2
*D4
340
0
  0
BLOCK_RECORD
  5
E2
330
1
100
AcDbSymbolTableRecord
100
AcDbBlockTableRecord
  2
*D5
340
0
  0
BLOCK_RECORD
  5
ED
330
1
100
AcDbSymbolTableRecord
100
AcDbBlockTableRecord
  2
*D6
340
0
  0
BLOCK_RECORD
  5
F8
330
1
100
AcDbSymbolTableRecord
100
AcDbBlockTableRecord
  2
*D7
340
0
  0
ENDTAB
  0
ENDSEC
  0
SECTION
  2
BLOCKS
  0
BLOCK
  5
20
330
1F
100
AcDbEntity
  8
0
100
AcDbBlockBegin
  2
*Model_Space
 70
     0
 71
     0
 10
0.0
 20
0.0
 30
0.0
  3
*Model_Space
  1

  0
ENDBLK
  5
21
330
1F
100
AcDbEntity
  8
0
100
AcDbBlockEnd
  0
BLOCK
  5
1C
330
1B
100
AcDbEntity
 67
     1
  8
0
100
AcDbBlockBegin
  2
*Paper_Space
 70
     0
 71
     0
 10
0.0
 20
0.0
 30
0.0
  3
*Paper_Space
  1

  0
ENDBLK
  5
1D
330
1B
100
AcDbEntity
 67
     1
  8
0
100
AcDbBlockEnd
  0
BLOCK
  5
24
330
23
100
AcDbEntity
  8
0
100
AcDbBlockBegin
  2
*Paper_Space0
 70
     0
 71
     0
 10
0.0
 20
0.0
 30
0.0
  3
*Paper_Space0
  1

  0
ENDBLK
  5
25
330
23
100
AcDbEntity
  8
0
100
AcDbBlockEnd
  0
BLOCK
  5
33
330
32
100
AcDbEntity
  8
0
100
AcDbBlockBegin
  2
_D8
 70
     0
 71
     0
 10
0.0
 20
0.0
 30
0.0
  3
_D8
  1

  0
LINE
  5
36
330
32
100
AcDbEntity
  8
1
  6
Continuous
 62
     2
100
AcDbLine
 10
741.555269451801
 20
394.409710251366
 30
0.0
 11
745.619993024098
 21
401.573505143852
 31
0.0
  0
LINE
  5
37
330
32
100
AcDbEntity
  8
1
  6
Continuous
 62
     2
100
AcDbLine
 10
745.619993024098
 20
401.573505143852
 30
0.0
 11
758.799993024098
 21
401.573505143852
 31
0.0
  0
LINE
  5
38
102
{ACAD_REACTORS
330
3D
330
3D
102
}
330
32
100
AcDbEntity
  8
1
  6
Continuous
 62
     2
100
AcDbLine
 10
743.075266156788
 20
396.42165890692
 30
0.0
 11
742.502742895196
 21
396.746507514677
 31
0.0
  0
LINE
  5
39
102
{ACAD_REACTORS
330
3D
330
3D
102
}
330
32
100
AcDbEntity
  8
1
  6
Continuous
 62
     2
100
AcDbLine
 10
742.502742895196
 20
396.746507514677
 30
0.0
 11
741.555269451801
 21
394.409710251366
 31
0.0
  0
LINE
  5
3A
102
{ACAD_REACTORS
330
3D
330
3D
102
}
330
32
100
AcDbEntity
  8
1
  6
Continuous
 62
     2
100
AcDbLine
 10
741.555269451801
 20
394.409710251366
 30
0.0
 11
743.075266156788
 21
396.42165890692
 31
0.0
  0
MTEXT
  5
3C
330
32
100
AcDbEntity
  8
1
 62
     2
100
AcDbMText
 10
750.279993024112
 20
402.573493217436
 30
0.0
 40
3.0
 41
0.0
 71
     7
 72
     1
  1
SR55
  7
CONVERTER_11
 11
0.999999999997062
 21
2.424068405545310E-6
 31
0.0
 73
     1
 44
1.0
  0
HATCH
  5
3D
330
32
100
AcDbEntity
  8
1
  6
Continuous
 62
     2
100
AcDbHatch
 10
0.0
 20
0.0
 30
0.0
210
0.0
220
0.0
230
1.0
  2
SOLID
 70
     1
 71
     1
 91
        1
 92
        1
 93
        3
 72
     1
 10
743.075266156788
 20
396.42165890692
 11
742.502742895196
 21
396.746507514677
 72
     1
 10
742.502742895196
 20
396.746507514677
 11
741.555269451801
 21
394.409710251366
 72
     1
 10
741.555269451801
 20
394.409710251366
 11
743.075266156788
 21
396.42165890692
 97
        3
330
38
330
39
330
3A
 75
     0
 76
     1
 98
        1
 10
0.0
 20
0.0
  0
ENDBLK
  5
34
330
32
100
AcDbEntity
  8
0
100
AcDbBlockEnd
  0
BLOCK
  5
C8
330
C1
100
AcDbEntity
  8
0
100
AcDbBlockBegin
  2
*D2
 70
     1
 71
     0
 10
0.0
 20
0.0
 30
0.0
  3
*D2
  1

  0
LINE
  5
C2
330
C1
100
AcDbEntity
  8
1
  6
Continuous
 62
     2
100
AcDbLine
 10
654.4130978196
 20
417.573505143852
 30
0.0
 11
774.4130978196
 21
417.573505143852
 31
0.0
  0
LINE
  5
C3
330
C1
100
AcDbEntity
  8
1
  6
Continuous
 62
     2
100
AcDbLine
 10
774.4130978196
 20
341.573505143852
 30
0.0
 11
774.4130978196
 21
418.373505143852
 31
0.0
  0
LINE
  5
C4
330
C1
100
AcDbEntity
  8
1
  6
Continuous
 62
     2
100
AcDbLine
 10
654.4130978196
 20
341.573505143852
 30
0.0
 11
654.4130978196
 21
418.373505143852
 31
0.0
  0
SOLID
  5
C5
330
C1
100
AcDbEntity
  8
1
 62
     2
100
AcDbTrace
 10
771.9130978196
 20
417.2443738998835
 30
0.0
 11
771.9130978196
 21
417.9026363878205
 31
0.0
 12
774.4130978196
 22
417.573505143852
 32
0.0
 13
774.4130978196
 23
417.573505143852
 33
0.0
  0
SOLID
  5
C6
330
C1
100
AcDbEntity
  8
1
 62
     2
100
AcDbTrace
 10
656.9130978196
 20
417.9026363878205
 30
0.0
 11
656.9130978196
 21
417.2443738998835
 31
0.0
 12
654.4130978196
 22
417.573505143852
 32
0.0
 13
654.4130978196
 23
417.573505143852
 33
0.0
  0
MTEXT
  5
C7
330
C1
100
AcDbEntity
  8
1
 62
     2
100
AcDbMText
 10
709.4931014557604
 20
418.5734812910233
 30
0.0
 40
3.0
 41
0.0
 71
     7
 72
     1
  1
\C2;{\Fgdt;n}\C2;120
  7
CONVERTER_11
 11
0.999999999988248
 21
4.848136811095759E-6
 31
0.0
 73
     1
 44
0.60024009603842
  0
ENDBLK
  5
C9
330
C1
100
AcDbEntity
  8
0
100
AcDbBlockEnd
  0
BLOCK
  5
D3
330
CC
100
AcDbEntity
  8
0
100
AcDbBlockBegin
  2
*D3
 70
     1
 71
     0
 10
0.0
 20
0.0
 30
0.0
  3
*D3
  1

  0
LINE
  5
CD
330
CC
100
AcDbEntity
  8
1
  6
Continuous
 62
     2
100
AcDbLine
 10
644.4130978196
 20
335.5735051438521
 30
0.0
 11
644.4130978196
 21
347.040456590772
 31
0.0
  0
LINE
  5
CE
330
CC
100
AcDbEntity
  8
1
  6
Continuous
 62
     2
100
AcDbLine
 10
654.4137949926001
 20
341.5735051438521
 30
0.0
 11
643.6130978196001
 21
341.5735051438521
 31
0.0
  0
LINE
  5
CF
330
CC
100
AcDbEntity
  8
1
  6
Continuous
 62
     2
100
AcDbLine
 10
653.9132913037
 20
340.5735051438521
 30
0.0
 11
643.6130978196001
 21
340.5735051438521
 31
0.0
  0
SOLID
  5
D0
330
CC
100
AcDbEntity
  8
1
 62
     2
100
AcDbTrace
 10
644.0839665756315
 20
344.0735051438521
 30
0.0
 11
644.7422290635685
 21
344.0735051438521
 31
0.0
 12
644.4130978196
 22
341.5735051438521
 32
0.0
 13
644.4130978196
 23
341.5735051438521
 33
0.0
  0
SOLID
  5
D1
330
CC
100
AcDbEntity
  8
1
 62
     2
100
AcDbTrace
 10
644.7422290635685
 20
338.0735051438521
 30
0.0
 11
644.0839665756315
 21
338.0735051438521
 31
0.0
 12
644.4130978196
 22
340.5735051438521
 32
0.0
 13
644.4130978196
 23
340.5735051438521
 33
0.0
  0
MTEXT
  5
D2
330
CC
100
AcDbEntity
  8
1
 62
     2
100
AcDbMText
 10
643.4130978196
 20
345.269256590772
 30
0.0
 40
3.0
 41
0.0
 71
     7
 72
     1
  1
1
  7
CONVERTER_11
 11
0.0
 21
1.0
 31
0.0
 73
     1
 44
0.60024009603842
  0
ENDBLK
  5
D4
330
CC
100
AcDbEntity
  8
0
100
AcDbBlockEnd
  0
BLOCK
  5
DE
330
D7
100
AcDbEntity
  8
0
100
AcDbBlockBegin
  2
*D4
 70
     1
 71
     0
 10
0.0
 20
0.0
 30
0.0
  3
*D4
  1

  0
LINE
  5
D8
330
D7
100
AcDbEntity
  8
1
  6
Continuous
 62
     2
100
AcDbLine
 10
638.4130978196
 20
340.573505143852
 30
0.0
 11
638.4130978196
 21
327.573505143852
 31
0.0
  0
LINE
  5
D9
330
D7
100
AcDbEntity
  8
1
  6
Continuous
 62
     2
100
AcDbLine
 10
656.9137656996
 20
327.573505143852
 30
0.0
 11
637.6130978196001
 21
327.573505143852
 31
0.0
  0
LINE
  5
DA
330
D7
100
AcDbEntity
  8
1
  6
Continuous
 62
     2
100
AcDbLine
 10
653.9130978196
 20
340.573505143852
 30
0.0
 11
637.6130978196001
 21
340.573505143852
 31
0.0
  0
SOLID
  5
DB
330
D7
100
AcDbEntity
  8
1
 62
     2
100
AcDbTrace
 10
638.0839665756315
 20
330.073505143852
 30
0.0
 11
638.7422290635685
 21
330.073505143852
 31
0.0
 12
638.4130978196
 22
327.573505143852
 32
0.0
 13
638.4130978196
 23
327.573505143852
 33
0.0
  0
SOLID
  5
DC
330
D7
100
AcDbEntity
  8
1
 62
     2
100
AcDbTrace
 10
638.7422290635685
 20
338.073505143852
 30
0.0
 11
638.0839665756315
 21
338.073505143852
 31
0.0
 12
638.4130978196
 22
340.573505143852
 32
0.0
 13
638.4130978196
 23
340.573505143852
 33
0.0
  0
MTEXT
  5
DD
330
D7
100
AcDbEntity
  8
1
 62
     2
100
AcDbMText
 10
637.4130978196
 20
332.302305143852
 30
0.0
 40
3.0
 41
0.0
 71
     7
 72
     1
  1
13
  7
CONVERTER_11
 11
0.0
 21
1.0
 31
0.0
 73
     1
 44
0.60024009603842
  0
ENDBLK
  5
DF
330
D7
100
AcDbEntity
  8
0
100
AcDbBlockEnd
  0
BLOCK
  5
E9
330
E2
100
AcDbEntity
  8
0
100
AcDbBlockBegin
  2
*D5
 70
     1
 71
     0
 10
0.0
 20
0.0
 30
0.0
  3
*D5
  1

  0
LINE
  5
E3
330
E2
100
AcDbEntity
  8
1
  6
Continuous
 62
     2
100
AcDbLine
 10
638.4130978196
 20
401.573505143852
 30
0.0
 11
638.4130978196
 21
340.573505143852
 31
0.0
  0
LINE
  5
E4
330
E2
100
AcDbEntity
  8
1
  6
Continuous
 62
     2
100
AcDbLine
 10
653.9130978196
 20
340.573505143852
 30
0.0
 11
637.6130978196001
 21
340.573505143852
 31
0.0
  0
LINE
  5
E5
330
E2
100
AcDbEntity
  8
1
  6
Continuous
 62
     2
100
AcDbLine
 10
713.9130978196
 20
401.573505143852
 30
0.0
 11
637.6130978196001
 21
401.573505143852
 31
0.0
  0
SOLID
  5
E6
330
E2
100
AcDbEntity
  8
1
 62
     2
100
AcDbTrace
 10
638.0839665756315
 20
343.073505143852
 30
0.0
 11
638.7422290635685
 21
343.073505143852
 31
0.0
 12
638.4130978196
 22
340.573505143852
 32
0.0
 13
638.4130978196
 23
340.573505143852
 33
0.0
  0
SOLID
  5
E7
330
E2
100
AcDbEntity
  8
1
 62
     2
100
AcDbTrace
 10
638.7422290635685
 20
399.073505143852
 30
0.0
 11
638.0839665756315
 21
399.073505143852
 31
0.0
 12
638.4130978196
 22
401.573505143852
 32
0.0
 13
638.4130978196
 23
401.573505143852
 33
0.0
  0
MTEXT
  5
E8
330
E2
100
AcDbEntity
  8
1
 62
     2
100
AcDbMText
 10
637.4130978196
 20
369.302305143852
 30
0.0
 40
3.0
 41
0.0
 71
     7
 72
     1
  1
61
  7
CONVERTER_11
 11
0.0
 21
1.0
 31
0.0
 73
     1
 44
0.60024009603842
  0
ENDBLK
  5
EA
330
E2
100
AcDbEntity
  8
0
100
AcDbBlockEnd
  0
BLOCK
  5
F4
330
ED
100
AcDbEntity
  8
0
100
AcDbBlockBegin
  2
*D6
 70
     1
 71
     0
 10
0.0
 20
0.0
 30
0.0
  3
*D6
  1

  0
LINE
  5
EE
330
ED
100
AcDbEntity
  8
1
  6
Continuous
 62
     2
100
AcDbLine
 10
632.4130978196
 20
327.573505143852
 30
0.0
 11
632.4130978196
 21
401.573505143852
 31
0.0
  0
LINE
  5
EF
330
ED
100
AcDbEntity
  8
1
  6
Continuous
 62
     2
100
AcDbLine
 10
713.9130978196
 20
401.573505143852
 30
0.0
 11
631.6130978196001
 21
401.573505143852
 31
0.0
  0
LINE
  5
F0
330
ED
100
AcDbEntity
  8
1
  6
Continuous
 62
     2
100
AcDbLine
 10
656.9137656996
 20
327.573505143852
 30
0.0
 11
631.6130978196001
 21
327.573505143852
 31
0.0
  0
SOLID
  5
F1
330
ED
100
AcDbEntity
  8
1
 62
     2
100
AcDbTrace
 10
632.7422290635685
 20
399.073505143852
 30
0.0
 11
632.0839665756315
 21
399.073505143852
 31
0.0
 12
632.4130978196
 22
401.573505143852
 32
0.0
 13
632.4130978196
 23
401.573505143852
 33
0.0
  0
SOLID
  5
F2
330
ED
100
AcDbEntity
  8
1
 62
     2
100
AcDbTrace
 10
632.0839665756315
 20
330.073505143852
 30
0.0
 11
632.7422290635685
 21
330.073505143852
 31
0.0
 12
632.4130978196
 22
327.573505143852
 32
0.0
 13
632.4130978196
 23
327.573505143852
 33
0.0
  0
MTEXT
  5
F3
330
ED
100
AcDbEntity
  8
1
 62
     2
100
AcDbMText
 10
631.4130978196
 20
360.342305143852
 30
0.0
 40
3.0
 41
0.0
 71
     7
 72
     1
  1
\C2;(\C2;74\C2;)
  7
CONVERTER_11
 11
0.0
 21
1.0
 31
0.0
 73
     1
 44
0.60024009603842
  0
ENDBLK
  5
F5
330
ED
100
AcDbEntity
  8
0
100
AcDbBlockEnd
  0
BLOCK
  5
FF
330
F8
100
AcDbEntity
  8
0
100
AcDbBlockBegin
  2
*D7
 70
     1
 71
     0
 10
0.0
 20
0.0
 30
0.0
  3
*D7
  1

  0
LINE
  5
F9
330
F8
100
AcDbEntity
  8
1
  6
Continuous
 62
     2
100
AcDbLine
 10
659.4130978196
 20
411.573505143852
 30
0.0
 11
769.4130978196
 21
411.573505143852
 31
0.0
  0
LINE
  5
FA
330
F8
100
AcDbEntity
  8
1
  6
Continuous
 62
     2
100
AcDbLine
 10
769.4130978196
 20
347.073505143852
 30
0.0
 11
769.4130978196
 21
412.373505143852
 31
0.0
  0
LINE
  5
FB
330
F8
100
AcDbEntity
  8
1
  6
Continuous
 62
     2
100
AcDbLine
 10
659.4130978196
 20
347.073505143852
 30
0.0
 11
659.4130978196
 21
412.373505143852
 31
0.0
  0
SOLID
  5
FC
330
F8
100
AcDbEntity
  8
1
 62
     2
100
AcDbTrace
 10
766.9130978196
 20
411.2443738998835
 30
0.0
 11
766.9130978196
 21
411.9026363878205
 31
0.0
 12
769.4130978196
 22
411.573505143852
 32
0.0
 13
769.4130978196
 23
411.573505143852
 33
0.0
  0
SOLID
  5
FD
330
F8
100
AcDbEntity
  8
1
 62
     2
100
AcDbTrace
 10
661.9130978196
 20
411.9026363878205
 30
0.0
 11
661.9130978196
 21
411.2443738998835
 31
0.0
 12
659.4130978196
 22
411.573505143852
 32
0.0
 13
659.4130978196
 23
411.573505143852
 33
0.0
  0
MTEXT
  5
FE
330
F8
100
AcDbEntity
  8
1
 62
     2
100
AcDbMText
 10
709.4931014557604
 20
412.5734812910233
 30
0.0
 40
3.0
 41
0.0
 71
     7
 72
     1
  1
\C2;{\Fgdt;n}\C2;110
  7
CONVERTER_11
 11
0.999999999988248
 21
4.848136811095759E-6
 31
0.0
 73
     1
 44
0.60024009603842
  0
ENDBLK
  5
100
330
F8
100
AcDbEntity
  8
0
100
AcDbBlockEnd
  0
ENDSEC
  0
SECTION
  2
ENTITIES
  0
INSERT
  5
35
330
1F
100
AcDbEntity
  8
1
100
AcDbBlockReference
  2
_D8
 10
0.0
 20
0.0
 30
0.0
  0
POINT
  5
3E
330
1F
100
AcDbEntity
  8
1
 62
     7
100
AcDbPoint
 10
774.4130978196
 20
341.073505143852
 30
0.0
  0
POINT
  5
3F
330
1F
100
AcDbEntity
  8
1
 62
     7
100
AcDbPoint
 10
654.4130978196
 20
341.073505143852
 30
0.0
  0
POINT
  5
40
330
1F
100
AcDbEntity
  8
1
 62
     7
100
AcDbPoint
 10
654.9137949926
 20
341.573505143852
 30
0.0
  0
POINT
  5
41
330
1F
100
AcDbEntity
  8
1
 62
     7
100
AcDbPoint
 10
654.4132913037
 20
340.573505143852
 30
0.0
  0
POINT
  5
42
330
1F
100
AcDbEntity
  8
1
 62
     7
100
AcDbPoint
 10
657.4137656996
 20
327.573505143852
 30
0.0
  0
POINT
  5
43
330
1F
100
AcDbEntity
  8
1
 62
     7
100
AcDbPoint
 10
654.4130978196
 20
340.573505143852
 30
0.0
  0
POINT
  5
44
330
1F
100
AcDbEntity
  8
1
 62
     7
100
AcDbPoint
 10
654.4130978196
 20
340.573505143852
 30
0.0
  0
POINT
  5
45
330
1F
100
AcDbEntity
  8
1
 62
     7
100
AcDbPoint
 10
714.4130978196
 20
401.573505143852
 30
0.0
  0
POINT
  5
46
330
1F
100
AcDbEntity
  8
1
 62
     7
100
AcDbPoint
 10
714.4130978196
 20
401.573505143852
 30
0.0
  0
POINT
  5
47
330
1F
100
AcDbEntity
  8
1
 62
     7
100
AcDbPoint
 10
657.4137656996
 20
327.573505143852
 30
0.0
  0
POINT
  5
48
330
1F
100
AcDbEntity
  8
1
 62
     7
100
AcDbPoint
 10
769.4130978196
 20
346.573505143852
 30
0.0
  0
POINT
  5
49
330
1F
100
AcDbEntity
  8
1
 62
     7
100
AcDbPoint
 10
659.4130978196
 20
346.573505143852
 30
0.0
  0
LINE
  5
4A
102
{ACAD_REACTORS
330
11A
330
11A
102
}
330
1F
100
AcDbEntity
  8
0
  6
Continuous
 62
     7
100
AcDbLine
 10
659.4130978196
 20
341.573505143852
 30
0.0
 11
769.4130978196
 21
341.573505143852
 31
0.0
  0
LINE
  5
4B
330
1F
100
AcDbEntity
  8
0
  6
Continuous
 62
     7
100
AcDbLine
 10
769.4130978196
 20
341.573505143852
 30
0.0
 11
773.9124006466
 21
341.573505143852
 31
0.0
  0
LINE
  5
4C
102
{ACAD_REACTORS
330
119
330
119
102
}
330
1F
100
AcDbEntity
  8
1
  6
Continuous
 62
     7
100
AcDbLine
 10
657.4130978196
 20
243.505657504688
 30
0.0
 11
657.4130978196
 21
258.638403455113
 31
0.0
  0
LINE
  5
4D
330
1F
100
AcDbEntity
  8
1
  6
PHANTOM
 62
     4
100
AcDbLine
 10
714.4130978196
 20
323.531947957334
 30
0.0
 11
714.4130978196
 21
404.531947957334
 31
0.0
  0
LINE
  5
4E
330
1F
100
AcDbEntity
  8
1
  6
PHANTOM
 62
     4
100
AcDbLine
 10
714.4130978196
 20
186.0720304799
 30
0.0
 11
714.4130978196
 21
316.0720304799
 31
0.0
  0
LINE
  5
4F
330
1F
100
AcDbEntity
  8
1
  6
PHANTOM
 62
     4
100
AcDbLine
 10
647.8130978196
 20
251.0720304799
 30
0.0
 11
779.65655863993
 21
251.0720304799
 31
0.0
  0
LINE
  5
50
330
1F
100
AcDbEntity
  8
1
  6
Continuous
 62
     7
100
AcDbLine
 10
765.135207455678
 20
223.988500538888
 30
0.0
 11
765.075660392182
 21
221.622671342914
 31
0.0
  0
LINE
  5
51
330
1F
100
AcDbEntity
  8
1
  6
Continuous
 62
     7
100
AcDbLine
 10
741.496627760612
 20
200.349920843822
 30
0.0
 11
743.862456956586
 21
200.409467907318
 31
0.0
  0
LINE
  5
52
330
1F
100
AcDbEntity
  8
1
  6
Continuous
 62
     7
100
AcDbLine
 10
741.496627760612
 20
301.794140115978
 30
0.0
 11
743.862456956586
 21
301.734593052483
 31
0.0
  0
LINE
  5
53
330
1F
100
AcDbEntity
  8
1
  6
Continuous
 62
     7
100
AcDbLine
 10
765.135207455678
 20
278.155560420912
 30
0.0
 11
765.075660392182
 21
280.521389616886
 31
0.0
  0
LINE
  5
54
330
1F
100
AcDbEntity
  8
1
  6
Continuous
 62
     7
100
AcDbLine
 10
687.329567878588
 20
301.794140115978
 30
0.0
 11
684.963738682614
 21
301.734593052483
 31
0.0
  0
LINE
  5
55
330
1F
100
AcDbEntity
  8
1
  6
Continuous
 62
     7
100
AcDbLine
 10
663.690988183522
 20
278.155560420912
 30
0.0
 11
663.750535247017
 21
280.521389616886
 31
0.0
  0
LINE
  5
56
330
1F
100
AcDbEntity
  8
1
  6
Continuous
 62
     7
100
AcDbLine
 10
663.690988183522
 20
223.988500538888
 30
0.0
 11
663.750535247018
 21
221.622671342914
 31
0.0
  0
LINE
  5
57
330
1F
100
AcDbEntity
  8
1
  6
Continuous
 62
     7
100
AcDbLine
 10
687.329567878588
 20
200.349920843822
 30
0.0
 11
684.963738682614
 21
200.409467907318
 31
0.0
  0
LINE
  5
58
102
{ACAD_REACTORS
330
11B
330
11B
102
}
330
1F
100
AcDbEntity
  8
1
  6
Continuous
 62
     2
100
AcDbLine
 10
656.9130978196
 20
329.573505143852
 30
0.0
 11
771.9130978196
 21
329.573505143852
 31
0.0
  0
LINE
  5
59
330
1F
100
AcDbEntity
  8
1
  6
Continuous
 62
     7
100
AcDbLine
 10
657.4137656996
 20
327.573505143852
 30
0.0
 11
656.9130978196
 21
329.573505143852
 31
0.0
  0
LINE
  5
5A
330
1F
100
AcDbEntity
  8
1
  6
Continuous
 62
     7
100
AcDbLine
 10
771.4130978196
 20
327.573505143852
 30
0.0
 11
771.9130978196
 21
329.573505143852
 31
0.0
  0
LINE
  5
5B
330
1F
100
AcDbEntity
  8
0
  6
Continuous
 62
     7
100
AcDbLine
 10
774.4130978196
 20
341.073505143852
 30
0.0
 11
774.4130978196
 21
340.573505143852
 31
0.0
  0
LINE
  5
5C
102
{ACAD_REACTORS
330
11B
330
11B
102
}
330
1F
100
AcDbEntity
  8
0
  6
Continuous
 62
     7
100
AcDbLine
 10
771.9130978196
 20
337.973505143852
 30
0.0
 11
771.9130978196
 21
329.573505143852
 31
0.0
  0
LINE
  5
5D
330
1F
100
AcDbEntity
  8
0
  6
PHANTOM
 62
     4
100
AcDbLine
 10
771.1130978196
 20
337.973505143852
 30
0.0
 11
771.1130978196
 21
340.573505143852
 31
0.0
  0
LINE
  5
5E
102
{ACAD_REACTORS
330
11A
330
11A
102
}
330
1F
100
AcDbEntity
  8
0
  6
Continuous
 62
     7
100
AcDbLine
 10
769.4130978196
 20
346.573505143852
 30
0.0
 11
769.4130978196
 21
341.573505143852
 31
0.0
  0
LINE
  5
5F
330
1F
100
AcDbEntity
  8
0
  6
Continuous
 62
     7
100
AcDbLine
 10
773.9130978196
 20
341.573505143852
 30
0.0
 11
774.4130978196
 21
341.073505143852
 31
0.0
  0
LINE
  5
60
330
1F
100
AcDbEntity
  8
0
  6
Continuous
 62
     7
100
AcDbLine
 10
654.9137949926
 20
341.573505143852
 30
0.0
 11
659.4130978196
 21
341.573505143852
 31
0.0
  0
LINE
  5
61
330
1F
100
AcDbEntity
  8
0
  6
Continuous
 62
     2
100
AcDbLine
 10
654.4130978196
 20
341.073505143852
 30
0.0
 11
774.4130978196
 21
341.073505143852
 31
0.0
  0
LINE
  5
62
330
1F
100
AcDbEntity
  8
0
  6
Continuous
 62
     7
100
AcDbLine
 10
654.4132913037
 20
340.573505143852
 30
0.0
 11
774.4129043355
 21
340.573505143852
 31
0.0
  0
LINE
  5
63
330
1F
100
AcDbEntity
  8
0
  6
Continuous
 62
     7
100
AcDbLine
 10
772.177542692053
 20
337.973505143852
 30
0.0
 11
771.9130978196
 21
337.973505143852
 31
0.0
  0
LINE
  5
64
330
1F
100
AcDbEntity
  8
0
  6
Continuous
 62
     2
100
AcDbLine
 10
687.329567878588
 20
336.621257952752
 30
0.0
 11
663.743706224543
 21
336.540359076352
 31
0.0
  0
LINE
  5
65
330
1F
100
AcDbEntity
  8
0
  6
Continuous
 62
     2
100
AcDbLine
 10
687.329567878588
 20
337.253841145952
 30
0.0
 11
663.743706224543
 21
337.172027342152
 31
0.0
  0
LINE
  5
66
330
1F
100
AcDbEntity
  8
0
  6
Continuous
 62
     7
100
AcDbLine
 10
654.9130978196
 20
341.573505143852
 30
0.0
 11
654.4130978196
 21
341.073505143852
 31
0.0
  0
LINE
  5
67
330
1F
100
AcDbEntity
  8
0
  6
Continuous
 62
     2
100
AcDbLine
 10
752.022763324
 20
335.419919213352
 30
0.0
 11
741.496627760612
 21
335.338116245852
 31
0.0
  0
LINE
  5
68
330
1F
100
AcDbEntity
  8
0
  6
Continuous
 62
     2
100
AcDbLine
 10
765.075660392182
 20
331.861115368352
 30
0.0
 11
741.496627760612
 21
331.778850677052
 31
0.0
  0
LINE
  5
69
330
1F
100
AcDbEntity
  8
0
  6
Continuous
 62
     2
100
AcDbLine
 10
687.329567878588
 20
334.841482671852
 30
0.0
 11
663.743706224543
 21
334.760583795452
 31
0.0
  0
LINE
  5
6A
330
1F
100
AcDbEntity
  8
0
  6
Continuous
 62
     2
100
AcDbLine
 10
765.075660391982
 20
334.843505143852
 30
0.0
 11
741.496627760412
 21
334.762606267452
 31
0.0
  0
LINE
  5
6B
330
1F
100
AcDbEntity
  8
0
  6
Continuous
 62
     2
100
AcDbLine
 10
687.329567878588
 20
334.541482671852
 30
0.0
 11
663.743706224543
 21
334.460583795452
 31
0.0
  0
LINE
  5
6C
330
1F
100
AcDbEntity
  8
0
  6
Continuous
 62
     2
100
AcDbLine
 10
765.075660391982
 20
334.543505143852
 30
0.0
 11
741.496627760412
 21
334.462606267452
 31
0.0
  0
LINE
  5
6D
330
1F
100
AcDbEntity
  8
0
  6
Continuous
 62
     2
100
AcDbLine
 10
687.329567878588
 20
336.321257952752
 30
0.0
 11
663.743706224543
 21
336.240359076352
 31
0.0
  0
LINE
  5
6E
330
1F
100
AcDbEntity
  8
0
  6
Continuous
 62
     2
100
AcDbLine
 10
687.329567878588
 20
333.021257952752
 30
0.0
 11
663.743706224543
 21
332.940359076352
 31
0.0
  0
LINE
  5
6F
330
1F
100
AcDbEntity
  8
0
  6
Continuous
 62
     2
100
AcDbLine
 10
765.075660392182
 20
333.063729862952
 30
0.0
 11
741.496627760612
 21
332.982830986552
 31
0.0
  0
LINE
  5
70
330
1F
100
AcDbEntity
  8
0
  6
Continuous
 62
     2
100
AcDbLine
 10
687.329567878588
 20
332.721257952752
 30
0.0
 11
663.743706224543
 21
332.640359076352
 31
0.0
  0
LINE
  5
71
330
1F
100
AcDbEntity
  8
0
  6
Continuous
 62
     2
100
AcDbLine
 10
765.075660392182
 20
332.763729862952
 30
0.0
 11
741.496627760612
 21
332.682830986552
 31
0.0
  0
LINE
  5
72
330
1F
100
AcDbEntity
  8
0
  6
Continuous
 62
     2
100
AcDbLine
 10
663.743706224543
 20
335.601856749952
 30
0.0
 11
687.329567878588
 21
335.683670553752
 31
0.0
  0
LINE
  5
73
330
1F
100
AcDbEntity
  8
0
  6
Continuous
 62
     2
100
AcDbLine
 10
687.329567878588
 20
335.454329485152
 30
0.0
 11
663.743706224543
 21
335.372206663652
 31
0.0
  0
LINE
  5
74
330
1F
100
AcDbEntity
  8
0
  6
Continuous
 62
     2
100
AcDbLine
 10
765.075660392182
 20
335.502021570952
 30
0.0
 11
752.022763324
 21
335.419919213352
 31
0.0
  0
LINE
  5
75
330
1F
100
AcDbEntity
  8
0
  6
Continuous
 62
     2
100
AcDbLine
 10
663.763174052143
 20
333.802036071352
 30
0.0
 11
687.329567878588
 21
333.884158892952
 31
0.0
  0
LINE
  5
76
330
1F
100
AcDbEntity
  8
0
  6
Continuous
 62
     2
100
AcDbLine
 10
741.496627760612
 20
333.849748621152
 30
0.0
 11
765.051370208082
 21
333.931850978652
 31
0.0
  0
LINE
  5
77
330
1F
100
AcDbEntity
  8
0
  6
Continuous
 62
     2
100
AcDbLine
 10
687.329567878588
 20
333.653841145952
 30
0.0
 11
663.743706224543
 21
333.572027342152
 31
0.0
  0
LINE
  5
78
330
1F
100
AcDbEntity
  8
0
  6
Continuous
 62
     2
100
AcDbLine
 10
765.075660392182
 20
333.702245347952
 30
0.0
 11
741.572790386912
 21
333.620421101252
 31
0.0
  0
LINE
  5
79
330
1F
100
AcDbEntity
  8
0
  6
Continuous
 62
     2
100
AcDbLine
 10
663.743706224543
 20
332.001856749952
 30
0.0
 11
687.329567878588
 21
332.083670553752
 31
0.0
  0
LINE
  5
7A
330
1F
100
AcDbEntity
  8
0
  6
Continuous
 62
     2
100
AcDbLine
 10
741.496627760612
 20
332.050250509052
 30
0.0
 11
765.075660392182
 21
332.132074755752
 31
0.0
  0
LINE
  5
7B
330
1F
100
AcDbEntity
  8
0
  6
Continuous
 62
     7
100
AcDbLine
 10
657.4137656996
 20
327.573505143852
 30
0.0
 11
771.4124299395
 21
327.573505143852
 31
0.0
  0
LINE
  5
7C
330
1F
100
AcDbEntity
  8
0
  6
Continuous
 62
     2
100
AcDbLine
 10
765.075660392182
 20
331.243505143852
 30
0.0
 11
741.496627760612
 21
331.162606267452
 31
0.0
  0
LINE
  5
7D
330
1F
100
AcDbEntity
  8
0
  6
Continuous
 62
     2
100
AcDbLine
 10
765.075660392182
 20
330.943505143852
 30
0.0
 11
741.496627760612
 21
330.862606267452
 31
0.0
  0
LINE
  5
7E
330
1F
100
AcDbEntity
  8
0
  6
Continuous
 62
     2
100
AcDbLine
 10
741.496627760612
 20
330.249748621152
 30
0.0
 11
765.075660392182
 21
330.331850978652
 31
0.0
  0
LINE
  5
7F
102
{ACAD_REACTORS
330
11A
330
11A
102
}
330
1F
100
AcDbEntity
  8
0
  6
Continuous
 62
     7
100
AcDbLine
 10
659.4130978196
 20
346.573505143852
 30
0.0
 11
659.4130978196
 21
341.573505143852
 31
0.0
  0
LINE
  5
80
102
{ACAD_REACTORS
330
11B
330
11B
102
}
330
1F
100
AcDbEntity
  8
0
  6
Continuous
 62
     7
100
AcDbLine
 10
656.9130978196
 20
331.837183826248
 30
0.0
 11
656.9130978196
 21
329.573505143852
 31
0.0
  0
LINE
  5
81
102
{ACAD_REACTORS
330
11B
330
11B
102
}
330
1F
100
AcDbEntity
  8
0
  6
Continuous
 62
     7
100
AcDbLine
 10
656.9130978196
 20
337.973505143852
 30
0.0
 11
656.9130978196
 21
331.837183826248
 31
0.0
  0
LINE
  5
82
330
1F
100
AcDbEntity
  8
0
  6
Continuous
 62
     7
100
AcDbLine
 10
654.4130978196
 20
341.073505143852
 30
0.0
 11
654.4130978196
 21
340.573505143852
 31
0.0
  0
LINE
  5
83
330
1F
100
AcDbEntity
  8
1
  6
Continuous
 62
     2
100
AcDbLine
 10
743.862456956586
 20
330.201286672414
 30
0.0
 11
743.862456956586
 21
335.371457264673
 31
0.0
  0
LINE
  5
84
330
1F
100
AcDbEntity
  8
1
  6
Continuous
 62
     2
100
AcDbLine
 10
765.075660392182
 20
330.355686135423
 30
0.0
 11
765.075660392182
 21
335.525856727665
 31
0.0
  0
LINE
  5
85
330
1F
100
AcDbEntity
  8
1
  6
Continuous
 62
     2
100
AcDbLine
 10
741.496627760612
 20
330.187236624773
 30
0.0
 11
741.496627760612
 21
335.35740721705
 31
0.0
  0
LINE
  5
86
330
1F
100
AcDbEntity
  8
1
  6
Continuous
 62
     2
100
AcDbLine
 10
663.743706224543
 20
331.978165557642
 30
0.0
 11
663.743706224543
 21
337.151682587052
 31
0.0
  0
LINE
  5
87
330
1F
100
AcDbEntity
  8
1
  6
Continuous
 62
     2
100
AcDbLine
 10
684.963738682614
 20
332.132657991474
 30
0.0
 11
684.963738682614
 21
337.302828583674
 31
0.0
  0
LINE
  5
88
330
1F
100
AcDbEntity
  8
1
  6
Continuous
 62
     2
100
AcDbLine
 10
687.329567878588
 20
337.253841145952
 30
0.0
 11
687.329567878588
 21
332.146729762215
 31
0.0
  0
LINE
  5
89
330
1F
100
AcDbEntity
  8
1
  6
PHANTOM
 62
     4
100
AcDbLine
 10
771.215222164068
 20
339.173505143852
 30
0.0
 11
771.1130978196
 21
339.173505143852
 31
0.0
  0
LINE
  5
8A
330
1F
100
AcDbEntity
  8
1
  6
PHANTOM
 62
     4
100
AcDbLine
 10
771.1130978196
 20
339.323505143852
 30
0.0
 11
771.215222164068
 21
339.323505143852
 31
0.0
  0
LINE
  5
8B
330
1F
100
AcDbEntity
  8
1
  6
PHANTOM
 62
     4
100
AcDbLine
 10
771.1130978196
 20
339.173505143852
 30
0.0
 11
771.1130978196
 21
339.323505143852
 31
0.0
  0
LINE
  5
8C
330
1F
100
AcDbEntity
  8
1
  6
Continuous
 62
     7
100
AcDbLine
 10
773.960973475133
 20
339.173505143852
 30
0.0
 11
773.860973475132
 21
339.173505143852
 31
0.0
  0
LINE
  5
8D
330
1F
100
AcDbEntity
  8
1
  6
Continuous
 62
     7
100
AcDbLine
 10
773.960973475133
 20
339.323505143852
 30
0.0
 11
773.960973475133
 21
339.173505143852
 31
0.0
  0
LINE
  5
8E
330
1F
100
AcDbEntity
  8
1
  6
Continuous
 62
     7
100
AcDbLine
 10
773.860973475132
 20
339.323505143852
 30
0.0
 11
773.960973475133
 21
339.323505143852
 31
0.0
  0
LINE
  5
8F
330
1F
100
AcDbEntity
  8
0
  6
PHANTOM
 62
     4
100
AcDbLine
 10
657.7130978196
 20
340.573505143852
 30
0.0
 11
657.7130978196
 21
337.973505143852
 31
0.0
  0
LINE
  5
90
330
1F
100
AcDbEntity
  8
1
  6
PHANTOM
 62
     4
100
AcDbLine
 10
657.7130978196
 20
339.173505143852
 30
0.0
 11
657.610973475132
 21
339.173505143852
 31
0.0
  0
LINE
  5
91
330
1F
100
AcDbEntity
  8
1
  6
PHANTOM
 62
     4
100
AcDbLine
 10
657.610973475132
 20
339.323505143852
 30
0.0
 11
657.7130978196
 21
339.323505143852
 31
0.0
  0
LINE
  5
92
330
1F
100
AcDbEntity
  8
1
  6
PHANTOM
 62
     4
100
AcDbLine
 10
657.7130978196
 20
339.323505143852
 30
0.0
 11
657.7130978196
 21
339.173505143852
 31
0.0
  0
LINE
  5
93
330
1F
100
AcDbEntity
  8
1
  6
Continuous
 62
     7
100
AcDbLine
 10
654.965222164067
 20
339.173505143852
 30
0.0
 11
654.865222164067
 21
339.173505143852
 31
0.0
  0
LINE
  5
94
330
1F
100
AcDbEntity
  8
1
  6
Continuous
 62
     7
100
AcDbLine
 10
654.865222164067
 20
339.173505143852
 30
0.0
 11
654.865222164067
 21
339.323505143852
 31
0.0
  0
LINE
  5
95
330
1F
100
AcDbEntity
  8
1
  6
Continuous
 62
     7
100
AcDbLine
 10
654.865222164067
 20
339.323505143852
 30
0.0
 11
654.965222164067
 21
339.323505143852
 31
0.0
  0
LINE
  5
96
330
1F
100
AcDbEntity
  8
0
  6
Continuous
 62
     7
100
AcDbLine
 10
656.9130978196
 20
337.973505143852
 30
0.0
 11
656.648652947146
 21
337.973505143852
 31
0.0
  0
LINE
  5
97
102
{ACAD_REACTORS
330
11B
330
11B
102
}
330
1F
100
AcDbEntity
  8
0
  6
Continuous
 62
     7
100
AcDbLine
 10
771.9130978196
 20
337.973505143852
 30
0.0
 11
656.9130978196
 21
337.973505143852
 31
0.0
  0
ARC
  5
98
102
{ACAD_REACTORS
330
119
330
119
102
}
330
1F
100
AcDbEntity
  8
1
  6
Continuous
 62
     7
100
AcDbCircle
 10
714.4130978196
 20
251.0720304799
 30
0.0
 40
57.5
100
AcDbArc
 50
0.0
 51
172.4385702943416
  0
ARC
  5
99
330
1F
100
AcDbEntity
  8
1
  6
Continuous
 62
     7
100
AcDbCircle
 10
714.4130978196
 20
251.0720304799
 30
0.0
 40
58.60000000000056
100
AcDbArc
 50
120.1687703905668
 51
149.8312296094333
  0
ARC
  5
9A
102
{ACAD_REACTORS
330
119
330
119
102
}
330
1F
100
AcDbEntity
  8
1
  6
Continuous
 62
     7
100
AcDbCircle
 10
714.4130978196
 20
251.0720304799
 30
0.0
 40
57.50000000000016
100
AcDbArc
 50
-172.4385702943425
 51
0.0
  0
ARC
  5
9B
330
1F
100
AcDbEntity
  8
1
  6
Continuous
 62
     7
100
AcDbCircle
 10
714.4130978196
 20
251.0720304799
 30
0.0
 40
58.59999999999973
100
AcDbArc
 50
-59.83122960943272
 51
-30.16877039056726
  0
ARC
  5
9C
102
{ACAD_REACTORS
330
11A
330
11A
102
}
330
1F
100
AcDbEntity
  8
0
  6
Continuous
 62
     7
100
AcDbCircle
 10
714.4130978196
 20
346.573505143852
 30
0.0
 40
55.0
100
AcDbArc
 50
90.0
 51
180.0
  0
ARC
  5
9D
330
1F
100
AcDbEntity
  8
1
  6
Continuous
 62
     7
100
AcDbCircle
 10
714.4130978196
 20
251.0720304799
 30
0.0
 40
58.59999999999974
100
AcDbArc
 50
30.16877039056725
 51
59.8312296094332
  0
ARC
  5
9E
330
1F
100
AcDbEntity
  8
1
  6
Continuous
 62
     7
100
AcDbCircle
 10
714.4130978196
 20
251.0720304799
 30
0.0
 40
58.59999999999975
100
AcDbArc
 50
-149.8312296094327
 51
-149.0161608986166
  0
ARC
  5
9F
330
1F
100
AcDbEntity
  8
1
  6
Continuous
 62
     7
100
AcDbCircle
 10
714.4130978196
 20
251.0720304799
 30
0.0
 40
58.60000000000016
100
AcDbArc
 50
-149.0161608986166
 51
-120.1687703905673
  0
ARC
  5
A0
330
1F
100
AcDbEntity
  8
1
  6
Continuous
 62
     7
100
AcDbCircle
 10
772.5380978196
 20
339.248505143852
 30
0.0
 40
1.324999999999989
100
AcDbArc
 50
-90.0
 51
-3.24489167174479
  0
ARC
  5
A1
330
1F
100
AcDbEntity
  8
1
  6
PHANTOM
 62
     4
100
AcDbCircle
 10
772.5380978196
 20
339.248505143852
 30
0.0
 40
1.324999999999989
100
AcDbArc
 50
90.0
 51
176.7551083282552
  0
ARC
  5
A2
330
1F
100
AcDbEntity
  8
1
  6
Continuous
 62
     7
100
AcDbCircle
 10
772.5380978196
 20
339.248505143852
 30
0.0
 40
1.325000000000212
100
AcDbArc
 50
-105.7902842101186
 51
-90.0
  0
ARC
  5
A3
330
1F
100
AcDbEntity
  8
1
  6
Continuous
 62
     7
100
AcDbCircle
 10
772.5380978196
 20
339.248505143852
 30
0.0
 40
1.32499999999972
100
AcDbArc
 50
3.24489167174479
 51
90.0
  0
ARC
  5
A4
330
1F
100
AcDbEntity
  8
1
  6
PHANTOM
 62
     4
100
AcDbCircle
 10
772.5380978196
 20
339.248505143852
 30
0.0
 40
1.32499999999972
100
AcDbArc
 50
-176.7551083282552
 51
-105.7902842101186
  0
ARC
  5
A5
330
1F
100
AcDbEntity
  8
1
  6
Continuous
 62
     7
100
AcDbCircle
 10
656.288097819599
 20
339.248505143852
 30
0.0
 40
1.32499999999972
100
AcDbArc
 50
-176.7551083282552
 51
-89.99999999995576
  0
ARC
  5
A6
330
1F
100
AcDbEntity
  8
1
  6
PHANTOM
 62
     4
100
AcDbCircle
 10
656.288097819599
 20
339.248505143852
 30
0.0
 40
1.325000000000742
100
AcDbArc
 50
3.24489167174228
 51
89.99999999995576
  0
ARC
  5
A7
330
1F
100
AcDbEntity
  8
1
  6
Continuous
 62
     7
100
AcDbCircle
 10
656.288097819599
 20
339.248505143852
 30
0.0
 40
1.324999999999989
100
AcDbArc
 50
-89.99999999995576
 51
-74.20971578988136
  0
ARC
  5
A8
330
1F
100
AcDbEntity
  8
1
  6
Continuous
 62
     7
100
AcDbCircle
 10
656.288097819599
 20
339.248505143852
 30
0.0
 40
1.324999999999989
100
AcDbArc
 50
89.99999999995576
 51
176.7551083282552
  0
ARC
  5
A9
330
1F
100
AcDbEntity
  8
1
  6
PHANTOM
 62
     4
100
AcDbCircle
 10
656.288097819599
 20
339.248505143852
 30
0.0
 40
1.325000000000212
100
AcDbArc
 50
-74.20971578988136
 51
-3.24489167174228
  0
ARC
  5
AA
102
{ACAD_REACTORS
330
11A
330
11A
102
}
330
1F
100
AcDbEntity
  8
0
  6
Continuous
 62
     7
100
AcDbCircle
 10
714.4130978196
 20
346.573505143852
 30
0.0
 40
55.0
100
AcDbArc
 50
0.0
 51
90.0
  0
CIRCLE
  5
AB
330
1F
100
AcDbEntity
  8
1
  6
Continuous
 62
     2
100
AcDbCircle
 10
786.765525088922
 20
316.980778652385
 30
0.0
 40
3.999999999998977
  0
CIRCLE
  5
AC
330
1F
100
AcDbEntity
  8
1
  6
Continuous
 62
     2
100
AcDbCircle
 10
749.200100998859
 20
317.573505143852
 30
0.0
 40
4.0
  0
CIRCLE
  5
AD
102
{ACAD_REACTORS
330
10B
330
10B
330
10C
330
10C
102
}
330
1F
100
AcDbEntity
  8
1
  6
Continuous
 62
     7
100
AcDbCircle
 10
714.4130978196
 20
251.0720304799
 30
0.0
 40
55.67383202187898
  0
CIRCLE
  5
AE
102
{ACAD_REACTORS
330
10B
330
10B
330
10E
330
10E
102
}
330
1F
100
AcDbEntity
  8
1
  6
Continuous
 62
     2
100
AcDbCircle
 10
714.4130978196
 20
251.0720304799
 30
0.0
 40
56.00740278625904
  0
CIRCLE
  5
AF
102
{ACAD_REACTORS
330
10C
330
10C
330
10D
330
10D
102
}
330
1F
100
AcDbEntity
  8
1
  6
Continuous
 62
     7
100
AcDbCircle
 10
714.4130978196
 20
251.0720304799
 30
0.0
 40
53.73092960784595
  0
CIRCLE
  5
B0
102
{ACAD_REACTORS
330
10E
330
10E
330
10F
330
10F
102
}
330
1F
100
AcDbEntity
  8
1
  6
Continuous
 62
     7
100
AcDbCircle
 10
714.4130978196
 20
251.0720304799
 30
0.0
 40
56.5
  0
CIRCLE
  5
B1
102
{ACAD_REACTORS
330
10F
330
10F
330
110
330
110
330
111
330
111
330
112
330
112
330
113
330
113
330
114
330
114
330
115
330
115
330
116
330
116
330
117
330
117
330
119
330
119
102
}
330
1F
100
AcDbEntity
  8
1
  6
Continuous
 62
     2
100
AcDbCircle
 10
714.4130978196
 20
251.0720304799
 30
0.0
 40
57.0
  0
CIRCLE
  5
B2
102
{ACAD_REACTORS
330
118
330
118
102
}
330
1F
100
AcDbEntity
  8
0
  6
Continuous
 62
     7
100
AcDbCircle
 10
714.4130978196
 20
251.0720304799
 30
0.0
 40
60.0
  0
CIRCLE
  5
B3
102
{ACAD_REACTORS
330
118
330
118
102
}
330
1F
100
AcDbEntity
  8
1
  6
Continuous
 62
     7
100
AcDbCircle
 10
714.4130978196
 20
251.0720304799
 30
0.0
 40
59.54787565553295
  0
CIRCLE
  5
B4
102
{ACAD_REACTORS
330
103
330
103
102
}
330
1F
100
AcDbEntity
  8
1
  6
Continuous
 62
     2
100
AcDbCircle
 10
767.874332562182
 20
339.313012658595
 30
0.0
 40
0.4750000000000227
  0
CIRCLE
  5
B5
102
{ACAD_REACTORS
330
104
330
104
102
}
330
1F
100
AcDbEntity
  8
1
  6
Continuous
 62
     2
100
AcDbCircle
 10
732.974176347774
 20
333.34910129166
 30
0.0
 40
0.4750000000000227
  0
LEADER
  5
BC
330
1F
100
AcDbEntity
  8
1
  6
Continuous
 62
     2
100
AcDbLeader
  3
Standard
 71
     0
 76
     2
 10
767.874332562182
 20
339.313012658595
 30
0.0
 10
784.241729846838
 20
320.084076507254
 30
0.0
  0
LEADER
  5
BD
330
1F
100
AcDbEntity
  8
1
  6
Continuous
 62
     2
100
AcDbLeader
  3
Standard
 71
     0
 76
     2
 10
732.974176347774
 20
333.34910129166
 30
0.0
 10
746.269556211878
 20
320.295986962248
 30
0.0
  0
MTEXT
  5
BF
330
1F
100
AcDbEntity
  8
1
 62
     2
100
AcDbMText
 10
786.765525088922
 20
316.980778652385
 30
0.0
 40
4.8
 41
0.0
 71
     5
 72
     1
  1
2
  7
CONVERTER_12
 73
     1
 44
1.0
  0
MTEXT
  5
C0
330
1F
100
AcDbEntity
  8
1
 62
     2
100
AcDbMText
 10
749.200100998859
 20
317.573505143853
 30
0.0
 40
4.8
 41
0.0
 71
     5
 72
     1
  1
1
  7
CONVERTER_12
 73
     1
 44
1.0
  0
DIMENSION
  5
CB
330
1F
100
AcDbEntity
  8
1
100
AcDbDimension
  2
*D2
 10
774.4130978196
 20
417.573505143852
 30
0.0
 11
714.4130978196
 21
420.073505143852
 31
0.0
 70
    32
  1
{\Fgdt;n}120
 71
     5
 42
-1.0
 53
0.00013888888889
  3
ME10_DIM_10
100
AcDbAlignedDimension
 13
654.4130978196
 23
341.073505143852
 33
0.0
 14
774.4130978196
 24
341.073505143852
 34
0.0
100
AcDbRotatedDimension
  0
DIMENSION
  5
D6
330
1F
100
AcDbEntity
  8
1
100
AcDbDimension
  2
*D3
 10
644.4130978196
 20
341.5735051438521
 30
0.0
 11
641.9130978196
 21
346.154856590772
 31
0.0
 70
    32
  1
1
 71
     5
 42
-1.0
 53
90.0
  3
ME10_DIM_11
100
AcDbAlignedDimension
 13
654.4132913037
 23
340.573505143852
 33
0.0
 14
654.9137949926
 24
341.573505143852
 34
0.0
 50
90.0
100
AcDbRotatedDimension
  0
DIMENSION
  5
E1
330
1F
100
AcDbEntity
  8
1
100
AcDbDimension
  2
*D4
 10
638.4130978196
 20
327.573505143852
 30
0.0
 11
635.9130978196
 21
334.073505143852
 31
0.0
 70
    32
  1
13
 71
     5
 42
-1.0
 53
90.0
  3
ME10_DIM_12
100
AcDbAlignedDimension
 13
654.4130978196
 23
340.573505143852
 33
0.0
 14
657.4137656996
 24
327.573505143852
 34
0.0
 50
90.0
100
AcDbRotatedDimension
  0
DIMENSION
  5
EC
330
1F
100
AcDbEntity
  8
1
100
AcDbDimension
  2
*D5
 10
638.4130978196
 20
340.573505143852
 30
0.0
 11
635.9130978196
 21
371.073505143852
 31
0.0
 70
    32
  1
61
 71
     5
 42
-1.0
 53
90.0
  3
ME10_DIM_13
100
AcDbAlignedDimension
 13
714.4130978196
 23
401.573505143852
 33
0.0
 14
654.4130978196
 24
340.573505143852
 34
0.0
 50
90.0
100
AcDbRotatedDimension
  0
DIMENSION
  5
F7
330
1F
100
AcDbEntity
  8
1
100
AcDbDimension
  2
*D6
 10
632.4130978196
 20
401.573505143852
 30
0.0
 11
629.9130978196
 21
364.573505143852
 31
0.0
 70
    32
  1
(74
 71
     5
 42
-1.0
 53
90.0
  3
ME10_DIM_14
100
AcDbAlignedDimension
 13
657.4137656996
 23
327.573505143852
 33
0.0
 14
714.4130978196
 24
401.573505143852
 34
0.0
 50
90.0
100
AcDbRotatedDimension
  0
DIMENSION
  5
102
330
1F
100
AcDbEntity
  8
1
100
AcDbDimension
  2
*D7
 10
769.4130978196
 20
411.573505143852
 30
0.0
 11
714.4130978196
 21
414.073505143852
 31
0.0
 70
    32
  1
{\Fgdt;n}110
 71
     5
 42
-1.0
 53
0.00013888888889
  3
ME10_DIM_15
100
AcDbAlignedDimension
 13
659.4130978196
 23
346.573505143852
 33
0.0
 14
769.4130978196
 24
346.573505143852
 34
0.0
100
AcDbRotatedDimension
  0
HATCH
  5
103
330
1F
100
AcDbEntity
  8
1
  6
Continuous
 62
     2
100
AcDbHatch
 10
0.0
 20
0.0
 30
0.0
210
0.0
220
0.0
230
1.0
  2
SOLID
 70
     1
 71
     1
 91
        1
 92
        1
 93
        1
 72
     2
 10
767.874332562182
 20
339.313012658595
 40
0.4750000000000227
 50
0.0
 51
360.0
 73
     1
 97
        1
330
B4
 75
     0
 76
     1
 98
        1
 10
0.0
 20
0.0
  0
HATCH
  5
104
330
1F
100
AcDbEntity
  8
1
  6
Continuous
 62
     2
100
AcDbHatch
 10
0.0
 20
0.0
 30
0.0
210
0.0
220
0.0
230
1.0
  2
SOLID
 70
     1
 71
     1
 91
        1
 92
        1
 93
        1
 72
     2
 10
732.974176347774
 20
333.34910129166
 40
0.4750000000000227
 50
0.0
 51
360.0
 73
     1
 97
        1
330
B5
 75
     0
 76
     1
 98
        1
 10
0.0
 20
0.0
  0
HATCH
  5
105
330
1F
100
AcDbEntity
  8
1
  6
DOTTED
 62
     2
100
AcDbHatch
 10
0.0
 20
0.0
 30
0.0
210
0.0
220
0.0
230
1.0
  2
_USER
 70
     0
 71
     0
 91
        1
 92
        1
 93
        4
 72
     1
 10
656.9130978196
 20
329.573505143852
 11
657.4137656996
 21
327.573505143852
 72
     1
 10
657.4137656996
 20
327.573505143852
 11
771.4124299395
 21
327.573505143852
 72
     1
 10
771.4124299395
 20
327.573505143852
 11
771.9130978196
 21
329.573505143852
 72
     1
 10
771.9130978196
 20
329.573505143852
 11
656.9130978196
 21
329.573505143852
 97
        0
 75
     1
 76
     0
 52
44.99999999999998
 41
1.2
 77
     0
 78
     1
 53
44.99999999999998
 43
0.0
 44
0.0
 45
-0.8485281374238567
 46
0.8485281374238574
 79
     0
 98
        1
 10
0.0
 20
0.0
  0
HATCH
  5
106
330
1F
100
AcDbEntity
  8
1
  6
DOTTED
 62
     2
100
AcDbHatch
 10
0.0
 20
0.0
 30
0.0
210
0.0
220
0.0
230
1.0
  2
_USER
 70
     0
 71
     0
 91
        1
 92
        1
 93
        8
 72
     1
 10
654.4132913037
 20
340.573505143852
 11
774.4129043355
 21
340.573505143852
 72
     1
 10
774.4129043355
 20
340.573505143852
 11
774.4130978196
 21
341.073505143852
 72
     1
 10
774.4130978196
 20
341.073505143852
 11
773.9124006466
 21
341.573505143852
 72
     1
 10
773.9124006466
 20
341.573505143852
 11
655.891250760499
 21
341.573505143852
 72
     1
 10
655.891250760499
 20
341.573505143852
 11
654.9130978196
 21
341.573505143852
 72
     1
 10
654.9130978196
 20
341.573505143852
 11
654.4130978196
 21
341.073505143852
 72
     1
 10
654.4130978196
 20
341.073505143852
 11
654.4130978196
 21
340.573505143852
 72
     1
 10
654.4130978196
 20
340.573505143852
 11
654.4132913037
 21
340.573505143852
 97
        0
 75
     1
 76
     0
 52
44.99999999999998
 41
1.2
 77
     0
 78
     1
 53
44.99999999999998
 43
0.0
 44
0.0
 45
-0.8485281374238567
 46
0.8485281374238574
 79
     0
 98
        1
 10
0.0
 20
0.0
  0
HATCH
  5
107
330
1F
100
AcDbEntity
  8
1
  6
DOTTED
 62
     2
100
AcDbHatch
 10
0.0
 20
0.0
 30
0.0
210
0.0
220
0.0
230
1.0
  2
_USER
 70
     0
 71
     0
 91
        1
 92
        1
 93
       10
 72
     1
 10
663.690988183522
 20
278.155560420912
 11
663.750535247017
 21
280.521389616886
 72
     1
 10
663.750535247017
 20
280.521389616886
 11
670.61109796651
 21
289.999460511561
 72
     1
 10
670.61109796651
 20
289.999460511561
 11
679.217908194941
 21
297.925617613484
 72
     1
 10
679.217908194941
 20
297.925617613484
 11
684.963738682614
 21
301.734593052483
 72
     1
 10
684.963738682614
 20
301.734593052483
 11
687.329567878588
 21
301.794140115978
 72
     1
 10
687.329567878588
 20
301.794140115978
 11
682.100615885709
 21
298.634132107898
 72
     1
 10
682.100615885709
 20
298.634132107898
 11
676.205244378108
 21
294.041902895274
 72
     1
 10
676.205244378108
 20
294.041902895274
 11
673.629898304809
 21
291.605728033131
 72
     1
 10
673.629898304809
 20
291.605728033131
 11
667.069380522408
 21
283.703647548068
 72
     1
 10
667.069380522408
 20
283.703647548068
 11
663.690988183522
 21
278.155560420912
 97
        0
 75
     1
 76
     0
 52
44.99999999999998
 41
1.2
 77
     0
 78
     1
 53
44.99999999999998
 43
0.0
 44
0.0
 45
-0.8485281374238567
 46
0.8485281374238574
 79
     0
 98
        1
 10
0.0
 20
0.0
  0
HATCH
  5
108
330
1F
100
AcDbEntity
  8
1
  6
DOTTED
 62
     2
100
AcDbHatch
 10
0.0
 20
0.0
 30
0.0
210
0.0
220
0.0
230
1.0
  2
_USER
 70
     0
 71
     0
 91
        1
 92
        1
 93
       13
 72
     1
 10
741.496627760612
 20
301.794140115978
 11
743.862456956586
 21
301.734593052483
 72
     1
 10
743.862456956586
 20
301.734593052483
 11
753.340527851261
 21
294.87403033299
 72
     1
 10
753.340527851261
 20
294.87403033299
 11
761.266684953183
 21
286.267220104559
 72
     1
 10
761.266684953183
 20
286.267220104559
 11
765.075660392182
 21
280.521389616886
 72
     1
 10
765.075660392182
 20
280.521389616886
 11
765.135207455678
 21
278.155560420912
 72
     1
 10
765.135207455678
 20
278.155560420912
 11
764.553255995142
 21
279.21833642103
 72
     1
 10
764.553255995142
 20
279.21833642103
 11
762.450111343217
 21
282.674171732225
 72
     1
 10
762.450111343217
 20
282.674171732225
 11
759.654742053524
 21
286.56067129652
 72
     1
 10
759.654742053524
 20
286.56067129652
 11
755.860436458201
 21
290.926366753099
 72
     1
 10
755.860436458201
 20
290.926366753099
 11
751.33923826095
 21
295.148216250741
 72
     1
 10
751.33923826095
 20
295.148216250741
 11
747.522446510843
 21
298.082891238258
 72
     1
 10
747.522446510843
 20
298.082891238258
 11
743.094780319212
 21
300.907871889386
 72
     1
 10
743.094780319212
 20
300.907871889386
 11
741.496627760612
 21
301.794140115978
 97
        0
 75
     1
 76
     0
 52
44.99999999999998
 41
1.2
 77
     0
 78
     1
 53
44.99999999999998
 43
0.0
 44
0.0
 45
-0.8485281374238567
 46
0.8485281374238574
 79
     0
 98
        1
 10
0.0
 20
0.0
  0
HATCH
  5
109
330
1F
100
AcDbEntity
  8
1
  6
DOTTED
 62
     2
100
AcDbHatch
 10
0.0
 20
0.0
 30
0.0
210
0.0
220
0.0
230
1.0
  2
_USER
 70
     0
 71
     0
 91
        1
 92
        1
 93
       16
 72
     1
 10
741.496627760612
 20
200.349920843822
 11
743.862456956586
 21
200.409467907318
 72
     1
 10
743.862456956586
 20
200.409467907318
 11
753.340527851261
 21
207.27003062681
 72
     1
 10
753.340527851261
 20
207.27003062681
 11
761.266684953184
 21
215.876840855241
 72
     1
 10
761.266684953184
 20
215.876840855241
 11
765.075660392182
 21
221.622671342914
 72
     1
 10
765.075660392182
 20
221.622671342914
 11
765.135207455678
 21
223.988500538888
 72
     1
 10
765.135207455678
 20
223.988500538888
 11
764.581236898069
 21
222.975628194138
 72
     1
 10
764.581236898069
 20
222.975628194138
 11
763.78505893504
 21
221.599001188435
 72
     1
 10
763.78505893504
 20
221.599001188435
 11
762.562210925547
 21
219.640948616389
 72
     1
 10
762.562210925547
 20
219.640948616389
 11
759.041519065399
 21
214.815251567433
 72
     1
 10
759.041519065399
 20
214.815251567433
 11
756.956060102966
 21
212.389394063077
 72
     1
 10
756.956060102966
 20
212.389394063077
 11
755.393025701083
 21
210.737237672344
 72
     1
 10
755.393025701083
 20
210.737237672344
 11
752.413509700464
 21
207.918598439277
 72
     1
 10
752.413509700464
 20
207.918598439277
 11
750.819379706464
 21
206.56548445379
 72
     1
 10
750.819379706464
 20
206.56548445379
 11
748.79137760618
 21
204.980991449351
 72
     1
 10
748.79137760618
 20
204.980991449351
 11
745.296248606261
 21
202.569649120957
 72
     1
 10
745.296248606261
 20
202.569649120957
 11
741.496627760612
 21
200.349920843822
 97
        0
 75
     1
 76
     0
 52
44.99999999999998
 41
1.2
 77
     0
 78
     1
 53
44.99999999999998
 43
0.0
 44
0.0
 45
-0.8485281374238567
 46
0.8485281374238574
 79
     0
 98
        1
 10
0.0
 20
0.0
  0
HATCH
  5
10A
330
1F
100
AcDbEntity
  8
1
  6
DOTTED
 62
     2
100
AcDbHatch
 10
0.0
 20
0.0
 30
0.0
210
0.0
220
0.0
230
1.0
  2
_USER
 70
     0
 71
     0
 91
        1
 92
        1
 93
       14
 72
     1
 10
663.690988183522
 20
223.988500538888
 11
663.750535247018
 21
221.622671342914
 72
     1
 10
663.750535247018
 20
221.622671342914
 11
664.174583051718
 21
220.904968410197
 72
     1
 10
664.174583051718
 20
220.904968410197
 11
671.169278608656
 21
211.525449084649
 72
     1
 10
671.169278608656
 20
211.525449084649
 11
679.887968773771
 21
203.722527162876
 72
     1
 10
679.887968773771
 20
203.722527162876
 11
684.963738682614
 21
200.409467907318
 72
     1
 10
684.963738682614
 20
200.409467907318
 11
687.329567878588
 21
200.349920843822
 72
     1
 10
687.329567878588
 20
200.349920843822
 11
686.447580243878
 21
200.830814066262
 72
     1
 10
686.447580243878
 20
200.830814066262
 11
678.148959951514
 21
206.44958876405
 72
     1
 10
678.148959951514
 20
206.44958876405
 11
676.080568289588
 21
208.213341981175
 72
     1
 10
676.080568289588
 20
208.213341981175
 11
673.280649788039
 21
210.89278560234
 72
     1
 10
673.280649788039
 20
210.89278560234
 11
670.003397259667
 21
215.339993087986
 72
     1
 10
670.003397259667
 20
215.339993087986
 11
667.55886070131
 21
217.741406962434
 72
     1
 10
667.55886070131
 20
217.741406962434
 11
665.345748097269
 21
221.094619130243
 72
     1
 10
665.345748097269
 20
221.094619130243
 11
663.690988183522
 21
223.988500538888
 97
        0
 75
     1
 76
     0
 52
44.99999999999998
 41
1.2
 77
     0
 78
     1
 53
44.99999999999998
 43
0.0
 44
0.0
 45
-0.8485281374238567
 46
0.8485281374238574
 79
     0
 98
        1
 10
0.0
 20
0.0
  0
HATCH
  5
10B
330
1F
100
AcDbEntity
  8
1
  6
DOTTED
 62
     2
100
AcDbHatch
 10
0.0
 20
0.0
 30
0.0
210
0.0
220
0.0
230
1.0
  2
_USER
 70
     0
 71
     1
 91
        2
 92
        1
 93
        1
 72
     2
 10
714.4130978196
 20
251.0720304799
 40
56.00740278625904
 50
0.0
 51
360.0
 73
     1
 97
        1
330
AE
 92
       16
 93
        1
 72
     2
 10
714.4130978196
 20
251.0720304799
 40
55.67383202187898
 50
0.0
 51
360.0
 73
     1
 97
        1
330
AD
 75
     1
 76
     0
 52
44.99999999999998
 41
1.2
 77
     0
 78
     1
 53
44.99999999999998
 43
0.0
 44
0.0
 45
-0.8485281374238567
 46
0.8485281374238574
 79
     0
 98
        1
 10
0.0
 20
0.0
  0
HATCH
  5
10C
330
1F
100
AcDbEntity
  8
1
  6
DOTTED
 62
     2
100
AcDbHatch
 10
0.0
 20
0.0
 30
0.0
210
0.0
220
0.0
230
1.0
  2
_USER
 70
     0
 71
     1
 91
        2
 92
        1
 93
        1
 72
     2
 10
714.4130978196
 20
251.0720304799
 40
55.67383202187898
 50
0.0
 51
360.0
 73
     1
 97
        1
330
AD
 92
       16
 93
        1
 72
     2
 10
714.4130978196
 20
251.0720304799
 40
53.73092960784595
 50
0.0
 51
360.0
 73
     1
 97
        1
330
AF
 75
     1
 76
     0
 52
44.99999999999998
 41
1.2
 77
     0
 78
     1
 53
44.99999999999998
 43
0.0
 44
0.0
 45
-0.8485281374238567
 46
0.8485281374238574
 79
     0
 98
        1
 10
0.0
 20
0.0
  0
HATCH
  5
10D
330
1F
100
AcDbEntity
  8
1
  6
DOTTED
 62
     2
100
AcDbHatch
 10
0.0
 20
0.0
 30
0.0
210
0.0
220
0.0
230
1.0
  2
_USER
 70
     0
 71
     1
 91
        1
 92
        1
 93
        1
 72
     2
 10
714.4130978196
 20
251.0720304799
 40
53.73092960784595
 50
0.0
 51
360.0
 73
     1
 97
        1
330
AF
 75
     1
 76
     0
 52
44.99999999999998
 41
1.2
 77
     0
 78
     1
 53
44.99999999999998
 43
0.0
 44
0.0
 45
-0.8485281374238567
 46
0.8485281374238574
 79
     0
 98
        1
 10
0.0
 20
0.0
  0
HATCH
  5
10E
330
1F
100
AcDbEntity
  8
1
  6
DOTTED
 62
     2
100
AcDbHatch
 10
0.0
 20
0.0
 30
0.0
210
0.0
220
0.0
230
1.0
  2
_USER
 70
     0
 71
     1
 91
        2
 92
        1
 93
        1
 72
     2
 10
714.4130978196
 20
251.0720304799
 40
56.5
 50
0.0
 51
360.0
 73
     1
 97
        1
330
B0
 92
       16
 93
        1
 72
     2
 10
714.4130978196
 20
251.0720304799
 40
56.00740278625904
 50
0.0
 51
360.0
 73
     1
 97
        1
330
AE
 75
     1
 76
     0
 52
44.99999999999998
 41
1.2
 77
     0
 78
     1
 53
44.99999999999998
 43
0.0
 44
0.0
 45
-0.8485281374238567
 46
0.8485281374238574
 79
     0
 98
        1
 10
0.0
 20
0.0
  0
HATCH
  5
10F
330
1F
100
AcDbEntity
  8
1
  6
DOTTED
 62
     2
100
AcDbHatch
 10
0.0
 20
0.0
 30
0.0
210
0.0
220
0.0
230
1.0
  2
_USER
 70
     0
 71
     1
 91
        2
 92
        1
 93
        1
 72
     2
 10
714.4130978196
 20
251.0720304799
 40
57.0
 50
0.0
 51
360.0
 73
     1
 97
        1
330
B1
 92
       16
 93
        1
 72
     2
 10
714.4130978196
 20
251.0720304799
 40
56.5
 50
0.0
 51
360.0
 73
     1
 97
        1
330
B0
 75
     1
 76
     0
 52
44.99999999999998
 41
1.2
 77
     0
 78
     1
 53
44.99999999999998
 43
0.0
 44
0.0
 45
-0.8485281374238567
 46
0.8485281374238574
 79
     0
 98
        1
 10
0.0
 20
0.0
  0
HATCH
  5
110
330
1F
100
AcDbEntity
  8
1
  6
DOTTED
 62
     2
100
AcDbHatch
 10
0.0
 20
0.0
 30
0.0
210
0.0
220
0.0
230
1.0
  2
_USER
 70
     0
 71
     1
 91
        1
 92
        1
 93
        1
 72
     2
 10
714.4130978196
 20
251.0720304799
 40
57.0
 50
0.0
 51
360.0
 73
     1
 97
        1
330
B1
 75
     1
 76
     0
 52
44.99999999999998
 41
1.2
 77
     0
 78
     1
 53
44.99999999999998
 43
0.0
 44
0.0
 45
-0.8485281374238567
 46
0.8485281374238574
 79
     0
 98
        1
 10
0.0
 20
0.0
  0
HATCH
  5
111
330
1F
100
AcDbEntity
  8
1
  6
DOTTED
 62
     2
100
AcDbHatch
 10
0.0
 20
0.0
 30
0.0
210
0.0
220
0.0
230
1.0
  2
_USER
 70
     0
 71
     1
 91
        1
 92
        1
 93
        1
 72
     2
 10
714.4130978196
 20
251.0720304799
 40
57.0
 50
0.0
 51
360.0
 73
     1
 97
        1
330
B1
 75
     1
 76
     0
 52
44.99999999999998
 41
1.2
 77
     0
 78
     1
 53
44.99999999999998
 43
0.0
 44
0.0
 45
-0.8485281374238567
 46
0.8485281374238574
 79
     0
 98
        1
 10
0.0
 20
0.0
  0
HATCH
  5
112
330
1F
100
AcDbEntity
  8
1
  6
DOTTED
 62
     2
100
AcDbHatch
 10
0.0
 20
0.0
 30
0.0
210
0.0
220
0.0
230
1.0
  2
_USER
 70
     0
 71
     1
 91
        1
 92
        1
 93
        1
 72
     2
 10
714.4130978196
 20
251.0720304799
 40
57.0
 50
0.0
 51
360.0
 73
     1
 97
        1
330
B1
 75
     1
 76
     0
 52
44.99999999999998
 41
1.2
 77
     0
 78
     1
 53
44.99999999999998
 43
0.0
 44
0.0
 45
-0.8485281374238567
 46
0.8485281374238574
 79
     0
 98
        1
 10
0.0
 20
0.0
  0
HATCH
  5
113
330
1F
100
AcDbEntity
  8
1
  6
DOTTED
 62
     2
100
AcDbHatch
 10
0.0
 20
0.0
 30
0.0
210
0.0
220
0.0
230
1.0
  2
_USER
 70
     0
 71
     1
 91
        1
 92
        1
 93
        1
 72
     2
 10
714.4130978196
 20
251.0720304799
 40
57.0
 50
0.0
 51
360.0
 73
     1
 97
        1
330
B1
 75
     1
 76
     0
 52
44.99999999999998
 41
1.2
 77
     0
 78
     1
 53
44.99999999999998
 43
0.0
 44
0.0
 45
-0.8485281374238567
 46
0.8485281374238574
 79
     0
 98
        1
 10
0.0
 20
0.0
  0
HATCH
  5
114
330
1F
100
AcDbEntity
  8
1
  6
DOTTED
 62
     2
100
AcDbHatch
 10
0.0
 20
0.0
 30
0.0
210
0.0
220
0.0
230
1.0
  2
_USER
 70
     0
 71
     1
 91
        1
 92
        1
 93
        1
 72
     2
 10
714.4130978196
 20
251.0720304799
 40
57.0
 50
0.0
 51
360.0
 73
     1
 97
        1
330
B1
 75
     1
 76
     0
 52
44.99999999999998
 41
1.2
 77
     0
 78
     1
 53
44.99999999999998
 43
0.0
 44
0.0
 45
-0.8485281374238567
 46
0.8485281374238574
 79
     0
 98
        1
 10
0.0
 20
0.0
  0
HATCH
  5
115
330
1F
100
AcDbEntity
  8
1
  6
DOTTED
 62
     2
100
AcDbHatch
 10
0.0
 20
0.0
 30
0.0
210
0.0
220
0.0
230
1.0
  2
_USER
 70
     0
 71
     1
 91
        1
 92
        1
 93
        1
 72
     2
 10
714.4130978196
 20
251.0720304799
 40
57.0
 50
0.0
 51
360.0
 73
     1
 97
        1
330
B1
 75
     1
 76
     0
 52
44.99999999999998
 41
1.2
 77
     0
 78
     1
 53
44.99999999999998
 43
0.0
 44
0.0
 45
-0.8485281374238567
 46
0.8485281374238574
 79
     0
 98
        1
 10
0.0
 20
0.0
  0
HATCH
  5
116
330
1F
100
AcDbEntity
  8
1
  6
DOTTED
 62
     2
100
AcDbHatch
 10
0.0
 20
0.0
 30
0.0
210
0.0
220
0.0
230
1.0
  2
_USER
 70
     0
 71
     1
 91
        1
 92
        1
 93
        1
 72
     2
 10
714.4130978196
 20
251.0720304799
 40
57.0
 50
0.0
 51
360.0
 73
     1
 97
        1
330
B1
 75
     1
 76
     0
 52
44.99999999999998
 41
1.2
 77
     0
 78
     1
 53
44.99999999999998
 43
0.0
 44
0.0
 45
-0.8485281374238567
 46
0.8485281374238574
 79
     0
 98
        1
 10
0.0
 20
0.0
  0
HATCH
  5
117
330
1F
100
AcDbEntity
  8
1
  6
DOTTED
 62
     2
100
AcDbHatch
 10
0.0
 20
0.0
 30
0.0
210
0.0
220
0.0
230
1.0
  2
_USER
 70
     0
 71
     1
 91
        1
 92
        1
 93
        1
 72
     2
 10
714.4130978196
 20
251.0720304799
 40
57.0
 50
0.0
 51
360.0
 73
     1
 97
        1
330
B1
 75
     1
 76
     0
 52
44.99999999999998
 41
1.2
 77
     0
 78
     1
 53
44.99999999999998
 43
0.0
 44
0.0
 45
-0.8485281374238567
 46
0.8485281374238574
 79
     0
 98
        1
 10
0.0
 20
0.0
  0
HATCH
  5
118
330
1F
100
AcDbEntity
  8
1
  6
DOTTED
 62
     2
100
AcDbHatch
 10
0.0
 20
0.0
 30
0.0
210
0.0
220
0.0
230
1.0
  2
_USER
 70
     0
 71
     1
 91
        2
 92
        1
 93
        1
 72
     2
 10
714.4130978196
 20
251.0720304799
 40
60.0
 50
0.0
 51
360.0
 73
     1
 97
        1
330
B2
 92
       16
 93
        1
 72
     2
 10
714.4130978196
 20
251.0720304799
 40
59.54787565553295
 50
0.0
 51
360.0
 73
     1
 97
        1
330
B3
 75
     1
 76
     0
 52
44.99999999999998
 41
1.2
 77
     0
 78
     1
 53
44.99999999999998
 43
0.0
 44
0.0
 45
-0.8485281374238567
 46
0.8485281374238574
 79
     0
 98
        1
 10
0.0
 20
0.0
  0
HATCH
  5
119
330
1F
100
AcDbEntity
  8
1
  6
DOTTED
 62
     2
100
AcDbHatch
 10
0.0
 20
0.0
 30
0.0
210
0.0
220
0.0
230
1.0
  2
_USER
 70
     0
 71
     1
 91
        2
 92
        1
 93
        3
 72
     2
 10
714.4130978196
 20
251.0720304799
 40
57.5
 50
0.0
 51
172.4385702943416
 73
     1
 72
     1
 10
657.4130978196
 20
258.638403455113
 11
657.4130978196
 21
243.505657504688
 72
     2
 10
714.4130978196
 20
251.0720304799
 40
57.50000000000016
 50
187.5614297056575
 51
360.0
 73
     1
 97
        3
330
98
330
4C
330
9A
 92
       16
 93
        1
 72
     2
 10
714.4130978196
 20
251.0720304799
 40
57.0
 50
0.0
 51
360.0
 73
     1
 97
        1
330
B1
 75
     1
 76
     0
 52
44.99999999999998
 41
1.2
 77
     0
 78
     1
 53
44.99999999999998
 43
0.0
 44
0.0
 45
-0.8485281374238567
 46
0.8485281374238574
 79
     0
 98
        1
 10
0.0
 20
0.0
  0
HATCH
  5
11A
330
1F
100
AcDbEntity
  8
1
  6
DOTTED
 62
     2
100
AcDbHatch
 10
0.0
 20
0.0
 30
0.0
210
0.0
220
0.0
230
1.0
  2
_USER
 70
     0
 71
     1
 91
        1
 92
        1
 93
        5
 72
     1
 10
659.4130978196
 20
346.573505143852
 11
659.4130978196
 21
341.573505143852
 72
     1
 10
659.4130978196
 20
341.573505143852
 11
769.4130978196
 21
341.573505143852
 72
     1
 10
769.4130978196
 20
341.573505143852
 11
769.4130978196
 21
346.573505143852
 72
     2
 10
714.4130978196
 20
346.573505143852
 40
55.0
 50
0.0
 51
90.0
 73
     1
 72
     2
 10
714.4130978196
 20
346.573505143852
 40
55.0
 50
90.0
 51
180.0
 73
     1
 97
        5
330
AA
330
5E
330
4A
330
7F
330
9C
 75
     1
 76
     0
 52
44.99999999999998
 41
1.2
 77
     0
 78
     1
 53
44.99999999999998
 43
0.0
 44
0.0
 45
-0.8485281374238567
 46
0.8485281374238574
 79
     0
 98
        1
 10
0.0
 20
0.0
  0
HATCH
  5
11B
330
1F
100
AcDbEntity
  8
1
  6
DOTTED
 62
     2
100
AcDbHatch
 10
0.0
 20
0.0
 30
0.0
210
0.0
220
0.0
230
1.0
  2
_USER
 70
     0
 71
     1
 91
        1
 92
        1
 93
        5
 72
     1
 10
771.9130978196
 20
337.973505143852
 11
656.9130978196
 21
337.973505143852
 72
     1
 10
656.9130978196
 20
337.973505143852
 11
656.9130978196
 21
331.837183826248
 72
     1
 10
656.9130978196
 20
331.837183826248
 11
656.9130978196
 21
329.573505143852
 72
     1
 10
656.9130978196
 20
329.573505143852
 11
771.9130978196
 21
329.573505143852
 72
     1
 10
771.9130978196
 20
329.573505143852
 11
771.9130978196
 21
337.973505143852
 97
        5
330
97
330
81
330
80
330
58
330
5C
 75
     1
 76
     0
 52
44.99999999999998
 41
1.2
 77
     0
 78
     1
 53
44.99999999999998
 43
0.0
 44
0.0
 45
-0.8485281374238567
 46
0.8485281374238574
 79
     0
 98
        1
 10
0.0
 20
0.0
  0
ENDSEC
  0
SECTION
  2
OBJECTS
  0
DICTIONARY
  5
C
330
0
100
AcDbDictionary
281
     1
  3
ACAD_GROUP
350
D
  3
ACAD_LAYOUT
350
1A
  3
ACAD_MLINESTYLE
350
17
  3
ACAD_PLOTSETTINGS
350
19
  3
ACAD_PLOTSTYLENAME
350
E
  0
DICTIONARY
  5
D
102
{ACAD_REACTORS
330
C
102
}
330
C
100
AcDbDictionary
281
     1
  0
DICTIONARY
  5
1A
102
{ACAD_REACTORS
330
C
102
}
330
C
100
AcDbDictionary
281
     1
  3
Layout1
350
1E
  3
Layout2
350
26
  3
Model
350
22
  0
DICTIONARY
  5
17
102
{ACAD_REACTORS
330
C
102
}
330
C
100
AcDbDictionary
281
     1
  3
Standard
350
18
  0
DICTIONARY
  5
19
102
{ACAD_REACTORS
330
C
102
}
330
C
100
AcDbDictionary
281
     1
  0
ACDBDICTIONARYWDFLT
  5
E
102
{ACAD_REACTORS
330
C
102
}
330
C
100
AcDbDictionary
281
     1
  3
Normal
350
F
100
AcDbDictionaryWithDefault
340
F
  0
LAYOUT
  5
1E
102
{ACAD_REACTORS
330
1A
102
}
330
1A
100
AcDbPlotSettings
  1

  2

  4

  6

 40
0.0
 41
0.0
 42
0.0
 43
0.0
 44
0.0
 45
0.0
 46
0.0
 47
0.0
 48
0.0
 49
0.0
140
0.0
141
0.0
142
1.0
143
1.0
 70
   688
 72
     0
 73
     0
 74
     5
  7

 75
    16
147
1.0
148
0.0
149
0.0
100
AcDbLayout
  1
Layout1
 70
     1
 71
     1
 10
0.0
 20
0.0
 11
0.0
 21
0.0
 12
0.0
 22
0.0
 32
0.0
 14
0.0
 24
0.0
 34
0.0
 15
0.0
 25
0.0
 35
0.0
146
0.0
 13
0.0
 23
0.0
 33
0.0
 16
1.0
 26
0.0
 36
0.0
 17
0.0
 27
1.0
 37
0.0
 76
     0
330
1B
  0
LAYOUT
  5
26
102
{ACAD_REACTORS
330
1A
102
}
330
1A
100
AcDbPlotSettings
  1

  2

  4

  6

 40
0.0
 41
0.0
 42
0.0
 43
0.0
 44
0.0
 45
0.0
 46
0.0
 47
0.0
 48
0.0
 49
0.0
140
0.0
141
0.0
142
1.0
143
1.0
 70
   688
 72
     0
 73
     0
 74
     5
  7

 75
    16
147
1.0
148
0.0
149
0.0
100
AcDbLayout
  1
Layout2
 70
     1
 71
     2
 10
0.0
 20
0.0
 11
0.0
 21
0.0
 12
0.0
 22
0.0
 32
0.0
 14
0.0
 24
0.0
 34
0.0
 15
0.0
 25
0.0
 35
0.0
146
0.0
 13
0.0
 23
0.0
 33
0.0
 16
1.0
 26
0.0
 36
0.0
 17
0.0
 27
1.0
 37
0.0
 76
     0
330
23
  0
LAYOUT
  5
22
102
{ACAD_REACTORS
330
1A
102
}
330
1A
100
AcDbPlotSettings
  1

  2

  4

  6

 40
0.0
 41
0.0
 42
0.0
 43
0.0
 44
0.0
 45
0.0
 46
0.0
 47
0.0
 48
0.0
 49
0.0
140
0.0
141
0.0
142
1.0
143
1.0
 70
  1712
 72
     0
 73
     0
 74
     0
  7

 75
     0
147
1.0
148
0.0
149
0.0
100
AcDbLayout
  1
Model
 70
     1
 71
     0
 10
0.0
 20
0.0
 11
0.0
 21
0.0
 12
0.0
 22
0.0
 32
0.0
 14
628.4130978196
 24
186.0720304799
 34
0.0
 15
790.765525088921
 25
421.5735180243775
 35
0.0
146
0.0
 13
0.0
 23
0.0
 33
0.0
 16
1.0
 26
0.0
 36
0.0
 17
0.0
 27
1.0
 37
0.0
 76
     0
330
1F
  0
MLINESTYLE
  5
18
102
{ACAD_REACTORS
330
17
102
}
330
17
100
AcDbMlineStyle
  2
Standard
 70
     0
  3

 62
   256
 51
90.0
 52
90.0
 71
     2
 49
0.5
 62
   256
  6
BYLAYER
 49
-0.5
 62
   256
  6
BYLAYER
  0
ACDBPLACEHOLDER
  5
F
102
{ACAD_REACTORS
330
E
102
}
330
E
  0
ENDSEC
  0
EOF
