  0
SECTION
  2
HEADER
  9
$ACADVER
  1
AC1015
  9
$ACADMAINTVER
 70
     6
  9
$DWGCODEPAGE
  3
ANSI_1252
  9
$INSBASE
 10
0.0
 20
0.0
 30
0.0
  9
$EXTMIN
 10
83.7390784958775
 20
74.3805868633398
 30
0.0
  9
$EXTMAX
 10
181.706810906496
 20
242.1085726506675
 30
0.0
  9
$LIMMIN
 10
0.0
 20
0.0
  9
$LIMMAX
 10
12.0
 20
9.0
  9
$ORTHOMODE
 70
     0
  9
$REGENMODE
 70
     1
  9
$FILLMODE
 70
     1
  9
$QTEXTMODE
 70
     0
  9
$MIRRTEXT
 70
     1
  9
$LTSCALE
 40
1.0
  9
$ATTMODE
 70
     1
  9
$TEXTSIZE
 40
0.2
  9
$TRACEWID
 40
0.05
  9
$TEXTSTYLE
  7
Standard
  9
$CLAYER
  8
0
  9
$CELTYPE
  6
ByLayer
  9
$CECOLOR
 62
   256
  9
$CELTSCALE
 40
1.0
  9
$DISPSILH
 70
     0
  9
$DIMSCALE
 40
1.0
  9
$DIMASZ
 40
0.18
  9
$DIMEXO
 40
0.0625
  9
$DIMDLI
 40
0.38
  9
$DIMRND
 40
0.0
  9
$DIMDLE
 40
0.0
  9
$DIMEXE
 40
0.18
  9
$DIMTP
 40
0.0
  9
$DIMTM
 40
0.0
  9
$DIMTXT
 40
0.18
  9
$DIMCEN
 40
0.09
  9
$DIMTSZ
 40
0.0
  9
$DIMTOL
 70
     0
  9
$DIMLIM
 70
     0
  9
$DIMTIH
 70
     1
  9
$DIMTOH
 70
     1
  9
$DIMSE1
 70
     0
  9
$DIMSE2
 70
     0
  9
$DIMTAD
 70
     0
  9
$DIMZIN
 70
     0
  9
$DIMBLK
  1

  9
$DIMASO
 70
     1
  9
$DIMSHO
 70
     1
  9
$DIMPOST
  1

  9
$DIMAPOST
  1

  9
$DIMALT
 70
     0
  9
$DIMALTD
 70
     2
  9
$DIMALTF
 40
25.4
  9
$DIMLFAC
 40
1.0
  9
$DIMTOFL
 70
     0
  9
$DIMTVP
 40
0.0
  9
$DIMTIX
 70
     0
  9
$DIMSOXD
 70
     0
  9
$DIMSAH
 70
     0
  9
$DIMBLK1
  1

  9
$DIMBLK2
  1

  9
$DIMSTYLE
  2
Standard
  9
$DIMCLRD
 70
     0
  9
$DIMCLRE
 70
     0
  9
$DIMCLRT
 70
     0
  9
$DIMTFAC
 40
1.0
  9
$DIMGAP
 40
0.09
  9
$DIMJUST
 70
     0
  9
$DIMSD1
 70
     0
  9
$DIMSD2
 70
     0
  9
$DIMTOLJ
 70
     1
  9
$DIMTZIN
 70
     0
  9
$DIMALTZ
 70
     0
  9
$DIMALTTZ
 70
     0
  9
$DIMUPT
 70
     0
  9
$DIMDEC
 70
     4
  9
$DIMTDEC
 70
     4
  9
$DIMALTU
 70
     2
  9
$DIMALTTD
 70
     2
  9
$DIMTXSTY
  7
Standard
  9
$DIMAUNIT
 70
     0
  9
$DIMADEC
 70
     0
  9
$DIMALTRND
 40
0.0
  9
$DIMAZIN
 70
     0
  9
$DIMDSEP
 70
    46
  9
$DIMATFIT
 70
     3
  9
$DIMFRAC
 70
     0
  9
$DIMLDRBLK
  1

  9
$DIMLUNIT
 70
     2
  9
$DIMLWD
 70
    -2
  9
$DIMLWE
 70
    -2
  9
$DIMTMOVE
 70
     0
  9
$LUNITS
 70
     2
  9
$LUPREC
 70
     4
  9
$SKETCHINC
 40
0.1
  9
$FILLETRAD
 40
0.5
  9
$AUNITS
 70
     0
  9
$AUPREC
 70
     0
  9
$MENU
  1
.
  9
$ELEVATION
 40
0.0
  9
$PELEVATION
 40
0.0
  9
$THICKNESS
 40
0.0
  9
$LIMCHECK
 70
     0
  9
$CHAMFERA
 40
0.5
  9
$CHAMFERB
 40
0.5
  9
$CHAMFERC
 40
1.0
  9
$CHAMFERD
 40
0.0
  9
$SKPOLY
 70
     0
  9
$TDCREATE
 40
2456267.703825185
  9
$TDUCREATE
 40
2456267.328825185
  9
$TDUPDATE
 40
2456267.703825197
  9
$TDUUPDATE
 40
2456267.328825197
  9
$TDINDWG
 40
0.0000000116
  9
$TDUSRTIMER
 40
0.0000000116
  9
$USRTIMER
 70
     1
  9
$ANGBASE
 50
0.0
  9
$ANGDIR
 70
     0
  9
$PDMODE
 70
     0
  9
$PDSIZE
 40
0.0
  9
$PLINEWID
 40
0.0
  9
$SPLFRAME
 70
     0
  9
$SPLINETYPE
 70
     6
  9
$SPLINESEGS
 70
     8
  9
$HANDSEED
  5
C8
  9
$SURFTAB1
 70
     6
  9
$SURFTAB2
 70
     6
  9
$SURFTYPE
 70
     6
  9
$SURFU
 70
     6
  9
$SURFV
 70
     6
  9
$UCSBASE
  2

  9
$UCSNAME
  2

  9
$UCSORG
 10
0.0
 20
0.0
 30
0.0
  9
$UCSXDIR
 10
1.0
 20
0.0
 30
0.0
  9
$UCSYDIR
 10
0.0
 20
1.0
 30
0.0
  9
$UCSORTHOREF
  2

  9
$UCSORTHOVIEW
 70
     0
  9
$UCSORGTOP
 10
0.0
 20
0.0
 30
0.0
  9
$UCSORGBOTTOM
 10
0.0
 20
0.0
 30
0.0
  9
$UCSORGLEFT
 10
0.0
 20
0.0
 30
0.0
  9
$UCSORGRIGHT
 10
0.0
 20
0.0
 30
0.0
  9
$UCSORGFRONT
 10
0.0
 20
0.0
 30
0.0
  9
$UCSORGBACK
 10
0.0
 20
0.0
 30
0.0
  9
$PUCSBASE
  2

  9
$PUCSNAME
  2

  9
$PUCSORG
 10
0.0
 20
0.0
 30
0.0
  9
$PUCSXDIR
 10
1.0
 20
0.0
 30
0.0
  9
$PUCSYDIR
 10
0.0
 20
1.0
 30
0.0
  9
$PUCSORTHOREF
  2

  9
$PUCSORTHOVIEW
 70
     0
  9
$PUCSORGTOP
 10
0.0
 20
0.0
 30
0.0
  9
$PUCSORGBOTTOM
 10
0.0
 20
0.0
 30
0.0
  9
$PUCSORGLEFT
 10
0.0
 20
0.0
 30
0.0
  9
$PUCSORGRIGHT
 10
0.0
 20
0.0
 30
0.0
  9
$PUCSORGFRONT
 10
0.0
 20
0.0
 30
0.0
  9
$PUCSORGBACK
 10
0.0
 20
0.0
 30
0.0
  9
$USERI1
 70
     0
  9
$USERI2
 70
     0
  9
$USERI3
 70
     0
  9
$USERI4
 70
     0
  9
$USERI5
 70
     0
  9
$USERR1
 40
14.5
  9
$USERR2
 40
0.0
  9
$USERR3
 40
0.0
  9
$USERR4
 40
0.0
  9
$USERR5
 40
0.0
  9
$WORLDVIEW
 70
     1
  9
$SHADEDGE
 70
     3
  9
$SHADEDIF
 70
    70
  9
$TILEMODE
 70
     1
  9
$MAXACTVP
 70
    64
  9
$PINSBASE
 10
0.0
 20
0.0
 30
0.0
  9
$PLIMCHECK
 70
     0
  9
$PEXTMIN
 10
1.00000000000000E+20
 20
1.00000000000000E+20
 30
1.00000000000000E+20
  9
$PEXTMAX
 10
-1.00000000000000E+20
 20
-1.00000000000000E+20
 30
-1.00000000000000E+20
  9
$PLIMMIN
 10
0.0
 20
0.0
  9
$PLIMMAX
 10
12.0
 20
9.0
  9
$UNITMODE
 70
     0
  9
$VISRETAIN
 70
     1
  9
$PLINEGEN
 70
     0
  9
$PSLTSCALE
 70
     1
  9
$TREEDEPTH
 70
  3020
  9
$CMLSTYLE
  2
Standard
  9
$CMLJUST
 70
     0
  9
$CMLSCALE
 40
1.0
  9
$PROXYGRAPHICS
 70
     1
  9
$MEASUREMENT
 70
     1
  9
$CELWEIGHT
370
    -1
  9
$ENDCAPS
280
     0
  9
$JOINSTYLE
280
     0
  9
$LWDISPLAY
290
     0
  9
$INSUNITS
 70
     1
  9
$HYPERLINKBASE
  1

  9
$STYLESHEET
  1

  9
$XEDIT
290
     1
  9
$CEPSNTYPE
380
     0
  9
$PSTYLEMODE
290
     1
  9
$FINGERPRINTGUID
  2
{B7AE1BB0-DDDB-45ED-9548-12900117A164}
  9
$VERSIONGUID
  2
{FAEB1C32-E019-11D5-929B-00C0DF256EC4}
  9
$EXTNAMES
290
     1
  9
$PSVPSCALE
 40
0.0
  9
$OLESTARTUP
290
     0
  0
ENDSEC
  0
SECTION
  2
CLASSES
  0
CLASS
  1
ACDBDICTIONARYWDFLT
  2
AcDbDictionaryWithDefault
  3
ObjectDBX Classes
 90
        0
280
     0
281
     0
  0
CLASS
  1

  2
exOdDbCircle
  3

 90
        0
280
     0
281
     1
  0
CLASS
  1

  2
exOdDbPolyline
  3

 90
        0
280
     0
281
     1
  0
CLASS
  1
ACDBPLACEHOLDER
  2
AcDbPlaceHolder
  3
ObjectDBX Classes
 90
        0
280
     0
281
     0
  0
CLASS
  1
LAYOUT
  2
AcDbLayout
  3
ObjectDBX Classes
 90
        0
280
     0
281
     0
  0
ENDSEC
  0
SECTION
  2
TABLES
  0
TABLE
  2
VPORT
  5
8
330
0
100
AcDbSymbolTable
 70
     1
  0
VPORT
  5
29
330
8
100
AcDbSymbolTableRecord
100
AcDbViewportTableRecord
  2
*Active
 70
     0
 10
0.0
 20
0.0
 11
1.0
 21
1.0
 12
132.7229447011867
 22
158.2445797570036
 13
0.0
 23
0.0
 14
0.5
 24
0.5
 15
0.5
 25
0.5
 16
0.0
 26
0.0
 36
1.0
 17
0.0
 27
0.0
 37
0.0
 40
184.5007843660605
 41
1.60267857142857
 42
50.0
 43
0.0
 44
0.0
 50
0.0
 51
0.0
 71
     0
 72
   100
 73
     1
 74
     3
 75
     0
 76
     0
 77
     0
 78
     0
281
     0
 65
     1
110
0.0
120
0.0
130
0.0
111
1.0
121
0.0
131
0.0
112
0.0
122
1.0
132
0.0
 79
     0
146
0.0
  0
ENDTAB
  0
TABLE
  2
LTYPE
  5
5
330
0
100
AcDbSymbolTable
 70
     8
  0
LTYPE
  5
14
330
5
100
AcDbSymbolTableRecord
100
AcDbLinetypeTableRecord
  2
ByBlock
 70
     0
  3

 72
    65
 73
     0
 40
0.0
  0
LTYPE
  5
15
330
5
100
AcDbSymbolTableRecord
100
AcDbLinetypeTableRecord
  2
ByLayer
 70
     0
  3

 72
    65
 73
     0
 40
0.0
  0
LTYPE
  5
16
330
5
100
AcDbSymbolTableRecord
100
AcDbLinetypeTableRecord
  2
Continuous
 70
     0
  3
Solid line
 72
    65
 73
     0
 40
0.0
  0
LTYPE
  5
2A
330
5
100
AcDbSymbolTableRecord
100
AcDbLinetypeTableRecord
  2
DASHED
 70
     0
  3
Dashed
 72
    65
 73
     2
 40
15.0
 49
7.0
 74
     0
 49
-8.0
 74
     0
  0
LTYPE
  5
2B
330
5
100
AcDbSymbolTableRecord
100
AcDbLinetypeTableRecord
  2
DOTTED
 70
     0
  3
Dotted
 72
    65
 73
     2
 40
1.0
 49
0.0
 74
     0
 49
-1.0
 74
     0
  0
LTYPE
  5
2C
330
5
100
AcDbSymbolTableRecord
100
AcDbLinetypeTableRecord
  2
DOT_CENTER
 70
     0
  3
Dot_Center
 72
    65
 73
     4
 40
14.0
 49
12.0
 74
     0
 49
-1.0
 74
     0
 49
0.0
 74
     0
 49
-1.0
 74
     0
  0
LTYPE
  5
2D
330
5
100
AcDbSymbolTableRecord
100
AcDbLinetypeTableRecord
  2
LONG_DASHED
 70
     0
  3
Long_Dashed
 72
    65
 73
     2
 40
15.0
 49
10.0
 74
     0
 49
-5.0
 74
     0
  0
LTYPE
  5
2E
330
5
100
AcDbSymbolTableRecord
100
AcDbLinetypeTableRecord
  2
DASH_CENTER
 70
     0
  3
Dash_Center
 72
    65
 73
     4
 40
14.0
 49
11.0
 74
     0
 49
-1.0
 74
     0
 49
1.0
 74
     0
 49
-1.0
 74
     0
  0
LTYPE
  5
2F
330
5
100
AcDbSymbolTableRecord
100
AcDbLinetypeTableRecord
  2
PHANTOM
 70
     0
  3
Phantom
 72
    65
 73
     6
 40
13.0
 49
10.0
 74
     0
 49
-1.0
 74
     0
 49
0.0
 74
     0
 49
-1.0
 74
     0
 49
0.0
 74
     0
 49
-1.0
 74
     0
  0
LTYPE
  5
30
330
5
100
AcDbSymbolTableRecord
100
AcDbLinetypeTableRecord
  2
CENTER_DASH_DASH
 70
     0
  3
Center_Dash_Dash
 72
    65
 73
     6
 40
14.0
 49
9.0
 74
     0
 49
-1.0
 74
     0
 49
1.0
 74
     0
 49
-1.0
 74
     0
 49
1.0
 74
     0
 49
-1.0
 74
     0
  0
ENDTAB
  0
TABLE
  2
LAYER
  5
2
330
0
100
AcDbSymbolTable
 70
     2
  0
LAYER
  5
10
330
2
100
AcDbSymbolTableRecord
100
AcDbLayerTableRecord
  2
0
 70
     0
 62
     7
  6
Continuous
370
    -3
390
F
  0
LAYER
  5
31
330
2
100
AcDbSymbolTableRecord
100
AcDbLayerTableRecord
  2
1
 70
     0
 62
     7
  6
Continuous
370
    -3
390
F
  0
ENDTAB
  0
TABLE
  2
STYLE
  5
3
330
0
100
AcDbSymbolTable
 70
     2
  0
STYLE
  5
11
330
3
100
AcDbSymbolTableRecord
100
AcDbTextStyleTableRecord
  2
Standard
 70
     0
 40
0.0
 41
1.0
 50
0.0
 71
     0
 42
0.2
  3
txt
  4

  0
STYLE
  5
3E
330
3
100
AcDbSymbolTableRecord
100
AcDbTextStyleTableRecord
  2
CONVERTER_11
 70
     0
 40
0.0
 41
0.72
 50
0.0
 71
     0
 42
0.2
  3
txt.shx
  4

  0
ENDTAB
  0
TABLE
  2
VIEW
  5
6
330
0
100
AcDbSymbolTable
 70
     0
  0
ENDTAB
  0
TABLE
  2
UCS
  5
7
330
0
100
AcDbSymbolTable
 70
     0
  0
ENDTAB
  0
TABLE
  2
APPID
  5
9
330
0
100
AcDbSymbolTable
 70
     1
  0
APPID
  5
12
330
9
100
AcDbSymbolTableRecord
100
AcDbRegAppTableRecord
  2
ACAD
 70
     0
  0
ENDTAB
  0
TABLE
  2
DIMSTYLE
  5
A
330
0
100
AcDbSymbolTable
 70
     7
100
AcDbDimStyleTable
  0
DIMSTYLE
105
27
330
A
100
AcDbSymbolTableRecord
100
AcDbDimStyleTableRecord
  2
Standard
 70
     0
340
11
  0
DIMSTYLE
105
85
102
{ACAD_REACTORS
330
86
102
}
330
A
100
AcDbSymbolTableRecord
100
AcDbDimStyleTableRecord
  2
ME10_DIM_10
 70
     0
 41
5.0
 42
1.0
 44
1.6
 73
     0
 74
     0
 77
     1
 78
    12
140
6.0
147
2.0
172
     1
173
     1
176
     2
177
     2
178
     2
271
     3
340
3E
  0
DIMSTYLE
105
90
102
{ACAD_REACTORS
330
91
102
}
330
A
100
AcDbSymbolTableRecord
100
AcDbDimStyleTableRecord
  2
ME10_DIM_11
 70
     0
 41
5.0
 42
1.0
 44
1.6
 73
     0
 74
     0
 77
     1
 78
    12
140
6.0
147
2.0
172
     1
173
     1
176
     2
177
     2
178
     2
271
     3
340
3E
  0
DIMSTYLE
105
9B
102
{ACAD_REACTORS
330
9C
102
}
330
A
100
AcDbSymbolTableRecord
100
AcDbDimStyleTableRecord
  2
ME10_DIM_12
 70
     0
  3
ƒÆ<>
 41
5.0
 42
1.0
 44
1.6
 73
     0
 74
     0
 77
     1
 78
    12
140
6.0
147
2.0
172
     1
173
     1
176
     2
177
     2
178
     2
271
     3
340
3E
  0
DIMSTYLE
105
A6
102
{ACAD_REACTORS
330
A7
102
}
330
A
100
AcDbSymbolTableRecord
100
AcDbDimStyleTableRecord
  2
ME10_DIM_13
 70
     0
 41
5.0
 42
1.0
 44
1.6
 73
     0
 74
     0
 77
     1
 78
    12
140
6.0
147
2.0
172
     1
173
     1
176
     2
177
     2
178
     2
271
     3
340
3E
  0
DIMSTYLE
105
B1
102
{ACAD_REACTORS
330
B2
102
}
330
A
100
AcDbSymbolTableRecord
100
AcDbDimStyleTableRecord
  2
ME10_DIM_14
 70
     0
 41
5.0
 42
1.0
 44
1.6
 73
     0
 74
     0
 77
     1
 78
    12
140
6.0
147
2.0
172
     1
173
     1
176
     2
177
     2
178
     2
271
     3
340
3E
  0
DIMSTYLE
105
BC
102
{ACAD_REACTORS
330
BD
102
}
330
A
100
AcDbSymbolTableRecord
100
AcDbDimStyleTableRecord
  2
ME10_DIM_15
 70
     0
  3
(<>)
 41
5.0
 42
1.0
 44
1.6
 73
     0
 74
     0
 77
     1
 78
    12
140
6.0
147
2.0
172
     1
173
     1
176
     2
177
     2
178
     2
271
     3
340
3E
  0
ENDTAB
  0
TABLE
  2
BLOCK_RECORD
  5
1
330
0
100
AcDbSymbolTable
 70
     9
  0
BLOCK_RECORD
  5
1F
330
1
100
AcDbSymbolTableRecord
100
AcDbBlockTableRecord
  2
*Model_Space
340
22
  0
BLOCK_RECORD
  5
1B
330
1
100
AcDbSymbolTableRecord
100
AcDbBlockTableRecord
  2
*Paper_Space
340
1E
  0
BLOCK_RECORD
  5
23
330
1
100
AcDbSymbolTableRecord
100
AcDbBlockTableRecord
  2
*Paper_Space0
340
26
  0
BLOCK_RECORD
  5
32
330
1
100
AcDbSymbolTableRecord
100
AcDbBlockTableRecord
  2
_D37
340
0
102
{BLKREFS
331
36
102
}
  0
BLOCK_RECORD
  5
35
330
1
100
AcDbSymbolTableRecord
100
AcDbBlockTableRecord
  2
040402__2004_04_05__9_09_30
340
0
102
{BLKREFS
331
39
102
}
  0
BLOCK_RECORD
  5
7C
330
1
100
AcDbSymbolTableRecord
100
AcDbBlockTableRecord
  2
*D3
340
0
  0
BLOCK_RECORD
  5
87
330
1
100
AcDbSymbolTableRecord
100
AcDbBlockTableRecord
  2
*D4
340
0
  0
BLOCK_RECORD
  5
92
330
1
100
AcDbSymbolTableRecord
100
AcDbBlockTableRecord
  2
*D5
340
0
  0
BLOCK_RECORD
  5
9D
330
1
100
AcDbSymbolTableRecord
100
AcDbBlockTableRecord
  2
*D6
340
0
  0
BLOCK_RECORD
  5
A8
330
1
100
AcDbSymbolTableRecord
100
AcDbBlockTableRecord
  2
*D7
340
0
  0
BLOCK_RECORD
  5
B3
330
1
100
AcDbSymbolTableRecord
100
AcDbBlockTableRecord
  2
*D8
340
0
  0
ENDTAB
  0
ENDSEC
  0
SECTION
  2
BLOCKS
  0
BLOCK
  5
20
330
1F
100
AcDbEntity
  8
0
100
AcDbBlockBegin
  2
*Model_Space
 70
     0
 71
     0
 10
0.0
 20
0.0
 30
0.0
  3
*Model_Space
  1

  0
ENDBLK
  5
21
330
1F
100
AcDbEntity
  8
0
100
AcDbBlockEnd
  0
BLOCK
  5
1C
330
1B
100
AcDbEntity
 67
     1
  8
0
100
AcDbBlockBegin
  2
*Paper_Space
 70
     0
 71
     0
 10
0.0
 20
0.0
 30
0.0
  3
*Paper_Space
  1

  0
ENDBLK
  5
1D
330
1B
100
AcDbEntity
 67
     1
  8
0
100
AcDbBlockEnd
  0
BLOCK
  5
24
330
23
100
AcDbEntity
  8
0
100
AcDbBlockBegin
  2
*Paper_Space0
 70
     0
 71
     0
 10
0.0
 20
0.0
 30
0.0
  3
*Paper_Space0
  1

  0
ENDBLK
  5
25
330
23
100
AcDbEntity
  8
0
100
AcDbBlockEnd
  0
BLOCK
  5
33
330
32
100
AcDbEntity
  8
0
100
AcDbBlockBegin
  2
_D37
 70
     0
 71
     0
 10
0.0
 20
0.0
 30
0.0
  3
_D37
  1

  0
LINE
  5
3A
330
32
100
AcDbEntity
  8
1
  6
Continuous
 62
     2
100
AcDbLine
 10
331.849718048284
 20
430.783693677608
 30
0.0
 11
340.896668387877
 21
443.315615825797
 31
0.0
  0
LINE
  5
3B
102
{ACAD_REACTORS
330
40
330
40
102
}
330
32
100
AcDbEntity
  8
1
  6
Continuous
 62
     2
100
AcDbLine
 10
335.310063568862
 20
434.452388047713
 30
0.0
 11
334.24262718085
 21
435.222983641815
 31
0.0
  0
LINE
  5
3C
102
{ACAD_REACTORS
330
40
330
40
102
}
330
32
100
AcDbEntity
  8
1
  6
Continuous
 62
     2
100
AcDbLine
 10
334.24262718085
 20
435.222983641815
 30
0.0
 11
331.849718048284
 21
430.783693677608
 31
0.0
  0
LINE
  5
3D
102
{ACAD_REACTORS
330
40
330
40
102
}
330
32
100
AcDbEntity
  8
1
  6
Continuous
 62
     2
100
AcDbLine
 10
331.849718048284
 20
430.783693677608
 30
0.0
 11
335.310063568862
 21
434.452388047713
 31
0.0
  0
MTEXT
  5
3F
330
32
100
AcDbEntity
  8
1
 62
     2
100
AcDbMText
 10
320.303494463504
 20
444.937164986988
 30
0.0
 40
6.0
 41
0.0
 71
     7
 72
     1
  1
‚r‚q72.5
  7
CONVERTER_11
 11
0.999999999997062
 21
2.424068405545310E-6
 31
0.0
 73
     1
 44
1.0
  0
HATCH
  5
40
330
32
100
AcDbEntity
  8
1
  6
Continuous
 62
     2
100
AcDbHatch
 10
0.0
 20
0.0
 30
0.0
210
0.0
220
0.0
230
1.0
  2
SOLID
 70
     1
 71
     1
 91
        1
 92
        1
 93
        3
 72
     1
 10
335.310063568862
 20
434.452388047713
 11
334.24262718085
 21
435.222983641815
 72
     1
 10
334.24262718085
 20
435.222983641815
 11
331.849718048284
 21
430.783693677608
 72
     1
 10
331.849718048284
 20
430.783693677608
 11
335.310063568862
 21
434.452388047713
 97
        3
330
3B
330
3C
330
3D
 75
     0
 76
     1
 98
        1
 10
0.0
 20
0.0
  0
ENDBLK
  5
34
330
32
100
AcDbEntity
  8
0
100
AcDbBlockEnd
  0
BLOCK
  5
37
330
35
100
AcDbEntity
  8
0
100
AcDbBlockBegin
  2
040402__2004_04_05__9_09_30
 70
     0
 71
     0
 10
-3.54754103685241
 20
2174.60561408834
 30
0.0
  3
040402__2004_04_05__9_09_30
  1

  0
INSERT
  5
36
330
35
100
AcDbEntity
  8
1
100
AcDbBlockReference
  2
_D37
 10
0.0
 20
0.0
 30
0.0
  0
POINT
  5
41
330
35
100
AcDbEntity
  8
1
 62
     7
100
AcDbPoint
 10
215.914113302092
 20
367.800807253845
 30
0.0
  0
POINT
  5
42
330
35
100
AcDbEntity
  8
1
 62
     7
100
AcDbPoint
 10
215.413621812992
 20
366.800807253845
 30
0.0
  0
POINT
  5
43
330
35
100
AcDbEntity
  8
1
 62
     7
100
AcDbPoint
 10
361.906717167368
 20
373.001370066121
 30
0.0
  0
POINT
  5
44
330
35
100
AcDbEntity
  8
1
 62
     7
100
AcDbPoint
 10
216.920526458616
 20
373.001370066124
 30
0.0
  0
POINT
  5
45
330
35
100
AcDbEntity
  8
1
 62
     7
100
AcDbPoint
 10
363.413621812992
 20
367.300807253845
 30
0.0
  0
POINT
  5
46
330
35
100
AcDbEntity
  8
1
 62
     7
100
AcDbPoint
 10
215.413621812992
 20
366.800807253845
 30
0.0
  0
POINT
  5
47
330
35
100
AcDbEntity
  8
1
 62
     7
100
AcDbPoint
 10
215.413621812992
 20
366.800807253845
 30
0.0
  0
POINT
  5
48
330
35
100
AcDbEntity
  8
1
 62
     7
100
AcDbPoint
 10
217.168234521657
 20
358.000807253846
 30
0.0
  0
POINT
  5
49
330
35
100
AcDbEntity
  8
1
 62
     7
100
AcDbPoint
 10
215.413621812992
 20
366.800807253845
 30
0.0
  0
POINT
  5
4A
330
35
100
AcDbEntity
  8
1
 62
     7
100
AcDbPoint
 10
289.413621812992
 20
444.500807253845
 30
0.0
  0
POINT
  5
4B
330
35
100
AcDbEntity
  8
1
 62
     7
100
AcDbPoint
 10
289.413621812992
 20
444.500807253845
 30
0.0
  0
POINT
  5
4C
330
35
100
AcDbEntity
  8
1
 62
     7
100
AcDbPoint
 10
217.168234521657
 20
358.000807253846
 30
0.0
  0
LINE
  5
4D
330
35
100
AcDbEntity
  8
1
  6
DASHED
 62
     2
100
AcDbLine
 10
360.344112634654
 20
367.800807253845
 30
0.0
 11
360.164718324358
 21
372.937988159766
 31
0.0
  0
LINE
  5
4E
330
35
100
AcDbEntity
  8
1
  6
DASHED
 62
     2
100
AcDbLine
 10
218.483130991429
 20
367.800807253845
 30
0.0
 11
218.662525301627
 21
372.9379881598
 31
0.0
  0
LINE
  5
4F
330
35
100
AcDbEntity
  8
1
  6
DOT_CENTER
 62
     2
100
AcDbLine
 10
289.413621812992
 20
352.42325924626
 30
0.0
 11
289.413621812992
 21
446.82325924626
 31
0.0
  0
LINE
  5
50
330
35
100
AcDbEntity
  8
0
  6
Continuous
 62
     7
100
AcDbLine
 10
217.447600677628
 20
366.800807253845
 30
0.0
 11
217.320616061278
 21
362.800807253845
 31
0.0
  0
LINE
  5
51
330
35
100
AcDbEntity
  8
0
  6
Continuous
 62
     7
100
AcDbLine
 10
216.682033811692
 20
367.800807253845
 30
0.0
 11
216.863621812992
 21
373.000807253846
 31
0.0
  0
LINE
  5
52
330
35
100
AcDbEntity
  8
0
  6
Continuous
 62
     7
100
AcDbLine
 10
215.413621812992
 20
366.800807253845
 30
0.0
 11
215.413621812992
 21
367.300807253845
 31
0.0
  0
LINE
  5
53
330
35
100
AcDbEntity
  8
0
  6
Continuous
 62
     2
100
AcDbLine
 10
361.962355901091
 20
373.000807253846
 30
0.0
 11
216.864887724892
 21
373.000807253846
 31
0.0
  0
LINE
  5
54
330
35
100
AcDbEntity
  8
0
  6
Continuous
 62
     7
100
AcDbLine
 10
362.913130323992
 20
367.800807253845
 30
0.0
 11
215.914113302092
 21
367.800807253845
 31
0.0
  0
LINE
  5
55
330
35
100
AcDbEntity
  8
0
  6
Continuous
 62
     7
100
AcDbLine
 10
363.413621812992
 20
366.800807253845
 30
0.0
 11
223.968027132044
 21
366.800807253845
 31
0.0
  0
LINE
  5
56
330
35
100
AcDbEntity
  8
0
  6
Continuous
 62
     7
100
AcDbLine
 10
269.553304890978
 20
358.000807253846
 30
0.0
 11
309.553304890978
 21
358.000807253846
 31
0.0
  0
LINE
  5
57
330
35
100
AcDbEntity
  8
0
  6
Continuous
 62
     7
100
AcDbLine
 10
220.490524029577
 20
358.000807253846
 30
0.0
 11
217.168234521657
 21
358.000807253846
 31
0.0
  0
LINE
  5
58
330
35
100
AcDbEntity
  8
0
  6
Continuous
 62
     7
100
AcDbLine
 10
361.686945719948
 20
358.000807253846
 30
0.0
 11
358.336717999545
 21
358.000807253846
 31
0.0
  0
LINE
  5
59
330
35
100
AcDbEntity
  8
0
  6
Continuous
 62
     7
100
AcDbLine
 10
363.413621812992
 20
366.800807253845
 30
0.0
 11
363.413621812992
 21
367.300807253845
 31
0.0
  0
LINE
  5
5A
330
35
100
AcDbEntity
  8
0
  6
Continuous
 62
     7
100
AcDbLine
 10
361.379642948464
 20
366.800807253845
 30
0.0
 11
361.519326026411
 21
362.800807253845
 31
0.0
  0
LINE
  5
5B
330
35
100
AcDbEntity
  8
0
  6
Continuous
 62
     7
100
AcDbLine
 10
362.145209814392
 20
367.800807253845
 30
0.0
 11
361.963621812992
 21
373.000807253846
 31
0.0
  0
LINE
  5
5C
330
35
100
AcDbEntity
  8
0
  6
Continuous
 62
     7
100
AcDbLine
 10
217.447600677628
 20
366.800807253845
 30
0.0
 11
215.413621812992
 21
366.800807253845
 31
0.0
  0
LINE
  5
5D
330
35
100
AcDbEntity
  8
0
  6
Continuous
 62
     7
100
AcDbLine
 10
223.968027132044
 20
366.800807253845
 30
0.0
 11
217.447600677628
 21
366.800807253845
 31
0.0
  0
LINE
  5
5E
330
35
100
AcDbEntity
  8
1
  6
Continuous
 62
     7
100
AcDbLine
 10
358.336717999545
 20
358.000807253846
 30
0.0
 11
309.553304890978
 21
358.000807253846
 31
0.0
  0
LINE
  5
5F
330
35
100
AcDbEntity
  8
1
  6
Continuous
 62
     7
100
AcDbLine
 10
269.553304890978
 20
358.000807253846
 30
0.0
 11
220.489996494877
 21
358.000807253846
 31
0.0
  0
LINE
  5
60
102
{ACAD_REACTORS
330
C3
330
C3
102
}
330
35
100
AcDbEntity
  8
1
  6
Continuous
 62
     7
100
AcDbLine
 10
361.913621812992
 20
361.800807253845
 30
0.0
 11
361.652024950461
 21
359.000807253846
 31
0.0
  0
LINE
  5
61
102
{ACAD_REACTORS
330
C3
330
C3
102
}
330
35
100
AcDbEntity
  8
1
  6
Continuous
 62
     7
100
AcDbLine
 10
216.913621812992
 20
361.800807253845
 30
0.0
 11
217.199980675745
 21
359.000807253846
 31
0.0
  0
LINE
  5
62
102
{ACAD_REACTORS
330
C3
330
C3
102
}
330
35
100
AcDbEntity
  8
1
  6
Continuous
 62
     2
100
AcDbLine
 10
217.199980675745
 20
359.000807253846
 30
0.0
 11
361.652024950461
 21
359.000807253846
 31
0.0
  0
LINE
  5
63
330
35
100
AcDbEntity
  8
0
  6
Continuous
 62
     7
100
AcDbLine
 10
361.652024950461
 20
359.000807253846
 30
0.0
 11
361.686945719948
 21
358.000807253846
 31
0.0
  0
LINE
  5
64
330
35
100
AcDbEntity
  8
0
  6
Continuous
 62
     7
100
AcDbLine
 10
217.199980675745
 20
359.000807253846
 30
0.0
 11
217.168234521657
 21
358.000807253846
 31
0.0
  0
LINE
  5
65
330
35
100
AcDbEntity
  8
1
  6
Continuous
 62
     7
100
AcDbLine
 10
287.413621812992
 20
149.686265004622
 30
0.0
 11
287.413621812992
 21
150.514552499747
 31
0.0
  0
LINE
  5
66
330
35
100
AcDbEntity
  8
1
  6
Continuous
 62
     7
100
AcDbLine
 10
291.413621812992
 20
149.713639307392
 30
0.0
 11
291.413621812992
 21
150.514552499747
 31
0.0
  0
LINE
  5
67
102
{ACAD_REACTORS
330
C3
330
C3
102
}
330
35
100
AcDbEntity
  8
1
  6
Continuous
 62
     7
100
AcDbLine
 10
216.913621812992
 20
361.800807253845
 30
0.0
 11
216.913621812992
 21
362.800807253845
 31
0.0
  0
LINE
  5
68
102
{ACAD_REACTORS
330
C3
330
C3
102
}
330
35
100
AcDbEntity
  8
1
  6
Continuous
 62
     7
100
AcDbLine
 10
361.913621812992
 20
362.800807253845
 30
0.0
 11
216.913621812992
 21
362.800807253845
 31
0.0
  0
LINE
  5
69
102
{ACAD_REACTORS
330
C3
330
C3
102
}
330
35
100
AcDbEntity
  8
1
  6
Continuous
 62
     7
100
AcDbLine
 10
361.913621812992
 20
361.800807253845
 30
0.0
 11
361.913621812992
 21
362.800807253845
 31
0.0
  0
ARC
  5
6A
330
35
100
AcDbEntity
  8
0
  6
Continuous
 62
     7
100
AcDbCircle
 10
362.913621812992
 20
367.300807253845
 30
0.0
 40
0.5
100
AcDbArc
 50
0.0
 51
90.0
  0
ARC
  5
6B
330
35
100
AcDbEntity
  8
0
  6
Continuous
 62
     7
100
AcDbCircle
 10
215.913621812992
 20
367.300807253845
 30
0.0
 40
0.5
100
AcDbArc
 50
90.0
 51
180.0
  0
ARC
  5
6C
330
35
100
AcDbEntity
  8
0
  6
Continuous
 62
     7
100
AcDbCircle
 10
289.413621812992
 20
372.000807253846
 30
0.0
 40
72.49999999999898
100
AcDbArc
 50
90.0
 51
179.2092434998994
  0
ARC
  5
6D
330
35
100
AcDbEntity
  8
1
  6
Continuous
 62
     7
100
AcDbCircle
 10
289.413621812992
 20
222.761173726679
 30
0.0
 40
73.07490872205672
100
AcDbArc
 50
-91.56833408446009
 51
-88.43166591553991
  0
ARC
  5
6E
330
35
100
AcDbEntity
  8
1
  6
Continuous
 62
     7
100
AcDbCircle
 10
289.413621812992
 20
222.761173726679
 30
0.0
 40
72.274298880776
100
AcDbArc
 50
90.0
 51
-91.58571152907827
  0
ARC
  5
6F
330
35
100
AcDbEntity
  8
1
  6
Continuous
 62
     7
100
AcDbCircle
 10
289.413621812992
 20
222.761173726679
 30
0.0
 40
72.2742988807763
100
AcDbArc
 50
-88.41428847092175
 51
90.0
  0
ARC
  5
70
102
{ACAD_REACTORS
330
C1
330
C1
102
}
330
35
100
AcDbEntity
  8
1
  6
Continuous
 62
     7
100
AcDbCircle
 10
289.413621812992
 20
222.761173726679
 30
0.0
 40
73.99999999999997
100
AcDbArc
 50
90.0
 51
91.85082068989561
  0
ARC
  5
71
102
{ACAD_REACTORS
330
C1
330
C1
102
}
330
35
100
AcDbEntity
  8
1
  6
Continuous
 62
     7
100
AcDbCircle
 10
289.413621812992
 20
222.761173726679
 30
0.0
 40
73.9999999999994
100
AcDbArc
 50
88.14917931010436
 51
90.0
  0
ARC
  5
72
102
{ACAD_REACTORS
330
C1
330
C1
102
}
330
35
100
AcDbEntity
  8
1
  6
Continuous
 62
     7
100
AcDbCircle
 10
289.413621812992
 20
222.761173726679
 30
0.0
 40
74.00000000000037
100
AcDbArc
 50
91.85082068989561
 51
88.14917931010436
  0
ARC
  5
73
330
35
100
AcDbEntity
  8
0
  6
Continuous
 62
     7
100
AcDbCircle
 10
289.413621812992
 20
372.000807253846
 30
0.0
 40
72.49999999999973
100
AcDbArc
 50
0.79075650009825
 51
90.0
  0
CIRCLE
  5
74
102
{ACAD_REACTORS
330
BF
330
BF
330
C0
330
C0
102
}
330
35
100
AcDbEntity
  8
1
  6
Continuous
 62
     2
100
AcDbCircle
 10
289.413621812992
 20
222.761173726679
 30
0.0
 40
70.68981539090197
  0
CIRCLE
  5
75
102
{ACAD_REACTORS
330
BE
330
BE
330
BF
330
BF
102
}
330
35
100
AcDbEntity
  8
1
  6
Continuous
 62
     7
100
AcDbCircle
 10
289.413621812992
 20
222.761173726679
 30
0.0
 40
71.27381154246098
  0
CIRCLE
  5
76
102
{ACAD_REACTORS
330
BE
330
BE
330
C1
330
C1
102
}
330
35
100
AcDbEntity
  8
1
  6
DASHED
 62
     2
100
AcDbCircle
 10
289.413621812992
 20
222.761173726679
 30
0.0
 40
72.73158800129897
  0
DIMENSION
  5
86
330
35
100
AcDbEntity
  8
1
100
AcDbDimension
  2
*D3
 10
202.852776996781
 20
367.8008072538449
 30
0.0
 11
197.852776996781
 21
380.769290904824
 31
0.0
 70
    32
  1
1
 71
     5
 42
-1.0
 53
90.0
  3
ME10_DIM_10
100
AcDbAlignedDimension
 13
215.413621812992
 23
366.800807253845
 33
0.0
 14
215.914113302092
 24
367.800807253845
 34
0.0
 50
90.0
100
AcDbRotatedDimension
  0
DIMENSION
  5
91
330
35
100
AcDbEntity
  8
1
100
AcDbDimension
  2
*D4
 10
361.906717167368
 20
476.217123833794
 30
0.0
 11
289.413621812992
 21
481.217123833794
 31
0.0
 70
    32
  1
ƒÓ145
 71
     5
 42
-1.0
 53
0.00013888888889
  3
ME10_DIM_11
100
AcDbAlignedDimension
 13
216.920526458616
 23
373.001370066124
 33
0.0
 14
361.906717167368
 24
373.001370066121
 34
0.0
100
AcDbRotatedDimension
  0
DIMENSION
  5
9C
330
35
100
AcDbEntity
  8
1
100
AcDbDimension
  2
*D5
 10
363.413621812992
 20
333.940094336294
 30
0.0
 11
289.413621812992
 21
338.940094336294
 31
0.0
 70
    32
  1
ƒÆ148
 71
     5
 42
-1.0
 53
0.00013888888889
  3
ME10_DIM_12
100
AcDbAlignedDimension
 13
215.413621812992
 23
366.800807253845
 33
0.0
 14
363.413621812992
 24
367.300807253845
 34
0.0
100
AcDbRotatedDimension
  0
DIMENSION
  5
A7
330
35
100
AcDbEntity
  8
1
100
AcDbDimension
  2
*D6
 10
190.077954327769
 20
366.800807253845
 30
0.0
 11
185.077954327769
 21
340.619848230784
 31
0.0
 70
    32
  1
8.8
 71
     5
 42
-1.0
 53
90.0
  3
ME10_DIM_13
100
AcDbAlignedDimension
 13
217.168234521657
 23
358.000807253846
 33
0.0
 14
215.413621812992
 24
366.800807253845
 34
0.0
 50
90.0
100
AcDbRotatedDimension
  0
DIMENSION
  5
B2
330
35
100
AcDbEntity
  8
1
100
AcDbDimension
  2
*D7
 10
190.077954327769
 20
366.8008072538451
 30
0.0
 11
185.077954327769
 21
405.650807253845
 31
0.0
 70
    32
  1
77.7
 71
     5
 42
-1.0
 53
90.0
  3
ME10_DIM_14
100
AcDbAlignedDimension
 13
289.413621812992
 23
444.500807253845
 33
0.0
 14
215.413621812992
 24
366.800807253845
 34
0.0
 50
90.0
100
AcDbRotatedDimension
  0
DIMENSION
  5
BD
330
35
100
AcDbEntity
  8
1
100
AcDbDimension
  2
*D8
 10
175.478156991755
 20
444.5008072538451
 30
0.0
 11
170.478156991755
 21
401.250807253846
 31
0.0
 70
    32
  1
(86.5
 71
     5
 42
-1.0
 53
90.0
  3
ME10_DIM_15
100
AcDbAlignedDimension
 13
217.168234521657
 23
358.000807253846
 33
0.0
 14
289.413621812992
 24
444.500807253845
 34
0.0
 50
90.0
100
AcDbRotatedDimension
  0
HATCH
  5
BE
330
35
100
AcDbEntity
  8
1
  6
DOTTED
 62
     2
100
AcDbHatch
 10
0.0
 20
0.0
 30
0.0
210
0.0
220
0.0
230
1.0
  2
_USER
 70
     0
 71
     1
 91
        2
 92
        1
 93
        1
 72
     2
 10
289.413621812992
 20
222.761173726679
 40
72.73158800129897
 50
0.0
 51
360.0
 73
     1
 97
        1
330
76
 92
       16
 93
        1
 72
     2
 10
289.413621812992
 20
222.761173726679
 40
71.27381154246098
 50
0.0
 51
360.0
 73
     1
 97
        1
330
75
 75
     1
 76
     0
 52
44.99999999999998
 41
2.0
 77
     0
 78
     1
 53
44.99999999999998
 43
0.0
 44
0.0
 45
-1.414213562373094
 46
1.414213562373096
 79
     0
 98
        1
 10
0.0
 20
0.0
  0
HATCH
  5
BF
330
35
100
AcDbEntity
  8
1
  6
DOTTED
 62
     2
100
AcDbHatch
 10
0.0
 20
0.0
 30
0.0
210
0.0
220
0.0
230
1.0
  2
_USER
 70
     0
 71
     1
 91
        2
 92
        1
 93
        1
 72
     2
 10
289.413621812992
 20
222.761173726679
 40
71.27381154246098
 50
0.0
 51
360.0
 73
     1
 97
        1
330
75
 92
       16
 93
        1
 72
     2
 10
289.413621812992
 20
222.761173726679
 40
70.68981539090197
 50
0.0
 51
360.0
 73
     1
 97
        1
330
74
 75
     1
 76
     0
 52
44.99999999999998
 41
2.0
 77
     0
 78
     1
 53
44.99999999999998
 43
0.0
 44
0.0
 45
-1.414213562373094
 46
1.414213562373096
 79
     0
 98
        1
 10
0.0
 20
0.0
  0
HATCH
  5
C0
330
35
100
AcDbEntity
  8
1
  6
DOTTED
 62
     2
100
AcDbHatch
 10
0.0
 20
0.0
 30
0.0
210
0.0
220
0.0
230
1.0
  2
_USER
 70
     0
 71
     1
 91
        1
 92
        1
 93
        1
 72
     2
 10
289.413621812992
 20
222.761173726679
 40
70.68981539090197
 50
0.0
 51
360.0
 73
     1
 97
        1
330
74
 75
     1
 76
     0
 52
44.99999999999998
 41
2.0
 77
     0
 78
     1
 53
44.99999999999998
 43
0.0
 44
0.0
 45
-1.414213562373094
 46
1.414213562373096
 79
     0
 98
        1
 10
0.0
 20
0.0
  0
HATCH
  5
C1
330
35
100
AcDbEntity
  8
1
  6
DOTTED
 62
     2
100
AcDbHatch
 10
0.0
 20
0.0
 30
0.0
210
0.0
220
0.0
230
1.0
  2
_USER
 70
     0
 71
     1
 91
        2
 92
        1
 93
        3
 72
     2
 10
289.413621812992
 20
222.761173726679
 40
74.00000000000037
 50
91.85082068989561
 51
448.1491793101044
 73
     1
 72
     2
 10
289.413621812992
 20
222.761173726679
 40
73.9999999999994
 50
88.14917931010436
 51
90.0
 73
     1
 72
     2
 10
289.413621812992
 20
222.761173726679
 40
73.99999999999997
 50
90.0
 51
91.85082068989561
 73
     1
 97
        3
330
72
330
71
330
70
 92
       16
 93
        1
 72
     2
 10
289.413621812992
 20
222.761173726679
 40
72.73158800129897
 50
0.0
 51
360.0
 73
     1
 97
        1
330
76
 75
     1
 76
     0
 52
44.99999999999998
 41
2.0
 77
     0
 78
     1
 53
44.99999999999998
 43
0.0
 44
0.0
 45
-1.414213562373094
 46
1.414213562373096
 79
     0
 98
        1
 10
0.0
 20
0.0
  0
HATCH
  5
C2
330
35
100
AcDbEntity
  8
1
  6
DOTTED
 62
     2
100
AcDbHatch
 10
0.0
 20
0.0
 30
0.0
210
0.0
220
0.0
230
1.0
  2
_USER
 70
     0
 71
     0
 91
        1
 92
        1
 93
       17
 72
     1
 10
361.906717167368
 20
373.001370066121
 11
360.262900549741
 21
387.383580166504
 72
     1
 10
360.262900549741
 20
387.383580166504
 11
355.794546766707
 21
401.152527654007
 72
     1
 10
355.794546766707
 20
401.152527654007
 11
348.679794982892
 21
413.759288042728
 72
     1
 10
348.679794982892
 20
413.759288042728
 11
339.202287900016
 21
424.701269578903
 72
     1
 10
339.202287900016
 20
424.701269578903
 11
327.739863817473
 21
433.542249988104
 72
     1
 10
327.739863817473
 20
433.542249988104
 11
314.749493411661
 21
439.929767280743
 72
     1
 10
314.749493411661
 20
439.929767280743
 11
300.749061757177
 21
443.609171299338
 72
     1
 10
300.749061757177
 20
443.609171299338
 11
289.413621812992
 21
444.500807253845
 72
     1
 10
289.413621812992
 20
444.500807253845
 11
275.01009533035
 21
443.055634147335
 72
     1
 10
275.01009533035
 20
443.055634147335
 11
261.180791995615
 21
438.777729319055
 72
     1
 10
261.180791995615
 20
438.777729319055
 11
248.477042491852
 21
431.837639334797
 72
     1
 10
248.477042491852
 20
431.837639334797
 11
237.405305222777
 21
422.512043681515
 72
     1
 10
237.405305222777
 20
422.512043681515
 11
228.40697541442
 21
411.172724429286
 72
     1
 10
228.40697541442
 20
411.172724429286
 11
221.840788080369
 21
398.271744453405
 72
     1
 10
221.840788080369
 20
398.271744453405
 11
217.968516388829
 21
384.323425114113
 72
     1
 10
217.968516388829
 20
384.323425114113
 11
216.920526458616
 21
373.001370066124
 72
     1
 10
216.920526458616
 20
373.001370066124
 11
361.906717167368
 21
373.001370066121
 97
        0
 75
     1
 76
     0
 52
44.99999999999998
 41
2.0
 77
     0
 78
     1
 53
44.99999999999998
 43
0.0
 44
0.0
 45
-1.414213562373094
 46
1.414213562373096
 79
     0
 98
        1
 10
0.0
 20
0.0
  0
HATCH
  5
C3
330
35
100
AcDbEntity
  8
1
  6
DOTTED
 62
     2
100
AcDbHatch
 10
0.0
 20
0.0
 30
0.0
210
0.0
220
0.0
230
1.0
  2
_USER
 70
     0
 71
     1
 91
        1
 92
        1
 93
        6
 72
     1
 10
361.913621812992
 20
362.800807253845
 11
216.913621812992
 21
362.800807253845
 72
     1
 10
216.913621812992
 20
362.800807253845
 11
216.913621812992
 21
361.800807253845
 72
     1
 10
216.913621812992
 20
361.800807253845
 11
217.199980675745
 21
359.000807253846
 72
     1
 10
217.199980675745
 20
359.000807253846
 11
361.652024950461
 21
359.000807253846
 72
     1
 10
361.652024950461
 20
359.000807253846
 11
361.913621812992
 21
361.800807253845
 72
     1
 10
361.913621812992
 20
361.800807253845
 11
361.913621812992
 21
362.800807253845
 97
        6
330
68
330
67
330
61
330
62
330
60
330
69
 75
     1
 76
     0
 52
44.99999999999998
 41
2.0
 77
     0
 78
     1
 53
44.99999999999998
 43
0.0
 44
0.0
 45
-1.414213562373094
 46
1.414213562373096
 79
     0
 98
        1
 10
0.0
 20
0.0
  0
HATCH
  5
C4
330
35
100
AcDbEntity
  8
1
  6
DOTTED
 62
     2
100
AcDbHatch
 10
0.0
 20
0.0
 30
0.0
210
0.0
220
0.0
230
1.0
  2
_USER
 70
     0
 71
     0
 91
        1
 92
        1
 93
        5
 72
     1
 10
216.920526458616
 20
373.001370066124
 11
216.682033811692
 21
367.800807253845
 72
     1
 10
216.682033811692
 20
367.800807253845
 11
222.945647073911
 21
367.800807253845
 72
     1
 10
222.945647073911
 20
367.800807253845
 11
362.145209814392
 21
367.800807253845
 72
     1
 10
362.145209814392
 20
367.800807253845
 11
361.963621812992
 21
373.000807253846
 72
     1
 10
361.963621812992
 20
373.000807253846
 11
216.920526458616
 21
373.001370066124
 97
        0
 75
     1
 76
     0
 52
44.99999999999998
 41
2.0
 77
     0
 78
     1
 53
44.99999999999998
 43
0.0
 44
0.0
 45
-1.414213562373094
 46
1.414213562373096
 79
     0
 98
        1
 10
0.0
 20
0.0
  0
HATCH
  5
C5
330
35
100
AcDbEntity
  8
1
  6
DOTTED
 62
     2
100
AcDbHatch
 10
0.0
 20
0.0
 30
0.0
210
0.0
220
0.0
230
1.0
  2
_USER
 70
     0
 71
     0
 91
        1
 92
        1
 93
       17
 72
     1
 10
215.413621812992
 20
366.800807253845
 11
363.413621812992
 21
366.800807253845
 72
     1
 10
363.413621812992
 20
366.800807253845
 11
363.413621812992
 21
367.300807253845
 72
     1
 10
363.413621812992
 20
367.300807253845
 11
363.403655101912
 21
367.400141919243
 72
     1
 10
363.403655101912
 20
367.400141919243
 11
363.374152309993
 21
367.495516424999
 72
     1
 10
363.374152309993
 20
367.495516424999
 11
363.326289620446
 21
367.583128490543
 72
     1
 10
363.326289620446
 20
367.583128490543
 11
363.261975167665
 21
367.659485299295
 72
     1
 10
363.261975167665
 20
367.659485299295
 11
363.183772965926
 21
367.721542746249
 72
     1
 10
363.183772965926
 20
367.721542746249
 11
363.09480069023
 21
367.766826796829
 72
     1
 10
363.09480069023
 20
367.766826796829
 11
362.998605384442
 21
367.793532118839
 72
     1
 10
362.998605384442
 20
367.793532118839
 11
362.913621812992
 21
367.800807253845
 72
     1
 10
362.913621812992
 20
367.800807253845
 11
362.586946746623
 21
367.800807253845
 72
     1
 10
362.586946746623
 20
367.800807253845
 11
360.033446598927
 21
367.800807253845
 72
     1
 10
360.033446598927
 20
367.800807253845
 11
216.070351804735
 21
367.800807253845
 72
     1
 10
216.070351804735
 20
367.800807253845
 11
215.761764098316
 21
367.777188649886
 72
     1
 10
215.761764098316
 20
367.777188649886
 11
215.607494785521
 21
367.696137802946
 72
     1
 10
215.607494785521
 20
367.696137802946
 11
215.413621812992
 21
367.300807253845
 72
     1
 10
215.413621812992
 20
367.300807253845
 11
215.413621812992
 21
366.800807253845
 97
        0
 75
     1
 76
     0
 52
44.99999999999998
 41
2.0
 77
     0
 78
     1
 53
44.99999999999998
 43
0.0
 44
0.0
 45
-1.414213562373094
 46
1.414213562373096
 79
     0
 98
        1
 10
0.0
 20
0.0
  0
HATCH
  5
C6
330
35
100
AcDbEntity
  8
1
  6
DOTTED
 62
     2
100
AcDbHatch
 10
0.0
 20
0.0
 30
0.0
210
0.0
220
0.0
230
1.0
  2
_USER
 70
     0
 71
     0
 91
        1
 92
        1
 93
        6
 72
     1
 10
217.199980675745
 20
359.000807253846
 11
217.168234521657
 21
358.000807253846
 72
     1
 10
217.168234521657
 20
358.000807253846
 11
220.490524029577
 21
358.000807253846
 72
     1
 10
220.490524029577
 20
358.000807253846
 11
229.748562491389
 21
358.000807253846
 72
     1
 10
229.748562491389
 20
358.000807253846
 11
361.686945719948
 21
358.000807253846
 72
     1
 10
361.686945719948
 20
358.000807253846
 11
361.652024950461
 21
359.000807253846
 72
     1
 10
361.652024950461
 20
359.000807253846
 11
217.199980675745
 21
359.000807253846
 97
        0
 75
     1
 76
     0
 52
44.99999999999998
 41
2.0
 77
     0
 78
     1
 53
44.99999999999998
 43
0.0
 44
0.0
 45
-1.414213562373094
 46
1.414213562373096
 79
     0
 98
        1
 10
0.0
 20
0.0
  0
HATCH
  5
C7
330
35
100
AcDbEntity
  8
1
  6
DOTTED
 62
     2
100
AcDbHatch
 10
0.0
 20
0.0
 30
0.0
210
0.0
220
0.0
230
1.0
  2
_USER
 70
     0
 71
     0
 91
        1
 92
        1
 93
        5
 72
     1
 10
217.447600677628
 20
366.800807253845
 11
217.320616061278
 21
362.800807253845
 72
     1
 10
217.320616061278
 20
362.800807253845
 11
223.431401026789
 21
362.800807253845
 72
     1
 10
223.431401026789
 20
362.800807253845
 11
361.519326026411
 21
362.800807253845
 72
     1
 10
361.519326026411
 20
362.800807253845
 11
361.379642948464
 21
366.800807253845
 72
     1
 10
361.379642948464
 20
366.800807253845
 11
217.447600677628
 21
366.800807253845
 97
        0
 75
     1
 76
     0
 52
44.99999999999998
 41
2.0
 77
     0
 78
     1
 53
44.99999999999998
 43
0.0
 44
0.0
 45
-1.414213562373094
 46
1.414213562373096
 79
     0
 98
        1
 10
0.0
 20
0.0
  0
ENDBLK
  5
38
330
35
100
AcDbEntity
  8
0
100
AcDbBlockEnd
  0
BLOCK
  5
83
330
7C
100
AcDbEntity
  8
0
100
AcDbBlockBegin
  2
*D3
 70
     1
 71
     0
 10
0.0
 20
0.0
 30
0.0
  3
*D3
  1

  0
LINE
  5
7D
330
7C
100
AcDbEntity
  8
1
  6
Continuous
 62
     2
100
AcDbLine
 10
202.852776996781
 20
356.8008072538449
 30
0.0
 11
202.852776996781
 21
382.540490904824
 31
0.0
  0
LINE
  5
7E
330
7C
100
AcDbEntity
  8
1
  6
Continuous
 62
     2
100
AcDbLine
 10
214.9141133020924
 20
367.8008072538449
 30
0.0
 11
201.252776996781
 21
367.8008072538449
 31
0.0
  0
LINE
  5
7F
330
7C
100
AcDbEntity
  8
1
  6
Continuous
 62
     2
100
AcDbLine
 10
214.4136218129919
 20
366.8008072538449
 30
0.0
 11
201.252776996781
 21
366.8008072538449
 31
0.0
  0
SOLID
  5
80
330
7C
100
AcDbEntity
  8
1
 62
     2
100
AcDbTrace
 10
202.194514508844
 20
372.8008072538449
 30
0.0
 11
203.511039484718
 21
372.8008072538449
 31
0.0
 12
202.852776996781
 22
367.8008072538449
 32
0.0
 13
202.852776996781
 23
367.8008072538449
 33
0.0
  0
SOLID
  5
81
330
7C
100
AcDbEntity
  8
1
 62
     2
100
AcDbTrace
 10
203.511039484718
 20
361.8008072538449
 30
0.0
 11
202.194514508844
 21
361.8008072538449
 31
0.0
 12
202.852776996781
 22
366.8008072538449
 32
0.0
 13
202.852776996781
 23
366.8008072538449
 33
0.0
  0
MTEXT
  5
82
330
7C
100
AcDbEntity
  8
1
 62
     2
100
AcDbMText
 10
200.852776996781
 20
378.998090904824
 30
0.0
 40
6.0
 41
0.0
 71
     7
 72
     1
  1
1
  7
CONVERTER_11
 11
0.0
 21
1.0
 31
0.0
 73
     1
 44
0.60024009603842
  0
ENDBLK
  5
84
330
7C
100
AcDbEntity
  8
0
100
AcDbBlockEnd
  0
BLOCK
  5
8E
330
87
100
AcDbEntity
  8
0
100
AcDbBlockBegin
  2
*D4
 70
     1
 71
     0
 10
0.0
 20
0.0
 30
0.0
  3
*D4
  1

  0
LINE
  5
88
330
87
100
AcDbEntity
  8
1
  6
Continuous
 62
     2
100
AcDbLine
 10
216.920526458616
 20
476.217123833794
 30
0.0
 11
361.906717167368
 21
476.217123833794
 31
0.0
  0
LINE
  5
89
330
87
100
AcDbEntity
  8
1
  6
Continuous
 62
     2
100
AcDbLine
 10
361.906717167368
 20
374.001370066121
 30
0.0
 11
361.906717167368
 21
477.817123833794
 31
0.0
  0
LINE
  5
8A
330
87
100
AcDbEntity
  8
1
  6
Continuous
 62
     2
100
AcDbLine
 10
216.920526458616
 20
374.001370066124
 30
0.0
 11
216.920526458616
 21
477.817123833794
 31
0.0
  0
SOLID
  5
8B
330
87
100
AcDbEntity
  8
1
 62
     2
100
AcDbTrace
 10
356.906717167368
 20
475.5588613458571
 30
0.0
 11
356.906717167368
 21
476.875386321731
 31
0.0
 12
361.906717167368
 22
476.217123833794
 32
0.0
 13
361.906717167368
 23
476.217123833794
 33
0.0
  0
SOLID
  5
8C
330
87
100
AcDbEntity
  8
1
 62
     2
100
AcDbTrace
 10
221.920526458616
 20
476.875386321731
 30
0.0
 11
221.920526458616
 21
475.5588613458571
 31
0.0
 12
216.920526458616
 22
476.217123833794
 32
0.0
 13
216.920526458616
 23
476.217123833794
 33
0.0
  0
MTEXT
  5
8D
330
87
100
AcDbEntity
  8
1
 62
     2
100
AcDbMText
 10
280.5576290852233
 20
478.217102366253
 30
0.0
 40
6.0
 41
0.0
 71
     7
 72
     1
  1
ƒÆ145
  7
CONVERTER_11
 11
0.999999999988248
 21
4.848136811095759E-6
 31
0.0
 73
     1
 44
0.60024009603842
  0
ENDBLK
  5
8F
330
87
100
AcDbEntity
  8
0
100
AcDbBlockEnd
  0
BLOCK
  5
99
330
92
100
AcDbEntity
  8
0
100
AcDbBlockBegin
  2
*D5
 70
     1
 71
     0
 10
0.0
 20
0.0
 30
0.0
  3
*D5
  1

  0
LINE
  5
93
330
92
100
AcDbEntity
  8
1
  6
Continuous
 62
     2
100
AcDbLine
 10
215.413621812992
 20
333.940094336294
 30
0.0
 11
363.413621812992
 21
333.940094336294
 31
0.0
  0
LINE
  5
94
330
92
100
AcDbEntity
  8
1
  6
Continuous
 62
     2
100
AcDbLine
 10
363.413621812992
 20
366.3008072538447
 30
0.0
 11
363.413621812992
 21
332.340094336294
 31
0.0
  0
LINE
  5
95
330
92
100
AcDbEntity
  8
1
  6
Continuous
 62
     2
100
AcDbLine
 10
215.413621812992
 20
365.8008072538447
 30
0.0
 11
215.413621812992
 21
332.340094336294
 31
0.0
  0
SOLID
  5
96
330
92
100
AcDbEntity
  8
1
 62
     2
100
AcDbTrace
 10
358.413621812992
 20
333.2818318483571
 30
0.0
 11
358.413621812992
 21
334.598356824231
 31
0.0
 12
363.413621812992
 22
333.940094336294
 32
0.0
 13
363.413621812992
 23
333.940094336294
 33
0.0
  0
SOLID
  5
97
330
92
100
AcDbEntity
  8
1
 62
     2
100
AcDbTrace
 10
220.413621812992
 20
334.598356824231
 30
0.0
 11
220.413621812992
 21
333.2818318483571
 31
0.0
 12
215.413621812992
 22
333.940094336294
 32
0.0
 13
215.413621812992
 23
333.940094336294
 33
0.0
  0
MTEXT
  5
98
330
92
100
AcDbEntity
  8
1
 62
     2
100
AcDbMText
 10
277.8024290853181
 20
335.9400423371266
 30
0.0
 40
6.0
 41
0.0
 71
     7
 72
     1
  1
\C2;ƒÆ\C2;148
  7
CONVERTER_11
 11
0.999999999988248
 21
4.848136811095759E-6
 31
0.0
 73
     1
 44
0.60024009603842
  0
ENDBLK
  5
9A
330
92
100
AcDbEntity
  8
0
100
AcDbBlockEnd
  0
BLOCK
  5
A4
330
9D
100
AcDbEntity
  8
0
100
AcDbBlockBegin
  2
*D6
 70
     1
 71
     0
 10
0.0
 20
0.0
 30
0.0
  3
*D6
  1

  0
LINE
  5
9E
330
9D
100
AcDbEntity
  8
1
  6
Continuous
 62
     2
100
AcDbLine
 10
190.077954327769
 20
376.800807253845
 30
0.0
 11
190.077954327769
 21
335.306248230784
 31
0.0
  0
LINE
  5
9F
330
9D
100
AcDbEntity
  8
1
  6
Continuous
 62
     2
100
AcDbLine
 10
214.413621812992
 20
366.800807253845
 30
0.0
 11
188.477954327769
 21
366.800807253845
 31
0.0
  0
LINE
  5
A0
330
9D
100
AcDbEntity
  8
1
  6
Continuous
 62
     2
100
AcDbLine
 10
216.1682345216572
 20
358.0008072538461
 30
0.0
 11
188.477954327769
 21
358.0008072538461
 31
0.0
  0
SOLID
  5
A1
330
9D
100
AcDbEntity
  8
1
 62
     2
100
AcDbTrace
 10
189.419691839832
 20
371.800807253845
 30
0.0
 11
190.736216815706
 21
371.800807253845
 31
0.0
 12
190.077954327769
 22
366.800807253845
 32
0.0
 13
190.077954327769
 23
366.800807253845
 33
0.0
  0
SOLID
  5
A2
330
9D
100
AcDbEntity
  8
1
 62
     2
100
AcDbTrace
 10
190.736216815706
 20
353.0008072538461
 30
0.0
 11
189.419691839832
 21
353.0008072538461
 31
0.0
 12
190.077954327769
 22
358.0008072538461
 32
0.0
 13
190.077954327769
 23
358.0008072538461
 33
0.0
  0
MTEXT
  5
A3
330
9D
100
AcDbEntity
  8
1
 62
     2
100
AcDbMText
 10
188.077954327769
 20
335.306248230784
 30
0.0
 40
6.0
 41
0.0
 71
     7
 72
     1
  1
8.8
  7
CONVERTER_11
 11
0.0
 21
1.0
 31
0.0
 73
     1
 44
0.60024009603842
  0
ENDBLK
  5
A5
330
9D
100
AcDbEntity
  8
0
100
AcDbBlockEnd
  0
BLOCK
  5
AF
330
A8
100
AcDbEntity
  8
0
100
AcDbBlockBegin
  2
*D7
 70
     1
 71
     0
 10
0.0
 20
0.0
 30
0.0
  3
*D7
  1

  0
LINE
  5
A9
330
A8
100
AcDbEntity
  8
1
  6
Continuous
 62
     2
100
AcDbLine
 10
190.077954327769
 20
444.5008072538453
 30
0.0
 11
190.077954327769
 21
366.8008072538451
 31
0.0
  0
LINE
  5
AA
330
A8
100
AcDbEntity
  8
1
  6
Continuous
 62
     2
100
AcDbLine
 10
214.413621812992
 20
366.8008072538451
 30
0.0
 11
188.477954327769
 21
366.8008072538451
 31
0.0
  0
LINE
  5
AB
330
A8
100
AcDbEntity
  8
1
  6
Continuous
 62
     2
100
AcDbLine
 10
288.413621812992
 20
444.5008072538453
 30
0.0
 11
188.477954327769
 21
444.5008072538453
 31
0.0
  0
SOLID
  5
AC
330
A8
100
AcDbEntity
  8
1
 62
     2
100
AcDbTrace
 10
189.419691839832
 20
371.8008072538451
 30
0.0
 11
190.736216815706
 21
371.8008072538451
 31
0.0
 12
190.077954327769
 22
366.8008072538451
 32
0.0
 13
190.077954327769
 23
366.8008072538451
 33
0.0
  0
SOLID
  5
AD
330
A8
100
AcDbEntity
  8
1
 62
     2
100
AcDbTrace
 10
190.736216815706
 20
439.5008072538453
 30
0.0
 11
189.419691839832
 21
439.5008072538453
 31
0.0
 12
190.077954327769
 22
444.5008072538453
 32
0.0
 13
190.077954327769
 23
444.5008072538453
 33
0.0
  0
MTEXT
  5
AE
330
A8
100
AcDbEntity
  8
1
 62
     2
100
AcDbMText
 10
188.077954327769
 20
398.566007253845
 30
0.0
 40
6.0
 41
0.0
 71
     7
 72
     1
  1
77.7
  7
CONVERTER_11
 11
0.0
 21
1.0
 31
0.0
 73
     1
 44
0.60024009603842
  0
ENDBLK
  5
B0
330
A8
100
AcDbEntity
  8
0
100
AcDbBlockEnd
  0
BLOCK
  5
BA
330
B3
100
AcDbEntity
  8
0
100
AcDbBlockBegin
  2
*D8
 70
     1
 71
     0
 10
0.0
 20
0.0
 30
0.0
  3
*D8
  1

  0
LINE
  5
B4
330
B3
100
AcDbEntity
  8
1
  6
Continuous
 62
     2
100
AcDbLine
 10
175.478156991755
 20
358.000807253846
 30
0.0
 11
175.478156991755
 21
444.5008072538451
 31
0.0
  0
LINE
  5
B5
330
B3
100
AcDbEntity
  8
1
  6
Continuous
 62
     2
100
AcDbLine
 10
288.413621812992
 20
444.5008072538451
 30
0.0
 11
173.878156991755
 21
444.5008072538451
 31
0.0
  0
LINE
  5
B6
330
B3
100
AcDbEntity
  8
1
  6
Continuous
 62
     2
100
AcDbLine
 10
216.1682345216573
 20
358.000807253846
 30
0.0
 11
173.878156991755
 21
358.000807253846
 31
0.0
  0
SOLID
  5
B7
330
B3
100
AcDbEntity
  8
1
 62
     2
100
AcDbTrace
 10
176.136419479692
 20
439.5008072538451
 30
0.0
 11
174.819894503818
 21
439.5008072538451
 31
0.0
 12
175.478156991755
 22
444.5008072538451
 32
0.0
 13
175.478156991755
 23
444.5008072538451
 33
0.0
  0
SOLID
  5
B8
330
B3
100
AcDbEntity
  8
1
 62
     2
100
AcDbTrace
 10
174.819894503818
 20
363.000807253846
 30
0.0
 11
176.136419479692
 21
363.000807253846
 31
0.0
 12
175.478156991755
 22
358.000807253846
 32
0.0
 13
175.478156991755
 23
358.000807253846
 33
0.0
  0
MTEXT
  5
B9
330
B3
100
AcDbEntity
  8
1
 62
     2
100
AcDbMText
 10
173.478156991755
 20
389.246007253846
 30
0.0
 40
6.0
 41
0.0
 71
     7
 72
     1
  1
\C2;(\C2;86.5\C2;)
  7
CONVERTER_11
 11
0.0
 21
1.0
 31
0.0
 73
     1
 44
0.60024009603842
  0
ENDBLK
  5
BB
330
B3
100
AcDbEntity
  8
0
100
AcDbBlockEnd
  0
ENDSEC
  0
SECTION
  2
ENTITIES
  0
INSERT
  5
39
330
1F
100
AcDbEntity
  8
0
100
AcDbBlockReference
  2
040402__2004_04_05__9_09_30
 10
-1.7737705184262
 20
1087.30280704417
 30
0.0
 41
0.5
 42
0.5
 43
0.5
  0
ENDSEC
  0
SECTION
  2
OBJECTS
  0
DICTIONARY
  5
C
330
0
100
AcDbDictionary
281
     1
  3
ACAD_GROUP
350
D
  3
ACAD_LAYOUT
350
1A
  3
ACAD_MLINESTYLE
350
17
  3
ACAD_PLOTSETTINGS
350
19
  3
ACAD_PLOTSTYLENAME
350
E
  0
DICTIONARY
  5
D
102
{ACAD_REACTORS
330
C
102
}
330
C
100
AcDbDictionary
281
     1
  0
DICTIONARY
  5
1A
102
{ACAD_REACTORS
330
C
102
}
330
C
100
AcDbDictionary
281
     1
  3
Layout1
350
1E
  3
Layout2
350
26
  3
Model
350
22
  0
DICTIONARY
  5
17
102
{ACAD_REACTORS
330
C
102
}
330
C
100
AcDbDictionary
281
     1
  3
Standard
350
18
  0
DICTIONARY
  5
19
102
{ACAD_REACTORS
330
C
102
}
330
C
100
AcDbDictionary
281
     1
  0
ACDBDICTIONARYWDFLT
  5
E
102
{ACAD_REACTORS
330
C
102
}
330
C
100
AcDbDictionary
281
     1
  3
Normal
350
F
100
AcDbDictionaryWithDefault
340
F
  0
LAYOUT
  5
1E
102
{ACAD_REACTORS
330
1A
102
}
330
1A
100
AcDbPlotSettings
  1

  2

  4

  6

 40
0.0
 41
0.0
 42
0.0
 43
0.0
 44
0.0
 45
0.0
 46
0.0
 47
0.0
 48
0.0
 49
0.0
140
0.0
141
0.0
142
1.0
143
1.0
 70
   688
 72
     0
 73
     0
 74
     5
  7

 75
    16
147
1.0
148
0.0
149
0.0
100
AcDbLayout
  1
Layout1
 70
     1
 71
     1
 10
0.0
 20
0.0
 11
0.0
 21
0.0
 12
0.0
 22
0.0
 32
0.0
 14
0.0
 24
0.0
 34
0.0
 15
0.0
 25
0.0
 35
0.0
146
0.0
 13
0.0
 23
0.0
 33
0.0
 16
1.0
 26
0.0
 36
0.0
 17
0.0
 27
1.0
 37
0.0
 76
     0
330
1B
  0
LAYOUT
  5
26
102
{ACAD_REACTORS
330
1A
102
}
330
1A
100
AcDbPlotSettings
  1

  2

  4

  6

 40
0.0
 41
0.0
 42
0.0
 43
0.0
 44
0.0
 45
0.0
 46
0.0
 47
0.0
 48
0.0
 49
0.0
140
0.0
141
0.0
142
1.0
143
1.0
 70
   688
 72
     0
 73
     0
 74
     5
  7

 75
    16
147
1.0
148
0.0
149
0.0
100
AcDbLayout
  1
Layout2
 70
     1
 71
     2
 10
0.0
 20
0.0
 11
0.0
 21
0.0
 12
0.0
 22
0.0
 32
0.0
 14
0.0
 24
0.0
 34
0.0
 15
0.0
 25
0.0
 35
0.0
146
0.0
 13
0.0
 23
0.0
 33
0.0
 16
1.0
 26
0.0
 36
0.0
 17
0.0
 27
1.0
 37
0.0
 76
     0
330
23
  0
LAYOUT
  5
22
102
{ACAD_REACTORS
330
1A
102
}
330
1A
100
AcDbPlotSettings
  1

  2

  4

  6

 40
0.0
 41
0.0
 42
0.0
 43
0.0
 44
0.0
 45
0.0
 46
0.0
 47
0.0
 48
0.0
 49
0.0
140
0.0
141
0.0
142
1.0
143
1.0
 70
  1712
 72
     0
 73
     0
 74
     0
  7

 75
     0
147
1.0
148
0.0
149
0.0
100
AcDbLayout
  1
Model
 70
     1
 71
     0
 10
0.0
 20
0.0
 11
0.0
 21
0.0
 12
0.0
 22
0.0
 32
0.0
 14
83.7390784958775
 24
74.3805868633398
 34
0.0
 15
181.706810906496
 25
242.1085726506675
 35
0.0
146
0.0
 13
0.0
 23
0.0
 33
0.0
 16
1.0
 26
0.0
 36
0.0
 17
0.0
 27
1.0
 37
0.0
 76
     0
330
1F
  0
MLINESTYLE
  5
18
102
{ACAD_REACTORS
330
17
102
}
330
17
100
AcDbMlineStyle
  2
Standard
 70
     0
  3

 62
   256
 51
90.0
 52
90.0
 71
     2
 49
0.5
 62
   256
  6
BYLAYER
 49
-0.5
 62
   256
  6
BYLAYER
  0
ACDBPLACEHOLDER
  5
F
102
{ACAD_REACTORS
330
E
102
}
330
E
  0
ENDSEC
  0
EOF
