  0
SECTION
  2
HEADER
  9
$ACADVER
  1
AC1015
  9
$ACADMAINTVER
 70
     6
  9
$DWGCODEPAGE
  3
ANSI_1252
  9
$INSBASE
 10
0.0
 20
0.0
 30
0.0
  9
$EXTMIN
 10
-843.778372056126
 20
-2994.943056144874
 30
0.0
  9
$EXTMAX
 10
-647.842907234889
 20
-2659.487076221737
 30
0.0
  9
$LIMMIN
 10
0.0
 20
0.0
  9
$LIMMAX
 10
12.0
 20
9.0
  9
$ORTHOMODE
 70
     0
  9
$REGENMODE
 70
     1
  9
$FILLMODE
 70
     1
  9
$QTEXTMODE
 70
     0
  9
$MIRRTEXT
 70
     1
  9
$LTSCALE
 40
1.0
  9
$ATTMODE
 70
     1
  9
$TEXTSIZE
 40
0.2
  9
$TRACEWID
 40
0.05
  9
$TEXTSTYLE
  7
Standard
  9
$CLAYER
  8
0
  9
$CELTYPE
  6
ByLayer
  9
$CECOLOR
 62
   256
  9
$CELTSCALE
 40
1.0
  9
$DISPSILH
 70
     0
  9
$DIMSCALE
 40
1.0
  9
$DIMASZ
 40
0.18
  9
$DIMEXO
 40
0.0625
  9
$DIMDLI
 40
0.38
  9
$DIMRND
 40
0.0
  9
$DIMDLE
 40
0.0
  9
$DIMEXE
 40
0.18
  9
$DIMTP
 40
0.0
  9
$DIMTM
 40
0.0
  9
$DIMTXT
 40
0.18
  9
$DIMCEN
 40
0.09
  9
$DIMTSZ
 40
0.0
  9
$DIMTOL
 70
     0
  9
$DIMLIM
 70
     0
  9
$DIMTIH
 70
     1
  9
$DIMTOH
 70
     1
  9
$DIMSE1
 70
     0
  9
$DIMSE2
 70
     0
  9
$DIMTAD
 70
     0
  9
$DIMZIN
 70
     0
  9
$DIMBLK
  1

  9
$DIMASO
 70
     1
  9
$DIMSHO
 70
     1
  9
$DIMPOST
  1

  9
$DIMAPOST
  1

  9
$DIMALT
 70
     0
  9
$DIMALTD
 70
     2
  9
$DIMALTF
 40
25.4
  9
$DIMLFAC
 40
1.0
  9
$DIMTOFL
 70
     0
  9
$DIMTVP
 40
0.0
  9
$DIMTIX
 70
     0
  9
$DIMSOXD
 70
     0
  9
$DIMSAH
 70
     0
  9
$DIMBLK1
  1

  9
$DIMBLK2
  1

  9
$DIMSTYLE
  2
Standard
  9
$DIMCLRD
 70
     0
  9
$DIMCLRE
 70
     0
  9
$DIMCLRT
 70
     0
  9
$DIMTFAC
 40
1.0
  9
$DIMGAP
 40
0.09
  9
$DIMJUST
 70
     0
  9
$DIMSD1
 70
     0
  9
$DIMSD2
 70
     0
  9
$DIMTOLJ
 70
     1
  9
$DIMTZIN
 70
     0
  9
$DIMALTZ
 70
     0
  9
$DIMALTTZ
 70
     0
  9
$DIMUPT
 70
     0
  9
$DIMDEC
 70
     4
  9
$DIMTDEC
 70
     4
  9
$DIMALTU
 70
     2
  9
$DIMALTTD
 70
     2
  9
$DIMTXSTY
  7
Standard
  9
$DIMAUNIT
 70
     0
  9
$DIMADEC
 70
     0
  9
$DIMALTRND
 40
0.0
  9
$DIMAZIN
 70
     0
  9
$DIMDSEP
 70
    46
  9
$DIMATFIT
 70
     3
  9
$DIMFRAC
 70
     0
  9
$DIMLDRBLK
  1

  9
$DIMLUNIT
 70
     2
  9
$DIMLWD
 70
    -2
  9
$DIMLWE
 70
    -2
  9
$DIMTMOVE
 70
     0
  9
$LUNITS
 70
     2
  9
$LUPREC
 70
     4
  9
$SKETCHINC
 40
0.1
  9
$FILLETRAD
 40
0.5
  9
$AUNITS
 70
     0
  9
$AUPREC
 70
     0
  9
$MENU
  1
.
  9
$ELEVATION
 40
0.0
  9
$PELEVATION
 40
0.0
  9
$THICKNESS
 40
0.0
  9
$LIMCHECK
 70
     0
  9
$CHAMFERA
 40
0.5
  9
$CHAMFERB
 40
0.5
  9
$CHAMFERC
 40
1.0
  9
$CHAMFERD
 40
0.0
  9
$SKPOLY
 70
     0
  9
$TDCREATE
 40
2456267.703627153
  9
$TDUCREATE
 40
2456267.328627153
  9
$TDUPDATE
 40
2456267.703627164
  9
$TDUUPDATE
 40
2456267.328627164
  9
$TDINDWG
 40
0.0000000116
  9
$TDUSRTIMER
 40
0.0000000116
  9
$USRTIMER
 70
     1
  9
$ANGBASE
 50
0.0
  9
$ANGDIR
 70
     0
  9
$PDMODE
 70
     0
  9
$PDSIZE
 40
0.0
  9
$PLINEWID
 40
0.0
  9
$SPLFRAME
 70
     0
  9
$SPLINETYPE
 70
     6
  9
$SPLINESEGS
 70
     8
  9
$HANDSEED
  5
F7
  9
$SURFTAB1
 70
     6
  9
$SURFTAB2
 70
     6
  9
$SURFTYPE
 70
     6
  9
$SURFU
 70
     6
  9
$SURFV
 70
     6
  9
$UCSBASE
  2

  9
$UCSNAME
  2

  9
$UCSORG
 10
0.0
 20
0.0
 30
0.0
  9
$UCSXDIR
 10
1.0
 20
0.0
 30
0.0
  9
$UCSYDIR
 10
0.0
 20
1.0
 30
0.0
  9
$UCSORTHOREF
  2

  9
$UCSORTHOVIEW
 70
     0
  9
$UCSORGTOP
 10
0.0
 20
0.0
 30
0.0
  9
$UCSORGBOTTOM
 10
0.0
 20
0.0
 30
0.0
  9
$UCSORGLEFT
 10
0.0
 20
0.0
 30
0.0
  9
$UCSORGRIGHT
 10
0.0
 20
0.0
 30
0.0
  9
$UCSORGFRONT
 10
0.0
 20
0.0
 30
0.0
  9
$UCSORGBACK
 10
0.0
 20
0.0
 30
0.0
  9
$PUCSBASE
  2

  9
$PUCSNAME
  2

  9
$PUCSORG
 10
0.0
 20
0.0
 30
0.0
  9
$PUCSXDIR
 10
1.0
 20
0.0
 30
0.0
  9
$PUCSYDIR
 10
0.0
 20
1.0
 30
0.0
  9
$PUCSORTHOREF
  2

  9
$PUCSORTHOVIEW
 70
     0
  9
$PUCSORGTOP
 10
0.0
 20
0.0
 30
0.0
  9
$PUCSORGBOTTOM
 10
0.0
 20
0.0
 30
0.0
  9
$PUCSORGLEFT
 10
0.0
 20
0.0
 30
0.0
  9
$PUCSORGRIGHT
 10
0.0
 20
0.0
 30
0.0
  9
$PUCSORGFRONT
 10
0.0
 20
0.0
 30
0.0
  9
$PUCSORGBACK
 10
0.0
 20
0.0
 30
0.0
  9
$USERI1
 70
     0
  9
$USERI2
 70
     0
  9
$USERI3
 70
     0
  9
$USERI4
 70
     0
  9
$USERI5
 70
     0
  9
$USERR1
 40
14.5
  9
$USERR2
 40
0.0
  9
$USERR3
 40
0.0
  9
$USERR4
 40
0.0
  9
$USERR5
 40
0.0
  9
$WORLDVIEW
 70
     1
  9
$SHADEDGE
 70
     3
  9
$SHADEDIF
 70
    70
  9
$TILEMODE
 70
     1
  9
$MAXACTVP
 70
    64
  9
$PINSBASE
 10
0.0
 20
0.0
 30
0.0
  9
$PLIMCHECK
 70
     0
  9
$PEXTMIN
 10
1.00000000000000E+20
 20
1.00000000000000E+20
 30
1.00000000000000E+20
  9
$PEXTMAX
 10
-1.00000000000000E+20
 20
-1.00000000000000E+20
 30
-1.00000000000000E+20
  9
$PLIMMIN
 10
0.0
 20
0.0
  9
$PLIMMAX
 10
12.0
 20
9.0
  9
$UNITMODE
 70
     0
  9
$VISRETAIN
 70
     1
  9
$PLINEGEN
 70
     0
  9
$PSLTSCALE
 70
     1
  9
$TREEDEPTH
 70
  3020
  9
$CMLSTYLE
  2
Standard
  9
$CMLJUST
 70
     0
  9
$CMLSCALE
 40
1.0
  9
$PROXYGRAPHICS
 70
     1
  9
$MEASUREMENT
 70
     1
  9
$CELWEIGHT
370
    -1
  9
$ENDCAPS
280
     0
  9
$JOINSTYLE
280
     0
  9
$LWDISPLAY
290
     0
  9
$INSUNITS
 70
     1
  9
$HYPERLINKBASE
  1

  9
$STYLESHEET
  1

  9
$XEDIT
290
     1
  9
$CEPSNTYPE
380
     0
  9
$PSTYLEMODE
290
     1
  9
$FINGERPRINTGUID
  2
{CE2995EB-B338-4218-8405-C7ED76A7F259}
  9
$VERSIONGUID
  2
{FAEB1C32-E019-11D5-929B-00C0DF256EC4}
  9
$EXTNAMES
290
     1
  9
$PSVPSCALE
 40
0.0
  9
$OLESTARTUP
290
     0
  0
ENDSEC
  0
SECTION
  2
CLASSES
  0
CLASS
  1
ACDBDICTIONARYWDFLT
  2
AcDbDictionaryWithDefault
  3
ObjectDBX Classes
 90
        0
280
     0
281
     0
  0
CLASS
  1

  2
exOdDbCircle
  3

 90
        0
280
     0
281
     1
  0
CLASS
  1

  2
exOdDbPolyline
  3

 90
        0
280
     0
281
     1
  0
CLASS
  1
ACDBPLACEHOLDER
  2
AcDbPlaceHolder
  3
ObjectDBX Classes
 90
        0
280
     0
281
     0
  0
CLASS
  1
LAYOUT
  2
AcDbLayout
  3
ObjectDBX Classes
 90
        0
280
     0
281
     0
  0
ENDSEC
  0
SECTION
  2
TABLES
  0
TABLE
  2
VPORT
  5
8
330
0
100
AcDbSymbolTable
 70
     1
  0
VPORT
  5
29
330
8
100
AcDbSymbolTableRecord
100
AcDbViewportTableRecord
  2
*Active
 70
     0
 10
0.0
 20
0.0
 11
1.0
 21
1.0
 12
-745.8106396455075
 22
-2827.215066183306
 13
0.0
 23
0.0
 14
0.5
 24
0.5
 15
0.5
 25
0.5
 16
0.0
 26
0.0
 36
1.0
 17
0.0
 27
0.0
 37
0.0
 40
369.0015779154507
 41
1.60267857142857
 42
50.0
 43
0.0
 44
0.0
 50
0.0
 51
0.0
 71
     0
 72
   100
 73
     1
 74
     3
 75
     0
 76
     0
 77
     0
 78
     0
281
     0
 65
     1
110
0.0
120
0.0
130
0.0
111
1.0
121
0.0
131
0.0
112
0.0
122
1.0
132
0.0
 79
     0
146
0.0
  0
ENDTAB
  0
TABLE
  2
LTYPE
  5
5
330
0
100
AcDbSymbolTable
 70
     8
  0
LTYPE
  5
14
330
5
100
AcDbSymbolTableRecord
100
AcDbLinetypeTableRecord
  2
ByBlock
 70
     0
  3

 72
    65
 73
     0
 40
0.0
  0
LTYPE
  5
15
330
5
100
AcDbSymbolTableRecord
100
AcDbLinetypeTableRecord
  2
ByLayer
 70
     0
  3

 72
    65
 73
     0
 40
0.0
  0
LTYPE
  5
16
330
5
100
AcDbSymbolTableRecord
100
AcDbLinetypeTableRecord
  2
Continuous
 70
     0
  3
Solid line
 72
    65
 73
     0
 40
0.0
  0
LTYPE
  5
2A
330
5
100
AcDbSymbolTableRecord
100
AcDbLinetypeTableRecord
  2
DASHED
 70
     0
  3
Dashed
 72
    65
 73
     2
 40
15.0
 49
7.0
 74
     0
 49
-8.0
 74
     0
  0
LTYPE
  5
2B
330
5
100
AcDbSymbolTableRecord
100
AcDbLinetypeTableRecord
  2
DOTTED
 70
     0
  3
Dotted
 72
    65
 73
     2
 40
1.0
 49
0.0
 74
     0
 49
-1.0
 74
     0
  0
LTYPE
  5
2C
330
5
100
AcDbSymbolTableRecord
100
AcDbLinetypeTableRecord
  2
DOT_CENTER
 70
     0
  3
Dot_Center
 72
    65
 73
     4
 40
14.0
 49
12.0
 74
     0
 49
-1.0
 74
     0
 49
0.0
 74
     0
 49
-1.0
 74
     0
  0
LTYPE
  5
2D
330
5
100
AcDbSymbolTableRecord
100
AcDbLinetypeTableRecord
  2
LONG_DASHED
 70
     0
  3
Long_Dashed
 72
    65
 73
     2
 40
15.0
 49
10.0
 74
     0
 49
-5.0
 74
     0
  0
LTYPE
  5
2E
330
5
100
AcDbSymbolTableRecord
100
AcDbLinetypeTableRecord
  2
DASH_CENTER
 70
     0
  3
Dash_Center
 72
    65
 73
     4
 40
14.0
 49
11.0
 74
     0
 49
-1.0
 74
     0
 49
1.0
 74
     0
 49
-1.0
 74
     0
  0
LTYPE
  5
2F
330
5
100
AcDbSymbolTableRecord
100
AcDbLinetypeTableRecord
  2
PHANTOM
 70
     0
  3
Phantom
 72
    65
 73
     6
 40
13.0
 49
10.0
 74
     0
 49
-1.0
 74
     0
 49
0.0
 74
     0
 49
-1.0
 74
     0
 49
0.0
 74
     0
 49
-1.0
 74
     0
  0
LTYPE
  5
30
330
5
100
AcDbSymbolTableRecord
100
AcDbLinetypeTableRecord
  2
CENTER_DASH_DASH
 70
     0
  3
Center_Dash_Dash
 72
    65
 73
     6
 40
14.0
 49
9.0
 74
     0
 49
-1.0
 74
     0
 49
1.0
 74
     0
 49
-1.0
 74
     0
 49
1.0
 74
     0
 49
-1.0
 74
     0
  0
ENDTAB
  0
TABLE
  2
LAYER
  5
2
330
0
100
AcDbSymbolTable
 70
     2
  0
LAYER
  5
10
330
2
100
AcDbSymbolTableRecord
100
AcDbLayerTableRecord
  2
0
 70
     0
 62
     7
  6
Continuous
370
    -3
390
F
  0
LAYER
  5
31
330
2
100
AcDbSymbolTableRecord
100
AcDbLayerTableRecord
  2
1
 70
     0
 62
     7
  6
Continuous
370
    -3
390
F
  0
ENDTAB
  0
TABLE
  2
STYLE
  5
3
330
0
100
AcDbSymbolTable
 70
     3
  0
STYLE
  5
11
330
3
100
AcDbSymbolTableRecord
100
AcDbTextStyleTableRecord
  2
Standard
 70
     0
 40
0.0
 41
1.0
 50
0.0
 71
     0
 42
0.2
  3
txt
  4

  0
STYLE
  5
3E
330
3
100
AcDbSymbolTableRecord
100
AcDbTextStyleTableRecord
  2
CONVERTER_11
 70
     0
 40
0.0
 41
1.125
 50
0.0
 71
     0
 42
0.2
  3
txt.shx
  4

  0
STYLE
  5
B0
330
3
100
AcDbSymbolTableRecord
100
AcDbTextStyleTableRecord
  2
CONVERTER_12
 70
     0
 40
0.0
 41
1.0
 50
0.0
 71
     0
 42
0.2
  3
txt.shx
  4

  0
ENDTAB
  0
TABLE
  2
VIEW
  5
6
330
0
100
AcDbSymbolTable
 70
     0
  0
ENDTAB
  0
TABLE
  2
UCS
  5
7
330
0
100
AcDbSymbolTable
 70
     0
  0
ENDTAB
  0
TABLE
  2
APPID
  5
9
330
0
100
AcDbSymbolTable
 70
     1
  0
APPID
  5
12
330
9
100
AcDbSymbolTableRecord
100
AcDbRegAppTableRecord
  2
ACAD
 70
     0
  0
ENDTAB
  0
TABLE
  2
DIMSTYLE
  5
A
330
0
100
AcDbSymbolTable
 70
     7
100
AcDbDimStyleTable
  0
DIMSTYLE
105
27
330
A
100
AcDbSymbolTableRecord
100
AcDbDimStyleTableRecord
  2
Standard
 70
     0
340
11
  0
DIMSTYLE
105
B4
102
{ACAD_REACTORS
330
B5
102
}
330
A
100
AcDbSymbolTableRecord
100
AcDbDimStyleTableRecord
  2
ME10_DIM_10
 70
     0
 41
5.0
 42
1.0
 44
1.6
 73
     0
 74
     0
 77
     1
 78
    12
140
6.0
147
0.625
172
     1
173
     1
176
     2
177
     2
178
     2
271
     3
340
B0
  0
DIMSTYLE
105
BF
102
{ACAD_REACTORS
330
C0
102
}
330
A
100
AcDbSymbolTableRecord
100
AcDbDimStyleTableRecord
  2
ME10_DIM_11
 70
     0
 41
5.0
 42
1.0
 44
1.6
 73
     0
 74
     0
 77
     1
 78
    12
140
6.0
147
0.625
172
     1
173
     1
176
     2
177
     2
178
     2
271
     3
340
B0
  0
DIMSTYLE
105
CA
102
{ACAD_REACTORS
330
CB
102
}
330
A
100
AcDbSymbolTableRecord
100
AcDbDimStyleTableRecord
  2
ME10_DIM_12
 70
     0
 41
5.0
 42
1.0
 44
1.6
 73
     0
 74
     0
 77
     1
 78
    12
140
6.0
147
0.625
172
     1
173
     1
176
     2
177
     2
178
     2
271
     3
340
B0
  0
DIMSTYLE
105
D5
102
{ACAD_REACTORS
330
D6
102
}
330
A
100
AcDbSymbolTableRecord
100
AcDbDimStyleTableRecord
  2
ME10_DIM_13
 70
     0
 41
5.0
 42
1.0
 44
1.6
 73
     0
 74
     0
 77
     1
 78
    12
140
6.0
147
0.625
172
     1
173
     1
176
     2
177
     2
178
     2
271
     3
340
B0
  0
DIMSTYLE
105
E0
102
{ACAD_REACTORS
330
E1
102
}
330
A
100
AcDbSymbolTableRecord
100
AcDbDimStyleTableRecord
  2
ME10_DIM_14
 70
     0
 41
5.0
 42
1.0
 44
1.6
 73
     0
 74
     0
 77
     1
 78
    12
140
6.0
147
0.625
172
     1
173
     1
176
     2
177
     2
178
     2
271
     3
340
B0
  0
DIMSTYLE
105
EB
102
{ACAD_REACTORS
330
EC
102
}
330
A
100
AcDbSymbolTableRecord
100
AcDbDimStyleTableRecord
  2
ME10_DIM_15
 70
     0
 41
5.0
 42
1.0
 44
1.6
 73
     0
 74
     0
 77
     1
 78
    12
140
6.0
147
0.625
172
     1
173
     1
176
     2
177
     2
178
     2
271
     3
340
B0
  0
ENDTAB
  0
TABLE
  2
BLOCK_RECORD
  5
1
330
0
100
AcDbSymbolTable
 70
     9
  0
BLOCK_RECORD
  5
1F
330
1
100
AcDbSymbolTableRecord
100
AcDbBlockTableRecord
  2
*Model_Space
340
22
  0
BLOCK_RECORD
  5
1B
330
1
100
AcDbSymbolTableRecord
100
AcDbBlockTableRecord
  2
*Paper_Space
340
1E
  0
BLOCK_RECORD
  5
23
330
1
100
AcDbSymbolTableRecord
100
AcDbBlockTableRecord
  2
*Paper_Space0
340
26
  0
BLOCK_RECORD
  5
32
330
1
100
AcDbSymbolTableRecord
100
AcDbBlockTableRecord
  2
_D26
340
0
102
{BLKREFS
331
36
102
}
  0
BLOCK_RECORD
  5
35
330
1
100
AcDbSymbolTableRecord
100
AcDbBlockTableRecord
  2
040402__2004_04_05__9_09_1
340
0
102
{BLKREFS
331
39
102
}
  0
BLOCK_RECORD
  5
AA
330
1
100
AcDbSymbolTableRecord
100
AcDbBlockTableRecord
  2
*D3
340
0
  0
BLOCK_RECORD
  5
B6
330
1
100
AcDbSymbolTableRecord
100
AcDbBlockTableRecord
  2
*D4
340
0
  0
BLOCK_RECORD
  5
C1
330
1
100
AcDbSymbolTableRecord
100
AcDbBlockTableRecord
  2
*D5
340
0
  0
BLOCK_RECORD
  5
CC
330
1
100
AcDbSymbolTableRecord
100
AcDbBlockTableRecord
  2
*D6
340
0
  0
BLOCK_RECORD
  5
D7
330
1
100
AcDbSymbolTableRecord
100
AcDbBlockTableRecord
  2
*D7
340
0
  0
BLOCK_RECORD
  5
E2
330
1
100
AcDbSymbolTableRecord
100
AcDbBlockTableRecord
  2
*D8
340
0
  0
ENDTAB
  0
ENDSEC
  0
SECTION
  2
BLOCKS
  0
BLOCK
  5
20
330
1F
100
AcDbEntity
  8
0
100
AcDbBlockBegin
  2
*Model_Space
 70
     0
 71
     0
 10
0.0
 20
0.0
 30
0.0
  3
*Model_Space
  1

  0
ENDBLK
  5
21
330
1F
100
AcDbEntity
  8
0
100
AcDbBlockEnd
  0
BLOCK
  5
1C
330
1B
100
AcDbEntity
 67
     1
  8
0
100
AcDbBlockBegin
  2
*Paper_Space
 70
     0
 71
     0
 10
0.0
 20
0.0
 30
0.0
  3
*Paper_Space
  1

  0
ENDBLK
  5
1D
330
1B
100
AcDbEntity
 67
     1
  8
0
100
AcDbBlockEnd
  0
BLOCK
  5
24
330
23
100
AcDbEntity
  8
0
100
AcDbBlockBegin
  2
*Paper_Space0
 70
     0
 71
     0
 10
0.0
 20
0.0
 30
0.0
  3
*Paper_Space0
  1

  0
ENDBLK
  5
25
330
23
100
AcDbEntity
  8
0
100
AcDbBlockEnd
  0
BLOCK
  5
33
330
32
100
AcDbEntity
  8
0
100
AcDbBlockBegin
  2
_D26
 70
     0
 71
     0
 10
0.0
 20
0.0
 30
0.0
  3
_D26
  1

  0
LINE
  5
3A
102
{ACAD_REACTORS
330
40
330
40
102
}
330
32
100
AcDbEntity
  8
0
  6
Continuous
 62
     2
100
AcDbLine
 10
-679.406810999597
 20
-2712.92053619396
 30
0.0
 11
-675.946465479019
 21
-2709.25184182385
 31
0.0
  0
LINE
  5
3B
102
{ACAD_REACTORS
330
40
330
40
102
}
330
32
100
AcDbEntity
  8
0
  6
Continuous
 62
     2
100
AcDbLine
 10
-677.01390186703
 20
-2708.48124622975
 30
0.0
 11
-679.406810999597
 21
-2712.92053619396
 31
0.0
  0
LINE
  5
3C
102
{ACAD_REACTORS
330
40
330
40
102
}
330
32
100
AcDbEntity
  8
0
  6
Continuous
 62
     2
100
AcDbLine
 10
-675.946465479019
 20
-2709.25184182385
 30
0.0
 11
-677.01390186703
 21
-2708.48124622975
 31
0.0
  0
LINE
  5
3D
330
32
100
AcDbEntity
  8
0
  6
Continuous
 62
     2
100
AcDbLine
 10
-679.406810999597
 20
-2712.92053619396
 30
0.0
 11
-670.359860660003
 21
-2700.38861404577
 31
0.0
  0
TEXT
  5
3F
330
32
100
AcDbEntity
  8
0
 62
     2
100
AcDbText
 10
-687.017034584435
 20
-2698.76701717891
 30
0.0
 40
4.8
  1
‚r‚q72.5
 41
1.125
  7
CONVERTER_11
100
AcDbText
  0
HATCH
  5
40
330
32
100
AcDbEntity
  8
0
  6
Continuous
 62
     2
100
AcDbHatch
 10
0.0
 20
0.0
 30
0.0
210
0.0
220
0.0
230
1.0
  2
SOLID
 70
     1
 71
     1
 91
        1
 92
        1
 93
        3
 72
     1
 10
-677.01390186703
 20
-2708.48124622975
 11
-679.406810999597
 21
-2712.92053619396
 72
     1
 10
-679.406810999597
 20
-2712.92053619396
 11
-675.946465479019
 21
-2709.25184182385
 72
     1
 10
-675.946465479019
 20
-2709.25184182385
 11
-677.01390186703
 21
-2708.48124622975
 97
        3
330
3A
330
3B
330
3C
 75
     0
 76
     1
 98
        1
 10
0.0
 20
0.0
  0
ENDBLK
  5
34
330
32
100
AcDbEntity
  8
0
100
AcDbBlockEnd
  0
BLOCK
  5
37
330
35
100
AcDbEntity
  8
0
100
AcDbBlockBegin
  2
040402__2004_04_05__9_09_1
 70
     0
 71
     0
 10
-1052.13279584461
 20
-2185.35773427267
 30
0.0
  3
040402__2004_04_05__9_09_1
  1

  0
INSERT
  5
36
330
35
100
AcDbEntity
  8
0
100
AcDbBlockReference
  2
_D26
 10
0.0
 20
0.0
 30
0.0
  0
POINT
  5
41
330
35
100
AcDbEntity
  8
0
 62
     7
100
AcDbPoint
 10
-794.336002589265
 20
-2770.70285980544
 30
0.0
  0
POINT
  5
42
330
35
100
AcDbEntity
  8
0
 62
     7
100
AcDbPoint
 10
-649.349811880513
 20
-2770.70285980544
 30
0.0
  0
POINT
  5
43
330
35
100
AcDbEntity
  8
0
 62
     7
100
AcDbPoint
 10
-795.842907234889
 20
-2776.90342261772
 30
0.0
  0
POINT
  5
44
330
35
100
AcDbEntity
  8
0
 62
     7
100
AcDbPoint
 10
-795.342415745788
 20
-2775.90342261772
 30
0.0
  0
POINT
  5
45
330
35
100
AcDbEntity
  8
0
 62
     7
100
AcDbPoint
 10
-794.088294526224
 20
-2785.70342261772
 30
0.0
  0
POINT
  5
46
330
35
100
AcDbEntity
  8
0
 62
     7
100
AcDbPoint
 10
-721.842907234889
 20
-2699.20342261772
 30
0.0
  0
POINT
  5
47
330
35
100
AcDbEntity
  8
0
 62
     7
100
AcDbPoint
 10
-721.842907234889
 20
-2699.20342261772
 30
0.0
  0
POINT
  5
48
330
35
100
AcDbEntity
  8
0
 62
     7
100
AcDbPoint
 10
-795.842907234889
 20
-2776.90342261772
 30
0.0
  0
POINT
  5
49
330
35
100
AcDbEntity
  8
0
 62
     7
100
AcDbPoint
 10
-794.088294526224
 20
-2785.70342261772
 30
0.0
  0
POINT
  5
4A
330
35
100
AcDbEntity
  8
0
 62
     7
100
AcDbPoint
 10
-795.842907234889
 20
-2776.90342261772
 30
0.0
  0
POINT
  5
4B
330
35
100
AcDbEntity
  8
0
 62
     7
100
AcDbPoint
 10
-795.842907234889
 20
-2776.90342261772
 30
0.0
  0
POINT
  5
4C
330
35
100
AcDbEntity
  8
0
 62
     7
100
AcDbPoint
 10
-647.842907234889
 20
-2776.40342261772
 30
0.0
  0
POINT
  5
4D
330
35
100
AcDbEntity
  8
0
 62
     7
100
AcDbPoint
 10
-794.336002589265
 20
-2770.70285980544
 30
0.0
  0
POINT
  5
4E
330
35
100
AcDbEntity
  8
0
 62
     7
100
AcDbPoint
 10
-649.349811880513
 20
-2770.70285980544
 30
0.0
  0
POINT
  5
4F
330
35
100
AcDbEntity
  8
0
 62
     7
100
AcDbPoint
 10
-795.842907234889
 20
-2776.90342261772
 30
0.0
  0
POINT
  5
50
330
35
100
AcDbEntity
  8
0
 62
     7
100
AcDbPoint
 10
-795.342415745788
 20
-2775.90342261772
 30
0.0
  0
POINT
  5
51
330
35
100
AcDbEntity
  8
0
 62
     7
100
AcDbPoint
 10
-794.088294526224
 20
-2785.70342261772
 30
0.0
  0
POINT
  5
52
330
35
100
AcDbEntity
  8
0
 62
     7
100
AcDbPoint
 10
-721.842907234889
 20
-2699.20342261772
 30
0.0
  0
POINT
  5
53
330
35
100
AcDbEntity
  8
0
 62
     7
100
AcDbPoint
 10
-721.842907234889
 20
-2699.20342261772
 30
0.0
  0
POINT
  5
54
330
35
100
AcDbEntity
  8
0
 62
     7
100
AcDbPoint
 10
-795.842907234889
 20
-2776.90342261772
 30
0.0
  0
POINT
  5
55
330
35
100
AcDbEntity
  8
0
 62
     7
100
AcDbPoint
 10
-794.088294526224
 20
-2785.70342261772
 30
0.0
  0
POINT
  5
56
330
35
100
AcDbEntity
  8
0
 62
     7
100
AcDbPoint
 10
-795.842907234889
 20
-2776.90342261772
 30
0.0
  0
POINT
  5
57
330
35
100
AcDbEntity
  8
0
 62
     7
100
AcDbPoint
 10
-795.842907234889
 20
-2776.90342261772
 30
0.0
  0
POINT
  5
58
330
35
100
AcDbEntity
  8
0
 62
     7
100
AcDbPoint
 10
-647.842907234889
 20
-2776.40342261772
 30
0.0
  0
LINE
  5
59
330
35
100
AcDbEntity
  8
1
  6
Continuous
 62
     7
100
AcDbLine
 10
-649.342907234889
 20
-2781.90342261772
 30
0.0
 11
-649.342907234889
 21
-2780.90342261772
 31
0.0
  0
LINE
  5
5A
330
35
100
AcDbEntity
  8
1
  6
Continuous
 62
     7
100
AcDbLine
 10
-649.342907234889
 20
-2780.90342261772
 30
0.0
 11
-794.342907234889
 21
-2780.90342261772
 31
0.0
  0
LINE
  5
5B
330
35
100
AcDbEntity
  8
1
  6
Continuous
 62
     7
100
AcDbLine
 10
-794.342907234889
 20
-2781.90342261772
 30
0.0
 11
-794.342907234889
 21
-2780.90342261772
 31
0.0
  0
LINE
  5
5C
330
35
100
AcDbEntity
  8
1
  6
Continuous
 62
     7
100
AcDbLine
 10
-719.842907234889
 20
-2993.99059056417
 30
0.0
 11
-719.842907234889
 21
-2993.18967737182
 31
0.0
  0
LINE
  5
5D
330
35
100
AcDbEntity
  8
1
  6
Continuous
 62
     7
100
AcDbLine
 10
-723.842907234889
 20
-2994.01796486694
 30
0.0
 11
-723.842907234889
 21
-2993.18967737182
 31
0.0
  0
LINE
  5
5E
330
35
100
AcDbEntity
  8
0
  6
Continuous
 62
     7
100
AcDbLine
 10
-794.056548372136
 20
-2784.70342261772
 30
0.0
 11
-794.088294526224
 21
-2785.70342261772
 31
0.0
  0
LINE
  5
5F
330
35
100
AcDbEntity
  8
0
  6
Continuous
 62
     7
100
AcDbLine
 10
-649.60450409742
 20
-2784.70342261772
 30
0.0
 11
-649.569583327932
 21
-2785.70342261772
 31
0.0
  0
LINE
  5
60
330
35
100
AcDbEntity
  8
1
  6
Continuous
 62
     2
100
AcDbLine
 10
-794.056548372136
 20
-2784.70342261772
 30
0.0
 11
-649.60450409742
 21
-2784.70342261772
 31
0.0
  0
LINE
  5
61
330
35
100
AcDbEntity
  8
1
  6
Continuous
 62
     7
100
AcDbLine
 10
-794.342907234889
 20
-2781.90342261772
 30
0.0
 11
-794.056548372136
 21
-2784.70342261772
 31
0.0
  0
LINE
  5
62
330
35
100
AcDbEntity
  8
1
  6
Continuous
 62
     7
100
AcDbLine
 10
-649.342907234889
 20
-2781.90342261772
 30
0.0
 11
-649.60450409742
 21
-2784.70342261772
 31
0.0
  0
LINE
  5
63
330
35
100
AcDbEntity
  8
1
  6
Continuous
 62
     7
100
AcDbLine
 10
-741.703224156903
 20
-2785.70342261772
 30
0.0
 11
-790.766532553004
 21
-2785.70342261772
 31
0.0
  0
LINE
  5
64
330
35
100
AcDbEntity
  8
1
  6
Continuous
 62
     7
100
AcDbLine
 10
-652.919811048336
 20
-2785.70342261772
 30
0.0
 11
-701.703224156903
 21
-2785.70342261772
 31
0.0
  0
LINE
  5
65
330
35
100
AcDbEntity
  8
0
  6
Continuous
 62
     7
100
AcDbLine
 10
-787.288501915837
 20
-2776.90342261772
 30
0.0
 11
-793.808928370253
 21
-2776.90342261772
 31
0.0
  0
LINE
  5
66
330
35
100
AcDbEntity
  8
0
  6
Continuous
 62
     7
100
AcDbLine
 10
-793.808928370253
 20
-2776.90342261772
 30
0.0
 11
-795.842907234889
 21
-2776.90342261772
 31
0.0
  0
LINE
  5
67
330
35
100
AcDbEntity
  8
0
  6
Continuous
 62
     7
100
AcDbLine
 10
-649.111319233489
 20
-2775.90342261772
 30
0.0
 11
-649.292907234889
 21
-2770.70342261772
 31
0.0
  0
LINE
  5
68
330
35
100
AcDbEntity
  8
0
  6
Continuous
 62
     7
100
AcDbLine
 10
-649.876886099417
 20
-2776.90342261772
 30
0.0
 11
-649.73720302147
 21
-2780.90342261772
 31
0.0
  0
LINE
  5
69
330
35
100
AcDbEntity
  8
0
  6
Continuous
 62
     7
100
AcDbLine
 10
-647.842907234889
 20
-2776.90342261772
 30
0.0
 11
-647.842907234889
 21
-2776.40342261772
 31
0.0
  0
LINE
  5
6A
330
35
100
AcDbEntity
  8
0
  6
Continuous
 62
     7
100
AcDbLine
 10
-649.569583327932
 20
-2785.70342261772
 30
0.0
 11
-652.919811048336
 21
-2785.70342261772
 31
0.0
  0
LINE
  5
6B
330
35
100
AcDbEntity
  8
0
  6
Continuous
 62
     7
100
AcDbLine
 10
-790.766005018304
 20
-2785.70342261772
 30
0.0
 11
-794.088294526224
 21
-2785.70342261772
 31
0.0
  0
LINE
  5
6C
330
35
100
AcDbEntity
  8
0
  6
Continuous
 62
     7
100
AcDbLine
 10
-741.703224156903
 20
-2785.70342261772
 30
0.0
 11
-701.703224156903
 21
-2785.70342261772
 31
0.0
  0
LINE
  5
6D
330
35
100
AcDbEntity
  8
0
  6
Continuous
 62
     7
100
AcDbLine
 10
-647.842907234889
 20
-2776.90342261772
 30
0.0
 11
-787.288501915837
 21
-2776.90342261772
 31
0.0
  0
LINE
  5
6E
330
35
100
AcDbEntity
  8
0
  6
Continuous
 62
     7
100
AcDbLine
 10
-648.343398723889
 20
-2775.90342261772
 30
0.0
 11
-795.342415745788
 21
-2775.90342261772
 31
0.0
  0
LINE
  5
6F
330
35
100
AcDbEntity
  8
0
  6
Continuous
 62
     2
100
AcDbLine
 10
-649.294173146789
 20
-2770.70342261772
 30
0.0
 11
-794.391641322989
 21
-2770.70342261772
 31
0.0
  0
LINE
  5
70
330
35
100
AcDbEntity
  8
0
  6
Continuous
 62
     7
100
AcDbLine
 10
-795.842907234889
 20
-2776.90342261772
 30
0.0
 11
-795.842907234889
 21
-2776.40342261772
 31
0.0
  0
LINE
  5
71
330
35
100
AcDbEntity
  8
0
  6
Continuous
 62
     7
100
AcDbLine
 10
-794.574495236189
 20
-2775.90342261772
 30
0.0
 11
-794.392907234889
 21
-2770.70342261772
 31
0.0
  0
LINE
  5
72
330
35
100
AcDbEntity
  8
0
  6
Continuous
 62
     7
100
AcDbLine
 10
-793.808928370253
 20
-2776.90342261772
 30
0.0
 11
-793.935912986602
 21
-2780.90342261772
 31
0.0
  0
LINE
  5
73
330
35
100
AcDbEntity
  8
1
  6
DOT_CENTER
 62
     2
100
AcDbLine
 10
-721.842907234889
 20
-2791.2809706253
 30
0.0
 11
-721.842907234889
 21
-2696.8809706253
 31
0.0
  0
LINE
  5
74
330
35
100
AcDbEntity
  8
1
  6
DASHED
 62
     2
100
AcDbLine
 10
-792.773398056452
 20
-2775.90342261772
 30
0.0
 11
-792.594003746254
 21
-2770.76624171176
 31
0.0
  0
LINE
  5
75
330
35
100
AcDbEntity
  8
1
  6
DASHED
 62
     2
100
AcDbLine
 10
-650.912416413227
 20
-2775.90342261772
 30
0.0
 11
-651.091810723523
 21
-2770.7662417118
 31
0.0
  0
ARC
  5
88
330
35
100
AcDbEntity
  8
0
  6
Continuous
 62
     7
100
AcDbCircle
 10
-721.842907234889
 20
-2771.70342261772
 30
0.0
 40
72.4999999999998
100
AcDbArc
 50
0.79075650010247
 51
90.0
  0
ARC
  5
89
330
35
100
AcDbEntity
  8
1
  6
Continuous
 62
     7
100
AcDbCircle
 10
-721.842907234889
 20
-2920.94305614488
 30
0.0
 40
73.99999999999343
100
AcDbArc
 50
91.850820689895
 51
88.14917931010422
  0
ARC
  5
8A
330
35
100
AcDbEntity
  8
1
  6
Continuous
 62
     7
100
AcDbCircle
 10
-721.842907234889
 20
-2920.94305614488
 30
0.0
 40
73.99999999999346
100
AcDbArc
 50
88.14917931010422
 51
90.0
  0
ARC
  5
8B
330
35
100
AcDbEntity
  8
1
  6
Continuous
 62
     7
100
AcDbCircle
 10
-721.842907234889
 20
-2920.94305614488
 30
0.0
 40
73.99999999999
100
AcDbArc
 50
90.0
 51
91.850820689895
  0
ARC
  5
8C
330
35
100
AcDbEntity
  8
1
  6
Continuous
 62
     7
100
AcDbCircle
 10
-721.842907234889
 20
-2920.94305614488
 30
0.0
 40
72.27429888078437
100
AcDbArc
 50
-88.41428847092193
 51
90.0
  0
ARC
  5
8D
330
35
100
AcDbEntity
  8
1
  6
Continuous
 62
     7
100
AcDbCircle
 10
-721.842907234889
 20
-2920.94305614488
 30
0.0
 40
72.27429888077995
100
AcDbArc
 50
90.0
 51
-91.58571152907808
  0
ARC
  5
8E
330
35
100
AcDbEntity
  8
1
  6
Continuous
 62
     7
100
AcDbCircle
 10
-721.842907234889
 20
-2920.94305614488
 30
0.0
 40
73.07490872205976
100
AcDbArc
 50
-91.56833408446003
 51
-88.43166591553997
  0
ARC
  5
8F
330
35
100
AcDbEntity
  8
0
  6
Continuous
 62
     7
100
AcDbCircle
 10
-721.842907234889
 20
-2771.70342261772
 30
0.0
 40
72.5
100
AcDbArc
 50
90.0
 51
179.2092434998975
  0
ARC
  5
90
330
35
100
AcDbEntity
  8
0
  6
Continuous
 62
     7
100
AcDbCircle
 10
-795.342907234889
 20
-2776.40342261772
 30
0.0
 40
0.5
100
AcDbArc
 50
90.0
 51
180.0
  0
ARC
  5
91
330
35
100
AcDbEntity
  8
0
  6
Continuous
 62
     7
100
AcDbCircle
 10
-648.342907234889
 20
-2776.40342261772
 30
0.0
 40
0.5
100
AcDbArc
 50
0.0
 51
90.0
  0
CIRCLE
  5
92
330
35
100
AcDbEntity
  8
1
  6
DASHED
 62
     2
100
AcDbCircle
 10
-721.842907234889
 20
-2920.94305614488
 30
0.0
 40
72.73158800129897
  0
CIRCLE
  5
93
330
35
100
AcDbEntity
  8
1
  6
Continuous
 62
     7
100
AcDbCircle
 10
-721.842907234889
 20
-2920.94305614488
 30
0.0
 40
71.27381154246098
  0
CIRCLE
  5
94
330
35
100
AcDbEntity
  8
1
  6
Continuous
 62
     2
100
AcDbCircle
 10
-721.842907234889
 20
-2920.94305614488
 30
0.0
 40
70.68981539090203
  0
LWPOLYLINE
  5
A2
330
35
100
AcDbEntity
  8
1
  6
Continuous
 62
     7
 60
     1
100
AcDbPolyline
 90
        2
 70
     0
 43
0.0
 10
-649.349811880513
 20
-2770.70285980544
 10
-794.336002589265
 20
-2770.70285980544
  0
LWPOLYLINE
  5
A3
330
35
100
AcDbEntity
  8
1
  6
Continuous
 62
     7
 60
     1
100
AcDbPolyline
 90
        4
 70
     0
 43
0.0
 10
-794.336002589265
 20
-2770.70285980544
 10
-794.574495236189
 20
-2775.90342261772
 10
-788.310881973969
 20
-2775.90342261772
 10
-649.111319233489
 20
-2775.90342261772
  0
LWPOLYLINE
  5
A4
330
35
100
AcDbEntity
  8
1
  6
Continuous
 62
     7
 60
     1
100
AcDbPolyline
 90
        2
 70
     0
 43
0.0
 10
-649.292907234889
 20
-2770.70342261772
 10
-794.336002589265
 20
-2770.70285980544
  0
LWPOLYLINE
  5
A5
330
35
100
AcDbEntity
  8
1
  6
Continuous
 62
     7
 60
     1
100
AcDbPolyline
 90
        2
 70
     0
 43
0.0
 10
-795.842907234889
 20
-2776.90342261772
 10
-647.842907234889
 20
-2776.90342261772
  0
LWPOLYLINE
  5
A6
330
35
100
AcDbEntity
  8
1
  6
Continuous
 62
     7
 60
     1
100
AcDbPolyline
 90
        8
 70
     0
 43
0.0
 10
-648.342907234889
 20
-2775.90342261772
 10
-648.669582301258
 20
-2775.90342261772
 10
-651.223082448954
 20
-2775.90342261772
 10
-795.186177243146
 20
-2775.90342261772
 10
-795.494764949565
 20
-2775.92704122168
 10
-795.649034262359
 20
-2776.00809206862
 10
-795.842907234889
 20
-2776.40342261772
 10
-795.842907234889
 20
-2776.90342261772
  0
LWPOLYLINE
  5
A7
330
35
100
AcDbEntity
  8
1
  6
Continuous
 62
     7
 60
     1
100
AcDbPolyline
 90
        3
 70
     0
 43
0.0
 10
-793.935912986602
 20
-2780.90342261772
 10
-787.825128021092
 20
-2780.90342261772
 10
-649.73720302147
 20
-2780.90342261772
  0
LWPOLYLINE
  5
A8
330
35
100
AcDbEntity
  8
1
  6
Continuous
 62
     7
 60
     1
100
AcDbPolyline
 90
        2
 70
     0
 43
0.0
 10
-649.876886099417
 20
-2776.90342261772
 10
-793.808928370253
 20
-2776.90342261772
  0
LWPOLYLINE
  5
A9
330
35
100
AcDbEntity
  8
1
  6
Continuous
 62
     7
 60
     1
100
AcDbPolyline
 90
        3
 70
     0
 43
0.0
 10
-790.766005018304
 20
-2785.70342261772
 10
-781.507966556492
 20
-2785.70342261772
 10
-649.569583327932
 20
-2785.70342261772
  0
DIMENSION
  5
B5
330
35
100
AcDbEntity
  8
0
100
AcDbDimension
  2
*D3
 10
-794.336002589265
 20
-2667.48710603777
 30
0.0
 11
-721.842907234889
 21
-2662.48710603777
 31
0.0
 70
    32
  1
ƒç145
 71
     5
 42
-1.0
 53
0.00013888888889
  3
ME10_DIM_10
100
AcDbAlignedDimension
 13
-649.349811880513
 23
-2770.70285980544
 33
0.0
 14
-794.336002589265
 24
-2770.70285980544
 34
0.0
100
AcDbRotatedDimension
  0
DIMENSION
  5
C0
330
35
100
AcDbEntity
  8
0
100
AcDbDimension
  2
*D4
 10
-808.4037520511
 20
-2776.90342261772
 30
0.0
 11
-813.4037520511
 21
-2762.93493896674
 31
0.0
 70
    32
  1
1
 71
     5
 42
-1.0
 53
90.0
  3
ME10_DIM_11
100
AcDbAlignedDimension
 13
-795.342415745788
 23
-2775.90342261772
 33
0.0
 14
-795.842907234889
 24
-2776.90342261772
 34
0.0
 50
90.0
100
AcDbRotatedDimension
  0
DIMENSION
  5
CB
330
35
100
AcDbEntity
  8
0
100
AcDbDimension
  2
*D5
 10
-835.778372056126
 20
-2785.70342261772
 30
0.0
 11
-840.778372056126
 21
-2742.45342261772
 31
0.0
 70
    32
  1
(86.5
 71
     5
 42
-1.0
 53
90.0
  3
ME10_DIM_12
100
AcDbAlignedDimension
 13
-721.842907234889
 23
-2699.20342261772
 33
0.0
 14
-794.088294526224
 24
-2785.70342261772
 34
0.0
 50
90.0
100
AcDbRotatedDimension
  0
DIMENSION
  5
D6
330
35
100
AcDbEntity
  8
0
100
AcDbDimension
  2
*D6
 10
-821.178574720112
 20
-2699.20342261772
 30
0.0
 11
-826.178574720112
 21
-2738.05342261772
 31
0.0
 70
    32
  1
77.7
 71
     5
 42
-1.0
 53
90.0
  3
ME10_DIM_13
100
AcDbAlignedDimension
 13
-795.842907234889
 23
-2776.90342261772
 33
0.0
 14
-721.842907234889
 24
-2699.20342261772
 34
0.0
 50
90.0
100
AcDbRotatedDimension
  0
DIMENSION
  5
E1
330
35
100
AcDbEntity
  8
0
100
AcDbDimension
  2
*D7
 10
-821.178574720112
 20
-2785.70342261772
 30
0.0
 11
-826.178574720112
 21
-2803.08438164078
 31
0.0
 70
    32
  1
8.8
 71
     5
 42
-1.0
 53
90.0
  3
ME10_DIM_14
100
AcDbAlignedDimension
 13
-795.842907234889
 23
-2776.90342261772
 33
0.0
 14
-794.088294526224
 24
-2785.70342261772
 34
0.0
 50
90.0
100
AcDbRotatedDimension
  0
DIMENSION
  5
EC
330
35
100
AcDbEntity
  8
0
100
AcDbDimension
  2
*D8
 10
-795.842907234889
 20
-2809.76413553527
 30
0.0
 11
-721.842907234889
 21
-2804.76413553527
 31
0.0
 70
    32
  1
ƒç148
 71
     5
 42
-1.0
 53
0.00013888888889
  3
ME10_DIM_15
100
AcDbAlignedDimension
 13
-647.842907234889
 23
-2776.40342261772
 33
0.0
 14
-795.842907234889
 24
-2776.90342261772
 34
0.0
100
AcDbRotatedDimension
  0
HATCH
  5
ED
330
35
100
AcDbEntity
  8
0
  6
DOTTED
 62
     2
100
AcDbHatch
 10
0.0
 20
0.0
 30
0.0
210
0.0
220
0.0
230
1.0
  2
_USER
 70
     0
 71
     0
 91
        1
 92
        1
 93
       17
 72
     1
 10
-721.842907234889
 20
-2699.20342261772
 11
-707.439380752247
 21
-2700.64859572423
 72
     1
 10
-707.439380752247
 20
-2700.64859572423
 11
-693.610077417512
 21
-2704.92650055251
 72
     1
 10
-693.610077417512
 20
-2704.92650055251
 11
-680.906327913749
 21
-2711.86659053677
 72
     1
 10
-680.906327913749
 20
-2711.86659053677
 11
-669.834590644674
 21
-2721.19218619005
 72
     1
 10
-669.834590644674
 20
-2721.19218619005
 11
-660.836260836317
 21
-2732.53150544228
 72
     1
 10
-660.836260836317
 20
-2732.53150544228
 11
-654.270073502265
 21
-2745.43248541816
 72
     1
 10
-654.270073502265
 20
-2745.43248541816
 11
-650.397801810726
 21
-2759.38080475745
 72
     1
 10
-650.397801810726
 20
-2759.38080475745
 11
-649.349811880513
 21
-2770.70285980544
 72
     1
 10
-649.349811880513
 20
-2770.70285980544
 11
-794.336002589265
 21
-2770.70285980544
 72
     1
 10
-794.336002589265
 20
-2770.70285980544
 11
-792.692185971637
 21
-2756.32064970506
 72
     1
 10
-792.692185971637
 20
-2756.32064970506
 11
-788.223832188603
 21
-2742.55170221755
 72
     1
 10
-788.223832188603
 20
-2742.55170221755
 11
-781.109080404786
 21
-2729.94494182883
 72
     1
 10
-781.109080404786
 20
-2729.94494182883
 11
-771.631573321911
 21
-2719.00296029266
 72
     1
 10
-771.631573321911
 20
-2719.00296029266
 11
-760.169149239367
 21
-2710.16197988346
 72
     1
 10
-760.169149239367
 20
-2710.16197988346
 11
-747.178778833555
 21
-2703.77446259082
 72
     1
 10
-747.178778833555
 20
-2703.77446259082
 11
-733.178347179071
 21
-2700.09505857223
 72
     1
 10
-733.178347179071
 20
-2700.09505857223
 11
-721.842907234889
 21
-2699.20342261772
 97
        0
 75
     1
 76
     0
 52
44.99999999999998
 41
2.0
 77
     0
 78
     1
 53
44.99999999999998
 43
0.0
 44
0.0
 45
-1.414213562373094
 46
1.414213562373096
 79
     0
 98
        1
 10
0.0
 20
0.0
  0
HATCH
  5
EE
330
35
100
AcDbEntity
  8
0
  6
DOTTED
 62
     2
100
AcDbHatch
 10
0.0
 20
0.0
 30
0.0
210
0.0
220
0.0
230
1.0
  2
_USER
 70
     0
 71
     0
 91
        1
 92
        1
 93
        5
 72
     1
 10
-649.111319233489
 20
-2775.90342261772
 11
-649.292907234889
 21
-2770.70342261772
 72
     1
 10
-649.292907234889
 20
-2770.70342261772
 11
-794.336002589265
 21
-2770.70285980544
 72
     1
 10
-794.336002589265
 20
-2770.70285980544
 11
-794.574495236189
 21
-2775.90342261772
 72
     1
 10
-794.574495236189
 20
-2775.90342261772
 11
-788.310881973969
 21
-2775.90342261772
 72
     1
 10
-788.310881973969
 20
-2775.90342261772
 11
-649.111319233489
 21
-2775.90342261772
 97
        0
 75
     1
 76
     0
 52
44.99999999999998
 41
2.0
 77
     0
 78
     1
 53
44.99999999999998
 43
0.0
 44
0.0
 45
-1.414213562373094
 46
1.414213562373096
 79
     0
 98
        1
 10
0.0
 20
0.0
  0
HATCH
  5
EF
330
35
100
AcDbEntity
  8
0
  6
DOTTED
 62
     2
100
AcDbHatch
 10
0.0
 20
0.0
 30
0.0
210
0.0
220
0.0
230
1.0
  2
_USER
 70
     0
 71
     0
 91
        1
 92
        1
 93
       17
 72
     1
 10
-647.842907234889
 20
-2776.90342261772
 11
-647.842907234889
 21
-2776.40342261772
 72
     1
 10
-647.842907234889
 20
-2776.40342261772
 11
-647.852873945968
 21
-2776.30408795232
 72
     1
 10
-647.852873945968
 20
-2776.30408795232
 11
-647.882376737888
 21
-2776.20871344656
 72
     1
 10
-647.882376737888
 20
-2776.20871344656
 11
-647.930239427434
 21
-2776.12110138102
 72
     1
 10
-647.930239427434
 20
-2776.12110138102
 11
-647.994553880215
 21
-2776.04474457227
 72
     1
 10
-647.994553880215
 20
-2776.04474457227
 11
-648.072756081955
 21
-2775.98268712532
 72
     1
 10
-648.072756081955
 20
-2775.98268712532
 11
-648.161728357651
 21
-2775.93740307474
 72
     1
 10
-648.161728357651
 20
-2775.93740307474
 11
-648.257923663439
 21
-2775.91069775272
 72
     1
 10
-648.257923663439
 20
-2775.91069775272
 11
-648.342907234889
 21
-2775.90342261772
 72
     1
 10
-648.342907234889
 20
-2775.90342261772
 11
-648.669582301258
 21
-2775.90342261772
 72
     1
 10
-648.669582301258
 20
-2775.90342261772
 11
-651.223082448954
 21
-2775.90342261772
 72
     1
 10
-651.223082448954
 20
-2775.90342261772
 11
-795.186177243146
 21
-2775.90342261772
 72
     1
 10
-795.186177243146
 20
-2775.90342261772
 11
-795.494764949565
 21
-2775.92704122168
 72
     1
 10
-795.494764949565
 20
-2775.92704122168
 11
-795.649034262359
 21
-2776.00809206862
 72
     1
 10
-795.649034262359
 20
-2776.00809206862
 11
-795.842907234889
 21
-2776.40342261772
 72
     1
 10
-795.842907234889
 20
-2776.40342261772
 11
-795.842907234889
 21
-2776.90342261772
 72
     1
 10
-795.842907234889
 20
-2776.90342261772
 11
-647.842907234889
 21
-2776.90342261772
 97
        0
 75
     1
 76
     0
 52
44.99999999999998
 41
2.0
 77
     0
 78
     1
 53
44.99999999999998
 43
0.0
 44
0.0
 45
-1.414213562373094
 46
1.414213562373096
 79
     0
 98
        1
 10
0.0
 20
0.0
  0
HATCH
  5
F0
330
35
100
AcDbEntity
  8
0
  6
DOTTED
 62
     2
100
AcDbHatch
 10
0.0
 20
0.0
 30
0.0
210
0.0
220
0.0
230
1.0
  2
_USER
 70
     0
 71
     0
 91
        1
 92
        1
 93
        5
 72
     1
 10
-793.935912986602
 20
-2780.90342261772
 11
-787.825128021092
 21
-2780.90342261772
 72
     1
 10
-787.825128021092
 20
-2780.90342261772
 11
-649.73720302147
 21
-2780.90342261772
 72
     1
 10
-649.73720302147
 20
-2780.90342261772
 11
-649.876886099417
 21
-2776.90342261772
 72
     1
 10
-649.876886099417
 20
-2776.90342261772
 11
-793.808928370253
 21
-2776.90342261772
 72
     1
 10
-793.808928370253
 20
-2776.90342261772
 11
-793.935912986602
 21
-2780.90342261772
 97
        0
 75
     1
 76
     0
 52
44.99999999999998
 41
2.0
 77
     0
 78
     1
 53
44.99999999999998
 43
0.0
 44
0.0
 45
-1.414213562373094
 46
1.414213562373096
 79
     0
 98
        1
 10
0.0
 20
0.0
  0
HATCH
  5
F1
330
35
100
AcDbEntity
  8
0
  6
DOTTED
 62
     2
100
AcDbHatch
 10
0.0
 20
0.0
 30
0.0
210
0.0
220
0.0
230
1.0
  2
_USER
 70
     0
 71
     0
 91
        1
 92
        1
 93
        6
 72
     1
 10
-794.056548372136
 20
-2784.70342261772
 11
-649.60450409742
 21
-2784.70342261772
 72
     1
 10
-649.60450409742
 20
-2784.70342261772
 11
-649.569583327932
 21
-2785.70342261772
 72
     1
 10
-649.569583327932
 20
-2785.70342261772
 11
-781.507966556492
 21
-2785.70342261772
 72
     1
 10
-781.507966556492
 20
-2785.70342261772
 11
-790.766005018304
 21
-2785.70342261772
 72
     1
 10
-790.766005018304
 20
-2785.70342261772
 11
-794.088294526224
 21
-2785.70342261772
 72
     1
 10
-794.088294526224
 20
-2785.70342261772
 11
-794.056548372136
 21
-2784.70342261772
 97
        0
 75
     1
 76
     0
 52
44.99999999999998
 41
2.0
 77
     0
 78
     1
 53
44.99999999999998
 43
0.0
 44
0.0
 45
-1.414213562373094
 46
1.414213562373096
 79
     0
 98
        1
 10
0.0
 20
0.0
  0
HATCH
  5
F2
330
35
100
AcDbEntity
  8
0
  6
DOTTED
 62
     2
100
AcDbHatch
 10
0.0
 20
0.0
 30
0.0
210
0.0
220
0.0
230
1.0
  2
_USER
 70
     0
 71
     0
 91
        1
 92
        1
 93
        6
 72
     1
 10
-794.342907234889
 20
-2780.90342261772
 11
-794.342907234889
 21
-2781.90342261772
 72
     1
 10
-794.342907234889
 20
-2781.90342261772
 11
-794.056548372136
 21
-2784.70342261772
 72
     1
 10
-794.056548372136
 20
-2784.70342261772
 11
-649.60450409742
 21
-2784.70342261772
 72
     1
 10
-649.60450409742
 20
-2784.70342261772
 11
-649.342907234889
 21
-2781.90342261772
 72
     1
 10
-649.342907234889
 20
-2781.90342261772
 11
-649.342907234889
 21
-2780.90342261772
 72
     1
 10
-649.342907234889
 20
-2780.90342261772
 11
-794.342907234889
 21
-2780.90342261772
 97
        0
 75
     1
 76
     0
 52
44.99999999999998
 41
2.0
 77
     0
 78
     1
 53
44.99999999999998
 43
0.0
 44
0.0
 45
-1.414213562373094
 46
1.414213562373096
 79
     0
 98
        1
 10
0.0
 20
0.0
  0
HATCH
  5
F3
330
35
100
AcDbEntity
  8
0
  6
DOTTED
 62
     2
100
AcDbHatch
 10
0.0
 20
0.0
 30
0.0
210
0.0
220
0.0
230
1.0
  2
_USER
 70
     0
 71
     0
 91
        2
 92
        1
 93
       34
 72
     1
 10
-719.452907234889
 20
-2846.98166148524
 11
-721.842907234889
 21
-2846.94305614489
 72
     1
 10
-721.842907234889
 20
-2846.94305614489
 11
-724.232907234888
 21
-2846.98166148524
 72
     1
 10
-724.232907234888
 20
-2846.98166148524
 11
-738.87912713763
 21
-2848.93078488904
 72
     1
 10
-738.87912713763
 20
-2848.93078488904
 11
-752.84616671375
 21
-2853.75081029995
 72
     1
 10
-752.84616671375
 20
-2853.75081029995
 11
-765.577204170891
 21
-2861.2495785153
 72
     1
 10
-765.577204170891
 20
-2861.2495785153
 11
-776.564693220749
 21
-2871.12813731009
 72
     1
 10
-776.564693220749
 20
-2871.12813731009
 11
-785.370597347931
 21
-2882.99265971875
 72
     1
 10
-785.370597347931
 20
-2882.99265971875
 11
-791.643852943526
 21
-2896.37014467351
 72
     1
 10
-791.643852943526
 20
-2896.37014467351
 11
-795.134365103339
 21
-2910.72727406434
 72
     1
 10
-795.134365103339
 20
-2910.72727406434
 11
-795.702978122506
 21
-2925.49167444895
 72
     1
 10
-795.702978122506
 20
-2925.49167444895
 11
-793.327023194316
 21
-2940.07473577578
 72
     1
 10
-793.327023194316
 20
-2940.07473577578
 11
-788.101222143996
 21
-2953.89507740922
 72
     1
 10
-788.101222143996
 20
-2953.89507740922
 11
-780.233911168454
 21
-2966.40172594098
 72
     1
 10
-780.233911168454
 20
-2966.40172594098
 11
-770.038735129549
 21
-2977.09608076109
 72
     1
 10
-770.038735129549
 20
-2977.09608076109
 11
-757.922143523214
 21
-2985.55179169087
 72
     1
 10
-757.922143523214
 20
-2985.55179169087
 11
-744.367186620677
 21
-2991.43175621909
 72
     1
 10
-744.367186620677
 20
-2991.43175621909
 11
-729.914257778503
 21
-2994.5015587153
 72
     1
 10
-729.914257778503
 20
-2994.5015587153
 11
-715.139549660774
 21
-2994.63881584131
 72
     1
 10
-715.139549660774
 20
-2994.63881584131
 11
-700.632083255857
 21
-2991.83805558864
 72
     1
 10
-700.632083255857
 20
-2991.83805558864
 11
-686.970225468359
 21
-2986.21093543026
 72
     1
 10
-686.970225468359
 20
-2986.21093543026
 11
-674.698631455781
 21
-2977.98179088947
 72
     1
 10
-674.698631455781
 20
-2977.98179088947
 11
-664.306530946151
 21
-2967.47869199055
 72
     1
 10
-664.306530946151
 20
-2967.47869199055
 11
-656.208224192618
 21
-2955.12036414216
 72
     1
 10
-656.208224192618
 20
-2955.12036414216
 11
-650.726565129761
 21
-2941.39949487664
 72
     1
 10
-650.726565129761
 20
-2941.39949487664
 11
-648.08009020604
 21
-2926.86309195292
 72
     1
 10
-648.08009020604
 20
-2926.86309195292
 11
-648.37430602523
 21
-2912.09067588329
 72
     1
 10
-648.37430602523
 20
-2912.09067588329
 11
-651.597483131071
 21
-2897.67117627938
 72
     1
 10
-651.597483131071
 20
-2897.67117627938
 11
-657.621123623677
 21
-2884.17945308704
 72
     1
 10
-657.621123623677
 20
-2884.17945308704
 11
-666.205083965304
 21
-2872.15337873437
 72
     1
 10
-666.205083965304
 20
-2872.15337873437
 11
-677.007148745386
 21
-2862.07239485532
 72
     1
 10
-677.007148745386
 20
-2862.07239485532
 11
-689.596673729026
 21
-2854.33839846477
 72
     1
 10
-689.596673729026
 20
-2854.33839846477
 11
-703.471754283671
 21
-2849.25971959278
 72
     1
 10
-703.471754283671
 20
-2849.25971959278
 11
-718.079234732955
 21
-2847.03882913927
 72
     1
 10
-718.079234732955
 20
-2847.03882913927
 11
-719.452907234889
 21
-2846.98166148524
 97
        0
 92
       16
 93
       32
 72
     1
 10
-794.574495236188
 20
-2920.94305614488
 11
-793.124705788281
 21
-2935.39259206076
 72
     1
 10
-793.124705788281
 20
-2935.39259206076
 11
-788.833135974774
 21
-2949.26607057783
 72
     1
 10
-788.833135974774
 20
-2949.26607057783
 11
-781.870877141298
 21
-2962.01039988789
 72
     1
 10
-781.870877141298
 20
-2962.01039988789
 11
-772.515492576868
 21
-2973.11750379841
 72
     1
 10
-772.515492576868
 20
-2973.11750379841
 11
-761.139951941442
 21
-2982.14457712698
 72
     1
 10
-761.139951941442
 20
-2982.14457712698
 11
-748.197762142562
 21
-2988.73173894656
 72
     1
 10
-748.197762142562
 20
-2988.73173894656
 11
-734.204887446067
 21
-2992.6163799024
 72
     1
 10
-734.204887446067
 20
-2992.6163799024
 11
-719.719179609037
 21
-2993.64363161827
 72
     1
 10
-719.719179609037
 20
-2993.64363161827
 11
-705.318138090639
 21
-2991.77254080996
 72
     1
 10
-705.318138090639
 20
-2991.77254080996
 11
-691.575886971098
 21
-2987.07770196341
 72
     1
 10
-691.575886971098
 20
-2987.07770196341
 11
-679.040286436369
 21
-2979.74628348802
 72
     1
 10
-679.040286436369
 20
-2979.74628348802
 11
-668.211091321396
 21
-2970.07056590278
 72
     1
 10
-668.211091321396
 20
-2970.07056590278
 11
-659.520027461912
 21
-2958.43628953431
 72
     1
 10
-659.520027461912
 20
-2958.43628953431
 11
-653.313580147757
 21
-2945.30727626734
 72
     1
 10
-653.313580147757
 20
-2945.30727626734
 11
-649.839180847768
 21
-2931.20693842984
 72
     1
 10
-649.839180847768
 20
-2931.20693842984
 11
-649.235342897936
 21
-2916.69741199518
 72
     1
 10
-649.235342897936
 20
-2916.69741199518
 11
-651.526139411799
 21
-2902.35714599487
 72
     1
 10
-651.526139411799
 20
-2902.35714599487
 11
-656.620243561377
 21
-2888.75784158101
 72
     1
 10
-656.620243561377
 20
-2888.75784158101
 11
-664.3145694896
 21
-2876.4416601055
 72
     1
 10
-664.3145694896
 20
-2876.4416601055
 11
-674.30236870256
 21
-2865.89960885779
 72
     1
 10
-674.30236870256
 20
-2865.89960885779
 11
-686.185459163959
 21
-2857.55196615379
 72
     1
 10
-686.185459163959
 20
-2857.55196615379
 11
-699.490099556362
 21
-2851.73152616557
 72
     1
 10
-699.490099556362
 20
-2851.73152616557
 11
-713.685875852544
 21
-2848.67033146802
 72
     1
 10
-713.685875852544
 20
-2848.67033146802
 11
-728.206847248939
 21
-2848.49042223356
 72
     1
 10
-728.206847248939
 20
-2848.49042223356
 11
-742.474108439548
 21
-2851.19897087564
 72
     1
 10
-742.474108439548
 20
-2851.19897087564
 11
-755.918868743648
 21
-2856.68799610722
 72
     1
 10
-755.918868743648
 20
-2856.68799610722
 11
-768.005127995308
 21
-2864.73866781393
 72
     1
 10
-768.005127995308
 20
-2864.73866781393
 11
-778.251045178562
 21
-2875.03003112019
 72
     1
 10
-778.251045178562
 20
-2875.03003112019
 11
-786.248147908174
 21
-2887.15180184726
 72
     1
 10
-786.248147908174
 20
-2887.15180184726
 11
-791.677616934633
 21
-2900.6207232487
 72
     1
 10
-791.677616934633
 20
-2900.6207232487
 11
-794.322996461532
 21
-2914.89983193189
 72
     1
 10
-794.322996461532
 20
-2914.89983193189
 11
-794.574495236188
 21
-2920.94305614488
 97
        0
 75
     1
 76
     0
 52
44.99999999999998
 41
2.0
 77
     0
 78
     1
 53
44.99999999999998
 43
0.0
 44
0.0
 45
-1.414213562373094
 46
1.414213562373096
 79
     0
 98
        1
 10
0.0
 20
0.0
  0
HATCH
  5
F4
330
35
100
AcDbEntity
  8
0
  6
DOTTED
 62
     2
100
AcDbHatch
 10
0.0
 20
0.0
 30
0.0
210
0.0
220
0.0
230
1.0
  2
_USER
 70
     0
 71
     0
 91
        2
 92
        1
 93
       32
 72
     1
 10
-794.574495236188
 20
-2920.94305614488
 11
-793.124705788281
 21
-2935.39259206076
 72
     1
 10
-793.124705788281
 20
-2935.39259206076
 11
-788.833135974774
 21
-2949.26607057783
 72
     1
 10
-788.833135974774
 20
-2949.26607057783
 11
-781.870877141298
 21
-2962.01039988789
 72
     1
 10
-781.870877141298
 20
-2962.01039988789
 11
-772.515492576868
 21
-2973.11750379841
 72
     1
 10
-772.515492576868
 20
-2973.11750379841
 11
-761.139951941442
 21
-2982.14457712698
 72
     1
 10
-761.139951941442
 20
-2982.14457712698
 11
-748.197762142562
 21
-2988.73173894656
 72
     1
 10
-748.197762142562
 20
-2988.73173894656
 11
-734.204887446067
 21
-2992.6163799024
 72
     1
 10
-734.204887446067
 20
-2992.6163799024
 11
-719.719179609037
 21
-2993.64363161827
 72
     1
 10
-719.719179609037
 20
-2993.64363161827
 11
-705.318138090639
 21
-2991.77254080996
 72
     1
 10
-705.318138090639
 20
-2991.77254080996
 11
-691.575886971098
 21
-2987.07770196341
 72
     1
 10
-691.575886971098
 20
-2987.07770196341
 11
-679.040286436369
 21
-2979.74628348802
 72
     1
 10
-679.040286436369
 20
-2979.74628348802
 11
-668.211091321396
 21
-2970.07056590278
 72
     1
 10
-668.211091321396
 20
-2970.07056590278
 11
-659.520027461912
 21
-2958.43628953431
 72
     1
 10
-659.520027461912
 20
-2958.43628953431
 11
-653.313580147757
 21
-2945.30727626734
 72
     1
 10
-653.313580147757
 20
-2945.30727626734
 11
-649.839180847768
 21
-2931.20693842984
 72
     1
 10
-649.839180847768
 20
-2931.20693842984
 11
-649.235342897936
 21
-2916.69741199518
 72
     1
 10
-649.235342897936
 20
-2916.69741199518
 11
-651.526139411799
 21
-2902.35714599487
 72
     1
 10
-651.526139411799
 20
-2902.35714599487
 11
-656.620243561377
 21
-2888.75784158101
 72
     1
 10
-656.620243561377
 20
-2888.75784158101
 11
-664.3145694896
 21
-2876.4416601055
 72
     1
 10
-664.3145694896
 20
-2876.4416601055
 11
-674.30236870256
 21
-2865.89960885779
 72
     1
 10
-674.30236870256
 20
-2865.89960885779
 11
-686.185459163959
 21
-2857.55196615379
 72
     1
 10
-686.185459163959
 20
-2857.55196615379
 11
-699.490099556362
 21
-2851.73152616557
 72
     1
 10
-699.490099556362
 20
-2851.73152616557
 11
-713.685875852544
 21
-2848.67033146802
 72
     1
 10
-713.685875852544
 20
-2848.67033146802
 11
-728.206847248939
 21
-2848.49042223356
 72
     1
 10
-728.206847248939
 20
-2848.49042223356
 11
-742.474108439548
 21
-2851.19897087564
 72
     1
 10
-742.474108439548
 20
-2851.19897087564
 11
-755.918868743648
 21
-2856.68799610722
 72
     1
 10
-755.918868743648
 20
-2856.68799610722
 11
-768.005127995308
 21
-2864.73866781393
 72
     1
 10
-768.005127995308
 20
-2864.73866781393
 11
-778.251045178562
 21
-2875.03003112019
 72
     1
 10
-778.251045178562
 20
-2875.03003112019
 11
-786.248147908174
 21
-2887.15180184726
 72
     1
 10
-786.248147908174
 20
-2887.15180184726
 11
-791.677616934633
 21
-2900.6207232487
 72
     1
 10
-791.677616934633
 20
-2900.6207232487
 11
-794.322996461532
 21
-2914.89983193189
 72
     1
 10
-794.322996461532
 20
-2914.89983193189
 11
-794.574495236188
 21
-2920.94305614488
 97
        0
 92
       16
 93
       32
 72
     1
 10
-793.11671877735
 20
-2920.94305614488
 11
-791.69598780301
 21
-2935.10297658724
 72
     1
 10
-791.69598780301
 20
-2935.10297658724
 11
-787.490434940562
 21
-2948.69838568577
 72
     1
 10
-787.490434940562
 20
-2948.69838568577
 11
-780.667722311242
 21
-2961.18727738251
 72
     1
 10
-780.667722311242
 20
-2961.18727738251
 11
-771.499849937267
 21
-2972.07175897649
 72
     1
 10
-771.499849937267
 20
-2972.07175897649
 11
-760.352311959292
 21
-2980.91790053453
 72
     1
 10
-760.352311959292
 20
-2980.91790053453
 11
-747.669525538409
 21
-2987.37303430832
 72
     1
 10
-747.669525538409
 20
-2987.37303430832
 11
-733.957113346371
 21
-2991.17981448465
 72
     1
 10
-733.957113346371
 20
-2991.17981448465
 11
-719.761745985257
 21
-2992.18647675088
 72
     1
 10
-719.761745985257
 20
-2992.18647675088
 11
-705.649347955681
 21
-2990.35288865917
 72
     1
 10
-705.649347955681
 20
-2990.35288865917
 11
-692.182536032837
 21
-2985.7521495805
 72
     1
 10
-692.182536032837
 20
-2985.7521495805
 11
-679.898189511104
 21
-2978.56767646348
 72
     1
 10
-679.898189511104
 20
-2978.56767646348
 11
-669.286046520807
 21
-2969.08589157936
 72
     1
 10
-669.286046520807
 20
-2969.08589157936
 11
-660.769179714416
 21
-2957.68480376997
 72
     1
 10
-660.769179714416
 20
-2957.68480376997
 11
-654.687129694975
 21
-2944.81893842805
 72
     1
 10
-654.687129694975
 20
-2944.81893842805
 11
-651.282368603739
 21
-2931.00121700421
 72
     1
 10
-651.282368603739
 20
-2931.00121700421
 11
-650.690633521071
 21
-2916.78250844727
 72
     1
 10
-650.690633521071
 20
-2916.78250844727
 11
-652.935515057389
 21
-2902.72966779767
 72
     1
 10
-652.935515057389
 20
-2902.72966779767
 11
-657.927516869973
 21
-2889.4029374658
 72
     1
 10
-657.927516869973
 20
-2889.4029374658
 11
-665.467623599729
 21
-2877.33361213507
 72
     1
 10
-665.467623599729
 20
-2877.33361213507
 11
-675.255234985524
 21
-2867.00285771944
 72
     1
 10
-675.255234985524
 20
-2867.00285771944
 11
-686.900149848
 21
-2858.8225287969
 72
     1
 10
-686.900149848
 20
-2858.8225287969
 11
-699.938122179244
 21
-2853.11874926707
 72
     1
 10
-699.938122179244
 20
-2853.11874926707
 11
-713.849369166109
 21
-2850.11891082047
 72
     1
 10
-713.849369166109
 20
-2850.11891082047
 11
-728.079293290709
 21
-2849.94260754945
 72
     1
 10
-728.079293290709
 20
-2849.94260754945
 11
-742.060592383318
 21
-2852.59686810905
 72
     1
 10
-742.060592383318
 20
-2852.59686810905
 11
-755.235876169653
 21
-2857.97587550678
 72
     1
 10
-755.235876169653
 20
-2857.97587550678
 11
-767.079887662167
 21
-2865.86518569211
 72
     1
 10
-767.079887662167
 20
-2865.86518569211
 11
-777.120443498592
 21
-2875.95027676413
 72
     1
 10
-777.120443498592
 20
-2875.95027676413
 11
-784.957258402536
 21
-2887.82908796713
 72
     1
 10
-784.957258402536
 20
-2887.82908796713
 11
-790.277903294278
 21
-2901.02804858421
 72
     1
 10
-790.277903294278
 20
-2901.02804858421
 11
-792.870260852251
 21
-2915.0209577073
 72
     1
 10
-792.870260852251
 20
-2915.0209577073
 11
-793.11671877735
 21
-2920.94305614488
 97
        0
 75
     1
 76
     0
 52
44.99999999999998
 41
2.0
 77
     0
 78
     1
 53
44.99999999999998
 43
0.0
 44
0.0
 45
-1.414213562373094
 46
1.414213562373096
 79
     0
 98
        1
 10
0.0
 20
0.0
  0
HATCH
  5
F5
330
35
100
AcDbEntity
  8
0
  6
DOTTED
 62
     2
100
AcDbHatch
 10
0.0
 20
0.0
 30
0.0
210
0.0
220
0.0
230
1.0
  2
_USER
 70
     0
 71
     0
 91
        2
 92
        1
 93
       32
 72
     1
 10
-793.11671877735
 20
-2920.94305614488
 11
-791.69598780301
 21
-2935.10297658724
 72
     1
 10
-791.69598780301
 20
-2935.10297658724
 11
-787.490434940562
 21
-2948.69838568577
 72
     1
 10
-787.490434940562
 20
-2948.69838568577
 11
-780.667722311242
 21
-2961.18727738251
 72
     1
 10
-780.667722311242
 20
-2961.18727738251
 11
-771.499849937267
 21
-2972.07175897649
 72
     1
 10
-771.499849937267
 20
-2972.07175897649
 11
-760.352311959292
 21
-2980.91790053453
 72
     1
 10
-760.352311959292
 20
-2980.91790053453
 11
-747.669525538409
 21
-2987.37303430832
 72
     1
 10
-747.669525538409
 20
-2987.37303430832
 11
-733.957113346371
 21
-2991.17981448465
 72
     1
 10
-733.957113346371
 20
-2991.17981448465
 11
-719.761745985257
 21
-2992.18647675088
 72
     1
 10
-719.761745985257
 20
-2992.18647675088
 11
-705.649347955681
 21
-2990.35288865917
 72
     1
 10
-705.649347955681
 20
-2990.35288865917
 11
-692.182536032837
 21
-2985.7521495805
 72
     1
 10
-692.182536032837
 20
-2985.7521495805
 11
-679.898189511104
 21
-2978.56767646348
 72
     1
 10
-679.898189511104
 20
-2978.56767646348
 11
-669.286046520807
 21
-2969.08589157936
 72
     1
 10
-669.286046520807
 20
-2969.08589157936
 11
-660.769179714416
 21
-2957.68480376997
 72
     1
 10
-660.769179714416
 20
-2957.68480376997
 11
-654.687129694975
 21
-2944.81893842805
 72
     1
 10
-654.687129694975
 20
-2944.81893842805
 11
-651.282368603739
 21
-2931.00121700421
 72
     1
 10
-651.282368603739
 20
-2931.00121700421
 11
-650.690633521071
 21
-2916.78250844727
 72
     1
 10
-650.690633521071
 20
-2916.78250844727
 11
-652.935515057389
 21
-2902.72966779767
 72
     1
 10
-652.935515057389
 20
-2902.72966779767
 11
-657.927516869973
 21
-2889.4029374658
 72
     1
 10
-657.927516869973
 20
-2889.4029374658
 11
-665.467623599729
 21
-2877.33361213507
 72
     1
 10
-665.467623599729
 20
-2877.33361213507
 11
-675.255234985524
 21
-2867.00285771944
 72
     1
 10
-675.255234985524
 20
-2867.00285771944
 11
-686.900149848
 21
-2858.8225287969
 72
     1
 10
-686.900149848
 20
-2858.8225287969
 11
-699.938122179244
 21
-2853.11874926707
 72
     1
 10
-699.938122179244
 20
-2853.11874926707
 11
-713.849369166109
 21
-2850.11891082047
 72
     1
 10
-713.849369166109
 20
-2850.11891082047
 11
-728.079293290709
 21
-2849.94260754945
 72
     1
 10
-728.079293290709
 20
-2849.94260754945
 11
-742.060592383318
 21
-2852.59686810905
 72
     1
 10
-742.060592383318
 20
-2852.59686810905
 11
-755.235876169653
 21
-2857.97587550678
 72
     1
 10
-755.235876169653
 20
-2857.97587550678
 11
-767.079887662167
 21
-2865.86518569211
 72
     1
 10
-767.079887662167
 20
-2865.86518569211
 11
-777.120443498592
 21
-2875.95027676413
 72
     1
 10
-777.120443498592
 20
-2875.95027676413
 11
-784.957258402536
 21
-2887.82908796713
 72
     1
 10
-784.957258402536
 20
-2887.82908796713
 11
-790.277903294278
 21
-2901.02804858421
 72
     1
 10
-790.277903294278
 20
-2901.02804858421
 11
-792.870260852251
 21
-2915.0209577073
 72
     1
 10
-792.870260852251
 20
-2915.0209577073
 11
-793.11671877735
 21
-2920.94305614488
 97
        0
 92
       16
 93
       32
 72
     1
 10
-792.532722625791
 20
-2920.94305614488
 11
-791.123632693279
 21
-2934.98695446262
 72
     1
 10
-791.123632693279
 20
-2934.98695446262
 11
-786.952538864714
 21
-2948.47096687251
 72
     1
 10
-786.952538864714
 20
-2948.47096687251
 11
-780.185729488391
 21
-2960.85752835104
 72
     1
 10
-780.185729488391
 20
-2960.85752835104
 11
-771.092975900243
 21
-2971.65282578011
 72
     1
 10
-771.092975900243
 20
-2971.65282578011
 11
-760.036777491986
 21
-2980.42648471776
 72
     1
 10
-760.036777491986
 20
-2980.42648471776
 11
-747.457910004307
 21
-2986.82872706901
 72
     1
 10
-747.457910004307
 20
-2986.82872706901
 11
-733.857853189026
 21
-2990.60431563478
 72
     1
 10
-733.857853189026
 20
-2990.60431563478
 11
-719.778798393908
 21
-2991.60272961351
 72
     1
 10
-719.778798393908
 20
-2991.60272961351
 11
-705.782033104608
 21
-2989.78416539053
 72
     1
 10
-705.782033104608
 20
-2989.78416539053
 11
-692.425564183864
 21
-2985.22112338261
 72
     1
 10
-692.425564183864
 20
-2985.22112338261
 11
-680.241871898769
 21
-2978.0955176751
 72
     1
 10
-680.241871898769
 20
-2978.0955176751
 11
-669.716681612867
 21
-2968.6914236814
 72
     1
 10
-669.716681612867
 20
-2968.6914236814
 11
-661.269599448698
 21
-2957.3837529527
 72
     1
 10
-661.269599448698
 20
-2957.3837529527
 11
-655.237383915838
 21
-2944.62330663755
 72
     1
 10
-655.237383915838
 20
-2944.62330663755
 11
-651.860520411825
 21
-2930.9188034626
 72
     1
 10
-651.860520411825
 20
-2930.9188034626
 11
-651.273633828256
 21
-2916.81659872239
 72
     1
 10
-651.273633828256
 20
-2916.81659872239
 11
-653.500121481189
 21
-2902.87890281782
 72
     1
 10
-653.500121481189
 20
-2902.87890281782
 11
-658.451220333991
 21
-2889.66136770167
 72
     1
 10
-658.451220333991
 20
-2889.66136770167
 11
-665.929545699495
 21
-2877.69093478868
 72
     1
 10
-665.929545699495
 20
-2877.69093478868
 11
-675.6369603446
 21
-2867.44482746419
 72
     1
 10
-675.6369603446
 20
-2867.44482746419
 11
-687.186460280923
 21
-2859.33152569379
 72
     1
 10
-687.186460280923
 20
-2859.33152569379
 11
-700.117603392559
 21
-2853.67448121604
 72
     1
 10
-700.117603392559
 20
-2853.67448121604
 11
-713.914865810227
 21
-2850.69922254244
 72
     1
 10
-713.914865810227
 20
-2850.69922254244
 11
-728.028194221115
 21
-2850.52436384733
 72
     1
 10
-728.028194221115
 20
-2850.52436384733
 11
-741.894934758664
 21
-2853.15687619509
 72
     1
 10
-741.894934758664
 20
-2853.15687619509
 11
-754.962264236673
 21
-2858.49180962579
 72
     1
 10
-754.962264236673
 20
-2858.49180962579
 11
-766.709229465195
 21
-2866.31647717891
 72
     1
 10
-766.709229465195
 20
-2866.31647717891
 11
-776.667516010261
 21
-2876.31893405126
 72
     1
 10
-776.667516010261
 20
-2876.31893405126
 11
-784.440118412512
 21
-2888.10041385192
 72
     1
 10
-784.440118412512
 20
-2888.10041385192
 11
-789.717167542033
 21
-2901.19122615985
 72
     1
 10
-789.717167542033
 20
-2901.19122615985
 11
-792.288284102723
 21
-2915.06948159878
 72
     1
 10
-792.288284102723
 20
-2915.06948159878
 11
-792.532722625791
 21
-2920.94305614488
 97
        0
 75
     1
 76
     0
 52
44.99999999999998
 41
2.0
 77
     0
 78
     1
 53
44.99999999999998
 43
0.0
 44
0.0
 45
-1.414213562373094
 46
1.414213562373096
 79
     0
 98
        1
 10
0.0
 20
0.0
  0
HATCH
  5
F6
330
35
100
AcDbEntity
  8
0
  6
DOTTED
 62
     2
100
AcDbHatch
 10
0.0
 20
0.0
 30
0.0
210
0.0
220
0.0
230
1.0
  2
_USER
 70
     0
 71
     0
 91
        1
 92
        1
 93
       32
 72
     1
 10
-792.532722625791
 20
-2920.94305614488
 11
-791.123632693279
 21
-2934.98695446262
 72
     1
 10
-791.123632693279
 20
-2934.98695446262
 11
-786.952538864714
 21
-2948.47096687251
 72
     1
 10
-786.952538864714
 20
-2948.47096687251
 11
-780.185729488391
 21
-2960.85752835104
 72
     1
 10
-780.185729488391
 20
-2960.85752835104
 11
-771.092975900243
 21
-2971.65282578011
 72
     1
 10
-771.092975900243
 20
-2971.65282578011
 11
-760.036777491986
 21
-2980.42648471776
 72
     1
 10
-760.036777491986
 20
-2980.42648471776
 11
-747.457910004307
 21
-2986.82872706901
 72
     1
 10
-747.457910004307
 20
-2986.82872706901
 11
-733.857853189026
 21
-2990.60431563478
 72
     1
 10
-733.857853189026
 20
-2990.60431563478
 11
-719.778798393908
 21
-2991.60272961351
 72
     1
 10
-719.778798393908
 20
-2991.60272961351
 11
-705.782033104608
 21
-2989.78416539053
 72
     1
 10
-705.782033104608
 20
-2989.78416539053
 11
-692.425564183864
 21
-2985.22112338261
 72
     1
 10
-692.425564183864
 20
-2985.22112338261
 11
-680.241871898769
 21
-2978.0955176751
 72
     1
 10
-680.241871898769
 20
-2978.0955176751
 11
-669.716681612867
 21
-2968.6914236814
 72
     1
 10
-669.716681612867
 20
-2968.6914236814
 11
-661.269599448698
 21
-2957.3837529527
 72
     1
 10
-661.269599448698
 20
-2957.3837529527
 11
-655.237383915838
 21
-2944.62330663755
 72
     1
 10
-655.237383915838
 20
-2944.62330663755
 11
-651.860520411825
 21
-2930.9188034626
 72
     1
 10
-651.860520411825
 20
-2930.9188034626
 11
-651.273633828256
 21
-2916.81659872239
 72
     1
 10
-651.273633828256
 20
-2916.81659872239
 11
-653.500121481189
 21
-2902.87890281782
 72
     1
 10
-653.500121481189
 20
-2902.87890281782
 11
-658.451220333991
 21
-2889.66136770167
 72
     1
 10
-658.451220333991
 20
-2889.66136770167
 11
-665.929545699495
 21
-2877.69093478868
 72
     1
 10
-665.929545699495
 20
-2877.69093478868
 11
-675.6369603446
 21
-2867.44482746419
 72
     1
 10
-675.6369603446
 20
-2867.44482746419
 11
-687.186460280923
 21
-2859.33152569379
 72
     1
 10
-687.186460280923
 20
-2859.33152569379
 11
-700.117603392559
 21
-2853.67448121604
 72
     1
 10
-700.117603392559
 20
-2853.67448121604
 11
-713.914865810227
 21
-2850.69922254244
 72
     1
 10
-713.914865810227
 20
-2850.69922254244
 11
-728.028194221115
 21
-2850.52436384733
 72
     1
 10
-728.028194221115
 20
-2850.52436384733
 11
-741.894934758664
 21
-2853.15687619509
 72
     1
 10
-741.894934758664
 20
-2853.15687619509
 11
-754.962264236673
 21
-2858.49180962579
 72
     1
 10
-754.962264236673
 20
-2858.49180962579
 11
-766.709229465195
 21
-2866.31647717891
 72
     1
 10
-766.709229465195
 20
-2866.31647717891
 11
-776.667516010261
 21
-2876.31893405126
 72
     1
 10
-776.667516010261
 20
-2876.31893405126
 11
-784.440118412512
 21
-2888.10041385192
 72
     1
 10
-784.440118412512
 20
-2888.10041385192
 11
-789.717167542033
 21
-2901.19122615985
 72
     1
 10
-789.717167542033
 20
-2901.19122615985
 11
-792.288284102723
 21
-2915.06948159878
 72
     1
 10
-792.288284102723
 20
-2915.06948159878
 11
-792.532722625791
 21
-2920.94305614488
 97
        0
 75
     1
 76
     0
 52
44.99999999999998
 41
2.0
 77
     0
 78
     1
 53
44.99999999999998
 43
0.0
 44
0.0
 45
-1.414213562373094
 46
1.414213562373096
 79
     0
 98
        1
 10
0.0
 20
0.0
  0
ENDBLK
  5
38
330
35
100
AcDbEntity
  8
0
100
AcDbBlockEnd
  0
BLOCK
  5
B2
330
AA
100
AcDbEntity
  8
0
100
AcDbBlockBegin
  2
*D3
 70
     1
 71
     0
 10
0.0
 20
0.0
 30
0.0
  3
*D3
  1

  0
LINE
  5
AB
330
AA
100
AcDbEntity
  8
0
  6
Continuous
 62
     2
100
AcDbLine
 10
-649.349811880513
 20
-2667.48710603777
 30
0.0
 11
-794.336002589265
 21
-2667.48710603777
 31
0.0
  0
LINE
  5
AC
330
AA
100
AcDbEntity
  8
0
  6
Continuous
 62
     2
100
AcDbLine
 10
-794.336002589265
 20
-2769.70285980544
 30
0.0
 11
-794.336002589265
 21
-2665.88710603777
 31
0.0
  0
LINE
  5
AD
330
AA
100
AcDbEntity
  8
0
  6
Continuous
 62
     2
100
AcDbLine
 10
-649.349811880513
 20
-2769.70285980544
 30
0.0
 11
-649.349811880513
 21
-2665.88710603777
 31
0.0
  0
SOLID
  5
AE
330
AA
100
AcDbEntity
  8
0
 62
     2
100
AcDbTrace
 10
-789.336002589265
 20
-2666.828843549833
 30
0.0
 11
-789.336002589265
 21
-2668.145368525707
 31
0.0
 12
-794.336002589265
 22
-2667.48710603777
 32
0.0
 13
-794.336002589265
 23
-2667.48710603777
 33
0.0
  0
SOLID
  5
AF
330
AA
100
AcDbEntity
  8
0
 62
     2
100
AcDbTrace
 10
-654.349811880513
 20
-2668.145368525707
 30
0.0
 11
-654.349811880513
 21
-2666.828843549833
 31
0.0
 12
-649.349811880513
 22
-2667.48710603777
 32
0.0
 13
-649.349811880513
 23
-2667.48710603777
 33
0.0
  0
MTEXT
  5
B1
330
AA
100
AcDbEntity
  8
0
 62
     2
100
AcDbMText
 10
-734.1428999626477
 20
-2665.487135853803
 30
0.0
 40
6.0
 41
0.0
 71
     7
 72
     1
  1
ƒÓ145
  7
CONVERTER_12
 11
0.999999999988248
 21
4.848136811095759E-6
 31
0.0
 73
     1
 44
0.60024009603842
  0
ENDBLK
  5
B3
330
AA
100
AcDbEntity
  8
0
100
AcDbBlockEnd
  0
BLOCK
  5
BD
330
B6
100
AcDbEntity
  8
0
100
AcDbBlockBegin
  2
*D4
 70
     1
 71
     0
 10
0.0
 20
0.0
 30
0.0
  3
*D4
  1

  0
LINE
  5
B7
330
B6
100
AcDbEntity
  8
0
  6
Continuous
 62
     2
100
AcDbLine
 10
-808.4037520511
 20
-2786.90342261772
 30
0.0
 11
-808.4037520511
 21
-2760.47493896674
 31
0.0
  0
LINE
  5
B8
330
B6
100
AcDbEntity
  8
0
  6
Continuous
 62
     2
100
AcDbLine
 10
-796.842907234889
 20
-2776.90342261772
 30
0.0
 11
-810.0037520511
 21
-2776.90342261772
 31
0.0
  0
LINE
  5
B9
330
B6
100
AcDbEntity
  8
0
  6
Continuous
 62
     2
100
AcDbLine
 10
-796.342415745788
 20
-2775.90342261772
 30
0.0
 11
-810.0037520511
 21
-2775.90342261772
 31
0.0
  0
SOLID
  5
BA
330
B6
100
AcDbEntity
  8
0
 62
     2
100
AcDbTrace
 10
-807.745489563163
 20
-2781.90342261772
 30
0.0
 11
-809.062014539037
 21
-2781.90342261772
 31
0.0
 12
-808.4037520511
 22
-2776.90342261772
 32
0.0
 13
-808.4037520511
 23
-2776.90342261772
 33
0.0
  0
SOLID
  5
BB
330
B6
100
AcDbEntity
  8
0
 62
     2
100
AcDbTrace
 10
-809.062014539037
 20
-2770.90342261772
 30
0.0
 11
-807.745489563163
 21
-2770.90342261772
 31
0.0
 12
-808.4037520511
 22
-2775.90342261772
 32
0.0
 13
-808.4037520511
 23
-2775.90342261772
 33
0.0
  0
MTEXT
  5
BC
330
B6
100
AcDbEntity
  8
0
 62
     2
100
AcDbMText
 10
-810.4037520511
 20
-2765.39493896674
 30
0.0
 40
6.0
 41
0.0
 71
     7
 72
     1
  1
1
  7
CONVERTER_12
 11
0.0
 21
1.0
 31
0.0
 73
     1
 44
0.60024009603842
  0
ENDBLK
  5
BE
330
B6
100
AcDbEntity
  8
0
100
AcDbBlockEnd
  0
BLOCK
  5
C8
330
C1
100
AcDbEntity
  8
0
100
AcDbBlockBegin
  2
*D5
 70
     1
 71
     0
 10
0.0
 20
0.0
 30
0.0
  3
*D5
  1

  0
LINE
  5
C2
330
C1
100
AcDbEntity
  8
0
  6
Continuous
 62
     2
100
AcDbLine
 10
-835.778372056126
 20
-2699.20342261772
 30
0.0
 11
-835.778372056126
 21
-2785.70342261772
 31
0.0
  0
LINE
  5
C3
330
C1
100
AcDbEntity
  8
0
  6
Continuous
 62
     2
100
AcDbLine
 10
-795.088294526224
 20
-2785.70342261772
 30
0.0
 11
-837.3783720561261
 21
-2785.70342261772
 31
0.0
  0
LINE
  5
C4
330
C1
100
AcDbEntity
  8
0
  6
Continuous
 62
     2
100
AcDbLine
 10
-722.842907234889
 20
-2699.20342261772
 30
0.0
 11
-837.3783720561261
 21
-2699.20342261772
 31
0.0
  0
SOLID
  5
C5
330
C1
100
AcDbEntity
  8
0
 62
     2
100
AcDbTrace
 10
-836.436634544063
 20
-2780.70342261772
 30
0.0
 11
-835.120109568189
 21
-2780.70342261772
 31
0.0
 12
-835.778372056126
 22
-2785.70342261772
 32
0.0
 13
-835.778372056126
 23
-2785.70342261772
 33
0.0
  0
SOLID
  5
C6
330
C1
100
AcDbEntity
  8
0
 62
     2
100
AcDbTrace
 10
-835.120109568189
 20
-2704.20342261772
 30
0.0
 11
-836.436634544063
 21
-2704.20342261772
 31
0.0
 12
-835.778372056126
 22
-2699.20342261772
 32
0.0
 13
-835.778372056126
 23
-2699.20342261772
 33
0.0
  0
MTEXT
  5
C7
330
C1
100
AcDbEntity
  8
0
 62
     2
100
AcDbMText
 10
-837.778372056126
 20
-2754.75342261772
 30
0.0
 40
6.0
 41
0.0
 71
     7
 72
     1
  1
(86.5
  7
CONVERTER_12
 11
0.0
 21
1.0
 31
0.0
 73
     1
 44
0.60024009603842
  0
ENDBLK
  5
C9
330
C1
100
AcDbEntity
  8
0
100
AcDbBlockEnd
  0
BLOCK
  5
D3
330
CC
100
AcDbEntity
  8
0
100
AcDbBlockBegin
  2
*D6
 70
     1
 71
     0
 10
0.0
 20
0.0
 30
0.0
  3
*D6
  1

  0
LINE
  5
CD
330
CC
100
AcDbEntity
  8
0
  6
Continuous
 62
     2
100
AcDbLine
 10
-821.178574720112
 20
-2776.90342261772
 30
0.0
 11
-821.178574720112
 21
-2699.20342261772
 31
0.0
  0
LINE
  5
CE
330
CC
100
AcDbEntity
  8
0
  6
Continuous
 62
     2
100
AcDbLine
 10
-722.842907234889
 20
-2699.20342261772
 30
0.0
 11
-822.778574720112
 21
-2699.20342261772
 31
0.0
  0
LINE
  5
CF
330
CC
100
AcDbEntity
  8
0
  6
Continuous
 62
     2
100
AcDbLine
 10
-796.842907234889
 20
-2776.90342261772
 30
0.0
 11
-822.778574720112
 21
-2776.90342261772
 31
0.0
  0
SOLID
  5
D0
330
CC
100
AcDbEntity
  8
0
 62
     2
100
AcDbTrace
 10
-820.520312232175
 20
-2704.20342261772
 30
0.0
 11
-821.836837208049
 21
-2704.20342261772
 31
0.0
 12
-821.178574720112
 22
-2699.20342261772
 32
0.0
 13
-821.178574720112
 23
-2699.20342261772
 33
0.0
  0
SOLID
  5
D1
330
CC
100
AcDbEntity
  8
0
 62
     2
100
AcDbTrace
 10
-821.836837208049
 20
-2771.90342261772
 30
0.0
 11
-820.520312232175
 21
-2771.90342261772
 31
0.0
 12
-821.178574720112
 22
-2776.90342261772
 32
0.0
 13
-821.178574720112
 23
-2776.90342261772
 33
0.0
  0
MTEXT
  5
D2
330
CC
100
AcDbEntity
  8
0
 62
     2
100
AcDbMText
 10
-823.178574720112
 20
-2747.89342261772
 30
0.0
 40
6.0
 41
0.0
 71
     7
 72
     1
  1
77.7
  7
CONVERTER_12
 11
0.0
 21
1.0
 31
0.0
 73
     1
 44
0.60024009603842
  0
ENDBLK
  5
D4
330
CC
100
AcDbEntity
  8
0
100
AcDbBlockEnd
  0
BLOCK
  5
DE
330
D7
100
AcDbEntity
  8
0
100
AcDbBlockBegin
  2
*D7
 70
     1
 71
     0
 10
0.0
 20
0.0
 30
0.0
  3
*D7
  1

  0
LINE
  5
D8
330
D7
100
AcDbEntity
  8
0
  6
Continuous
 62
     2
100
AcDbLine
 10
-821.178574720112
 20
-2766.90342261772
 30
0.0
 11
-821.178574720112
 21
-2810.46438164078
 31
0.0
  0
LINE
  5
D9
330
D7
100
AcDbEntity
  8
0
  6
Continuous
 62
     2
100
AcDbLine
 10
-795.088294526224
 20
-2785.70342261772
 30
0.0
 11
-822.778574720112
 21
-2785.70342261772
 31
0.0
  0
LINE
  5
DA
330
D7
100
AcDbEntity
  8
0
  6
Continuous
 62
     2
100
AcDbLine
 10
-796.842907234889
 20
-2776.90342261772
 30
0.0
 11
-822.778574720112
 21
-2776.90342261772
 31
0.0
  0
SOLID
  5
DB
330
D7
100
AcDbEntity
  8
0
 62
     2
100
AcDbTrace
 10
-820.520312232175
 20
-2790.70342261772
 30
0.0
 11
-821.836837208049
 21
-2790.70342261772
 31
0.0
 12
-821.178574720112
 22
-2785.70342261772
 32
0.0
 13
-821.178574720112
 23
-2785.70342261772
 33
0.0
  0
SOLID
  5
DC
330
D7
100
AcDbEntity
  8
0
 62
     2
100
AcDbTrace
 10
-821.836837208049
 20
-2771.90342261772
 30
0.0
 11
-820.520312232175
 21
-2771.90342261772
 31
0.0
 12
-821.178574720112
 22
-2776.90342261772
 32
0.0
 13
-821.178574720112
 23
-2776.90342261772
 33
0.0
  0
MTEXT
  5
DD
330
D7
100
AcDbEntity
  8
0
 62
     2
100
AcDbMText
 10
-823.178574720112
 20
-2810.46438164078
 30
0.0
 40
6.0
 41
0.0
 71
     7
 72
     1
  1
8.8
  7
CONVERTER_12
 11
0.0
 21
1.0
 31
0.0
 73
     1
 44
0.60024009603842
  0
ENDBLK
  5
DF
330
D7
100
AcDbEntity
  8
0
100
AcDbBlockEnd
  0
BLOCK
  5
E9
330
E2
100
AcDbEntity
  8
0
100
AcDbBlockBegin
  2
*D8
 70
     1
 71
     0
 10
0.0
 20
0.0
 30
0.0
  3
*D8
  1

  0
LINE
  5
E3
330
E2
100
AcDbEntity
  8
0
  6
Continuous
 62
     2
100
AcDbLine
 10
-647.842907234889
 20
-2809.76413553527
 30
0.0
 11
-795.842907234889
 21
-2809.76413553527
 31
0.0
  0
LINE
  5
E4
330
E2
100
AcDbEntity
  8
0
  6
Continuous
 62
     2
100
AcDbLine
 10
-795.842907234889
 20
-2777.90342261772
 30
0.0
 11
-795.842907234889
 21
-2811.36413553527
 31
0.0
  0
LINE
  5
E5
330
E2
100
AcDbEntity
  8
0
  6
Continuous
 62
     2
100
AcDbLine
 10
-647.842907234889
 20
-2777.40342261772
 30
0.0
 11
-647.842907234889
 21
-2811.36413553527
 31
0.0
  0
SOLID
  5
E6
330
E2
100
AcDbEntity
  8
0
 62
     2
100
AcDbTrace
 10
-790.842907234889
 20
-2809.105873047333
 30
0.0
 11
-790.842907234889
 21
-2810.422398023207
 31
0.0
 12
-795.842907234889
 22
-2809.76413553527
 32
0.0
 13
-795.842907234889
 23
-2809.76413553527
 33
0.0
  0
SOLID
  5
E7
330
E2
100
AcDbEntity
  8
0
 62
     2
100
AcDbTrace
 10
-652.842907234889
 20
-2810.422398023207
 30
0.0
 11
-652.842907234889
 21
-2809.105873047333
 31
0.0
 12
-647.842907234889
 22
-2809.76413553527
 32
0.0
 13
-647.842907234889
 23
-2809.76413553527
 33
0.0
  0
MTEXT
  5
E8
330
E2
100
AcDbEntity
  8
0
 62
     2
100
AcDbMText
 10
-734.1428999626477
 20
-2807.764165351302
 30
0.0
 40
6.0
 41
0.0
 71
     7
 72
     1
  1
ƒÓ148
  7
CONVERTER_12
 11
0.999999999988248
 21
4.848136811095759E-6
 31
0.0
 73
     1
 44
0.60024009603842
  0
ENDBLK
  5
EA
330
E2
100
AcDbEntity
  8
0
100
AcDbBlockEnd
  0
ENDSEC
  0
SECTION
  2
ENTITIES
  0
INSERT
  5
39
330
1F
100
AcDbEntity
  8
0
100
AcDbBlockReference
  2
040402__2004_04_05__9_09_1
 10
-1052.13279584461
 20
-2185.35773427267
 30
0.0
  0
ENDSEC
  0
SECTION
  2
OBJECTS
  0
DICTIONARY
  5
C
330
0
100
AcDbDictionary
281
     1
  3
ACAD_GROUP
350
D
  3
ACAD_LAYOUT
350
1A
  3
ACAD_MLINESTYLE
350
17
  3
ACAD_PLOTSETTINGS
350
19
  3
ACAD_PLOTSTYLENAME
350
E
  0
DICTIONARY
  5
D
102
{ACAD_REACTORS
330
C
102
}
330
C
100
AcDbDictionary
281
     1
  0
DICTIONARY
  5
1A
102
{ACAD_REACTORS
330
C
102
}
330
C
100
AcDbDictionary
281
     1
  3
Layout1
350
1E
  3
Layout2
350
26
  3
Model
350
22
  0
DICTIONARY
  5
17
102
{ACAD_REACTORS
330
C
102
}
330
C
100
AcDbDictionary
281
     1
  3
Standard
350
18
  0
DICTIONARY
  5
19
102
{ACAD_REACTORS
330
C
102
}
330
C
100
AcDbDictionary
281
     1
  0
ACDBDICTIONARYWDFLT
  5
E
102
{ACAD_REACTORS
330
C
102
}
330
C
100
AcDbDictionary
281
     1
  3
Normal
350
F
100
AcDbDictionaryWithDefault
340
F
  0
LAYOUT
  5
1E
102
{ACAD_REACTORS
330
1A
102
}
330
1A
100
AcDbPlotSettings
  1

  2

  4

  6

 40
0.0
 41
0.0
 42
0.0
 43
0.0
 44
0.0
 45
0.0
 46
0.0
 47
0.0
 48
0.0
 49
0.0
140
0.0
141
0.0
142
1.0
143
1.0
 70
   688
 72
     0
 73
     0
 74
     5
  7

 75
    16
147
1.0
148
0.0
149
0.0
100
AcDbLayout
  1
Layout1
 70
     1
 71
     1
 10
0.0
 20
0.0
 11
0.0
 21
0.0
 12
0.0
 22
0.0
 32
0.0
 14
0.0
 24
0.0
 34
0.0
 15
0.0
 25
0.0
 35
0.0
146
0.0
 13
0.0
 23
0.0
 33
0.0
 16
1.0
 26
0.0
 36
0.0
 17
0.0
 27
1.0
 37
0.0
 76
     0
330
1B
  0
LAYOUT
  5
26
102
{ACAD_REACTORS
330
1A
102
}
330
1A
100
AcDbPlotSettings
  1

  2

  4

  6

 40
0.0
 41
0.0
 42
0.0
 43
0.0
 44
0.0
 45
0.0
 46
0.0
 47
0.0
 48
0.0
 49
0.0
140
0.0
141
0.0
142
1.0
143
1.0
 70
   688
 72
     0
 73
     0
 74
     5
  7

 75
    16
147
1.0
148
0.0
149
0.0
100
AcDbLayout
  1
Layout2
 70
     1
 71
     2
 10
0.0
 20
0.0
 11
0.0
 21
0.0
 12
0.0
 22
0.0
 32
0.0
 14
0.0
 24
0.0
 34
0.0
 15
0.0
 25
0.0
 35
0.0
146
0.0
 13
0.0
 23
0.0
 33
0.0
 16
1.0
 26
0.0
 36
0.0
 17
0.0
 27
1.0
 37
0.0
 76
     0
330
23
  0
LAYOUT
  5
22
102
{ACAD_REACTORS
330
1A
102
}
330
1A
100
AcDbPlotSettings
  1

  2

  4

  6

 40
0.0
 41
0.0
 42
0.0
 43
0.0
 44
0.0
 45
0.0
 46
0.0
 47
0.0
 48
0.0
 49
0.0
140
0.0
141
0.0
142
1.0
143
1.0
 70
  1712
 72
     0
 73
     0
 74
     0
  7

 75
     0
147
1.0
148
0.0
149
0.0
100
AcDbLayout
  1
Model
 70
     1
 71
     0
 10
0.0
 20
0.0
 11
0.0
 21
0.0
 12
0.0
 22
0.0
 32
0.0
 14
-843.778372056126
 24
-2994.943056144874
 34
0.0
 15
-647.842907234889
 25
-2659.487076221737
 35
0.0
146
0.0
 13
0.0
 23
0.0
 33
0.0
 16
1.0
 26
0.0
 36
0.0
 17
0.0
 27
1.0
 37
0.0
 76
     0
330
1F
  0
MLINESTYLE
  5
18
102
{ACAD_REACTORS
330
17
102
}
330
17
100
AcDbMlineStyle
  2
Standard
 70
     0
  3

 62
   256
 51
90.0
 52
90.0
 71
     2
 49
0.5
 62
   256
  6
BYLAYER
 49
-0.5
 62
   256
  6
BYLAYER
  0
ACDBPLACEHOLDER
  5
F
102
{ACAD_REACTORS
330
E
102
}
330
E
  0
ENDSEC
  0
EOF
