  0
SECTION
  2
HEADER
  9
$ACADVER
  1
AC1015
  9
$ACADMAINTVER
 70
     6
  9
$DWGCODEPAGE
  3
ANSI_1252
  9
$INSBASE
 10
0.0
 20
0.0
 30
0.0
  9
$EXTMIN
 10
38.3128560127
 20
67.8094755860548
 30
0.0
  9
$EXTMAX
 10
355.474358102818
 20
234.1028136353155
 30
0.0
  9
$LIMMIN
 10
0.0
 20
0.0
  9
$LIMMAX
 10
12.0
 20
9.0
  9
$ORTHOMODE
 70
     0
  9
$REGENMODE
 70
     1
  9
$FILLMODE
 70
     1
  9
$QTEXTMODE
 70
     0
  9
$MIRRTEXT
 70
     1
  9
$LTSCALE
 40
1.0
  9
$ATTMODE
 70
     1
  9
$TEXTSIZE
 40
0.2
  9
$TRACEWID
 40
0.05
  9
$TEXTSTYLE
  7
Standard
  9
$CLAYER
  8
0
  9
$CELTYPE
  6
ByLayer
  9
$CECOLOR
 62
   256
  9
$CELTSCALE
 40
1.0
  9
$DISPSILH
 70
     0
  9
$DIMSCALE
 40
1.0
  9
$DIMASZ
 40
0.18
  9
$DIMEXO
 40
0.0625
  9
$DIMDLI
 40
0.38
  9
$DIMRND
 40
0.0
  9
$DIMDLE
 40
0.0
  9
$DIMEXE
 40
0.18
  9
$DIMTP
 40
0.0
  9
$DIMTM
 40
0.0
  9
$DIMTXT
 40
0.18
  9
$DIMCEN
 40
0.09
  9
$DIMTSZ
 40
0.0
  9
$DIMTOL
 70
     0
  9
$DIMLIM
 70
     0
  9
$DIMTIH
 70
     1
  9
$DIMTOH
 70
     1
  9
$DIMSE1
 70
     0
  9
$DIMSE2
 70
     0
  9
$DIMTAD
 70
     0
  9
$DIMZIN
 70
     0
  9
$DIMBLK
  1

  9
$DIMASO
 70
     1
  9
$DIMSHO
 70
     1
  9
$DIMPOST
  1

  9
$DIMAPOST
  1

  9
$DIMALT
 70
     0
  9
$DIMALTD
 70
     2
  9
$DIMALTF
 40
25.4
  9
$DIMLFAC
 40
1.0
  9
$DIMTOFL
 70
     0
  9
$DIMTVP
 40
0.0
  9
$DIMTIX
 70
     0
  9
$DIMSOXD
 70
     0
  9
$DIMSAH
 70
     0
  9
$DIMBLK1
  1

  9
$DIMBLK2
  1

  9
$DIMSTYLE
  2
Standard
  9
$DIMCLRD
 70
     0
  9
$DIMCLRE
 70
     0
  9
$DIMCLRT
 70
     0
  9
$DIMTFAC
 40
1.0
  9
$DIMGAP
 40
0.09
  9
$DIMJUST
 70
     0
  9
$DIMSD1
 70
     0
  9
$DIMSD2
 70
     0
  9
$DIMTOLJ
 70
     1
  9
$DIMTZIN
 70
     0
  9
$DIMALTZ
 70
     0
  9
$DIMALTTZ
 70
     0
  9
$DIMUPT
 70
     0
  9
$DIMDEC
 70
     4
  9
$DIMTDEC
 70
     4
  9
$DIMALTU
 70
     2
  9
$DIMALTTD
 70
     2
  9
$DIMTXSTY
  7
Standard
  9
$DIMAUNIT
 70
     0
  9
$DIMADEC
 70
     0
  9
$DIMALTRND
 40
0.0
  9
$DIMAZIN
 70
     0
  9
$DIMDSEP
 70
    46
  9
$DIMATFIT
 70
     3
  9
$DIMFRAC
 70
     0
  9
$DIMLDRBLK
  1

  9
$DIMLUNIT
 70
     2
  9
$DIMLWD
 70
    -2
  9
$DIMLWE
 70
    -2
  9
$DIMTMOVE
 70
     0
  9
$LUNITS
 70
     2
  9
$LUPREC
 70
     4
  9
$SKETCHINC
 40
0.1
  9
$FILLETRAD
 40
0.5
  9
$AUNITS
 70
     0
  9
$AUPREC
 70
     0
  9
$MENU
  1
.
  9
$ELEVATION
 40
0.0
  9
$PELEVATION
 40
0.0
  9
$THICKNESS
 40
0.0
  9
$LIMCHECK
 70
     0
  9
$CHAMFERA
 40
0.5
  9
$CHAMFERB
 40
0.5
  9
$CHAMFERC
 40
1.0
  9
$CHAMFERD
 40
0.0
  9
$SKPOLY
 70
     0
  9
$TDCREATE
 40
2456267.704468993
  9
$TDUCREATE
 40
2456267.329468993
  9
$TDUPDATE
 40
2456267.704469005
  9
$TDUUPDATE
 40
2456267.329469005
  9
$TDINDWG
 40
0.0000000116
  9
$TDUSRTIMER
 40
0.0000000116
  9
$USRTIMER
 70
     1
  9
$ANGBASE
 50
0.0
  9
$ANGDIR
 70
     0
  9
$PDMODE
 70
     0
  9
$PDSIZE
 40
0.0
  9
$PLINEWID
 40
0.0
  9
$SPLFRAME
 70
     0
  9
$SPLINETYPE
 70
     6
  9
$SPLINESEGS
 70
     8
  9
$HANDSEED
  5
167
  9
$SURFTAB1
 70
     6
  9
$SURFTAB2
 70
     6
  9
$SURFTYPE
 70
     6
  9
$SURFU
 70
     6
  9
$SURFV
 70
     6
  9
$UCSBASE
  2

  9
$UCSNAME
  2

  9
$UCSORG
 10
0.0
 20
0.0
 30
0.0
  9
$UCSXDIR
 10
1.0
 20
0.0
 30
0.0
  9
$UCSYDIR
 10
0.0
 20
1.0
 30
0.0
  9
$UCSORTHOREF
  2

  9
$UCSORTHOVIEW
 70
     0
  9
$UCSORGTOP
 10
0.0
 20
0.0
 30
0.0
  9
$UCSORGBOTTOM
 10
0.0
 20
0.0
 30
0.0
  9
$UCSORGLEFT
 10
0.0
 20
0.0
 30
0.0
  9
$UCSORGRIGHT
 10
0.0
 20
0.0
 30
0.0
  9
$UCSORGFRONT
 10
0.0
 20
0.0
 30
0.0
  9
$UCSORGBACK
 10
0.0
 20
0.0
 30
0.0
  9
$PUCSBASE
  2

  9
$PUCSNAME
  2

  9
$PUCSORG
 10
0.0
 20
0.0
 30
0.0
  9
$PUCSXDIR
 10
1.0
 20
0.0
 30
0.0
  9
$PUCSYDIR
 10
0.0
 20
1.0
 30
0.0
  9
$PUCSORTHOREF
  2

  9
$PUCSORTHOVIEW
 70
     0
  9
$PUCSORGTOP
 10
0.0
 20
0.0
 30
0.0
  9
$PUCSORGBOTTOM
 10
0.0
 20
0.0
 30
0.0
  9
$PUCSORGLEFT
 10
0.0
 20
0.0
 30
0.0
  9
$PUCSORGRIGHT
 10
0.0
 20
0.0
 30
0.0
  9
$PUCSORGFRONT
 10
0.0
 20
0.0
 30
0.0
  9
$PUCSORGBACK
 10
0.0
 20
0.0
 30
0.0
  9
$USERI1
 70
     0
  9
$USERI2
 70
     0
  9
$USERI3
 70
     0
  9
$USERI4
 70
     0
  9
$USERI5
 70
     0
  9
$USERR1
 40
14.5
  9
$USERR2
 40
0.0
  9
$USERR3
 40
0.0
  9
$USERR4
 40
0.0
  9
$USERR5
 40
0.0
  9
$WORLDVIEW
 70
     1
  9
$SHADEDGE
 70
     3
  9
$SHADEDIF
 70
    70
  9
$TILEMODE
 70
     1
  9
$MAXACTVP
 70
    64
  9
$PINSBASE
 10
0.0
 20
0.0
 30
0.0
  9
$PLIMCHECK
 70
     0
  9
$PEXTMIN
 10
1.00000000000000E+20
 20
1.00000000000000E+20
 30
1.00000000000000E+20
  9
$PEXTMAX
 10
-1.00000000000000E+20
 20
-1.00000000000000E+20
 30
-1.00000000000000E+20
  9
$PLIMMIN
 10
0.0
 20
0.0
  9
$PLIMMAX
 10
12.0
 20
9.0
  9
$UNITMODE
 70
     0
  9
$VISRETAIN
 70
     1
  9
$PLINEGEN
 70
     0
  9
$PSLTSCALE
 70
     1
  9
$TREEDEPTH
 70
  3020
  9
$CMLSTYLE
  2
Standard
  9
$CMLJUST
 70
     0
  9
$CMLSCALE
 40
1.0
  9
$PROXYGRAPHICS
 70
     1
  9
$MEASUREMENT
 70
     1
  9
$CELWEIGHT
370
    -1
  9
$ENDCAPS
280
     0
  9
$JOINSTYLE
280
     0
  9
$LWDISPLAY
290
     0
  9
$INSUNITS
 70
     1
  9
$HYPERLINKBASE
  1

  9
$STYLESHEET
  1

  9
$XEDIT
290
     1
  9
$CEPSNTYPE
380
     0
  9
$PSTYLEMODE
290
     1
  9
$FINGERPRINTGUID
  2
{68927B0A-4215-455E-BBE7-50F577ECF839}
  9
$VERSIONGUID
  2
{FAEB1C32-E019-11D5-929B-00C0DF256EC4}
  9
$EXTNAMES
290
     1
  9
$PSVPSCALE
 40
0.0
  9
$OLESTARTUP
290
     0
  0
ENDSEC
  0
SECTION
  2
CLASSES
  0
CLASS
  1
ACDBDICTIONARYWDFLT
  2
AcDbDictionaryWithDefault
  3
ObjectDBX Classes
 90
        0
280
     0
281
     0
  0
CLASS
  1

  2
exOdDbCircle
  3

 90
        0
280
     0
281
     1
  0
CLASS
  1

  2
exOdDbSpline
  3

 90
        0
280
     0
281
     1
  0
CLASS
  1
ACDBPLACEHOLDER
  2
AcDbPlaceHolder
  3
ObjectDBX Classes
 90
        0
280
     0
281
     0
  0
CLASS
  1
LAYOUT
  2
AcDbLayout
  3
ObjectDBX Classes
 90
        0
280
     0
281
     0
  0
ENDSEC
  0
SECTION
  2
TABLES
  0
TABLE
  2
VPORT
  5
8
330
0
100
AcDbSymbolTable
 70
     1
  0
VPORT
  5
29
330
8
100
AcDbSymbolTableRecord
100
AcDbViewportTableRecord
  2
*Active
 70
     0
 10
0.0
 20
0.0
 11
1.0
 21
1.0
 12
196.893607057759
 22
150.9561446106852
 13
0.0
 23
0.0
 14
0.5
 24
0.5
 15
0.5
 25
0.5
 16
0.0
 26
0.0
 36
1.0
 17
0.0
 27
0.0
 37
0.0
 40
217.6841061699307
 41
1.60267857142857
 42
50.0
 43
0.0
 44
0.0
 50
0.0
 51
0.0
 71
     0
 72
   100
 73
     1
 74
     3
 75
     0
 76
     0
 77
     0
 78
     0
281
     0
 65
     1
110
0.0
120
0.0
130
0.0
111
1.0
121
0.0
131
0.0
112
0.0
122
1.0
132
0.0
 79
     0
146
0.0
  0
ENDTAB
  0
TABLE
  2
LTYPE
  5
5
330
0
100
AcDbSymbolTable
 70
     8
  0
LTYPE
  5
14
330
5
100
AcDbSymbolTableRecord
100
AcDbLinetypeTableRecord
  2
ByBlock
 70
     0
  3

 72
    65
 73
     0
 40
0.0
  0
LTYPE
  5
15
330
5
100
AcDbSymbolTableRecord
100
AcDbLinetypeTableRecord
  2
ByLayer
 70
     0
  3

 72
    65
 73
     0
 40
0.0
  0
LTYPE
  5
16
330
5
100
AcDbSymbolTableRecord
100
AcDbLinetypeTableRecord
  2
Continuous
 70
     0
  3
Solid line
 72
    65
 73
     0
 40
0.0
  0
LTYPE
  5
2A
330
5
100
AcDbSymbolTableRecord
100
AcDbLinetypeTableRecord
  2
DASHED
 70
     0
  3
Dashed
 72
    65
 73
     2
 40
15.0
 49
7.0
 74
     0
 49
-8.0
 74
     0
  0
LTYPE
  5
2B
330
5
100
AcDbSymbolTableRecord
100
AcDbLinetypeTableRecord
  2
DOTTED
 70
     0
  3
Dotted
 72
    65
 73
     2
 40
1.0
 49
0.0
 74
     0
 49
-1.0
 74
     0
  0
LTYPE
  5
2C
330
5
100
AcDbSymbolTableRecord
100
AcDbLinetypeTableRecord
  2
DOT_CENTER
 70
     0
  3
Dot_Center
 72
    65
 73
     4
 40
14.0
 49
12.0
 74
     0
 49
-1.0
 74
     0
 49
0.0
 74
     0
 49
-1.0
 74
     0
  0
LTYPE
  5
2D
330
5
100
AcDbSymbolTableRecord
100
AcDbLinetypeTableRecord
  2
LONG_DASHED
 70
     0
  3
Long_Dashed
 72
    65
 73
     2
 40
15.0
 49
10.0
 74
     0
 49
-5.0
 74
     0
  0
LTYPE
  5
2E
330
5
100
AcDbSymbolTableRecord
100
AcDbLinetypeTableRecord
  2
DASH_CENTER
 70
     0
  3
Dash_Center
 72
    65
 73
     4
 40
14.0
 49
11.0
 74
     0
 49
-1.0
 74
     0
 49
1.0
 74
     0
 49
-1.0
 74
     0
  0
LTYPE
  5
2F
330
5
100
AcDbSymbolTableRecord
100
AcDbLinetypeTableRecord
  2
PHANTOM
 70
     0
  3
Phantom
 72
    65
 73
     6
 40
13.0
 49
10.0
 74
     0
 49
-1.0
 74
     0
 49
0.0
 74
     0
 49
-1.0
 74
     0
 49
0.0
 74
     0
 49
-1.0
 74
     0
  0
LTYPE
  5
30
330
5
100
AcDbSymbolTableRecord
100
AcDbLinetypeTableRecord
  2
CENTER_DASH_DASH
 70
     0
  3
Center_Dash_Dash
 72
    65
 73
     6
 40
14.0
 49
9.0
 74
     0
 49
-1.0
 74
     0
 49
1.0
 74
     0
 49
-1.0
 74
     0
 49
1.0
 74
     0
 49
-1.0
 74
     0
  0
ENDTAB
  0
TABLE
  2
LAYER
  5
2
330
0
100
AcDbSymbolTable
 70
     3
  0
LAYER
  5
10
330
2
100
AcDbSymbolTableRecord
100
AcDbLayerTableRecord
  2
0
 70
     0
 62
     7
  6
Continuous
370
    -3
390
F
  0
LAYER
  5
31
330
2
100
AcDbSymbolTableRecord
100
AcDbLayerTableRecord
  2
05___PRT_ALL_DTM_CSYS
 70
     0
 62
     7
  6
Continuous
370
    -3
390
F
  0
LAYER
  5
32
330
2
100
AcDbSymbolTableRecord
100
AcDbLayerTableRecord
  2
1
 70
     0
 62
     7
  6
Continuous
370
    -3
390
F
  0
ENDTAB
  0
TABLE
  2
STYLE
  5
3
330
0
100
AcDbSymbolTable
 70
     3
  0
STYLE
  5
11
330
3
100
AcDbSymbolTableRecord
100
AcDbTextStyleTableRecord
  2
Standard
 70
     0
 40
0.0
 41
1.0
 50
0.0
 71
     0
 42
0.2
  3
txt
  4

  0
STYLE
  5
3C
330
3
100
AcDbSymbolTableRecord
100
AcDbTextStyleTableRecord
  2
CONVERTER_11
 70
     0
 40
0.0
 41
0.72
 50
0.0
 71
     0
 42
0.2
  3
txt.shx
  4

  0
STYLE
  5
EB
330
3
100
AcDbSymbolTableRecord
100
AcDbTextStyleTableRecord
  2
CONVERTER_12
 70
     0
 40
0.0
 41
0.63
 50
0.0
 71
     0
 42
0.2
  3
txt.shx
  4

  0
ENDTAB
  0
TABLE
  2
VIEW
  5
6
330
0
100
AcDbSymbolTable
 70
     0
  0
ENDTAB
  0
TABLE
  2
UCS
  5
7
330
0
100
AcDbSymbolTable
 70
     0
  0
ENDTAB
  0
TABLE
  2
APPID
  5
9
330
0
100
AcDbSymbolTable
 70
     1
  0
APPID
  5
12
330
9
100
AcDbSymbolTableRecord
100
AcDbRegAppTableRecord
  2
ACAD
 70
     0
  0
ENDTAB
  0
TABLE
  2
DIMSTYLE
  5
A
330
0
100
AcDbSymbolTable
 70
    12
100
AcDbDimStyleTable
  0
DIMSTYLE
105
27
330
A
100
AcDbSymbolTableRecord
100
AcDbDimStyleTableRecord
  2
Standard
 70
     0
340
11
  0
DIMSTYLE
105
F7
102
{ACAD_REACTORS
330
F8
102
}
330
A
100
AcDbSymbolTableRecord
100
AcDbDimStyleTableRecord
  2
ME10_DIM_10
 70
     0
  3
ƒÆ<>
 41
2.5
 42
0.5
 44
0.8
 73
     0
 74
     0
 77
     1
 78
    12
140
3.0
147
1.0
172
     1
173
     1
176
     2
177
     2
178
     2
271
     3
340
3C
  0
DIMSTYLE
105
102
102
{ACAD_REACTORS
330
103
102
}
330
A
100
AcDbSymbolTableRecord
100
AcDbDimStyleTableRecord
  2
ME10_DIM_11
 70
     0
  3
ƒÆ<>
 41
2.5
 42
0.5
 44
0.8
 73
     0
 74
     0
 77
     1
 78
    12
140
3.0
147
1.0
172
     1
173
     1
176
     2
177
     2
178
     2
271
     3
340
3C
  0
DIMSTYLE
105
10D
102
{ACAD_REACTORS
330
10E
102
}
330
A
100
AcDbSymbolTableRecord
100
AcDbDimStyleTableRecord
  2
ME10_DIM_12
 70
     0
 41
2.5
 42
0.5
 44
0.8
 73
     0
 74
     0
 77
     1
 78
    12
140
3.0
147
1.0
172
     1
173
     1
176
     2
177
     2
178
     2
271
     3
340
3C
  0
DIMSTYLE
105
118
102
{ACAD_REACTORS
330
119
102
}
330
A
100
AcDbSymbolTableRecord
100
AcDbDimStyleTableRecord
  2
ME10_DIM_13
 70
     0
 41
2.5
 42
0.5
 44
0.8
 73
     0
 74
     0
 77
     1
 78
    12
140
3.0
147
1.0
172
     1
173
     1
176
     2
177
     2
178
     2
271
     3
340
3C
  0
DIMSTYLE
105
123
102
{ACAD_REACTORS
330
124
102
}
330
A
100
AcDbSymbolTableRecord
100
AcDbDimStyleTableRecord
  2
ME10_DIM_14
 70
     0
 41
2.5
 42
0.5
 44
0.8
 73
     0
 74
     0
 77
     1
 78
    12
140
3.0
147
1.0
172
     1
173
     1
176
     2
177
     2
178
     2
271
     3
340
3C
  0
DIMSTYLE
105
12E
102
{ACAD_REACTORS
330
12F
102
}
330
A
100
AcDbSymbolTableRecord
100
AcDbDimStyleTableRecord
  2
ME10_DIM_15
 70
     0
 41
2.5
 42
0.5
 44
0.8
 73
     0
 74
     0
 77
     1
 78
    12
140
3.0
147
1.0
172
     1
173
     1
176
     2
177
     2
178
     2
271
     3
340
3C
  0
DIMSTYLE
105
139
102
{ACAD_REACTORS
330
13A
102
}
330
A
100
AcDbSymbolTableRecord
100
AcDbDimStyleTableRecord
  2
ME10_DIM_16
 70
     0
  3
(<>)
 41
2.5
 42
0.5
 44
0.8
 73
     0
 74
     0
 77
     1
 78
    12
140
3.0
147
1.0
172
     1
173
     1
176
     2
177
     2
178
     2
271
     3
340
3C
  0
DIMSTYLE
105
144
102
{ACAD_REACTORS
330
145
102
}
330
A
100
AcDbSymbolTableRecord
100
AcDbDimStyleTableRecord
  2
ME10_DIM_17
 70
     0
 41
2.5
 42
0.5
 44
0.8
 73
     0
 74
     0
 77
     1
 78
    12
140
3.0
147
1.0
172
     1
173
     1
176
     2
177
     2
178
     2
271
     3
340
3C
  0
DIMSTYLE
105
14F
102
{ACAD_REACTORS
330
150
102
}
330
A
100
AcDbSymbolTableRecord
100
AcDbDimStyleTableRecord
  2
ME10_DIM_18
 70
     0
 41
2.5
 42
0.5
 44
0.8
 73
     0
 74
     0
 77
     1
 78
    12
140
3.0
147
1.0
172
     1
173
     1
176
     2
177
     2
178
     2
271
     3
340
3C
  0
DIMSTYLE
105
15A
102
{ACAD_REACTORS
330
15B
102
}
330
A
100
AcDbSymbolTableRecord
100
AcDbDimStyleTableRecord
  2
ME10_DIM_19
 70
     0
 41
2.5
 42
0.5
 44
0.8
 73
     0
 74
     0
 77
     1
 78
    12
140
3.0
147
1.0
172
     1
173
     1
176
     2
177
     2
178
     2
271
     3
340
3C
  0
DIMSTYLE
105
165
102
{ACAD_REACTORS
330
166
102
}
330
A
100
AcDbSymbolTableRecord
100
AcDbDimStyleTableRecord
  2
ME10_DIM_20
 70
     0
 41
2.5
 42
0.5
 44
0.8
 73
     0
 74
     0
 77
     1
 78
    12
140
3.0
147
1.0
172
     1
173
     1
176
     2
177
     2
178
     2
271
     3
340
3C
  0
ENDTAB
  0
TABLE
  2
BLOCK_RECORD
  5
1
330
0
100
AcDbSymbolTable
 70
    13
  0
BLOCK_RECORD
  5
1F
330
1
100
AcDbSymbolTableRecord
100
AcDbBlockTableRecord
  2
*Model_Space
340
22
  0
BLOCK_RECORD
  5
1B
330
1
100
AcDbSymbolTableRecord
100
AcDbBlockTableRecord
  2
*Paper_Space
340
1E
  0
BLOCK_RECORD
  5
23
330
1
100
AcDbSymbolTableRecord
100
AcDbBlockTableRecord
  2
*Paper_Space0
340
26
  0
BLOCK_RECORD
  5
33
330
1
100
AcDbSymbolTableRecord
100
AcDbBlockTableRecord
  2
_D13
340
0
102
{BLKREFS
331
36
102
}
  0
BLOCK_RECORD
  5
EE
330
1
100
AcDbSymbolTableRecord
100
AcDbBlockTableRecord
  2
*D2
340
0
  0
BLOCK_RECORD
  5
F9
330
1
100
AcDbSymbolTableRecord
100
AcDbBlockTableRecord
  2
*D3
340
0
  0
BLOCK_RECORD
  5
104
330
1
100
AcDbSymbolTableRecord
100
AcDbBlockTableRecord
  2
*D4
340
0
  0
BLOCK_RECORD
  5
10F
330
1
100
AcDbSymbolTableRecord
100
AcDbBlockTableRecord
  2
*D5
340
0
  0
BLOCK_RECORD
  5
11A
330
1
100
AcDbSymbolTableRecord
100
AcDbBlockTableRecord
  2
*D6
340
0
  0
BLOCK_RECORD
  5
125
330
1
100
AcDbSymbolTableRecord
100
AcDbBlockTableRecord
  2
*D7
340
0
  0
BLOCK_RECORD
  5
130
330
1
100
AcDbSymbolTableRecord
100
AcDbBlockTableRecord
  2
*D8
340
0
  0
BLOCK_RECORD
  5
13B
330
1
100
AcDbSymbolTableRecord
100
AcDbBlockTableRecord
  2
*D9
340
0
  0
BLOCK_RECORD
  5
146
330
1
100
AcDbSymbolTableRecord
100
AcDbBlockTableRecord
  2
*D10
340
0
  0
BLOCK_RECORD
  5
151
330
1
100
AcDbSymbolTableRecord
100
AcDbBlockTableRecord
  2
*D11
340
0
  0
BLOCK_RECORD
  5
15C
330
1
100
AcDbSymbolTableRecord
100
AcDbBlockTableRecord
  2
*D12
340
0
  0
ENDTAB
  0
ENDSEC
  0
SECTION
  2
BLOCKS
  0
BLOCK
  5
20
330
1F
100
AcDbEntity
  8
0
100
AcDbBlockBegin
  2
*Model_Space
 70
     0
 71
     0
 10
0.0
 20
0.0
 30
0.0
  3
*Model_Space
  1

  0
ENDBLK
  5
21
330
1F
100
AcDbEntity
  8
0
100
AcDbBlockEnd
  0
BLOCK
  5
1C
330
1B
100
AcDbEntity
 67
     1
  8
0
100
AcDbBlockBegin
  2
*Paper_Space
 70
     0
 71
     0
 10
0.0
 20
0.0
 30
0.0
  3
*Paper_Space
  1

  0
ENDBLK
  5
1D
330
1B
100
AcDbEntity
 67
     1
  8
0
100
AcDbBlockEnd
  0
BLOCK
  5
24
330
23
100
AcDbEntity
  8
0
100
AcDbBlockBegin
  2
*Paper_Space0
 70
     0
 71
     0
 10
0.0
 20
0.0
 30
0.0
  3
*Paper_Space0
  1

  0
ENDBLK
  5
25
330
23
100
AcDbEntity
  8
0
100
AcDbBlockEnd
  0
BLOCK
  5
34
330
33
100
AcDbEntity
  8
0
100
AcDbBlockBegin
  2
_D13
 70
     0
 71
     0
 10
0.0
 20
0.0
 30
0.0
  3
_D13
  1

  0
LINE
  5
37
330
33
100
AcDbEntity
  8
1
  6
Continuous
 62
     2
100
AcDbLine
 10
62.9199078152616
 20
115.951621670272
 30
0.0
 11
56.130098854639
 21
111.963979724079
 31
0.0
  0
LINE
  5
38
330
33
100
AcDbEntity
  8
1
  6
Continuous
 62
     2
100
AcDbLine
 10
56.130098854639
 20
111.963979724079
 30
0.0
 11
43.910098854639
 21
111.963979724079
 31
0.0
  0
LINE
  5
39
102
{ACAD_REACTORS
330
3E
330
3E
102
}
330
33
100
AcDbEntity
  8
1
  6
Continuous
 62
     2
100
AcDbLine
 10
60.5975113669101
 20
114.969378262332
 30
0.0
 11
60.9308684078181
 21
114.401766963729
 31
0.0
  0
LINE
  5
3A
102
{ACAD_REACTORS
330
3E
330
3E
102
}
330
33
100
AcDbEntity
  8
1
  6
Continuous
 62
     2
100
AcDbLine
 10
60.9308684078181
 20
114.401766963729
 30
0.0
 11
62.9199078152616
 21
115.951621670272
 31
0.0
  0
LINE
  5
3B
102
{ACAD_REACTORS
330
3E
330
3E
102
}
330
33
100
AcDbEntity
  8
1
  6
Continuous
 62
     2
100
AcDbLine
 10
62.9199078152616
 20
115.951621670272
 30
0.0
 11
60.5975113669101
 21
114.969378262332
 31
0.0
  0
MTEXT
  5
3D
330
33
100
AcDbEntity
  8
1
 62
     2
100
AcDbMText
 10
42.1700988546535
 20
112.963967797662
 30
0.0
 40
3.0
 41
0.0
 71
     7
 72
     1
  1
{\Fgdt;n}125
  7
CONVERTER_11
 11
0.999999999997062
 21
2.424068405545310E-6
 31
0.0
 73
     1
 44
1.0
  0
HATCH
  5
3E
330
33
100
AcDbEntity
  8
1
  6
Continuous
 62
     2
100
AcDbHatch
 10
0.0
 20
0.0
 30
0.0
210
0.0
220
0.0
230
1.0
  2
SOLID
 70
     1
 71
     1
 91
        1
 92
        1
 93
        3
 72
     1
 10
60.5975113669101
 20
114.969378262332
 11
60.9308684078181
 21
114.401766963729
 72
     1
 10
60.9308684078181
 20
114.401766963729
 11
62.9199078152616
 21
115.951621670272
 72
     1
 10
62.9199078152616
 20
115.951621670272
 11
60.5975113669101
 21
114.969378262332
 97
        3
330
39
330
3A
330
3B
 75
     0
 76
     1
 98
        1
 10
0.0
 20
0.0
  0
ENDBLK
  5
35
330
33
100
AcDbEntity
  8
0
100
AcDbBlockEnd
  0
BLOCK
  5
F5
330
EE
100
AcDbEntity
  8
0
100
AcDbBlockBegin
  2
*D2
 70
     1
 71
     0
 10
0.0
 20
0.0
 30
0.0
  3
*D2
  1

  0
LINE
  5
EF
330
EE
100
AcDbEntity
  8
1
  6
Continuous
 62
     2
100
AcDbLine
 10
148.3128560127
 20
210.9028481013
 30
0.0
 11
148.3128560127
 21
84.30284810129999
 31
0.0
  0
LINE
  5
F0
330
EE
100
AcDbEntity
  8
1
  6
Continuous
 62
     2
100
AcDbLine
 10
130.2932407704
 20
84.30284810129999
 30
0.0
 11
149.1128560127
 21
84.30284810129999
 31
0.0
  0
LINE
  5
F1
330
EE
100
AcDbEntity
  8
1
  6
Continuous
 62
     2
100
AcDbLine
 10
130.6396509319
 20
210.9028481013
 30
0.0
 11
149.1128560127
 21
210.9028481013
 31
0.0
  0
SOLID
  5
F2
330
EE
100
AcDbEntity
  8
1
 62
     2
100
AcDbTrace
 10
147.9837247687315
 20
86.80284810129999
 30
0.0
 11
148.6419872566685
 21
86.80284810129999
 31
0.0
 12
148.3128560127
 22
84.30284810129999
 32
0.0
 13
148.3128560127
 23
84.30284810129999
 33
0.0
  0
SOLID
  5
F3
330
EE
100
AcDbEntity
  8
1
 62
     2
100
AcDbTrace
 10
148.6419872566685
 20
208.4028481013
 30
0.0
 11
147.9837247687315
 21
208.4028481013
 31
0.0
 12
148.3128560127
 22
210.9028481013
 32
0.0
 13
148.3128560127
 23
210.9028481013
 33
0.0
  0
MTEXT
  5
F4
330
EE
100
AcDbEntity
  8
1
 62
     2
100
AcDbMText
 10
147.3128560127
 20
142.058238291133
 30
0.0
 40
3.0
 41
0.0
 71
     7
 72
     1
  1
\C2;ƒÆ\C2;126.6
  7
CONVERTER_11
 11
0.0
 21
1.0
 31
0.0
 73
     1
 44
0.60024009603842
  0
ENDBLK
  5
F6
330
EE
100
AcDbEntity
  8
0
100
AcDbBlockEnd
  0
BLOCK
  5
100
330
F9
100
AcDbEntity
  8
0
100
AcDbBlockBegin
  2
*D3
 70
     1
 71
     0
 10
0.0
 20
0.0
 30
0.0
  3
*D3
  1

  0
LINE
  5
FA
330
F9
100
AcDbEntity
  8
1
  6
Continuous
 62
     2
100
AcDbLine
 10
154.3128560127
 20
83.1028481013
 30
0.0
 11
154.3128560127
 21
212.1028050483
 31
0.0
  0
LINE
  5
FB
330
F9
100
AcDbEntity
  8
1
  6
Continuous
 62
     2
100
AcDbLine
 10
122.3128560127
 20
212.1028050483
 30
0.0
 11
155.1128560127
 21
212.1028050483
 31
0.0
  0
LINE
  5
FC
330
F9
100
AcDbEntity
  8
1
  6
Continuous
 62
     2
100
AcDbLine
 10
122.3128560127
 20
83.1028481013
 30
0.0
 11
155.1128560127
 21
83.1028481013
 31
0.0
  0
SOLID
  5
FD
330
F9
100
AcDbEntity
  8
1
 62
     2
100
AcDbTrace
 10
154.6419872566685
 20
209.6028050483
 30
0.0
 11
153.9837247687315
 21
209.6028050483
 31
0.0
 12
154.3128560127
 22
212.1028050483
 32
0.0
 13
154.3128560127
 23
212.1028050483
 33
0.0
  0
SOLID
  5
FE
330
F9
100
AcDbEntity
  8
1
 62
     2
100
AcDbTrace
 10
153.9837247687315
 20
85.6028481013
 30
0.0
 11
154.6419872566685
 21
85.6028481013
 31
0.0
 12
154.3128560127
 22
83.1028481013
 32
0.0
 13
154.3128560127
 23
83.1028481013
 33
0.0
  0
MTEXT
  5
FF
330
F9
100
AcDbEntity
  8
1
 62
     2
100
AcDbMText
 10
153.3128560127
 20
141.7972265748
 30
0.0
 40
3.0
 41
0.0
 71
     7
 72
     1
  1
\C2;ƒÆ\C2;129
  7
CONVERTER_11
 11
0.0
 21
1.0
 31
0.0
 73
     1
 44
0.60024009603842
  0
ENDBLK
  5
101
330
F9
100
AcDbEntity
  8
0
100
AcDbBlockEnd
  0
BLOCK
  5
10B
330
104
100
AcDbEntity
  8
0
100
AcDbBlockBegin
  2
*D4
 70
     1
 71
     0
 10
0.0
 20
0.0
 30
0.0
  3
*D4
  1

  0
LINE
  5
105
330
104
100
AcDbEntity
  8
1
  6
Continuous
 62
     2
100
AcDbLine
 10
121.8128560127
 20
224.1028050483
 30
0.0
 11
54.3128560127
 21
224.1028050483
 31
0.0
  0
LINE
  5
106
330
104
100
AcDbEntity
  8
1
  6
Continuous
 62
     2
100
AcDbLine
 10
54.3128560127
 20
148.1028481013
 30
0.0
 11
54.3128560127
 21
224.9028050483
 31
0.0
  0
LINE
  5
107
330
104
100
AcDbEntity
  8
1
  6
Continuous
 62
     2
100
AcDbLine
 10
121.8128560127
 20
212.6028050483
 30
0.0
 11
121.8128560127
 21
224.9028050483
 31
0.0
  0
SOLID
  5
108
330
104
100
AcDbEntity
  8
1
 62
     2
100
AcDbTrace
 10
56.8128560127
 20
224.4319362922685
 30
0.0
 11
56.8128560127
 21
223.7736738043315
 31
0.0
 12
54.3128560127
 22
224.1028050483
 32
0.0
 13
54.3128560127
 23
224.1028050483
 33
0.0
  0
SOLID
  5
109
330
104
100
AcDbEntity
  8
1
 62
     2
100
AcDbTrace
 10
119.3128560127
 20
223.7736738043315
 30
0.0
 11
119.3128560127
 21
224.4319362922685
 31
0.0
 12
121.8128560127
 22
224.1028050483
 32
0.0
 13
121.8128560127
 23
224.1028050483
 33
0.0
  0
MTEXT
  5
10A
330
104
100
AcDbEntity
  8
1
 62
     2
100
AcDbMText
 10
84.52045964881302
 20
225.1027964612845
 30
0.0
 40
3.0
 41
0.0
 71
     7
 72
     1
  1
67.5
  7
CONVERTER_11
 11
0.999999999988248
 21
4.848136811095759E-6
 31
0.0
 73
     1
 44
0.60024009603842
  0
ENDBLK
  5
10C
330
104
100
AcDbEntity
  8
0
100
AcDbBlockEnd
  0
BLOCK
  5
116
330
10F
100
AcDbEntity
  8
0
100
AcDbBlockBegin
  2
*D5
 70
     1
 71
     0
 10
0.0
 20
0.0
 30
0.0
  3
*D5
  1

  0
LINE
  5
110
330
10F
100
AcDbEntity
  8
1
  6
Continuous
 62
     2
100
AcDbLine
 10
126.8128560127
 20
218.1028050483
 30
0.0
 11
112.194196305629
 21
218.1028050483
 31
0.0
  0
LINE
  5
111
330
10F
100
AcDbEntity
  8
1
  6
Continuous
 62
     2
100
AcDbLine
 10
120.8128560127
 20
212.1028481013
 30
0.0
 11
120.8128560127
 21
218.9028050483
 31
0.0
  0
LINE
  5
112
330
10F
100
AcDbEntity
  8
1
  6
Continuous
 62
     2
100
AcDbLine
 10
121.8128560127
 20
212.6028050483
 30
0.0
 11
121.8128560127
 21
218.9028050483
 31
0.0
  0
SOLID
  5
113
330
10F
100
AcDbEntity
  8
1
 62
     2
100
AcDbTrace
 10
118.3128560127
 20
217.7736738043315
 30
0.0
 11
118.3128560127
 21
218.4319362922685
 31
0.0
 12
120.8128560127
 22
218.1028050483
 32
0.0
 13
120.8128560127
 23
218.1028050483
 33
0.0
  0
SOLID
  5
114
330
10F
100
AcDbEntity
  8
1
 62
     2
100
AcDbTrace
 10
124.3128560127
 20
218.4319362922685
 30
0.0
 11
124.3128560127
 21
217.7736738043315
 31
0.0
 12
121.8128560127
 22
218.1028050483
 32
0.0
 13
121.8128560127
 23
218.1028050483
 33
0.0
  0
MTEXT
  5
115
330
10F
100
AcDbEntity
  8
1
 62
     2
100
AcDbMText
 10
112.1942035778342
 20
219.1028029015494
 30
0.0
 40
3.0
 41
0.0
 71
     7
 72
     1
  1
1
  7
CONVERTER_11
 11
0.999999999988248
 21
4.848136811095759E-6
 31
0.0
 73
     1
 44
0.60024009603842
  0
ENDBLK
  5
117
330
10F
100
AcDbEntity
  8
0
100
AcDbBlockEnd
  0
BLOCK
  5
121
330
11A
100
AcDbEntity
  8
0
100
AcDbBlockBegin
  2
*D6
 70
     1
 71
     0
 10
0.0
 20
0.0
 30
0.0
  3
*D6
  1

  0
LINE
  5
11B
330
11A
100
AcDbEntity
  8
1
  6
Continuous
 62
     2
100
AcDbLine
 10
42.3128560127
 20
210.889369280124
 30
0.0
 11
42.3128560127
 21
84.3163269223762
 31
0.0
  0
LINE
  5
11C
330
11A
100
AcDbEntity
  8
1
  6
Continuous
 62
     2
100
AcDbLine
 10
120.3128560127
 20
84.3163269223762
 30
0.0
 11
41.51285601270001
 21
84.3163269223762
 31
0.0
  0
LINE
  5
11D
330
11A
100
AcDbEntity
  8
1
  6
Continuous
 62
     2
100
AcDbLine
 10
120.3128560127
 20
210.889369280124
 30
0.0
 11
41.51285601270001
 21
210.889369280124
 31
0.0
  0
SOLID
  5
11E
330
11A
100
AcDbEntity
  8
1
 62
     2
100
AcDbTrace
 10
41.98372476873151
 20
86.8163269223762
 30
0.0
 11
42.64198725666849
 21
86.8163269223762
 31
0.0
 12
42.3128560127
 22
84.3163269223762
 32
0.0
 13
42.3128560127
 23
84.3163269223762
 33
0.0
  0
SOLID
  5
11F
330
11A
100
AcDbEntity
  8
1
 62
     2
100
AcDbTrace
 10
42.64198725666849
 20
208.389369280124
 30
0.0
 11
41.98372476873151
 21
208.389369280124
 31
0.0
 12
42.3128560127
 22
210.889369280124
 32
0.0
 13
42.3128560127
 23
210.889369280124
 33
0.0
  0
MTEXT
  5
120
330
11A
100
AcDbEntity
  8
1
 62
     2
100
AcDbMText
 10
41.3128560127
 20
138.143114959205
 30
0.0
 40
3.0
 41
0.0
 71
     7
 72
     1
  1
(ƒÆ126.6
  7
CONVERTER_11
 11
0.0
 21
1.0
 31
0.0
 73
     1
 44
0.60024009603842
  0
ENDBLK
  5
122
330
11A
100
AcDbEntity
  8
0
100
AcDbBlockEnd
  0
BLOCK
  5
12C
330
125
100
AcDbEntity
  8
0
100
AcDbBlockBegin
  2
*D7
 70
     1
 71
     0
 10
0.0
 20
0.0
 30
0.0
  3
*D7
  1

  0
LINE
  5
126
330
125
100
AcDbEntity
  8
1
  6
Continuous
 62
     2
100
AcDbLine
 10
130.3128560127
 20
224.1028050483
 30
0.0
 11
121.8128560127
 21
224.1028050483
 31
0.0
  0
LINE
  5
127
330
125
100
AcDbEntity
  8
1
  6
Continuous
 62
     2
100
AcDbLine
 10
121.8128560127
 20
212.6028050483
 30
0.0
 11
121.8128560127
 21
224.9028050483
 31
0.0
  0
LINE
  5
128
330
125
100
AcDbEntity
  8
1
  6
Continuous
 62
     2
100
AcDbLine
 10
130.3128560127
 20
211.3028481013
 30
0.0
 11
130.3128560127
 21
224.9028050483
 31
0.0
  0
SOLID
  5
129
330
125
100
AcDbEntity
  8
1
 62
     2
100
AcDbTrace
 10
124.3128560127
 20
224.4319362922685
 30
0.0
 11
124.3128560127
 21
223.7736738043315
 31
0.0
 12
121.8128560127
 22
224.1028050483
 32
0.0
 13
121.8128560127
 23
224.1028050483
 33
0.0
  0
SOLID
  5
12A
330
125
100
AcDbEntity
  8
1
 62
     2
100
AcDbTrace
 10
127.8128560127
 20
223.7736738043315
 30
0.0
 11
127.8128560127
 21
224.4319362922685
 31
0.0
 12
130.3128560127
 22
224.1028050483
 32
0.0
 13
130.3128560127
 23
224.1028050483
 33
0.0
  0
MTEXT
  5
12B
330
125
100
AcDbEntity
  8
1
 62
     2
100
AcDbMText
 10
123.4060596488104
 20
225.1027986080395
 30
0.0
 40
3.0
 41
0.0
 71
     7
 72
     1
  1
8.5
  7
CONVERTER_11
 11
0.999999999988248
 21
4.848136811095759E-6
 31
0.0
 73
     1
 44
0.60024009603842
  0
ENDBLK
  5
12D
330
125
100
AcDbEntity
  8
0
100
AcDbBlockEnd
  0
BLOCK
  5
137
330
130
100
AcDbEntity
  8
0
100
AcDbBlockBegin
  2
*D8
 70
     1
 71
     0
 10
0.0
 20
0.0
 30
0.0
  3
*D8
  1

  0
LINE
  5
131
330
130
100
AcDbEntity
  8
1
  6
Continuous
 62
     2
100
AcDbLine
 10
130.3128560127
 20
230.1028050483
 30
0.0
 11
54.3128560127
 21
230.1028050483
 31
0.0
  0
LINE
  5
132
330
130
100
AcDbEntity
  8
1
  6
Continuous
 62
     2
100
AcDbLine
 10
54.3128560127
 20
148.1028481013
 30
0.0
 11
54.3128560127
 21
230.9028050483
 31
0.0
  0
LINE
  5
133
330
130
100
AcDbEntity
  8
1
  6
Continuous
 62
     2
100
AcDbLine
 10
130.3128560127
 20
211.3028481013
 30
0.0
 11
130.3128560127
 21
230.9028050483
 31
0.0
  0
SOLID
  5
134
330
130
100
AcDbEntity
  8
1
 62
     2
100
AcDbTrace
 10
56.8128560127
 20
230.4319362922685
 30
0.0
 11
56.8128560127
 21
229.7736738043315
 31
0.0
 12
54.3128560127
 22
230.1028050483
 32
0.0
 13
54.3128560127
 23
230.1028050483
 33
0.0
  0
SOLID
  5
135
330
130
100
AcDbEntity
  8
1
 62
     2
100
AcDbTrace
 10
127.8128560127
 20
229.7736738043315
 30
0.0
 11
127.8128560127
 21
230.4319362922685
 31
0.0
 12
130.3128560127
 22
230.1028050483
 32
0.0
 13
130.3128560127
 23
230.1028050483
 33
0.0
  0
MTEXT
  5
136
330
130
100
AcDbEntity
  8
1
 62
     2
100
AcDbMText
 10
88.08165964883672
 20
231.1027888283779
 30
0.0
 40
3.0
 41
0.0
 71
     7
 72
     1
  1
\C2;(\C2;76\C2;)
  7
CONVERTER_11
 11
0.999999999988248
 21
4.848136811095759E-6
 31
0.0
 73
     1
 44
0.60024009603842
  0
ENDBLK
  5
138
330
130
100
AcDbEntity
  8
0
100
AcDbBlockEnd
  0
BLOCK
  5
142
330
13B
100
AcDbEntity
  8
0
100
AcDbBlockBegin
  2
*D9
 70
     1
 71
     0
 10
0.0
 20
0.0
 30
0.0
  3
*D9
  1

  0
LINE
  5
13C
330
13B
100
AcDbEntity
  8
1
  6
Continuous
 62
     2
100
AcDbLine
 10
142.3128560127
 20
160.6028481013
 30
0.0
 11
142.3128560127
 21
142.6028481013
 31
0.0
  0
LINE
  5
13D
330
13B
100
AcDbEntity
  8
1
  6
Continuous
 62
     2
100
AcDbLine
 10
130.8128560127
 20
142.6028481013
 30
0.0
 11
143.1128560127
 21
142.6028481013
 31
0.0
  0
LINE
  5
13E
330
13B
100
AcDbEntity
  8
1
  6
Continuous
 62
     2
100
AcDbLine
 10
130.8128560127
 20
160.6028481013
 30
0.0
 11
143.1128560127
 21
160.6028481013
 31
0.0
  0
SOLID
  5
13F
330
13B
100
AcDbEntity
  8
1
 62
     2
100
AcDbTrace
 10
141.9837247687315
 20
145.1028481013
 30
0.0
 11
142.6419872566685
 21
145.1028481013
 31
0.0
 12
142.3128560127
 22
142.6028481013
 32
0.0
 13
142.3128560127
 23
142.6028481013
 33
0.0
  0
SOLID
  5
140
330
13B
100
AcDbEntity
  8
1
 62
     2
100
AcDbTrace
 10
142.6419872566685
 20
158.1028481013
 30
0.0
 11
141.9837247687315
 21
158.1028481013
 31
0.0
 12
142.3128560127
 22
160.6028481013
 32
0.0
 13
142.3128560127
 23
160.6028481013
 33
0.0
  0
MTEXT
  5
141
330
13B
100
AcDbEntity
  8
1
 62
     2
100
AcDbMText
 10
141.3128560127
 20
149.8316481013
 30
0.0
 40
3.0
 41
0.0
 71
     7
 72
     1
  1
18
  7
CONVERTER_11
 11
0.0
 21
1.0
 31
0.0
 73
     1
 44
0.60024009603842
  0
ENDBLK
  5
143
330
13B
100
AcDbEntity
  8
0
100
AcDbBlockEnd
  0
BLOCK
  5
14D
330
146
100
AcDbEntity
  8
0
100
AcDbBlockBegin
  2
*D10
 70
     1
 71
     0
 10
0.0
 20
0.0
 30
0.0
  3
*D10
  1

  0
LINE
  5
147
330
146
100
AcDbEntity
  8
1
  6
Continuous
 62
     2
100
AcDbLine
 10
122.3128560127
 20
165.345029635655
 30
0.0
 11
137.1984596488
 21
165.345029635655
 31
0.0
  0
LINE
  5
148
330
146
100
AcDbEntity
  8
1
  6
Continuous
 62
     2
100
AcDbLine
 10
130.3128560127
 20
161.1028481013
 30
0.0
 11
130.3128560127
 21
166.145029635655
 31
0.0
  0
LINE
  5
149
330
146
100
AcDbEntity
  8
1
  6
Continuous
 62
     2
100
AcDbLine
 10
122.3128560127
 20
159.1028481013
 30
0.0
 11
122.3128560127
 21
166.145029635655
 31
0.0
  0
SOLID
  5
14A
330
146
100
AcDbEntity
  8
1
 62
     2
100
AcDbTrace
 10
127.8128560127
 20
165.0158983916865
 30
0.0
 11
127.8128560127
 21
165.6741608796235
 31
0.0
 12
130.3128560127
 22
165.345029635655
 32
0.0
 13
130.3128560127
 23
165.345029635655
 33
0.0
  0
SOLID
  5
14B
330
146
100
AcDbEntity
  8
1
 62
     2
100
AcDbTrace
 10
124.8128560127
 20
165.6741608796235
 30
0.0
 11
124.8128560127
 21
165.0158983916865
 31
0.0
 12
122.3128560127
 22
165.345029635655
 32
0.0
 13
122.3128560127
 23
165.345029635655
 33
0.0
  0
MTEXT
  5
14C
330
146
100
AcDbEntity
  8
1
 62
     2
100
AcDbMText
 10
135.4272596488052
 20
166.3450274889044
 30
0.0
 40
3.0
 41
0.0
 71
     7
 72
     1
  1
8
  7
CONVERTER_11
 11
0.999999999988248
 21
4.848136811095759E-6
 31
0.0
 73
     1
 44
0.60024009603842
  0
ENDBLK
  5
14E
330
146
100
AcDbEntity
  8
0
100
AcDbBlockEnd
  0
BLOCK
  5
158
330
151
100
AcDbEntity
  8
0
100
AcDbBlockBegin
  2
*D11
 70
     1
 71
     0
 10
0.0
 20
0.0
 30
0.0
  3
*D11
  1

  0
LINE
  5
152
330
151
100
AcDbEntity
  8
1
  6
Continuous
 62
     2
100
AcDbLine
 10
328.037493297844
 20
108.6413532484456
 30
0.0
 11
328.037493297844
 21
90.6413532484456
 31
0.0
  0
LINE
  5
153
330
151
100
AcDbEntity
  8
1
  6
Continuous
 62
     2
100
AcDbLine
 10
336.7614791632058
 20
90.6413532484456
 30
0.0
 11
327.237493297844
 21
90.6413532484456
 31
0.0
  0
LINE
  5
154
330
151
100
AcDbEntity
  8
1
  6
Continuous
 62
     2
100
AcDbLine
 10
336.7614791632058
 20
108.6413532484456
 30
0.0
 11
327.237493297844
 21
108.6413532484456
 31
0.0
  0
SOLID
  5
155
330
151
100
AcDbEntity
  8
1
 62
     2
100
AcDbTrace
 10
327.7083620538755
 20
93.1413532484456
 30
0.0
 11
328.3666245418125
 21
93.1413532484456
 31
0.0
 12
328.037493297844
 22
90.6413532484456
 32
0.0
 13
328.037493297844
 23
90.6413532484456
 33
0.0
  0
SOLID
  5
156
330
151
100
AcDbEntity
  8
1
 62
     2
100
AcDbTrace
 10
328.3666245418125
 20
106.1413532484456
 30
0.0
 11
327.7083620538755
 21
106.1413532484456
 31
0.0
 12
328.037493297844
 22
108.6413532484456
 32
0.0
 13
328.037493297844
 23
108.6413532484456
 33
0.0
  0
MTEXT
  5
157
330
151
100
AcDbEntity
  8
1
 62
     2
100
AcDbMText
 10
327.037493297844
 20
97.8701532484456
 30
0.0
 40
3.0
 41
0.0
 71
     7
 72
     1
  1
18
  7
CONVERTER_11
 11
0.0
 21
1.0
 31
0.0
 73
     1
 44
0.60024009603842
  0
ENDBLK
  5
159
330
151
100
AcDbEntity
  8
0
100
AcDbBlockEnd
  0
BLOCK
  5
163
330
15C
100
AcDbEntity
  8
0
100
AcDbBlockBegin
  2
*D12
 70
     1
 71
     0
 10
0.0
 20
0.0
 30
0.0
  3
*D12
  1

  0
LINE
  5
15D
330
15C
100
AcDbEntity
  8
1
  6
Continuous
 62
     2
100
AcDbLine
 10
345.2614791632058
 20
114.375251316015
 30
0.0
 11
331.444917231956
 21
114.375251316015
 31
0.0
  0
LINE
  5
15E
330
15C
100
AcDbEntity
  8
1
  6
Continuous
 62
     2
100
AcDbLine
 10
337.2614791632058
 20
109.1413532484456
 30
0.0
 11
337.2614791632058
 21
115.175251316015
 31
0.0
  0
LINE
  5
15F
330
15C
100
AcDbEntity
  8
1
  6
Continuous
 62
     2
100
AcDbLine
 10
345.2614791632058
 20
107.1413532484456
 30
0.0
 11
345.2614791632058
 21
115.175251316015
 31
0.0
  0
SOLID
  5
160
330
15C
100
AcDbEntity
  8
1
 62
     2
100
AcDbTrace
 10
339.7614791632058
 20
114.7043825599835
 30
0.0
 11
339.7614791632058
 21
114.0461200720465
 31
0.0
 12
337.2614791632058
 22
114.375251316015
 32
0.0
 13
337.2614791632058
 23
114.375251316015
 33
0.0
  0
SOLID
  5
161
330
15C
100
AcDbEntity
  8
1
 62
     2
100
AcDbTrace
 10
342.7614791632058
 20
114.0461200720465
 30
0.0
 11
342.7614791632058
 21
114.7043825599835
 31
0.0
 12
345.2614791632058
 22
114.375251316015
 32
0.0
 13
345.2614791632058
 23
114.375251316015
 33
0.0
  0
MTEXT
  5
162
330
15C
100
AcDbEntity
  8
1
 62
     2
100
AcDbMText
 10
331.4449245041612
 20
115.3752491692644
 30
0.0
 40
3.0
 41
0.0
 71
     7
 72
     1
  1
8
  7
CONVERTER_11
 11
0.999999999988248
 21
4.848136811095759E-6
 31
0.0
 73
     1
 44
0.60024009603842
  0
ENDBLK
  5
164
330
15C
100
AcDbEntity
  8
0
100
AcDbBlockEnd
  0
ENDSEC
  0
SECTION
  2
ENTITIES
  0
INSERT
  5
36
330
1F
100
AcDbEntity
  8
1
100
AcDbBlockReference
  2
_D13
 10
0.0
 20
0.0
 30
0.0
  0
POINT
  5
3F
330
1F
100
AcDbEntity
  8
1
 62
     7
100
AcDbPoint
 10
129.7932407704
 20
84.3028481013
 30
0.0
  0
POINT
  5
40
330
1F
100
AcDbEntity
  8
1
 62
     7
100
AcDbPoint
 10
130.1396509319
 20
210.9028481013
 30
0.0
  0
POINT
  5
41
330
1F
100
AcDbEntity
  8
1
 62
     7
100
AcDbPoint
 10
121.8128560127
 20
212.1028050483
 30
0.0
  0
POINT
  5
42
330
1F
100
AcDbEntity
  8
1
 62
     7
100
AcDbPoint
 10
121.8128560127
 20
83.1028481013
 30
0.0
  0
POINT
  5
43
330
1F
100
AcDbEntity
  8
1
 62
     7
100
AcDbPoint
 10
54.3128560127
 20
147.6028481013
 30
0.0
  0
POINT
  5
44
330
1F
100
AcDbEntity
  8
1
 62
     7
100
AcDbPoint
 10
121.8128560127
 20
212.1028050483
 30
0.0
  0
POINT
  5
45
330
1F
100
AcDbEntity
  8
1
 62
     7
100
AcDbPoint
 10
120.8128560127
 20
211.6028481013
 30
0.0
  0
POINT
  5
46
330
1F
100
AcDbEntity
  8
1
 62
     7
100
AcDbPoint
 10
121.8128560127
 20
212.1028050483
 30
0.0
  0
POINT
  5
47
330
1F
100
AcDbEntity
  8
1
 62
     7
100
AcDbPoint
 10
120.8128560127
 20
84.3163269223762
 30
0.0
  0
POINT
  5
48
330
1F
100
AcDbEntity
  8
1
 62
     7
100
AcDbPoint
 10
120.812856012616
 20
210.889369280124
 30
0.0
  0
POINT
  5
49
330
1F
100
AcDbEntity
  8
1
 62
     7
100
AcDbPoint
 10
121.8128560127
 20
212.1028050483
 30
0.0
  0
POINT
  5
4A
330
1F
100
AcDbEntity
  8
1
 62
     7
100
AcDbPoint
 10
130.3128560127
 20
210.8028481013
 30
0.0
  0
POINT
  5
4B
330
1F
100
AcDbEntity
  8
1
 62
     7
100
AcDbPoint
 10
54.3128560127
 20
147.6028481013
 30
0.0
  0
POINT
  5
4C
330
1F
100
AcDbEntity
  8
1
 62
     7
100
AcDbPoint
 10
130.3128560127
 20
210.8028481013
 30
0.0
  0
POINT
  5
4D
330
1F
100
AcDbEntity
  8
1
 62
     7
100
AcDbPoint
 10
130.3128560127
 20
142.6028481013
 30
0.0
  0
POINT
  5
4E
330
1F
100
AcDbEntity
  8
1
 62
     7
100
AcDbPoint
 10
130.3128560127
 20
160.6028481013
 30
0.0
  0
POINT
  5
4F
330
1F
100
AcDbEntity
  8
1
 62
     7
100
AcDbPoint
 10
130.3128560127
 20
160.6028481013
 30
0.0
  0
POINT
  5
50
330
1F
100
AcDbEntity
  8
1
 62
     7
100
AcDbPoint
 10
122.3128560127
 20
158.6028481013
 30
0.0
  0
POINT
  5
51
330
1F
100
AcDbEntity
  8
1
 62
     7
100
AcDbPoint
 10
337.261479163206
 20
90.6413532484456
 30
0.0
  0
POINT
  5
52
330
1F
100
AcDbEntity
  8
1
 62
     7
100
AcDbPoint
 10
337.261479163206
 20
108.641353248446
 30
0.0
  0
POINT
  5
53
330
1F
100
AcDbEntity
  8
1
 62
     7
100
AcDbPoint
 10
337.261479163206
 20
108.641353248446
 30
0.0
  0
POINT
  5
54
330
1F
100
AcDbEntity
  8
1
 62
     7
100
AcDbPoint
 10
345.261479163206
 20
106.641353248446
 30
0.0
  0
LINE
  5
55
330
1F
100
AcDbEntity
  8
0
  6
Continuous
 62
     7
100
AcDbLine
 10
183.7413487353
 20
118.5853509491
 30
0.0
 11
185.9918211642
 21
118.5853509491
 31
0.0
  0
LINE
  5
56
330
1F
100
AcDbEntity
  8
0
  6
Continuous
 62
     7
100
AcDbLine
 10
296.2510585826
 20
118.5853509491
 30
0.0
 11
298.5015310116
 21
118.5853509491
 31
0.0
  0
LINE
  5
57
330
1F
100
AcDbEntity
  8
0
  6
Continuous
 62
     7
100
AcDbLine
 10
181.2796193392
 20
126.3612258667
 30
0.0
 11
182.5545252813
 21
126.3612258667
 31
0.0
  0
LINE
  5
58
330
1F
100
AcDbEntity
  8
0
  6
Continuous
 62
     7
100
AcDbLine
 10
299.6883544656
 20
126.3612258667
 30
0.0
 11
300.9632604076
 21
126.3612258667
 31
0.0
  0
LINE
  5
59
330
1F
100
AcDbEntity
  8
0
  6
Continuous
 62
     7
100
AcDbLine
 10
302.0500046029
 20
134.6028481013
 30
0.0
 11
303.2764879387
 21
134.6028481013
 31
0.0
  0
LINE
  5
5A
330
1F
100
AcDbEntity
  8
0
  6
Continuous
 62
     7
100
AcDbLine
 10
295.0395535864
 20
178.8138559932
 30
0.0
 11
296.131304991
 21
179.322948034
 31
0.0
  0
LINE
  5
5B
330
1F
100
AcDbEntity
  8
0
  6
Continuous
 62
     7
100
AcDbLine
 10
295.0395535864
 20
116.3918402093
 30
0.0
 11
296.131304991
 21
115.8827481686
 31
0.0
  0
LINE
  5
5C
330
1F
100
AcDbEntity
  8
0
  6
Continuous
 62
     7
100
AcDbLine
 10
238.1214398734
 20
210.1309217962
 30
0.0
 11
238.1214398734
 21
209.8526673781
 31
0.0
  0
LINE
  5
5D
330
1F
100
AcDbEntity
  8
0
  6
Continuous
 62
     7
100
AcDbLine
 10
181.6414563868
 20
123.1770100514
 30
0.0
 11
183.4561115938
 21
124.0231976713
 31
0.0
  0
LINE
  5
5E
330
1F
100
AcDbEntity
  8
0
  6
Continuous
 62
     7
100
AcDbLine
 10
179.0224060645
 20
142.6028481013
 30
0.0
 11
177.8185963354
 21
142.6028481013
 31
0.0
  0
LINE
  5
5F
330
1F
100
AcDbEntity
  8
0
  6
Continuous
 62
     7
100
AcDbLine
 10
181.6414563868
 20
172.0286861511
 30
0.0
 11
183.4561115938
 21
171.1824985312
 31
0.0
  0
LINE
  5
60
330
1F
100
AcDbEntity
  8
0
  6
Continuous
 62
     7
100
AcDbLine
 10
244.1214398734
 20
209.8526673781
 30
0.0
 11
244.1214398734
 21
210.1309217962
 31
0.0
  0
LINE
  5
61
330
1F
100
AcDbEntity
  8
0
  6
Continuous
 62
     7
100
AcDbLine
 10
298.7867681531
 20
171.1824985312
 30
0.0
 11
300.60142336
 21
172.0286861511
 31
0.0
  0
LINE
  5
62
330
1F
100
AcDbEntity
  8
0
  6
Continuous
 62
     7
100
AcDbLine
 10
187.2033261604
 20
116.3918402093
 30
0.0
 11
186.1115747558
 21
115.8827481686
 31
0.0
  0
LINE
  5
63
330
1F
100
AcDbEntity
  8
0
  6
Continuous
 62
     7
100
AcDbLine
 10
304.4242834114
 20
152.6028481013
 30
0.0
 11
303.2204736823
 21
152.6028481013
 31
0.0
  0
LINE
  5
64
330
1F
100
AcDbEntity
  8
0
  6
Continuous
 62
     7
100
AcDbLine
 10
298.7867681531
 20
124.0231976713
 30
0.0
 11
300.60142336
 21
123.1770100514
 31
0.0
  0
LINE
  5
65
330
1F
100
AcDbEntity
  8
0
  6
Continuous
 62
     7
100
AcDbLine
 10
186.1115747558
 20
179.322948034
 30
0.0
 11
187.2033261604
 21
178.8138559932
 31
0.0
  0
LINE
  5
66
330
1F
100
AcDbEntity
  8
0
  6
Continuous
 62
     7
100
AcDbLine
 10
178.9663918081
 20
160.6028481013
 30
0.0
 11
180.1928751439
 21
160.6028481013
 31
0.0
  0
LINE
  5
67
330
1F
100
AcDbEntity
  8
0
  6
Continuous
 62
     7
100
AcDbLine
 10
181.2796193392
 20
168.8444703358
 30
0.0
 11
182.5545252813
 21
168.8444703358
 31
0.0
  0
LINE
  5
68
330
1F
100
AcDbEntity
  8
0
  6
Continuous
 62
     7
100
AcDbLine
 10
299.6883544656
 20
168.8444703358
 30
0.0
 11
300.9632604076
 21
168.8444703358
 31
0.0
  0
LINE
  5
69
330
1F
100
AcDbEntity
  8
0
  6
Continuous
 62
     7
100
AcDbLine
 10
298.5015310116
 20
176.6203452534
 30
0.0
 11
296.2510585826
 21
176.6203452534
 31
0.0
  0
LINE
  5
6A
330
1F
100
AcDbEntity
  8
0
  6
Continuous
 62
     7
100
AcDbLine
 10
183.7413487353
 20
176.6203452534
 30
0.0
 11
185.9918211642
 21
176.6203452534
 31
0.0
  0
LINE
  5
6B
330
1F
100
AcDbEntity
  8
0
  6
Continuous
 62
     7
100
AcDbLine
 10
236.0855685486
 20
210.9028481013
 30
0.0
 11
246.1573111982
 21
210.9028481013
 31
0.0
  0
LINE
  5
6C
330
1F
100
AcDbEntity
  8
0
  6
Continuous
 62
     7
100
AcDbLine
 10
121.3128560127
 20
83.1028481013
 30
0.0
 11
121.8128560127
 21
83.1028481013
 31
0.0
  0
LINE
  5
6D
330
1F
100
AcDbEntity
  8
0
  6
Continuous
 62
     7
100
AcDbLine
 10
121.8128560127
 20
84.3028481013
 30
0.0
 11
130.1396509319
 21
84.3028481013
 31
0.0
  0
LINE
  5
6E
330
1F
100
AcDbEntity
  8
0
  6
Continuous
 62
     7
100
AcDbLine
 10
120.3390239907
 20
84.8156416889
 30
0.0
 11
115.8128560127
 21
85.0528481013
 31
0.0
  0
LINE
  5
6F
330
1F
100
AcDbEntity
  8
0
  6
Continuous
 62
     7
100
AcDbLine
 10
124.8128560127
 20
115.8827481686
 30
0.0
 11
129.7932407704
 21
115.8827481686
 31
0.0
  0
LINE
  5
70
330
1F
100
AcDbEntity
  8
0
  6
Continuous
 62
     2
100
AcDbLine
 10
124.8128560127
 20
116.3918402093
 30
0.0
 11
129.7932407704
 21
116.3918402093
 31
0.0
  0
LINE
  5
71
330
1F
100
AcDbEntity
  8
0
  6
Continuous
 62
     7
100
AcDbLine
 10
124.8128560127
 20
118.5853509491
 30
0.0
 11
130.3128560127
 21
118.5853509491
 31
0.0
  0
LINE
  5
72
330
1F
100
AcDbEntity
  8
0
  6
Continuous
 62
     7
100
AcDbLine
 10
129.3128560127
 20
123.1770100514
 30
0.0
 11
128.3128560127
 21
123.1770100514
 31
0.0
  0
LINE
  5
73
330
1F
100
AcDbEntity
  8
0
  6
Continuous
 62
     7
100
AcDbLine
 10
124.8128560127
 20
123.5154778979
 30
0.0
 11
128.3128560127
 21
123.5154778979
 31
0.0
  0
LINE
  5
74
330
1F
100
AcDbEntity
  8
0
  6
Continuous
 62
     2
100
AcDbLine
 10
124.8128560127
 20
124.0231976713
 30
0.0
 11
129.7932407704
 21
124.0231976713
 31
0.0
  0
LINE
  5
75
330
1F
100
AcDbEntity
  8
0
  6
Continuous
 62
     7
100
AcDbLine
 10
124.8128560127
 20
126.3612258667
 30
0.0
 11
130.3128560127
 21
126.3612258667
 31
0.0
  0
LINE
  5
76
330
1F
100
AcDbEntity
  8
0
  6
Continuous
 62
     7
100
AcDbLine
 10
130.3128560127
 20
142.6028481013
 30
0.0
 11
124.3128560127
 21
142.6028481013
 31
0.0
  0
LINE
  5
77
330
1F
100
AcDbEntity
  8
0
  6
Continuous
 62
     6
100
AcDbLine
 10
124.3128560127
 20
152.6028481013
 30
0.0
 11
130.3128560127
 21
152.6028481013
 31
0.0
  0
LINE
  5
78
330
1F
100
AcDbEntity
  8
0
  6
Continuous
 62
     7
100
AcDbLine
 10
124.3128560127
 20
160.6028481013
 30
0.0
 11
130.3128560127
 21
160.6028481013
 31
0.0
  0
LINE
  5
79
330
1F
100
AcDbEntity
  8
0
  6
Continuous
 62
     2
100
AcDbLine
 10
115.8128560127
 20
85.0528456821
 30
0.0
 11
115.8128560127
 21
210.1528505205
 31
0.0
  0
LINE
  5
7A
330
1F
100
AcDbEntity
  8
0
  6
Continuous
 62
     7
100
AcDbLine
 10
124.8128560127
 20
168.8444703358
 30
0.0
 11
130.3128560127
 21
168.8444703358
 31
0.0
  0
LINE
  5
7B
330
1F
100
AcDbEntity
  8
0
  6
Continuous
 62
     2
100
AcDbLine
 10
124.8128560127
 20
171.1824985312
 30
0.0
 11
129.7932407704
 21
171.1824985312
 31
0.0
  0
LINE
  5
7C
330
1F
100
AcDbEntity
  8
0
  6
Continuous
 62
     7
100
AcDbLine
 10
124.8128560127
 20
171.6902183046
 30
0.0
 11
128.3128560127
 21
171.6902183046
 31
0.0
  0
LINE
  5
7D
330
1F
100
AcDbEntity
  8
0
  6
Continuous
 62
     7
100
AcDbLine
 10
129.3128560127
 20
172.0286861511
 30
0.0
 11
128.3128560127
 21
172.0286861511
 31
0.0
  0
LINE
  5
7E
330
1F
100
AcDbEntity
  8
0
  6
Continuous
 62
     7
100
AcDbLine
 10
120.8128560127
 20
211.6028481013
 30
0.0
 11
120.8128560127
 21
83.6028481013
 31
0.0
  0
LINE
  5
7F
330
1F
100
AcDbEntity
  8
0
  6
Continuous
 62
     7
100
AcDbLine
 10
121.8128560127
 20
212.1028050483
 30
0.0
 11
121.8128560127
 21
83.1028911543
 31
0.0
  0
LINE
  5
80
330
1F
100
AcDbEntity
  8
0
  6
Continuous
 62
     7
100
AcDbLine
 10
124.8128560127
 20
176.6203452534
 30
0.0
 11
130.3128560127
 21
176.6203452534
 31
0.0
  0
LINE
  5
81
330
1F
100
AcDbEntity
  8
0
  6
Continuous
 62
     7
100
AcDbLine
 10
124.8128560127
 20
115.8827481686
 30
0.0
 11
124.8128560127
 21
118.5853509491
 31
0.0
  0
LINE
  5
82
330
1F
100
AcDbEntity
  8
0
  6
Continuous
 62
     7
100
AcDbLine
 10
124.8128560127
 20
123.5154778979
 30
0.0
 11
124.8128560127
 21
126.3612258667
 31
0.0
  0
LINE
  5
83
330
1F
100
AcDbEntity
  8
0
  6
Continuous
 62
     7
100
AcDbLine
 10
124.8128560127
 20
168.8444703358
 30
0.0
 11
124.8128560127
 21
171.6902183046
 31
0.0
  0
LINE
  5
84
330
1F
100
AcDbEntity
  8
0
  6
Continuous
 62
     7
100
AcDbLine
 10
124.8128560127
 20
176.6203452534
 30
0.0
 11
124.8128560127
 21
179.322948034
 31
0.0
  0
LINE
  5
85
330
1F
100
AcDbEntity
  8
0
  6
Continuous
 62
     2
100
AcDbLine
 10
124.8128560127
 20
178.8138559932
 30
0.0
 11
129.7932407704
 21
178.8138559932
 31
0.0
  0
LINE
  5
86
330
1F
100
AcDbEntity
  8
0
  6
Continuous
 62
     7
100
AcDbLine
 10
124.8128560127
 20
179.322948034
 30
0.0
 11
129.7932407704
 21
179.322948034
 31
0.0
  0
LINE
  5
87
330
1F
100
AcDbEntity
  8
0
  6
Continuous
 62
     7
100
AcDbLine
 10
128.3128560127
 20
176.6203452534
 30
0.0
 11
128.3128560127
 21
171.6902183046
 31
0.0
  0
LINE
  5
88
330
1F
100
AcDbEntity
  8
0
  6
Continuous
 62
     7
100
AcDbLine
 10
128.3128560127
 20
118.5853509491
 30
0.0
 11
128.3128560127
 21
123.5154778979
 31
0.0
  0
LINE
  5
89
330
1F
100
AcDbEntity
  8
0
  6
Continuous
 62
     9
100
AcDbLine
 10
129.3128560127
 20
176.6203452534
 30
0.0
 11
129.3128560127
 21
172.0286861511
 31
0.0
  0
LINE
  5
8A
330
1F
100
AcDbEntity
  8
0
  6
Continuous
 62
     9
100
AcDbLine
 10
129.3128560127
 20
123.1770100514
 30
0.0
 11
129.3128560127
 21
118.5853509491
 31
0.0
  0
LINE
  5
8B
330
1F
100
AcDbEntity
  8
0
  6
Continuous
 62
     2
100
AcDbLine
 10
129.7932407704
 20
210.9028481013
 30
0.0
 11
129.7932407704
 21
179.322948034
 31
0.0
  0
LINE
  5
8C
330
1F
100
AcDbEntity
  8
0
  6
Continuous
 62
     2
100
AcDbLine
 10
129.7932407704
 20
168.8444703358
 30
0.0
 11
129.7932407704
 21
160.6028481013
 31
0.0
  0
LINE
  5
8D
330
1F
100
AcDbEntity
  8
0
  6
Continuous
 62
     2
100
AcDbLine
 10
129.7932407704
 20
142.6028481013
 30
0.0
 11
129.7932407704
 21
126.3612258667
 31
0.0
  0
LINE
  5
8E
330
1F
100
AcDbEntity
  8
0
  6
Continuous
 62
     2
100
AcDbLine
 10
129.7932407704
 20
115.8827481686
 30
0.0
 11
129.7932407704
 21
84.3028481013
 31
0.0
  0
LINE
  5
8F
330
1F
100
AcDbEntity
  8
0
  6
Continuous
 62
     7
100
AcDbLine
 10
130.3128560127
 20
176.6203452534
 30
0.0
 11
130.3128560127
 21
171.6055998664
 31
0.0
  0
LINE
  5
90
330
1F
100
AcDbEntity
  8
0
  6
Continuous
 62
     7
100
AcDbLine
 10
130.3128560127
 20
168.8444703358
 30
0.0
 11
130.3128560127
 21
160.6028481013
 31
0.0
  0
LINE
  5
91
330
1F
100
AcDbEntity
  8
0
  6
Continuous
 62
     7
100
AcDbLine
 10
130.3128560127
 20
142.6028481013
 30
0.0
 11
130.3128560127
 21
126.3612258667
 31
0.0
  0
LINE
  5
92
330
1F
100
AcDbEntity
  8
0
  6
Continuous
 62
     2
100
AcDbLine
 10
130.3128560127
 20
123.8962655083
 30
0.0
 11
130.3128560127
 21
123.6000963361
 31
0.0
  0
LINE
  5
93
330
1F
100
AcDbEntity
  8
0
  6
Continuous
 62
     2
100
AcDbLine
 10
130.3128560127
 20
116.2645601491
 30
0.0
 11
130.3128560127
 21
116.0100141962
 31
0.0
  0
LINE
  5
94
330
1F
100
AcDbEntity
  8
0
  6
Continuous
 62
     7
100
AcDbLine
 10
130.3128560127
 20
178.9411360534
 30
0.0
 11
130.3128560127
 21
210.8028481013
 31
0.0
  0
LINE
  5
95
330
1F
100
AcDbEntity
  8
0
  6
Continuous
 62
     7
100
AcDbLine
 10
120.3390239907
 20
210.3900545137
 30
0.0
 11
115.8128560127
 21
210.1528481013
 31
0.0
  0
LINE
  5
96
330
1F
100
AcDbEntity
  8
0
  6
Continuous
 62
     7
100
AcDbLine
 10
121.8128560127
 20
210.9028481013
 30
0.0
 11
130.1396509319
 21
210.9028481013
 31
0.0
  0
LINE
  5
97
330
1F
100
AcDbEntity
  8
0
  6
Continuous
 62
     7
100
AcDbLine
 10
121.3128560127
 20
212.1028481013
 30
0.0
 11
121.8128560127
 21
212.1028481013
 31
0.0
  0
LINE
  5
98
330
1F
100
AcDbEntity
  8
0
  6
Continuous
 62
     7
100
AcDbLine
 10
130.1396509319
 20
84.3028481013
 30
0.0
 11
130.3128560127
 21
84.4028481013
 31
0.0
  0
LINE
  5
99
330
1F
100
AcDbEntity
  8
0
  6
Continuous
 62
     7
100
AcDbLine
 10
130.1396509319
 20
210.9028481013
 30
0.0
 11
130.3128560127
 21
210.8028481013
 31
0.0
  0
LINE
  5
9A
330
1F
100
AcDbEntity
  8
05___PRT_ALL_DTM_CSYS
  6
Continuous
 62
     2
100
AcDbLine
 10
120.8128560127
 20
162.3028481013
 30
0.0
 11
120.8128560127
 21
132.9028481013
 31
0.0
  0
LINE
  5
9B
330
1F
100
AcDbEntity
  8
0
  6
Continuous
 62
     7
100
AcDbLine
 10
122.3128560127
 20
158.6028481013
 30
0.0
 11
122.3128560127
 21
144.6028481013
 31
0.0
  0
LINE
  5
9C
330
1F
100
AcDbEntity
  8
0
  6
Continuous
 62
     7
100
AcDbLine
 10
246.1573111982
 20
84.3028481013
 30
0.0
 11
236.0855685486
 21
84.3028481013
 31
0.0
  0
LINE
  5
9D
330
1F
100
AcDbEntity
  8
0
  6
Continuous
 62
     6
100
AcDbLine
 10
129.7932407704
 20
160.6028481013
 30
0.0
 11
129.7932407704
 21
152.6028481013
 31
0.0
  0
LINE
  5
9E
330
1F
100
AcDbEntity
  8
0
  6
Continuous
 62
     6
100
AcDbLine
 10
130.3128560127
 20
160.6028481013
 30
0.0
 11
130.3128560127
 21
152.6028481013
 31
0.0
  0
LINE
  5
9F
330
1F
100
AcDbEntity
  8
0
  6
Continuous
 62
     2
100
AcDbLine
 10
130.3128560127
 20
171.6055998664
 30
0.0
 11
130.3128560127
 21
171.3094306934
 31
0.0
  0
LINE
  5
A0
330
1F
100
AcDbEntity
  8
0
  6
Continuous
 62
     7
100
AcDbLine
 10
130.3128560127
 20
116.0100141962
 30
0.0
 11
130.3128560127
 21
84.4028481013
 31
0.0
  0
LINE
  5
A1
330
1F
100
AcDbEntity
  8
0
  6
Continuous
 62
     7
100
AcDbLine
 10
130.3128560127
 20
123.6000963361
 30
0.0
 11
130.3128560127
 21
118.5853509491
 31
0.0
  0
LINE
  5
A2
330
1F
100
AcDbEntity
  8
1
  6
Continuous
 62
     7
100
AcDbLine
 10
330.485576523796
 20
147.6028481013
 30
0.0
 11
310.662340287634
 21
147.6028481013
 31
0.0
  0
LINE
  5
A3
330
1F
100
AcDbEntity
  8
1
  6
Continuous
 62
     7
100
AcDbLine
 10
310.662340287634
 20
147.6028481013
 30
0.0
 11
319.335006140955
 21
150.965936078659
 31
0.0
  0
LINE
  5
A4
330
1F
100
AcDbEntity
  8
1
  6
Continuous
 62
     7
100
AcDbLine
 10
319.335006140955
 20
150.965936078659
 30
0.0
 11
322.501217484231
 21
145.459481568614
 31
0.0
  0
LINE
  5
A5
330
1F
100
AcDbEntity
  8
0
  6
Continuous
 62
     6
100
AcDbLine
 10
337.261479163206
 20
90.6413532484456
 30
0.0
 11
337.261479163206
 21
98.6413532484456
 31
0.0
  0
LINE
  5
A6
330
1F
100
AcDbEntity
  8
0
  6
Continuous
 62
     6
100
AcDbLine
 10
337.781094405506
 20
90.6413532484456
 30
0.0
 11
337.781094405506
 21
98.6413532484456
 31
0.0
  0
LINE
  5
A7
330
1F
100
AcDbEntity
  8
0
  6
Continuous
 62
     7
100
AcDbLine
 10
345.261479163206
 20
92.6413532484456
 30
0.0
 11
345.261479163206
 21
106.641353248446
 31
0.0
  0
LINE
  5
A8
330
1F
100
AcDbEntity
  8
05___PRT_ALL_DTM_CSYS
  6
Continuous
 62
     2
100
AcDbLine
 10
346.761479163206
 20
88.9413532484456
 30
0.0
 11
346.761479163206
 21
115.501304317462
 31
0.0
  0
LINE
  5
A9
330
1F
100
AcDbEntity
  8
0
  6
Continuous
 62
     7
100
AcDbLine
 10
337.261479163206
 20
108.641353248446
 30
0.0
 11
337.261479163206
 21
121.56395244667
 31
0.0
  0
LINE
  5
AA
330
1F
100
AcDbEntity
  8
0
  6
Continuous
 62
     2
100
AcDbLine
 10
337.781094405506
 20
108.641353248446
 30
0.0
 11
337.781094405506
 21
121.233165557641
 31
0.0
  0
LINE
  5
AB
330
1F
100
AcDbEntity
  8
0
  6
Continuous
 62
     7
100
AcDbLine
 10
343.261479163206
 20
90.6413532484456
 30
0.0
 11
337.261479163206
 21
90.6413532484456
 31
0.0
  0
LINE
  5
AC
330
1F
100
AcDbEntity
  8
0
  6
Continuous
 62
     6
100
AcDbLine
 10
343.261479163206
 20
98.6413532484456
 30
0.0
 11
337.261479163206
 21
98.6413532484456
 31
0.0
  0
LINE
  5
AD
330
1F
100
AcDbEntity
  8
0
  6
Continuous
 62
     7
100
AcDbLine
 10
337.261479163206
 20
108.641353248446
 30
0.0
 11
343.261479163206
 21
108.641353248446
 31
0.0
  0
LINE
  5
AE
330
1F
100
AcDbEntity
  8
0
  6
Continuous
 62
     2
100
AcDbLine
 10
337.781094405506
 20
85.2156177794898
 30
0.0
 11
337.781094405506
 21
90.6413532484456
 31
0.0
  0
LINE
  5
AF
330
1F
100
AcDbEntity
  8
0
  6
Continuous
 62
     7
100
AcDbLine
 10
337.261479163206
 20
85.0137735619457
 30
0.0
 11
337.261479163206
 21
90.6413532484456
 31
0.0
  0
LINE
  5
B0
330
1F
100
AcDbEntity
  8
0
  6
Continuous
 62
     7
100
AcDbLine
 10
345.761479163206
 20
87.4543170373864
 30
0.0
 11
345.761479163206
 21
116.172373976354
 31
0.0
  0
LINE
  5
B1
330
1F
100
AcDbEntity
  8
0
  6
Continuous
 62
     7
100
AcDbLine
 10
346.761479163206
 20
87.7145859425704
 30
0.0
 11
346.761479163206
 21
115.501304317462
 31
0.0
  0
LINE
  5
B2
330
1F
100
AcDbEntity
  8
0
  6
Continuous
 62
     2
100
AcDbLine
 10
351.761479163206
 20
111.419144949134
 30
0.0
 11
351.761479163206
 21
89.4294964330008
 31
0.0
  0
LINE
  5
B3
330
1F
100
AcDbEntity
  8
1
  6
Continuous
 62
     7
100
AcDbLine
 10
330.345683189439
 20
67.8094755860548
 30
0.0
 11
355.474358102818
 21
67.8094755860548
 31
0.0
  0
ARC
  5
B4
330
1F
100
AcDbEntity
  8
0
  6
Continuous
 62
     7
100
AcDbCircle
 10
241.1214398734
 20
147.6028481013
 30
0.0
 40
61.79999999999998
100
AcDbArc
 50
87.70019390859981
 51
92.29980609140019
  0
ARC
  5
B5
330
1F
100
AcDbEntity
  8
0
  6
Continuous
 62
     7
100
AcDbCircle
 10
238.6214398734
 20
209.8526673781
 30
0.0
 40
0.5
100
AcDbArc
 50
180.0
 51
-87.70019391075436
  0
ARC
  5
B6
330
1F
100
AcDbEntity
  8
0
  6
Continuous
 62
     7
100
AcDbCircle
 10
243.6214398734
 20
209.8526673781
 30
0.0
 40
0.4999999999539591
100
AcDbArc
 50
-92.29980608924565
 51
0.0
  0
ARC
  5
B7
330
1F
100
AcDbEntity
  8
0
  6
Continuous
 62
     7
100
AcDbCircle
 10
241.1214398734
 20
147.6028481013
 30
0.0
 40
64.30000000004722
100
AcDbArc
 50
-26.82602998865703
 51
-22.32582020651818
  0
ARC
  5
B8
330
1F
100
AcDbEntity
  8
0
  6
Continuous
 62
     7
100
AcDbCircle
 10
241.1214398734
 20
147.6028481013
 30
0.0
 40
63.49999999999956
100
AcDbArc
 50
27.19166004689982
 51
85.4513782952832
  0
ARC
  5
B9
330
1F
100
AcDbEntity
  8
0
  6
Continuous
 62
     7
100
AcDbCircle
 10
241.1214398734
 20
147.6028481013
 30
0.0
 40
63.50000000000056
100
AcDbArc
 50
-22.29210480210004
 51
22.29210480210004
  0
ARC
  5
BA
330
1F
100
AcDbEntity
  8
0
  6
Continuous
 62
     7
100
AcDbCircle
 10
241.1214398734
 20
147.6028481013
 30
0.0
 40
63.49999999999955
100
AcDbArc
 50
-85.4513782952832
 51
-27.19166004689982
  0
ARC
  5
BB
330
1F
100
AcDbEntity
  8
0
  6
Continuous
 62
     7
100
AcDbCircle
 10
241.1214398734
 20
147.6028481013
 30
0.0
 40
64.30000000000987
100
AcDbArc
 50
22.32582020643577
 51
26.82602998857751
  0
ARC
  5
BC
330
1F
100
AcDbEntity
  8
0
  6
Continuous
 62
     7
100
AcDbCircle
 10
241.1214398734
 20
147.6028481013
 30
0.0
 40
63.49999999999953
100
AcDbArc
 50
-152.8083399531002
 51
-94.5486217047168
  0
ARC
  5
BD
330
1F
100
AcDbEntity
  8
0
  6
Continuous
 62
     7
100
AcDbCircle
 10
241.1214398734
 20
147.6028481013
 30
0.0
 40
64.30000000004782
100
AcDbArc
 50
-157.6741797934818
 51
-153.1739700113028
  0
ARC
  5
BE
330
1F
100
AcDbEntity
  8
0
  6
Continuous
 62
     7
100
AcDbCircle
 10
241.1214398734
 20
147.6028481013
 30
0.0
 40
63.49999999999956
100
AcDbArc
 50
94.5486217047168
 51
152.8083399531002
  0
ARC
  5
BF
330
1F
100
AcDbEntity
  8
0
  6
Continuous
 62
     7
100
AcDbCircle
 10
241.1214398734
 20
147.6028481013
 30
0.0
 40
63.50000000000053
100
AcDbArc
 50
157.7078951978999
 51
-157.7078951978999
  0
ARC
  5
C0
330
1F
100
AcDbEntity
  8
0
  6
Continuous
 62
     7
100
AcDbCircle
 10
241.1214398734
 20
147.6028481013
 30
0.0
 40
64.29999999991286
100
AcDbArc
 50
153.1739700113823
 51
157.6741797935642
  0
ARC
  5
C1
330
1F
100
AcDbEntity
  8
0
  6
Continuous
 62
     7
100
AcDbCircle
 10
241.1214398734
 20
147.6028481013
 30
0.0
 40
62.30000000000044
100
AcDbArc
 50
92.75964504229978
 51
87.24035495770022
  0
ARC
  5
C2
330
1F
100
AcDbEntity
  8
0
  6
Continuous
 62
     2
100
AcDbCircle
 10
241.1214398734
 20
147.6028481013
 30
0.0
 40
63.20000000000019
100
AcDbArc
 50
160.3604593330002
 51
168.1297428885
  0
ARC
  5
C3
330
1F
100
AcDbEntity
  8
0
  6
Continuous
 62
     2
100
AcDbCircle
 10
241.1214398734
 20
147.6028481013
 30
0.0
 40
63.20000000000022
100
AcDbArc
 50
-19.63954066699982
 51
-11.87025711149994
  0
ARC
  5
C4
330
1F
100
AcDbEntity
  8
0
  6
Continuous
 62
     2
100
AcDbCircle
 10
241.1214398734
 20
147.6028481013
 30
0.0
 40
62.60000000000053
100
AcDbArc
 50
152.3843361548
 51
157.7468562406004
  0
ARC
  5
C5
330
1F
100
AcDbEntity
  8
0
  6
Continuous
 62
     2
100
AcDbCircle
 10
241.1214398734
 20
147.6028481013
 30
0.0
 40
62.59999999995883
100
AcDbArc
 50
92.74685624055303
 51
149.9595267190997
  0
ARC
  5
C6
330
1F
100
AcDbEntity
  8
0
  6
Continuous
 62
     2
100
AcDbCircle
 10
241.1214398734
 20
147.6028481013
 30
0.0
 40
63.20000000000027
100
AcDbArc
 50
-175.4623641094004
 51
-160.3604593330002
  0
ARC
  5
C7
330
1F
100
AcDbEntity
  8
0
  6
Continuous
 62
     2
100
AcDbCircle
 10
241.1214398734
 20
147.6028481013
 30
0.0
 40
63.19999999999975
100
AcDbArc
 50
-150.0075013783
 51
-29.99249862170004
  0
ARC
  5
C8
330
1F
100
AcDbEntity
  8
0
  6
Continuous
 62
     2
100
AcDbCircle
 10
241.1214398734
 20
147.6028481013
 30
0.0
 40
62.59999999999958
100
AcDbArc
 50
30.04047328090013
 51
87.25314375944698
  0
ARC
  5
C9
330
1F
100
AcDbEntity
  8
0
  6
Continuous
 62
     2
100
AcDbCircle
 10
241.1214398734
 20
147.6028481013
 30
0.0
 40
62.59999999999992
100
AcDbArc
 50
22.25314375939992
 51
27.61566384520043
  0
ARC
  5
CA
330
1F
100
AcDbEntity
  8
0
  6
Continuous
 62
     2
100
AcDbCircle
 10
241.1214398734
 20
147.6028481013
 30
0.0
 40
62.59999999999999
100
AcDbArc
 50
4.58122008530002
 51
19.83563531740019
  0
ARC
  5
CB
330
1F
100
AcDbEntity
  8
0
  6
Continuous
 62
     2
100
AcDbCircle
 10
241.1214398734
 20
147.6028481013
 30
0.0
 40
62.59999999999992
100
AcDbArc
 50
-157.7468562406001
 51
-152.3843361547996
  0
ARC
  5
CC
330
1F
100
AcDbEntity
  8
0
  6
Continuous
 62
     2
100
AcDbCircle
 10
241.1214398734
 20
147.6028481013
 30
0.0
 40
63.19999999999978
100
AcDbArc
 50
29.99249862170004
 51
150.0075013783
  0
ARC
  5
CD
330
1F
100
AcDbEntity
  8
0
  6
Continuous
 62
     2
100
AcDbCircle
 10
241.1214398734
 20
147.6028481013
 30
0.0
 40
62.59999999999985
100
AcDbArc
 50
-19.83563531740019
 51
-11.98571027370013
  0
ARC
  5
CE
330
1F
100
AcDbEntity
  8
0
  6
Continuous
 62
     2
100
AcDbCircle
 10
241.1214398734
 20
147.6028481013
 30
0.0
 40
62.59999999999955
100
AcDbArc
 50
-149.9595267190999
 51
-30.04047328090012
  0
ARC
  5
CF
330
1F
100
AcDbEntity
  8
0
  6
Continuous
 62
     2
100
AcDbCircle
 10
241.1214398734
 20
147.6028481013
 30
0.0
 40
62.59999999999982
100
AcDbArc
 50
160.1643646825998
 51
168.0142897262999
  0
ARC
  5
D0
330
1F
100
AcDbEntity
  8
0
  6
Continuous
 62
     2
100
AcDbCircle
 10
241.1214398734
 20
147.6028481013
 30
0.0
 40
62.59999999999999
100
AcDbArc
 50
-175.4187799147
 51
-160.1643646825998
  0
ARC
  5
D1
330
1F
100
AcDbEntity
  8
0
  6
Continuous
 62
     2
100
AcDbCircle
 10
241.1214398734
 20
147.6028481013
 30
0.0
 40
63.20000000000029
100
AcDbArc
 50
4.5376358905996
 51
19.63954066699982
  0
ARC
  5
D2
330
1F
100
AcDbEntity
  8
0
  6
Continuous
 62
     2
100
AcDbCircle
 10
241.1214398734
 20
147.6028481013
 30
0.0
 40
62.60000000000052
100
AcDbArc
 50
-27.61566384520001
 51
-22.25314375939955
  0
ARC
  5
D3
330
1F
100
AcDbEntity
  8
0
  6
Continuous
 62
     7
100
AcDbCircle
 10
120.3128560127
 20
210.889369281
 30
0.0
 40
0.4999999999164685
100
AcDbArc
 50
-87.00000001343669
 51
-0.0000001003838
  0
ARC
  5
D4
330
1F
100
AcDbEntity
  8
0
  6
Continuous
 62
     7
100
AcDbCircle
 10
120.3128560127
 20
84.3163269215
 30
0.0
 40
0.5
100
AcDbArc
 50
0.00000010040497
 51
87.00000001403635
  0
ARC
  5
D5
330
1F
100
AcDbEntity
  8
0
  6
Continuous
 62
     7
100
AcDbCircle
 10
121.3128560127
 20
83.6028481013
 30
0.0
 40
0.5
100
AcDbArc
 50
180.0
 51
-90.0
  0
ARC
  5
D6
330
1F
100
AcDbEntity
  8
0
  6
Continuous
 62
     7
100
AcDbCircle
 10
121.3128560127
 20
211.6028481013
 30
0.0
 40
0.5
100
AcDbArc
 50
90.0
 51
180.0
  0
ARC
  5
D7
330
1F
100
AcDbEntity
  8
0
  6
Continuous
 62
     7
100
AcDbCircle
 10
116.8128560127
 20
147.6028481013
 30
0.0
 40
62.49999999999999
100
AcDbArc
 50
180.0
 51
-90.91677159059991
  0
ARC
  5
D8
330
1F
100
AcDbEntity
  8
0
  6
Continuous
 62
     6
100
AcDbCircle
 10
124.3128560127
 20
150.6028481013
 30
0.0
 40
2.0
100
AcDbArc
 50
90.0
 51
180.0
  0
ARC
  5
D9
330
1F
100
AcDbEntity
  8
0
  6
Continuous
 62
     7
100
AcDbCircle
 10
124.3128560127
 20
144.6028481013
 30
0.0
 40
2.0
100
AcDbArc
 50
180.0
 51
-90.0
  0
ARC
  5
DA
330
1F
100
AcDbEntity
  8
0
  6
Continuous
 62
     7
100
AcDbCircle
 10
124.3128560127
 20
158.6028481013
 30
0.0
 40
2.0
100
AcDbArc
 50
90.0
 51
180.0
  0
ARC
  5
DB
330
1F
100
AcDbEntity
  8
0
  6
Continuous
 62
     7
100
AcDbCircle
 10
116.8128560127
 20
147.6028481013
 30
0.0
 40
62.49999999999994
100
AcDbArc
 50
90.91677159059991
 51
180.0
  0
ARC
  5
DC
330
1F
100
AcDbEntity
  8
0
  6
Continuous
 62
     7
100
AcDbCircle
 10
343.261479163206
 20
92.6413532484456
 30
0.0
 40
2.0
100
AcDbArc
 50
-90.0
 51
0.0
  0
ARC
  5
DD
330
1F
100
AcDbEntity
  8
0
  6
Continuous
 62
     7
100
AcDbCircle
 10
343.261479163206
 20
106.641353248446
 30
0.0
 40
2.0
100
AcDbArc
 50
0.0
 51
90.0
  0
ARC
  5
DE
330
1F
100
AcDbEntity
  8
0
  6
Continuous
 62
     6
100
AcDbCircle
 10
343.261479163206
 20
100.641353248446
 30
0.0
 40
2.000000000000398
100
AcDbArc
 50
-90.0
 51
0.0
  0
CIRCLE
  5
DF
330
1F
100
AcDbEntity
  8
0
  6
Continuous
 62
     7
100
AcDbCircle
 10
241.1214398734
 20
147.6028481013
 30
0.0
 40
64.5
  0
CIRCLE
  5
E0
330
1F
100
AcDbEntity
  8
0
  6
Continuous
 62
     7
100
AcDbCircle
 10
241.1214398734
 20
147.6028481013
 30
0.0
 40
61.25952461700001
  0
CIRCLE
  5
E1
330
1F
100
AcDbEntity
  8
0
  6
Continuous
 62
     7
100
AcDbCircle
 10
241.1214398734
 20
147.6028481013
 30
0.0
 40
60.99180272789999
  0
CIRCLE
  5
E2
330
1F
100
AcDbEntity
  8
0
  6
Continuous
 62
     7
100
AcDbCircle
 10
241.1214398734
 20
147.6028481013
 30
0.0
 40
61.05000000000001
  0
SPLINE
  5
E3
330
1F
100
AcDbEntity
  8
0
  6
Continuous
 62
     2
100
AcDbSpline
210
0.0
220
0.0
230
1.0
 70
     8
 71
     3
 72
     9
 73
     5
 74
     3
 42
0.0000000001
 43
0.0000000001
 44
0.00000001
 40
0.0
 40
0.0
 40
0.0
 40
0.0
 40
0.2674470854368555
 40
0.5348941708734417
 40
0.5348941708734417
 40
0.5348941708734417
 40
0.5348941708734417
 10
130.3128560127
 20
123.8962655083
 30
0.0
 10
130.2262534610131
 20
123.9174208225273
 30
0.0
 10
130.0530483576393
 20
123.9597314509817
 30
0.0
 10
129.8798432994797
 20
124.0020422645272
 30
0.0
 10
129.7932407704
 20
124.0231976713
 30
0.0
 11
130.3128560127
 21
123.8962655083
 31
0.0
 11
130.0530483689427
 21
123.9597314972545
 31
0.0
 11
129.7932407704
 21
124.0231976713
 31
0.0
  0
SPLINE
  5
E4
330
1F
100
AcDbEntity
  8
0
  6
Continuous
 62
     2
100
AcDbSpline
210
0.0
220
0.0
230
1.0
 70
     8
 71
     3
 72
     9
 73
     5
 74
     3
 42
0.0000000001
 43
0.0000000001
 44
0.00000001
 40
0.0
 40
0.0
 40
0.0
 40
0.0
 40
0.2674470853418947
 40
0.5348941706836028
 40
0.5348941706836028
 40
0.5348941706836028
 40
0.5348941706836028
 10
130.3128560127
 20
171.3094306934
 30
0.0
 10
130.2262534609534
 20
171.2882753795502
 30
0.0
 10
130.0530483574604
 20
171.2459647518507
 30
0.0
 10
129.8798432994201
 20
171.2036539380835
 30
0.0
 10
129.7932407704
 20
171.1824985312
 30
0.0
 11
130.3128560127
 21
171.3094306934
 31
0.0
 11
130.0530483688235
 21
171.2459647053338
 31
0.0
 11
129.7932407704
 21
171.1824985312
 31
0.0
  0
SPLINE
  5
E5
330
1F
100
AcDbEntity
  8
0
  6
Continuous
 62
     2
100
AcDbSpline
210
0.0
220
0.0
230
1.0
 70
     8
 71
     3
 72
     9
 73
     5
 74
     3
 42
0.0000000001
 43
0.0000000001
 44
0.00000001
 40
0.0
 40
0.0
 40
0.0
 40
0.0
 40
0.2674884173924689
 40
0.5349768347847887
 40
0.5349768347847887
 40
0.5349768347847887
 40
0.5349768347847887
 10
130.3128560127
 20
178.9411360534
 30
0.0
 10
130.2262534032799
 20
178.9199229918726
 30
0.0
 10
130.0530481844399
 20
178.877496868818
 30
0.0
 10
129.8798432417466
 20
178.835069618406
 30
0.0
 10
129.7932407704
 20
178.8138559932
 30
0.0
 11
130.3128560127
 21
178.9411360534
 31
0.0
 11
130.0530482534765
 21
178.8774965869786
 31
0.0
 11
129.7932407704
 21
178.8138559932
 31
0.0
  0
SPLINE
  5
E6
330
1F
100
AcDbEntity
  8
0
  6
Continuous
 62
     2
100
AcDbSpline
210
0.0
220
0.0
230
1.0
 70
     8
 71
     3
 72
     9
 73
     5
 74
     3
 42
0.0000000001
 43
0.0000000001
 44
0.00000001
 40
0.0
 40
0.0
 40
0.0
 40
0.0
 40
0.2674884173921948
 40
0.5349768347847916
 40
0.5349768347847916
 40
0.5349768347847916
 40
0.5349768347847916
 10
129.7932407704
 20
116.3918402093
 30
0.0
 10
129.8798432417595
 20
116.3706265841471
 30
0.0
 10
130.0530481844788
 20
116.3281993338412
 30
0.0
 10
130.2262534032929
 20
116.2857732106804
 30
0.0
 10
130.3128560127
 20
116.2645601491
 30
0.0
 11
129.7932407704
 21
116.3918402093
 31
0.0
 11
130.0530482535024
 21
116.3281996156275
 31
0.0
 11
130.3128560127
 21
116.2645601491
 31
0.0
  0
SPLINE
  5
E7
330
1F
100
AcDbEntity
  8
0
  6
Continuous
 62
     7
100
AcDbSpline
210
0.0
220
0.0
230
1.0
 70
     8
 71
     3
 72
     9
 73
     5
 74
     3
 42
0.0000000001
 43
0.0000000001
 44
0.00000001
 40
0.0
 40
0.0
 40
0.0
 40
0.0
 40
0.2674867481943466
 40
0.5349734963886252
 40
0.5349734963886252
 40
0.5349734963886252
 40
0.5349734963886252
 10
130.3128560127
 20
179.1956820063
 30
0.0
 10
130.2262535384175
 20
179.2168932808004
 30
0.0
 10
130.0530485898527
 20
179.2593158298013
 30
0.0
 10
129.8798433768842
 20
179.3017372992671
 30
0.0
 10
129.7932407704
 20
179.322948034
 30
0.0
 11
130.3128560127
 21
179.1956820063
 31
0.0
 11
130.0530485237518
 21
179.2593155599175
 31
0.0
 11
129.7932407704
 21
179.322948034
 31
0.0
  0
SPLINE
  5
E8
330
1F
100
AcDbEntity
  8
0
  6
Continuous
 62
     7
100
AcDbSpline
210
0.0
220
0.0
230
1.0
 70
     8
 71
     3
 72
     9
 73
     5
 74
     3
 42
0.0000000001
 43
0.0000000001
 44
0.00000001
 40
0.0
 40
0.0
 40
0.0
 40
0.0
 40
0.2674867481823602
 40
0.5349734963648325
 40
0.5349734963648325
 40
0.5349734963648325
 40
0.5349734963648325
 10
130.3128560127
 20
116.0100141962
 30
0.0
 10
130.2262535384241
 20
115.9888029216896
 30
0.0
 10
130.0530485898723
 20
115.9463803726689
 30
0.0
 10
129.8798433768908
 20
115.9039589032896
 30
0.0
 10
129.7932407704
 20
115.8827481686
 30
0.0
 11
130.3128560127
 21
116.0100141962
 31
0.0
 11
130.0530485237649
 21
115.9463806425792
 31
0.0
 11
129.7932407704
 21
115.8827481686
 31
0.0
  0
SPLINE
  5
E9
330
1F
100
AcDbEntity
  8
0
  6
Continuous
 62
     7
100
AcDbSpline
210
0.0
220
0.0
230
1.0
 70
     8
 71
     3
 72
    31
 73
    27
 74
    25
 42
0.0000000001
 43
0.0000000001
 44
0.00000001
 40
0.0
 40
0.0
 40
0.0
 40
0.0
 40
0.1712612265524962
 40
0.3425224527518599
 40
0.3826983254887839
 40
0.4228731396199751
 40
0.4630484394946654
 40
0.5032239910406174
 40
0.5404978982357508
 40
0.5777714652192714
 40
0.6150451887962453
 40
0.652319010238544
 40
0.6861398715664453
 40
0.7199601992010949
 40
0.7537821772790659
 40
0.7876043402834598
 40
0.8168413625801249
 40
0.8460765556958793
 40
0.8753046110597311
 40
0.904536523887982
 40
0.9293889637865502
 40
0.9542284028299521
 40
0.9790792775953674
 40
1.003972490148896
 40
1.083548812735343
 40
1.163122123902078
 40
1.163122123902078
 40
1.163122123902078
 40
1.163122123902078
 10
129.3128560127
 20
123.1770100514
 30
0.0
 10
129.3699538359063
 20
123.1781907081809
 30
0.0
 10
129.4841494822011
 20
123.1805520217403
 30
0.0
 10
129.6110868397029
 20
123.195260547692
 30
0.0
 10
129.6938588271923
 20
123.2087771200719
 30
0.0
 10
129.733367902634
 20
123.2160858516216
 30
0.0
 10
129.7727098139121
 20
123.22424055499
 30
0.0
 10
129.8109152601415
 20
123.2330675172013
 30
0.0
 10
129.847971677365
 20
123.2425249760669
 30
0.0
 10
129.8838632381905
 20
123.2525950565373
 30
0.0
 10
129.9194886729202
 20
123.2635710775152
 30
0.0
 10
129.9537147691085
 20
123.2751370589086
 30
0.0
 10
129.9865308781452
 20
123.2872374797754
 30
0.0
 10
130.0179165366748
 20
123.2998532711832
 30
0.0
 10
130.0488861905183
 20
123.313461801349
 30
0.0
 10
130.077989332869
 20
123.3274744505242
 30
0.0
 10
130.1052285841079
 20
123.3417874492801
 30
0.0
 10
130.13059530893
 20
123.3563323890063
 30
0.0
 10
130.1553424771046
 20
123.3719083810884
 30
0.0
 10
130.1781551968965
 20
123.3877627786411
 30
0.0
 10
130.1990499218509
 20
123.4037654279394
 30
0.0
 10
130.2179990865383
 20
123.4198468303269
 30
0.0
 10
130.2360409274193
 20
123.437007233848
 30
0.0
 10
130.265076918119
 20
123.4687262396528
 30
0.0
 10
130.3019954774262
 20
123.5201640995375
 30
0.0
 10
130.3092358799429
 20
123.5734525933531
 30
0.0
 10
130.3128560127
 20
123.6000963361
 30
0.0
 11
129.3128560127
 21
123.1770100514
 31
0.0
 11
129.4840034223786
 21
123.1832527976368
 31
0.0
 11
129.6541887891003
 21
123.2024191367005
 31
0.0
 11
129.6938358443015
 21
123.2089161948077
 31
0.0
 11
129.7333399007096
 21
123.216226818432
 31
0.0
 11
129.7726773605215
 21
123.2243888632476
 31
0.0
 11
129.8118202204006
 21
123.2334393583999
 31
0.0
 11
129.847933862954
 21
123.2426669788473
 31
0.0
 11
129.8838188384225
 21
123.2527460329347
 31
0.0
 11
129.9194371639063
 21
123.2637308114498
 31
0.0
 11
129.9547458464997
 21
123.2756737883999
 31
0.0
 11
129.9864725854726
 21
123.2873897900688
 31
0.0
 11
130.0178466289974
 21
123.3000184857346
 31
0.0
 11
130.0488045190122
 21
123.3136396181008
 31
0.0
 11
130.0792711827
 21
123.3283270655996
 31
0.0
 11
130.1051430028425
 21
123.3419451563355
 31
0.0
 11
130.1304943355337
 21
123.3565055975135
 31
0.0
 11
130.1552190191694
 21
123.3720930681057
 31
0.0
 11
130.1792109970997
 21
123.3887930598001
 31
0.0
 11
130.1989223539466
 21
123.4039293136354
 31
0.0
 11
130.2178434003378
 21
123.4200225338057
 31
0.0
 11
130.2358149946066
 21
123.4371860933446
 31
0.0
 11
130.2526571124997
 21
123.4555168079
 31
0.0
 11
130.2958246886473
 21
123.5223670246979
 31
0.0
 11
130.3128560127
 21
123.6000963361
 31
0.0
  0
SPLINE
  5
EA
330
1F
100
AcDbEntity
  8
0
  6
Continuous
 62
     7
100
AcDbSpline
210
0.0
220
0.0
230
1.0
 70
     8
 71
     3
 72
    31
 73
    27
 74
    25
 42
0.0000000001
 43
0.0000000001
 44
0.00000001
 40
0.0
 40
0.0
 40
0.0
 40
0.0
 40
0.0795612811259324
 40
0.1591255632028913
 40
0.1840154502938255
 40
0.2088630180775368
 40
0.2336991956728975
 40
0.2585483693531478
 40
0.2877809581812562
 40
0.3170096925245326
 40
0.3462455594412611
 40
0.3754832549461125
 40
0.4093042586561069
 40
0.4431250771783294
 40
0.476944242459728
 40
0.5107639414274432
 40
0.5480340326195247
 40
0.58530402558305
 40
0.6225738617315999
 40
0.6598440384170586
 40
0.7000221570440038
 40
0.7402000243902987
 40
0.780377409665835
 40
0.8205558537073656
 40
0.9918391347909499
 40
1.163122416220142
 40
1.163122416220142
 40
1.163122416220142
 40
1.163122416220142
 10
130.3128560127
 20
171.6055998664
 30
0.0
 10
130.3092370444439
 20
171.6322395793039
 30
0.0
 10
130.3019989714287
 20
171.6855200099278
 30
0.0
 10
130.2650899412034
 20
171.7369526814761
 30
0.0
 10
130.2360603561893
 20
171.7686691706796
 30
0.0
 10
130.2180221178674
 20
171.785828562981
 30
0.0
 10
130.1990765732686
 20
171.8019091658997
 30
0.0
 10
130.1781844934793
 20
171.817912059761
 30
0.0
 10
130.1553732841786
 20
171.8337675220372
 30
0.0
 10
130.1306263819369
 20
171.8493452123702
 30
0.0
 10
130.1052597515373
 20
171.8638916796314
 30
0.0
 10
130.0780210349882
 20
171.8782058340686
 30
0.0
 10
130.048918918186
 20
171.8922193504191
 30
0.0
 10
130.0179508110045
 20
171.9058285174503
 30
0.0
 10
129.986566653257
 20
171.9184449296037
 30
0.0
 10
129.9537528225974
 20
171.9305456963096
 30
0.0
 10
129.9195298110599
 20
171.9421118255796
 30
0.0
 10
129.883908287955
 20
171.9530878707511
 30
0.0
 10
129.8480206403733
 20
171.9631580867691
 30
0.0
 10
129.8109661092198
 20
171.9726163370248
 30
0.0
 10
129.7727604772957
 20
171.9814445796572
 30
0.0
 10
129.7334162759374
 20
171.9896008944856
 30
0.0
 10
129.6939048552316
 20
171.9969110830049
 30
0.0
 10
129.6111242281364
 20
172.0104309957327
 30
0.0
 10
129.484171549641
 20
172.0251432870779
 30
0.0
 10
129.3699611917187
 20
172.0275051964251
 30
0.0
 10
129.3128560127
 20
172.0286861511
 30
0.0
 11
130.3128560127
 21
171.6055998664
 31
0.0
 11
130.2958296780495
 21
171.6833179555606
 31
0.0
 11
130.2526730167003
 21
171.7501608875999
 31
0.0
 11
130.2358344460001
 21
171.7684903452071
 31
0.0
 11
130.2178664485982
 21
171.7856528827272
 31
0.0
 11
130.1989490069732
 21
171.8017453070292
 31
0.0
 11
130.1792412754997
 21
171.8168809191
 31
0.0
 11
130.1552497908307
 21
171.8335828026156
 31
0.0
 11
130.1305253782726
 21
171.8491719762617
 31
0.0
 11
130.1051741481507
 21
171.8637339488506
 31
0.0
 11
130.0793022985004
 21
171.8773534288005
 31
0.0
 11
130.048837237364
 21
171.8920415308532
 31
0.0
 11
130.0178808946723
 21
171.9056633006599
 31
0.0
 11
129.9865083540608
 21
171.9182926171857
 31
0.0
 11
129.9547830788
 21
171.9300092271005
 31
0.0
 11
129.9194783026427
 21
171.9419521110884
 31
0.0
 11
129.8838638883728
 21
171.9529369129395
 31
0.0
 11
129.8479828259483
 21
171.9630161016884
 31
0.0
 11
129.8118730954004
 21
171.9722439632999
 31
0.0
 11
129.7727280133271
 21
171.9812962428953
 31
0.0
 11
129.7333882662481
 21
171.9894599016498
 31
0.0
 11
129.6938818650922
 21
171.9967719844782
 31
0.0
 11
129.6542324204999
 21
172.0032703619
 31
0.0
 11
129.4840254332073
 21
172.0224417952195
 31
0.0
 11
129.3128560127
 21
172.0286861511
 31
0.0
  0
MTEXT
  5
EC
330
1F
100
AcDbEntity
  8
1
 62
     2
100
AcDbMText
 10
339.846549190872
 20
147.6028481013
 30
0.0
 40
4.0
 41
0.0
 71
     5
 72
     1
  1
View A
  7
CONVERTER_12
 73
     1
 44
1.0
  0
MTEXT
  5
ED
330
1F
100
AcDbEntity
  8
1
 62
     2
100
AcDbMText
 10
343.088246401716
 20
71.1085009834536
 30
0.0
 40
5.0
 41
0.0
 71
     5
 72
     1
  1
View A
  7
CONVERTER_12
 73
     1
 44
1.0
  0
DIMENSION
  5
F8
330
1F
100
AcDbEntity
  8
1
100
AcDbDimension
  2
*D2
 10
148.3128560127
 20
84.30284810129999
 30
0.0
 11
145.8128560127
 21
149.635038291133
 31
0.0
 70
    32
  1
ƒÆ126.6
 71
     5
 42
-1.0
 53
90.0
  3
ME10_DIM_10
100
AcDbAlignedDimension
 13
130.1396509319
 23
210.9028481013
 33
0.0
 14
129.7932407704
 24
84.3028481013
 34
0.0
 50
90.0
100
AcDbRotatedDimension
  0
DIMENSION
  5
103
330
1F
100
AcDbEntity
  8
1
100
AcDbDimension
  2
*D3
 10
154.3128560127
 20
212.1028050483
 30
0.0
 11
151.8128560127
 21
147.6028265748
 31
0.0
 70
    32
  1
ƒÆ129
 71
     5
 42
-1.0
 53
90.0
  3
ME10_DIM_11
100
AcDbAlignedDimension
 13
121.8128560127
 23
83.1028481013
 33
0.0
 14
121.8128560127
 24
212.1028050483
 34
0.0
 50
90.0
100
AcDbRotatedDimension
  0
DIMENSION
  5
10E
330
1F
100
AcDbEntity
  8
1
100
AcDbDimension
  2
*D4
 10
54.3128560127
 20
224.1028050483
 30
0.0
 11
88.0628560127
 21
226.6028050483
 31
0.0
 70
    32
  1
67.5
 71
     5
 42
-1.0
 53
0.00013888888889
  3
ME10_DIM_12
100
AcDbAlignedDimension
 13
121.8128560127
 23
212.1028050483
 33
0.0
 14
54.3128560127
 24
147.6028481013
 34
0.0
100
AcDbRotatedDimension
  0
DIMENSION
  5
119
330
1F
100
AcDbEntity
  8
1
100
AcDbDimension
  2
*D5
 10
120.8128560127
 20
218.1028050483
 30
0.0
 11
113.079799941729
 21
220.6028050483
 31
0.0
 70
    32
  1
1
 71
     5
 42
-1.0
 53
0.00013888888889
  3
ME10_DIM_13
100
AcDbAlignedDimension
 13
121.8128560127
 23
212.1028050483
 33
0.0
 14
120.8128560127
 24
211.6028481013
 34
0.0
100
AcDbRotatedDimension
  0
DIMENSION
  5
124
330
1F
100
AcDbEntity
  8
1
100
AcDbDimension
  2
*D6
 10
42.3128560127
 20
84.3163269223762
 30
0.0
 11
39.8128560127
 21
145.227914959205
 31
0.0
 70
    32
  1
(ƒÓ126.6
 71
     5
 42
-1.0
 53
90.0
  3
ME10_DIM_14
100
AcDbAlignedDimension
 13
120.812856012616
 23
210.889369280124
 33
0.0
 14
120.8128560127
 24
84.3163269223762
 34
0.0
 50
90.0
100
AcDbRotatedDimension
  0
DIMENSION
  5
12F
330
1F
100
AcDbEntity
  8
1
100
AcDbDimension
  2
*D7
 10
121.8128560127
 20
224.1028050483
 30
0.0
 11
126.0628560127
 21
226.6028050483
 31
0.0
 70
    32
  1
8.5
 71
     5
 42
-1.0
 53
0.00013888888889
  3
ME10_DIM_15
100
AcDbAlignedDimension
 13
130.3128560127
 23
210.8028481013
 33
0.0
 14
121.8128560127
 24
212.1028050483
 34
0.0
100
AcDbRotatedDimension
  0
DIMENSION
  5
13A
330
1F
100
AcDbEntity
  8
1
100
AcDbDimension
  2
*D8
 10
54.3128560127
 20
230.1028050483
 30
0.0
 11
92.3128560127
 21
232.6028050483
 31
0.0
 70
    32
  1
(76
 71
     5
 42
-1.0
 53
0.00013888888889
  3
ME10_DIM_16
100
AcDbAlignedDimension
 13
130.3128560127
 23
210.8028481013
 33
0.0
 14
54.3128560127
 24
147.6028481013
 34
0.0
100
AcDbRotatedDimension
  0
DIMENSION
  5
145
330
1F
100
AcDbEntity
  8
1
100
AcDbDimension
  2
*D9
 10
142.3128560127
 20
142.6028481013
 30
0.0
 11
139.8128560127
 21
151.6028481013
 31
0.0
 70
    32
  1
18
 71
     5
 42
-1.0
 53
90.0
  3
ME10_DIM_17
100
AcDbAlignedDimension
 13
130.3128560127
 23
160.6028481013
 33
0.0
 14
130.3128560127
 24
142.6028481013
 34
0.0
 50
90.0
100
AcDbRotatedDimension
  0
DIMENSION
  5
150
330
1F
100
AcDbEntity
  8
1
100
AcDbDimension
  2
*D10
 10
130.3128560127
 20
165.345029635655
 30
0.0
 11
136.3128560127
 21
167.845029635655
 31
0.0
 70
    32
  1
8
 71
     5
 42
-1.0
 53
0.00013888888889
  3
ME10_DIM_18
100
AcDbAlignedDimension
 13
122.3128560127
 23
158.6028481013
 33
0.0
 14
130.3128560127
 24
160.6028481013
 34
0.0
100
AcDbRotatedDimension
  0
DIMENSION
  5
15B
330
1F
100
AcDbEntity
  8
1
100
AcDbDimension
  2
*D11
 10
328.037493297844
 20
90.6413532484456
 30
0.0
 11
325.537493297844
 21
99.6413532484456
 31
0.0
 70
    32
  1
18
 71
     5
 42
-1.0
 53
90.0
  3
ME10_DIM_19
100
AcDbAlignedDimension
 13
337.261479163206
 23
108.641353248446
 33
0.0
 14
337.261479163206
 24
90.6413532484456
 34
0.0
 50
90.0
100
AcDbRotatedDimension
  0
DIMENSION
  5
166
330
1F
100
AcDbEntity
  8
1
100
AcDbDimension
  2
*D12
 10
337.2614791632058
 20
114.375251316015
 30
0.0
 11
332.330520868056
 21
116.875251316015
 31
0.0
 70
    32
  1
8
 71
     5
 42
-1.0
 53
0.00013888888889
  3
ME10_DIM_20
100
AcDbAlignedDimension
 13
345.261479163206
 23
106.641353248446
 33
0.0
 14
337.261479163206
 24
108.641353248446
 34
0.0
100
AcDbRotatedDimension
  0
ENDSEC
  0
SECTION
  2
OBJECTS
  0
DICTIONARY
  5
C
330
0
100
AcDbDictionary
281
     1
  3
ACAD_GROUP
350
D
  3
ACAD_LAYOUT
350
1A
  3
ACAD_MLINESTYLE
350
17
  3
ACAD_PLOTSETTINGS
350
19
  3
ACAD_PLOTSTYLENAME
350
E
  0
DICTIONARY
  5
D
102
{ACAD_REACTORS
330
C
102
}
330
C
100
AcDbDictionary
281
     1
  0
DICTIONARY
  5
1A
102
{ACAD_REACTORS
330
C
102
}
330
C
100
AcDbDictionary
281
     1
  3
Layout1
350
1E
  3
Layout2
350
26
  3
Model
350
22
  0
DICTIONARY
  5
17
102
{ACAD_REACTORS
330
C
102
}
330
C
100
AcDbDictionary
281
     1
  3
Standard
350
18
  0
DICTIONARY
  5
19
102
{ACAD_REACTORS
330
C
102
}
330
C
100
AcDbDictionary
281
     1
  0
ACDBDICTIONARYWDFLT
  5
E
102
{ACAD_REACTORS
330
C
102
}
330
C
100
AcDbDictionary
281
     1
  3
Normal
350
F
100
AcDbDictionaryWithDefault
340
F
  0
LAYOUT
  5
1E
102
{ACAD_REACTORS
330
1A
102
}
330
1A
100
AcDbPlotSettings
  1

  2

  4

  6

 40
0.0
 41
0.0
 42
0.0
 43
0.0
 44
0.0
 45
0.0
 46
0.0
 47
0.0
 48
0.0
 49
0.0
140
0.0
141
0.0
142
1.0
143
1.0
 70
   688
 72
     0
 73
     0
 74
     5
  7

 75
    16
147
1.0
148
0.0
149
0.0
100
AcDbLayout
  1
Layout1
 70
     1
 71
     1
 10
0.0
 20
0.0
 11
0.0
 21
0.0
 12
0.0
 22
0.0
 32
0.0
 14
0.0
 24
0.0
 34
0.0
 15
0.0
 25
0.0
 35
0.0
146
0.0
 13
0.0
 23
0.0
 33
0.0
 16
1.0
 26
0.0
 36
0.0
 17
0.0
 27
1.0
 37
0.0
 76
     0
330
1B
  0
LAYOUT
  5
26
102
{ACAD_REACTORS
330
1A
102
}
330
1A
100
AcDbPlotSettings
  1

  2

  4

  6

 40
0.0
 41
0.0
 42
0.0
 43
0.0
 44
0.0
 45
0.0
 46
0.0
 47
0.0
 48
0.0
 49
0.0
140
0.0
141
0.0
142
1.0
143
1.0
 70
   688
 72
     0
 73
     0
 74
     5
  7

 75
    16
147
1.0
148
0.0
149
0.0
100
AcDbLayout
  1
Layout2
 70
     1
 71
     2
 10
0.0
 20
0.0
 11
0.0
 21
0.0
 12
0.0
 22
0.0
 32
0.0
 14
0.0
 24
0.0
 34
0.0
 15
0.0
 25
0.0
 35
0.0
146
0.0
 13
0.0
 23
0.0
 33
0.0
 16
1.0
 26
0.0
 36
0.0
 17
0.0
 27
1.0
 37
0.0
 76
     0
330
23
  0
LAYOUT
  5
22
102
{ACAD_REACTORS
330
1A
102
}
330
1A
100
AcDbPlotSettings
  1

  2

  4

  6

 40
0.0
 41
0.0
 42
0.0
 43
0.0
 44
0.0
 45
0.0
 46
0.0
 47
0.0
 48
0.0
 49
0.0
140
0.0
141
0.0
142
1.0
143
1.0
 70
  1712
 72
     0
 73
     0
 74
     0
  7

 75
     0
147
1.0
148
0.0
149
0.0
100
AcDbLayout
  1
Model
 70
     1
 71
     0
 10
0.0
 20
0.0
 11
0.0
 21
0.0
 12
0.0
 22
0.0
 32
0.0
 14
38.3128560127
 24
67.8094755860548
 34
0.0
 15
355.474358102818
 25
234.1028136353155
 35
0.0
146
0.0
 13
0.0
 23
0.0
 33
0.0
 16
1.0
 26
0.0
 36
0.0
 17
0.0
 27
1.0
 37
0.0
 76
     0
330
1F
  0
MLINESTYLE
  5
18
102
{ACAD_REACTORS
330
17
102
}
330
17
100
AcDbMlineStyle
  2
Standard
 70
     0
  3

 62
   256
 51
90.0
 52
90.0
 71
     2
 49
0.5
 62
   256
  6
BYLAYER
 49
-0.5
 62
   256
  6
BYLAYER
  0
ACDBPLACEHOLDER
  5
F
102
{ACAD_REACTORS
330
E
102
}
330
E
  0
ENDSEC
  0
EOF
