  0
SECTION
  2
HEADER
  9
$ACADVER
  1
AC1015
  9
$ACADMAINTVER
 70
     6
  9
$DWGCODEPAGE
  3
ANSI_1252
  9
$INSBASE
 10
0.0
 20
0.0
 30
0.0
  9
$EXTMIN
 10
54.427388471355
 20
66.1725635634138
 30
0.0
  9
$EXTMAX
 10
371.588890561473
 20
232.4659016126745
 30
0.0
  9
$LIMMIN
 10
0.0
 20
0.0
  9
$LIMMAX
 10
12.0
 20
9.0
  9
$ORTHOMODE
 70
     0
  9
$REGENMODE
 70
     1
  9
$FILLMODE
 70
     1
  9
$QTEXTMODE
 70
     0
  9
$MIRRTEXT
 70
     1
  9
$LTSCALE
 40
1.0
  9
$ATTMODE
 70
     1
  9
$TEXTSIZE
 40
0.2
  9
$TRACEWID
 40
0.05
  9
$TEXTSTYLE
  7
Standard
  9
$CLAYER
  8
0
  9
$CELTYPE
  6
ByLayer
  9
$CECOLOR
 62
   256
  9
$CELTSCALE
 40
1.0
  9
$DISPSILH
 70
     0
  9
$DIMSCALE
 40
1.0
  9
$DIMASZ
 40
0.18
  9
$DIMEXO
 40
0.0625
  9
$DIMDLI
 40
0.38
  9
$DIMRND
 40
0.0
  9
$DIMDLE
 40
0.0
  9
$DIMEXE
 40
0.18
  9
$DIMTP
 40
0.0
  9
$DIMTM
 40
0.0
  9
$DIMTXT
 40
0.18
  9
$DIMCEN
 40
0.09
  9
$DIMTSZ
 40
0.0
  9
$DIMTOL
 70
     0
  9
$DIMLIM
 70
     0
  9
$DIMTIH
 70
     1
  9
$DIMTOH
 70
     1
  9
$DIMSE1
 70
     0
  9
$DIMSE2
 70
     0
  9
$DIMTAD
 70
     0
  9
$DIMZIN
 70
     0
  9
$DIMBLK
  1

  9
$DIMASO
 70
     1
  9
$DIMSHO
 70
     1
  9
$DIMPOST
  1

  9
$DIMAPOST
  1

  9
$DIMALT
 70
     0
  9
$DIMALTD
 70
     2
  9
$DIMALTF
 40
25.4
  9
$DIMLFAC
 40
1.0
  9
$DIMTOFL
 70
     0
  9
$DIMTVP
 40
0.0
  9
$DIMTIX
 70
     0
  9
$DIMSOXD
 70
     0
  9
$DIMSAH
 70
     0
  9
$DIMBLK1
  1

  9
$DIMBLK2
  1

  9
$DIMSTYLE
  2
Standard
  9
$DIMCLRD
 70
     0
  9
$DIMCLRE
 70
     0
  9
$DIMCLRT
 70
     0
  9
$DIMTFAC
 40
1.0
  9
$DIMGAP
 40
0.09
  9
$DIMJUST
 70
     0
  9
$DIMSD1
 70
     0
  9
$DIMSD2
 70
     0
  9
$DIMTOLJ
 70
     1
  9
$DIMTZIN
 70
     0
  9
$DIMALTZ
 70
     0
  9
$DIMALTTZ
 70
     0
  9
$DIMUPT
 70
     0
  9
$DIMDEC
 70
     4
  9
$DIMTDEC
 70
     4
  9
$DIMALTU
 70
     2
  9
$DIMALTTD
 70
     2
  9
$DIMTXSTY
  7
Standard
  9
$DIMAUNIT
 70
     0
  9
$DIMADEC
 70
     0
  9
$DIMALTRND
 40
0.0
  9
$DIMAZIN
 70
     0
  9
$DIMDSEP
 70
    46
  9
$DIMATFIT
 70
     3
  9
$DIMFRAC
 70
     0
  9
$DIMLDRBLK
  1

  9
$DIMLUNIT
 70
     2
  9
$DIMLWD
 70
    -2
  9
$DIMLWE
 70
    -2
  9
$DIMTMOVE
 70
     0
  9
$LUNITS
 70
     2
  9
$LUPREC
 70
     4
  9
$SKETCHINC
 40
0.1
  9
$FILLETRAD
 40
0.5
  9
$AUNITS
 70
     0
  9
$AUPREC
 70
     0
  9
$MENU
  1
.
  9
$ELEVATION
 40
0.0
  9
$PELEVATION
 40
0.0
  9
$THICKNESS
 40
0.0
  9
$LIMCHECK
 70
     0
  9
$CHAMFERA
 40
0.5
  9
$CHAMFERB
 40
0.5
  9
$CHAMFERC
 40
1.0
  9
$CHAMFERD
 40
0.0
  9
$SKPOLY
 70
     0
  9
$TDCREATE
 40
2456267.704671725
  9
$TDUCREATE
 40
2456267.329671725
  9
$TDUPDATE
 40
2456267.704671736
  9
$TDUUPDATE
 40
2456267.329671736
  9
$TDINDWG
 40
0.0000000116
  9
$TDUSRTIMER
 40
0.0000000116
  9
$USRTIMER
 70
     1
  9
$ANGBASE
 50
0.0
  9
$ANGDIR
 70
     0
  9
$PDMODE
 70
     0
  9
$PDSIZE
 40
0.0
  9
$PLINEWID
 40
0.0
  9
$SPLFRAME
 70
     0
  9
$SPLINETYPE
 70
     6
  9
$SPLINESEGS
 70
     8
  9
$HANDSEED
  5
14D
  9
$SURFTAB1
 70
     6
  9
$SURFTAB2
 70
     6
  9
$SURFTYPE
 70
     6
  9
$SURFU
 70
     6
  9
$SURFV
 70
     6
  9
$UCSBASE
  2

  9
$UCSNAME
  2

  9
$UCSORG
 10
0.0
 20
0.0
 30
0.0
  9
$UCSXDIR
 10
1.0
 20
0.0
 30
0.0
  9
$UCSYDIR
 10
0.0
 20
1.0
 30
0.0
  9
$UCSORTHOREF
  2

  9
$UCSORTHOVIEW
 70
     0
  9
$UCSORGTOP
 10
0.0
 20
0.0
 30
0.0
  9
$UCSORGBOTTOM
 10
0.0
 20
0.0
 30
0.0
  9
$UCSORGLEFT
 10
0.0
 20
0.0
 30
0.0
  9
$UCSORGRIGHT
 10
0.0
 20
0.0
 30
0.0
  9
$UCSORGFRONT
 10
0.0
 20
0.0
 30
0.0
  9
$UCSORGBACK
 10
0.0
 20
0.0
 30
0.0
  9
$PUCSBASE
  2

  9
$PUCSNAME
  2

  9
$PUCSORG
 10
0.0
 20
0.0
 30
0.0
  9
$PUCSXDIR
 10
1.0
 20
0.0
 30
0.0
  9
$PUCSYDIR
 10
0.0
 20
1.0
 30
0.0
  9
$PUCSORTHOREF
  2

  9
$PUCSORTHOVIEW
 70
     0
  9
$PUCSORGTOP
 10
0.0
 20
0.0
 30
0.0
  9
$PUCSORGBOTTOM
 10
0.0
 20
0.0
 30
0.0
  9
$PUCSORGLEFT
 10
0.0
 20
0.0
 30
0.0
  9
$PUCSORGRIGHT
 10
0.0
 20
0.0
 30
0.0
  9
$PUCSORGFRONT
 10
0.0
 20
0.0
 30
0.0
  9
$PUCSORGBACK
 10
0.0
 20
0.0
 30
0.0
  9
$USERI1
 70
     0
  9
$USERI2
 70
     0
  9
$USERI3
 70
     0
  9
$USERI4
 70
     0
  9
$USERI5
 70
     0
  9
$USERR1
 40
14.5
  9
$USERR2
 40
0.0
  9
$USERR3
 40
0.0
  9
$USERR4
 40
0.0
  9
$USERR5
 40
0.0
  9
$WORLDVIEW
 70
     1
  9
$SHADEDGE
 70
     3
  9
$SHADEDIF
 70
    70
  9
$TILEMODE
 70
     1
  9
$MAXACTVP
 70
    64
  9
$PINSBASE
 10
0.0
 20
0.0
 30
0.0
  9
$PLIMCHECK
 70
     0
  9
$PEXTMIN
 10
1.00000000000000E+20
 20
1.00000000000000E+20
 30
1.00000000000000E+20
  9
$PEXTMAX
 10
-1.00000000000000E+20
 20
-1.00000000000000E+20
 30
-1.00000000000000E+20
  9
$PLIMMIN
 10
0.0
 20
0.0
  9
$PLIMMAX
 10
12.0
 20
9.0
  9
$UNITMODE
 70
     0
  9
$VISRETAIN
 70
     1
  9
$PLINEGEN
 70
     0
  9
$PSLTSCALE
 70
     1
  9
$TREEDEPTH
 70
  3020
  9
$CMLSTYLE
  2
Standard
  9
$CMLJUST
 70
     0
  9
$CMLSCALE
 40
1.0
  9
$PROXYGRAPHICS
 70
     1
  9
$MEASUREMENT
 70
     1
  9
$CELWEIGHT
370
    -1
  9
$ENDCAPS
280
     0
  9
$JOINSTYLE
280
     0
  9
$LWDISPLAY
290
     0
  9
$INSUNITS
 70
     1
  9
$HYPERLINKBASE
  1

  9
$STYLESHEET
  1

  9
$XEDIT
290
     1
  9
$CEPSNTYPE
380
     0
  9
$PSTYLEMODE
290
     1
  9
$FINGERPRINTGUID
  2
{0784E290-7E8D-48EA-A0A9-42C550AC4EA4}
  9
$VERSIONGUID
  2
{FAEB1C32-E019-11D5-929B-00C0DF256EC4}
  9
$EXTNAMES
290
     1
  9
$PSVPSCALE
 40
0.0
  9
$OLESTARTUP
290
     0
  0
ENDSEC
  0
SECTION
  2
CLASSES
  0
CLASS
  1
ACDBDICTIONARYWDFLT
  2
AcDbDictionaryWithDefault
  3
ObjectDBX Classes
 90
        0
280
     0
281
     0
  0
CLASS
  1

  2
exOdDbCircle
  3

 90
        0
280
     0
281
     1
  0
CLASS
  1

  2
exOdDbSpline
  3

 90
        0
280
     0
281
     1
  0
CLASS
  1
ACDBPLACEHOLDER
  2
AcDbPlaceHolder
  3
ObjectDBX Classes
 90
        0
280
     0
281
     0
  0
CLASS
  1
LAYOUT
  2
AcDbLayout
  3
ObjectDBX Classes
 90
        0
280
     0
281
     0
  0
ENDSEC
  0
SECTION
  2
TABLES
  0
TABLE
  2
VPORT
  5
8
330
0
100
AcDbSymbolTable
 70
     1
  0
VPORT
  5
29
330
8
100
AcDbSymbolTableRecord
100
AcDbViewportTableRecord
  2
*Active
 70
     0
 10
0.0
 20
0.0
 11
1.0
 21
1.0
 12
213.008139516414
 22
149.3192325880441
 13
0.0
 23
0.0
 14
0.5
 24
0.5
 15
0.5
 25
0.5
 16
0.0
 26
0.0
 36
1.0
 17
0.0
 27
0.0
 37
0.0
 40
217.6841061699307
 41
1.60267857142857
 42
50.0
 43
0.0
 44
0.0
 50
0.0
 51
0.0
 71
     0
 72
   100
 73
     1
 74
     3
 75
     0
 76
     0
 77
     0
 78
     0
281
     0
 65
     1
110
0.0
120
0.0
130
0.0
111
1.0
121
0.0
131
0.0
112
0.0
122
1.0
132
0.0
 79
     0
146
0.0
  0
ENDTAB
  0
TABLE
  2
LTYPE
  5
5
330
0
100
AcDbSymbolTable
 70
     8
  0
LTYPE
  5
14
330
5
100
AcDbSymbolTableRecord
100
AcDbLinetypeTableRecord
  2
ByBlock
 70
     0
  3

 72
    65
 73
     0
 40
0.0
  0
LTYPE
  5
15
330
5
100
AcDbSymbolTableRecord
100
AcDbLinetypeTableRecord
  2
ByLayer
 70
     0
  3

 72
    65
 73
     0
 40
0.0
  0
LTYPE
  5
16
330
5
100
AcDbSymbolTableRecord
100
AcDbLinetypeTableRecord
  2
Continuous
 70
     0
  3
Solid line
 72
    65
 73
     0
 40
0.0
  0
LTYPE
  5
2A
330
5
100
AcDbSymbolTableRecord
100
AcDbLinetypeTableRecord
  2
DASHED
 70
     0
  3
Dashed
 72
    65
 73
     2
 40
15.0
 49
7.0
 74
     0
 49
-8.0
 74
     0
  0
LTYPE
  5
2B
330
5
100
AcDbSymbolTableRecord
100
AcDbLinetypeTableRecord
  2
DOTTED
 70
     0
  3
Dotted
 72
    65
 73
     2
 40
1.0
 49
0.0
 74
     0
 49
-1.0
 74
     0
  0
LTYPE
  5
2C
330
5
100
AcDbSymbolTableRecord
100
AcDbLinetypeTableRecord
  2
DOT_CENTER
 70
     0
  3
Dot_Center
 72
    65
 73
     4
 40
14.0
 49
12.0
 74
     0
 49
-1.0
 74
     0
 49
0.0
 74
     0
 49
-1.0
 74
     0
  0
LTYPE
  5
2D
330
5
100
AcDbSymbolTableRecord
100
AcDbLinetypeTableRecord
  2
LONG_DASHED
 70
     0
  3
Long_Dashed
 72
    65
 73
     2
 40
15.0
 49
10.0
 74
     0
 49
-5.0
 74
     0
  0
LTYPE
  5
2E
330
5
100
AcDbSymbolTableRecord
100
AcDbLinetypeTableRecord
  2
DASH_CENTER
 70
     0
  3
Dash_Center
 72
    65
 73
     4
 40
14.0
 49
11.0
 74
     0
 49
-1.0
 74
     0
 49
1.0
 74
     0
 49
-1.0
 74
     0
  0
LTYPE
  5
2F
330
5
100
AcDbSymbolTableRecord
100
AcDbLinetypeTableRecord
  2
PHANTOM
 70
     0
  3
Phantom
 72
    65
 73
     6
 40
13.0
 49
10.0
 74
     0
 49
-1.0
 74
     0
 49
0.0
 74
     0
 49
-1.0
 74
     0
 49
0.0
 74
     0
 49
-1.0
 74
     0
  0
LTYPE
  5
30
330
5
100
AcDbSymbolTableRecord
100
AcDbLinetypeTableRecord
  2
CENTER_DASH_DASH
 70
     0
  3
Center_Dash_Dash
 72
    65
 73
     6
 40
14.0
 49
9.0
 74
     0
 49
-1.0
 74
     0
 49
1.0
 74
     0
 49
-1.0
 74
     0
 49
1.0
 74
     0
 49
-1.0
 74
     0
  0
ENDTAB
  0
TABLE
  2
LAYER
  5
2
330
0
100
AcDbSymbolTable
 70
     3
  0
LAYER
  5
10
330
2
100
AcDbSymbolTableRecord
100
AcDbLayerTableRecord
  2
0
 70
     0
 62
     7
  6
Continuous
370
    -3
390
F
  0
LAYER
  5
31
330
2
100
AcDbSymbolTableRecord
100
AcDbLayerTableRecord
  2
05___PRT_ALL_DTM_CSYS
 70
     0
 62
     7
  6
Continuous
370
    -3
390
F
  0
LAYER
  5
32
330
2
100
AcDbSymbolTableRecord
100
AcDbLayerTableRecord
  2
1
 70
     0
 62
     7
  6
Continuous
370
    -3
390
F
  0
ENDTAB
  0
TABLE
  2
STYLE
  5
3
330
0
100
AcDbSymbolTable
 70
     3
  0
STYLE
  5
11
330
3
100
AcDbSymbolTableRecord
100
AcDbTextStyleTableRecord
  2
Standard
 70
     0
 40
0.0
 41
1.0
 50
0.0
 71
     0
 42
0.2
  3
txt
  4

  0
STYLE
  5
3C
330
3
100
AcDbSymbolTableRecord
100
AcDbTextStyleTableRecord
  2
CONVERTER_11
 70
     0
 40
0.0
 41
0.72
 50
0.0
 71
     0
 42
0.2
  3
txt.shx
  4

  0
STYLE
  5
E7
330
3
100
AcDbSymbolTableRecord
100
AcDbTextStyleTableRecord
  2
CONVERTER_12
 70
     0
 40
0.0
 41
0.63
 50
0.0
 71
     0
 42
0.2
  3
txt.shx
  4

  0
ENDTAB
  0
TABLE
  2
VIEW
  5
6
330
0
100
AcDbSymbolTable
 70
     0
  0
ENDTAB
  0
TABLE
  2
UCS
  5
7
330
0
100
AcDbSymbolTable
 70
     0
  0
ENDTAB
  0
TABLE
  2
APPID
  5
9
330
0
100
AcDbSymbolTable
 70
     1
  0
APPID
  5
12
330
9
100
AcDbSymbolTableRecord
100
AcDbRegAppTableRecord
  2
ACAD
 70
     0
  0
ENDTAB
  0
TABLE
  2
DIMSTYLE
  5
A
330
0
100
AcDbSymbolTable
 70
    10
100
AcDbDimStyleTable
  0
DIMSTYLE
105
27
330
A
100
AcDbSymbolTableRecord
100
AcDbDimStyleTableRecord
  2
Standard
 70
     0
340
11
  0
DIMSTYLE
105
F3
102
{ACAD_REACTORS
330
F4
102
}
330
A
100
AcDbSymbolTableRecord
100
AcDbDimStyleTableRecord
  2
ME10_DIM_10
 70
     0
 41
2.5
 42
0.5
 44
0.8
 73
     0
 74
     0
 77
     1
 78
    12
140
3.0
147
1.0
172
     1
173
     1
176
     2
177
     2
178
     2
271
     3
340
3C
  0
DIMSTYLE
105
FE
102
{ACAD_REACTORS
330
FF
102
}
330
A
100
AcDbSymbolTableRecord
100
AcDbDimStyleTableRecord
  2
ME10_DIM_11
 70
     0
 41
2.5
 42
0.5
 44
0.8
 73
     0
 74
     0
 77
     1
 78
    12
140
3.0
147
1.0
172
     1
173
     1
176
     2
177
     2
178
     2
271
     3
340
3C
  0
DIMSTYLE
105
109
102
{ACAD_REACTORS
330
10A
102
}
330
A
100
AcDbSymbolTableRecord
100
AcDbDimStyleTableRecord
  2
ME10_DIM_12
 70
     0
  3
(<>)
 41
2.5
 42
0.5
 44
0.8
 73
     0
 74
     0
 77
     1
 78
    12
140
3.0
147
1.0
172
     1
173
     1
176
     2
177
     2
178
     2
271
     3
340
3C
  0
DIMSTYLE
105
114
102
{ACAD_REACTORS
330
115
102
}
330
A
100
AcDbSymbolTableRecord
100
AcDbDimStyleTableRecord
  2
ME10_DIM_13
 70
     0
 41
2.5
 42
0.5
 44
0.8
 73
     0
 74
     0
 77
     1
 78
    12
140
3.0
147
1.0
172
     1
173
     1
176
     2
177
     2
178
     2
271
     3
340
3C
  0
DIMSTYLE
105
11F
102
{ACAD_REACTORS
330
120
102
}
330
A
100
AcDbSymbolTableRecord
100
AcDbDimStyleTableRecord
  2
ME10_DIM_14
 70
     0
 41
2.5
 42
0.5
 44
0.8
 73
     0
 74
     0
 77
     1
 78
    12
140
3.0
147
1.0
172
     1
173
     1
176
     2
177
     2
178
     2
271
     3
340
3C
  0
DIMSTYLE
105
12A
102
{ACAD_REACTORS
330
12B
102
}
330
A
100
AcDbSymbolTableRecord
100
AcDbDimStyleTableRecord
  2
ME10_DIM_15
 70
     0
 41
2.5
 42
0.5
 44
0.8
 73
     0
 74
     0
 77
     1
 78
    12
140
3.0
147
1.0
172
     1
173
     1
176
     2
177
     2
178
     2
271
     3
340
3C
  0
DIMSTYLE
105
135
102
{ACAD_REACTORS
330
136
102
}
330
A
100
AcDbSymbolTableRecord
100
AcDbDimStyleTableRecord
  2
ME10_DIM_16
 70
     0
 41
2.5
 42
0.5
 44
0.8
 73
     0
 74
     0
 77
     1
 78
    12
140
3.0
147
1.0
172
     1
173
     1
176
     2
177
     2
178
     2
271
     3
340
3C
  0
DIMSTYLE
105
140
102
{ACAD_REACTORS
330
141
102
}
330
A
100
AcDbSymbolTableRecord
100
AcDbDimStyleTableRecord
  2
ME10_DIM_17
 70
     0
  3
ƒÆ<>
 41
2.5
 42
0.5
 44
0.8
 73
     0
 74
     0
 77
     1
 78
    12
140
3.0
147
1.0
172
     1
173
     1
176
     2
177
     2
178
     2
271
     3
340
3C
  0
DIMSTYLE
105
14B
102
{ACAD_REACTORS
330
14C
102
}
330
A
100
AcDbSymbolTableRecord
100
AcDbDimStyleTableRecord
  2
ME10_DIM_18
 70
     0
  3
ƒÆ<>
 41
2.5
 42
0.5
 44
0.8
 73
     0
 74
     0
 77
     1
 78
    12
140
3.0
147
1.0
172
     1
173
     1
176
     2
177
     2
178
     2
271
     3
340
3C
  0
ENDTAB
  0
TABLE
  2
BLOCK_RECORD
  5
1
330
0
100
AcDbSymbolTable
 70
    11
  0
BLOCK_RECORD
  5
1F
330
1
100
AcDbSymbolTableRecord
100
AcDbBlockTableRecord
  2
*Model_Space
340
22
  0
BLOCK_RECORD
  5
1B
330
1
100
AcDbSymbolTableRecord
100
AcDbBlockTableRecord
  2
*Paper_Space
340
1E
  0
BLOCK_RECORD
  5
23
330
1
100
AcDbSymbolTableRecord
100
AcDbBlockTableRecord
  2
*Paper_Space0
340
26
  0
BLOCK_RECORD
  5
33
330
1
100
AcDbSymbolTableRecord
100
AcDbBlockTableRecord
  2
_D11
340
0
102
{BLKREFS
331
36
102
}
  0
BLOCK_RECORD
  5
EA
330
1
100
AcDbSymbolTableRecord
100
AcDbBlockTableRecord
  2
*D2
340
0
  0
BLOCK_RECORD
  5
F5
330
1
100
AcDbSymbolTableRecord
100
AcDbBlockTableRecord
  2
*D3
340
0
  0
BLOCK_RECORD
  5
100
330
1
100
AcDbSymbolTableRecord
100
AcDbBlockTableRecord
  2
*D4
340
0
  0
BLOCK_RECORD
  5
10B
330
1
100
AcDbSymbolTableRecord
100
AcDbBlockTableRecord
  2
*D5
340
0
  0
BLOCK_RECORD
  5
116
330
1
100
AcDbSymbolTableRecord
100
AcDbBlockTableRecord
  2
*D6
340
0
  0
BLOCK_RECORD
  5
121
330
1
100
AcDbSymbolTableRecord
100
AcDbBlockTableRecord
  2
*D7
340
0
  0
BLOCK_RECORD
  5
12C
330
1
100
AcDbSymbolTableRecord
100
AcDbBlockTableRecord
  2
*D8
340
0
  0
BLOCK_RECORD
  5
137
330
1
100
AcDbSymbolTableRecord
100
AcDbBlockTableRecord
  2
*D9
340
0
  0
BLOCK_RECORD
  5
142
330
1
100
AcDbSymbolTableRecord
100
AcDbBlockTableRecord
  2
*D10
340
0
  0
ENDTAB
  0
ENDSEC
  0
SECTION
  2
BLOCKS
  0
BLOCK
  5
20
330
1F
100
AcDbEntity
  8
0
100
AcDbBlockBegin
  2
*Model_Space
 70
     0
 71
     0
 10
0.0
 20
0.0
 30
0.0
  3
*Model_Space
  1

  0
ENDBLK
  5
21
330
1F
100
AcDbEntity
  8
0
100
AcDbBlockEnd
  0
BLOCK
  5
1C
330
1B
100
AcDbEntity
 67
     1
  8
0
100
AcDbBlockBegin
  2
*Paper_Space
 70
     0
 71
     0
 10
0.0
 20
0.0
 30
0.0
  3
*Paper_Space
  1

  0
ENDBLK
  5
1D
330
1B
100
AcDbEntity
 67
     1
  8
0
100
AcDbBlockEnd
  0
BLOCK
  5
24
330
23
100
AcDbEntity
  8
0
100
AcDbBlockBegin
  2
*Paper_Space0
 70
     0
 71
     0
 10
0.0
 20
0.0
 30
0.0
  3
*Paper_Space0
  1

  0
ENDBLK
  5
25
330
23
100
AcDbEntity
  8
0
100
AcDbBlockEnd
  0
BLOCK
  5
34
330
33
100
AcDbEntity
  8
0
100
AcDbBlockBegin
  2
_D11
 70
     0
 71
     0
 10
0.0
 20
0.0
 30
0.0
  3
_D11
  1

  0
LINE
  5
37
330
33
100
AcDbEntity
  8
1
  6
Continuous
 62
     2
100
AcDbLine
 10
72.244631313294
 20
110.327067701438
 30
0.0
 11
60.024631313294
 21
110.327067701438
 31
0.0
  0
LINE
  5
38
330
33
100
AcDbEntity
  8
1
  6
Continuous
 62
     2
100
AcDbLine
 10
79.0344402739166
 20
114.314709647631
 30
0.0
 11
72.244631313294
 21
110.327067701438
 31
0.0
  0
LINE
  5
39
102
{ACAD_REACTORS
330
3E
330
3E
102
}
330
33
100
AcDbEntity
  8
1
  6
Continuous
 62
     2
100
AcDbLine
 10
76.7120438255651
 20
113.332466239691
 30
0.0
 11
77.0454008664731
 21
112.764854941088
 31
0.0
  0
LINE
  5
3A
102
{ACAD_REACTORS
330
3E
330
3E
102
}
330
33
100
AcDbEntity
  8
1
  6
Continuous
 62
     2
100
AcDbLine
 10
77.0454008664731
 20
112.764854941088
 30
0.0
 11
79.0344402739166
 21
114.314709647631
 31
0.0
  0
LINE
  5
3B
102
{ACAD_REACTORS
330
3E
330
3E
102
}
330
33
100
AcDbEntity
  8
1
  6
Continuous
 62
     2
100
AcDbLine
 10
79.0344402739166
 20
114.314709647631
 30
0.0
 11
76.7120438255651
 21
113.332466239691
 31
0.0
  0
MTEXT
  5
3D
330
33
100
AcDbEntity
  8
1
 62
     2
100
AcDbMText
 10
58.2846313133085
 20
111.327055775021
 30
0.0
 40
3.0
 41
0.0
 71
     7
 72
     1
  1
{\Fgdt;n}125
  7
CONVERTER_11
 11
0.999999999997062
 21
2.424068405545310E-6
 31
0.0
 73
     1
 44
1.0
  0
HATCH
  5
3E
330
33
100
AcDbEntity
  8
1
  6
Continuous
 62
     2
100
AcDbHatch
 10
0.0
 20
0.0
 30
0.0
210
0.0
220
0.0
230
1.0
  2
SOLID
 70
     1
 71
     1
 91
        1
 92
        1
 93
        3
 72
     1
 10
76.7120438255651
 20
113.332466239691
 11
77.0454008664731
 21
112.764854941088
 72
     1
 10
77.0454008664731
 20
112.764854941088
 11
79.0344402739166
 21
114.314709647631
 72
     1
 10
79.0344402739166
 20
114.314709647631
 11
76.7120438255651
 21
113.332466239691
 97
        3
330
39
330
3A
330
3B
 75
     0
 76
     1
 98
        1
 10
0.0
 20
0.0
  0
ENDBLK
  5
35
330
33
100
AcDbEntity
  8
0
100
AcDbBlockEnd
  0
BLOCK
  5
F1
330
EA
100
AcDbEntity
  8
0
100
AcDbBlockBegin
  2
*D2
 70
     1
 71
     0
 10
0.0
 20
0.0
 30
0.0
  3
*D2
  1

  0
LINE
  5
EB
330
EA
100
AcDbEntity
  8
1
  6
Continuous
 62
     2
100
AcDbLine
 10
361.3760116218608
 20
112.738339293374
 30
0.0
 11
347.559449690611
 21
112.738339293374
 31
0.0
  0
LINE
  5
EC
330
EA
100
AcDbEntity
  8
1
  6
Continuous
 62
     2
100
AcDbLine
 10
353.3760116218608
 20
107.5044412258046
 30
0.0
 11
353.3760116218608
 21
113.538339293374
 31
0.0
  0
LINE
  5
ED
330
EA
100
AcDbEntity
  8
1
  6
Continuous
 62
     2
100
AcDbLine
 10
361.3760116218608
 20
105.5044412258046
 30
0.0
 11
361.3760116218608
 21
113.538339293374
 31
0.0
  0
SOLID
  5
EE
330
EA
100
AcDbEntity
  8
1
 62
     2
100
AcDbTrace
 10
355.8760116218608
 20
113.0674705373425
 30
0.0
 11
355.8760116218608
 21
112.4092080494055
 31
0.0
 12
353.3760116218608
 22
112.738339293374
 32
0.0
 13
353.3760116218608
 23
112.738339293374
 33
0.0
  0
SOLID
  5
EF
330
EA
100
AcDbEntity
  8
1
 62
     2
100
AcDbTrace
 10
358.8760116218608
 20
112.4092080494055
 30
0.0
 11
358.8760116218608
 21
113.0674705373425
 31
0.0
 12
361.3760116218608
 22
112.738339293374
 32
0.0
 13
361.3760116218608
 23
112.738339293374
 33
0.0
  0
MTEXT
  5
F0
330
EA
100
AcDbEntity
  8
1
 62
     2
100
AcDbMText
 10
347.5594569628162
 20
113.7383371466234
 30
0.0
 40
3.0
 41
0.0
 71
     7
 72
     1
  1
8
  7
CONVERTER_11
 11
0.999999999988248
 21
4.848136811095759E-6
 31
0.0
 73
     1
 44
0.60024009603842
  0
ENDBLK
  5
F2
330
EA
100
AcDbEntity
  8
0
100
AcDbBlockEnd
  0
BLOCK
  5
FC
330
F5
100
AcDbEntity
  8
0
100
AcDbBlockBegin
  2
*D3
 70
     1
 71
     0
 10
0.0
 20
0.0
 30
0.0
  3
*D3
  1

  0
LINE
  5
F6
330
F5
100
AcDbEntity
  8
1
  6
Continuous
 62
     2
100
AcDbLine
 10
344.152025756499
 20
107.0044412258046
 30
0.0
 11
344.152025756499
 21
89.0044412258046
 31
0.0
  0
LINE
  5
F7
330
F5
100
AcDbEntity
  8
1
  6
Continuous
 62
     2
100
AcDbLine
 10
352.8760116218608
 20
89.0044412258046
 30
0.0
 11
343.352025756499
 21
89.0044412258046
 31
0.0
  0
LINE
  5
F8
330
F5
100
AcDbEntity
  8
1
  6
Continuous
 62
     2
100
AcDbLine
 10
352.8760116218608
 20
107.0044412258046
 30
0.0
 11
343.352025756499
 21
107.0044412258046
 31
0.0
  0
SOLID
  5
F9
330
F5
100
AcDbEntity
  8
1
 62
     2
100
AcDbTrace
 10
343.8228945125305
 20
91.5044412258046
 30
0.0
 11
344.4811570004675
 21
91.5044412258046
 31
0.0
 12
344.152025756499
 22
89.0044412258046
 32
0.0
 13
344.152025756499
 23
89.0044412258046
 33
0.0
  0
SOLID
  5
FA
330
F5
100
AcDbEntity
  8
1
 62
     2
100
AcDbTrace
 10
344.4811570004675
 20
104.5044412258046
 30
0.0
 11
343.8228945125305
 21
104.5044412258046
 31
0.0
 12
344.152025756499
 22
107.0044412258046
 32
0.0
 13
344.152025756499
 23
107.0044412258046
 33
0.0
  0
MTEXT
  5
FB
330
F5
100
AcDbEntity
  8
1
 62
     2
100
AcDbMText
 10
343.152025756499
 20
96.2332412258046
 30
0.0
 40
3.0
 41
0.0
 71
     7
 72
     1
  1
18
  7
CONVERTER_11
 11
0.0
 21
1.0
 31
0.0
 73
     1
 44
0.60024009603842
  0
ENDBLK
  5
FD
330
F5
100
AcDbEntity
  8
0
100
AcDbBlockEnd
  0
BLOCK
  5
107
330
100
100
AcDbEntity
  8
0
100
AcDbBlockBegin
  2
*D4
 70
     1
 71
     0
 10
0.0
 20
0.0
 30
0.0
  3
*D4
  1

  0
LINE
  5
101
330
100
100
AcDbEntity
  8
1
  6
Continuous
 62
     2
100
AcDbLine
 10
146.427388471355
 20
228.465893025659
 30
0.0
 11
70.4273884713549
 21
228.465893025659
 31
0.0
  0
LINE
  5
102
330
100
100
AcDbEntity
  8
1
  6
Continuous
 62
     2
100
AcDbLine
 10
70.4273884713549
 20
146.465936078659
 30
0.0
 11
70.4273884713549
 21
229.265893025659
 31
0.0
  0
LINE
  5
103
330
100
100
AcDbEntity
  8
1
  6
Continuous
 62
     2
100
AcDbLine
 10
146.427388471355
 20
209.665936078659
 30
0.0
 11
146.427388471355
 21
229.265893025659
 31
0.0
  0
SOLID
  5
104
330
100
100
AcDbEntity
  8
1
 62
     2
100
AcDbTrace
 10
72.9273884713549
 20
228.7950242696275
 30
0.0
 11
72.9273884713549
 21
228.1367617816905
 31
0.0
 12
70.4273884713549
 22
228.465893025659
 32
0.0
 13
70.4273884713549
 23
228.465893025659
 33
0.0
  0
SOLID
  5
105
330
100
100
AcDbEntity
  8
1
 62
     2
100
AcDbTrace
 10
143.927388471355
 20
228.1367617816905
 30
0.0
 11
143.927388471355
 21
228.7950242696275
 31
0.0
 12
146.427388471355
 22
228.465893025659
 32
0.0
 13
146.427388471355
 23
228.465893025659
 33
0.0
  0
MTEXT
  5
106
330
100
100
AcDbEntity
  8
1
 62
     2
100
AcDbMText
 10
104.1961921074917
 20
229.4658768057369
 30
0.0
 40
3.0
 41
0.0
 71
     7
 72
     1
  1
\C2;(\C2;76\C2;)
  7
CONVERTER_11
 11
0.999999999988248
 21
4.848136811095759E-6
 31
0.0
 73
     1
 44
0.60024009603842
  0
ENDBLK
  5
108
330
100
100
AcDbEntity
  8
0
100
AcDbBlockEnd
  0
BLOCK
  5
112
330
10B
100
AcDbEntity
  8
0
100
AcDbBlockBegin
  2
*D5
 70
     1
 71
     0
 10
0.0
 20
0.0
 30
0.0
  3
*D5
  1

  0
LINE
  5
10C
330
10B
100
AcDbEntity
  8
1
  6
Continuous
 62
     2
100
AcDbLine
 10
146.427388471355
 20
222.465893025659
 30
0.0
 11
137.927388471355
 21
222.465893025659
 31
0.0
  0
LINE
  5
10D
330
10B
100
AcDbEntity
  8
1
  6
Continuous
 62
     2
100
AcDbLine
 10
137.927388471355
 20
210.965893025659
 30
0.0
 11
137.927388471355
 21
223.265893025659
 31
0.0
  0
LINE
  5
10E
330
10B
100
AcDbEntity
  8
1
  6
Continuous
 62
     2
100
AcDbLine
 10
146.427388471355
 20
209.665936078659
 30
0.0
 11
146.427388471355
 21
223.265893025659
 31
0.0
  0
SOLID
  5
10F
330
10B
100
AcDbEntity
  8
1
 62
     2
100
AcDbTrace
 10
140.427388471355
 20
222.7950242696275
 30
0.0
 11
140.427388471355
 21
222.1367617816905
 31
0.0
 12
137.927388471355
 22
222.465893025659
 32
0.0
 13
137.927388471355
 23
222.465893025659
 33
0.0
  0
SOLID
  5
110
330
10B
100
AcDbEntity
  8
1
 62
     2
100
AcDbTrace
 10
143.927388471355
 20
222.1367617816905
 30
0.0
 11
143.927388471355
 21
222.7950242696275
 31
0.0
 12
146.427388471355
 22
222.465893025659
 32
0.0
 13
146.427388471355
 23
222.465893025659
 33
0.0
  0
MTEXT
  5
111
330
10B
100
AcDbEntity
  8
1
 62
     2
100
AcDbMText
 10
139.5205921074654
 20
223.4658865853985
 30
0.0
 40
3.0
 41
0.0
 71
     7
 72
     1
  1
8.5
  7
CONVERTER_11
 11
0.999999999988248
 21
4.848136811095759E-6
 31
0.0
 73
     1
 44
0.60024009603842
  0
ENDBLK
  5
113
330
10B
100
AcDbEntity
  8
0
100
AcDbBlockEnd
  0
BLOCK
  5
11D
330
116
100
AcDbEntity
  8
0
100
AcDbBlockBegin
  2
*D6
 70
     1
 71
     0
 10
0.0
 20
0.0
 30
0.0
  3
*D6
  1

  0
LINE
  5
117
330
116
100
AcDbEntity
  8
1
  6
Continuous
 62
     2
100
AcDbLine
 10
58.427388471355
 20
209.252457257483
 30
0.0
 11
58.42738847135501
 21
82.67941489973519
 31
0.0
  0
LINE
  5
118
330
116
100
AcDbEntity
  8
1
  6
Continuous
 62
     2
100
AcDbLine
 10
136.427388471355
 20
82.67941489973519
 30
0.0
 11
57.62738847135501
 21
82.67941489973519
 31
0.0
  0
LINE
  5
119
330
116
100
AcDbEntity
  8
1
  6
Continuous
 62
     2
100
AcDbLine
 10
136.427388471355
 20
209.252457257483
 30
0.0
 11
57.627388471355
 21
209.252457257483
 31
0.0
  0
SOLID
  5
11A
330
116
100
AcDbEntity
  8
1
 62
     2
100
AcDbTrace
 10
58.09825722738652
 20
85.17941489973519
 30
0.0
 11
58.7565197153235
 21
85.17941489973519
 31
0.0
 12
58.42738847135501
 22
82.67941489973519
 32
0.0
 13
58.42738847135501
 23
82.67941489973519
 33
0.0
  0
SOLID
  5
11B
330
116
100
AcDbEntity
  8
1
 62
     2
100
AcDbTrace
 10
58.75651971532349
 20
206.752457257483
 30
0.0
 11
58.09825722738651
 21
206.752457257483
 31
0.0
 12
58.427388471355
 22
209.252457257483
 32
0.0
 13
58.427388471355
 23
209.252457257483
 33
0.0
  0
MTEXT
  5
11C
330
116
100
AcDbEntity
  8
1
 62
     2
100
AcDbMText
 10
57.427388471355
 20
136.506202936564
 30
0.0
 40
3.0
 41
0.0
 71
     7
 72
     1
  1
(ƒÆ126.6
  7
CONVERTER_11
 11
0.0
 21
1.0
 31
0.0
 73
     1
 44
0.60024009603842
  0
ENDBLK
  5
11E
330
116
100
AcDbEntity
  8
0
100
AcDbBlockEnd
  0
BLOCK
  5
128
330
121
100
AcDbEntity
  8
0
100
AcDbBlockBegin
  2
*D7
 70
     1
 71
     0
 10
0.0
 20
0.0
 30
0.0
  3
*D7
  1

  0
LINE
  5
122
330
121
100
AcDbEntity
  8
1
  6
Continuous
 62
     2
100
AcDbLine
 10
142.927388471355
 20
216.465893025659
 30
0.0
 11
128.308728764284
 21
216.465893025659
 31
0.0
  0
LINE
  5
123
330
121
100
AcDbEntity
  8
1
  6
Continuous
 62
     2
100
AcDbLine
 10
136.927388471355
 20
210.465936078659
 30
0.0
 11
136.927388471355
 21
217.265893025659
 31
0.0
  0
LINE
  5
124
330
121
100
AcDbEntity
  8
1
  6
Continuous
 62
     2
100
AcDbLine
 10
137.927388471355
 20
210.965893025659
 30
0.0
 11
137.927388471355
 21
217.265893025659
 31
0.0
  0
SOLID
  5
125
330
121
100
AcDbEntity
  8
1
 62
     2
100
AcDbTrace
 10
134.427388471355
 20
216.1367617816905
 30
0.0
 11
134.427388471355
 21
216.7950242696275
 31
0.0
 12
136.927388471355
 22
216.465893025659
 32
0.0
 13
136.927388471355
 23
216.465893025659
 33
0.0
  0
SOLID
  5
126
330
121
100
AcDbEntity
  8
1
 62
     2
100
AcDbTrace
 10
140.427388471355
 20
216.7950242696275
 30
0.0
 11
140.427388471355
 21
216.1367617816905
 31
0.0
 12
137.927388471355
 22
216.465893025659
 32
0.0
 13
137.927388471355
 23
216.465893025659
 33
0.0
  0
MTEXT
  5
127
330
121
100
AcDbEntity
  8
1
 62
     2
100
AcDbMText
 10
128.3087360364892
 20
217.4658908789084
 30
0.0
 40
3.0
 41
0.0
 71
     7
 72
     1
  1
1
  7
CONVERTER_11
 11
0.999999999988248
 21
4.848136811095759E-6
 31
0.0
 73
     1
 44
0.60024009603842
  0
ENDBLK
  5
129
330
121
100
AcDbEntity
  8
0
100
AcDbBlockEnd
  0
BLOCK
  5
133
330
12C
100
AcDbEntity
  8
0
100
AcDbBlockBegin
  2
*D8
 70
     1
 71
     0
 10
0.0
 20
0.0
 30
0.0
  3
*D8
  1

  0
LINE
  5
12D
330
12C
100
AcDbEntity
  8
1
  6
Continuous
 62
     2
100
AcDbLine
 10
137.927388471355
 20
222.465893025659
 30
0.0
 11
70.4273884713549
 21
222.465893025659
 31
0.0
  0
LINE
  5
12E
330
12C
100
AcDbEntity
  8
1
  6
Continuous
 62
     2
100
AcDbLine
 10
70.4273884713549
 20
146.465936078659
 30
0.0
 11
70.4273884713549
 21
223.265893025659
 31
0.0
  0
LINE
  5
12F
330
12C
100
AcDbEntity
  8
1
  6
Continuous
 62
     2
100
AcDbLine
 10
137.927388471355
 20
210.965893025659
 30
0.0
 11
137.927388471355
 21
223.265893025659
 31
0.0
  0
SOLID
  5
130
330
12C
100
AcDbEntity
  8
1
 62
     2
100
AcDbTrace
 10
72.9273884713549
 20
222.7950242696275
 30
0.0
 11
72.9273884713549
 21
222.1367617816905
 31
0.0
 12
70.4273884713549
 22
222.465893025659
 32
0.0
 13
70.4273884713549
 23
222.465893025659
 33
0.0
  0
SOLID
  5
131
330
12C
100
AcDbEntity
  8
1
 62
     2
100
AcDbTrace
 10
135.427388471355
 20
222.1367617816905
 30
0.0
 11
135.427388471355
 21
222.7950242696275
 31
0.0
 12
137.927388471355
 22
222.465893025659
 32
0.0
 13
137.927388471355
 23
222.465893025659
 33
0.0
  0
MTEXT
  5
132
330
12C
100
AcDbEntity
  8
1
 62
     2
100
AcDbMText
 10
100.634992107468
 20
223.4658844386435
 30
0.0
 40
3.0
 41
0.0
 71
     7
 72
     1
  1
67.5
  7
CONVERTER_11
 11
0.999999999988248
 21
4.848136811095759E-6
 31
0.0
 73
     1
 44
0.60024009603842
  0
ENDBLK
  5
134
330
12C
100
AcDbEntity
  8
0
100
AcDbBlockEnd
  0
BLOCK
  5
13E
330
137
100
AcDbEntity
  8
0
100
AcDbBlockBegin
  2
*D9
 70
     1
 71
     0
 10
0.0
 20
0.0
 30
0.0
  3
*D9
  1

  0
LINE
  5
138
330
137
100
AcDbEntity
  8
1
  6
Continuous
 62
     2
100
AcDbLine
 10
170.427388471355
 20
81.46593607865901
 30
0.0
 11
170.427388471355
 21
210.465893025659
 31
0.0
  0
LINE
  5
139
330
137
100
AcDbEntity
  8
1
  6
Continuous
 62
     2
100
AcDbLine
 10
138.427388471355
 20
210.465893025659
 30
0.0
 11
171.227388471355
 21
210.465893025659
 31
0.0
  0
LINE
  5
13A
330
137
100
AcDbEntity
  8
1
  6
Continuous
 62
     2
100
AcDbLine
 10
138.427388471355
 20
81.46593607865901
 30
0.0
 11
171.227388471355
 21
81.46593607865901
 31
0.0
  0
SOLID
  5
13B
330
137
100
AcDbEntity
  8
1
 62
     2
100
AcDbTrace
 10
170.7565197153235
 20
207.965893025659
 30
0.0
 11
170.0982572273865
 21
207.965893025659
 31
0.0
 12
170.427388471355
 22
210.465893025659
 32
0.0
 13
170.427388471355
 23
210.465893025659
 33
0.0
  0
SOLID
  5
13C
330
137
100
AcDbEntity
  8
1
 62
     2
100
AcDbTrace
 10
170.0982572273865
 20
83.96593607865901
 30
0.0
 11
170.7565197153235
 21
83.96593607865901
 31
0.0
 12
170.427388471355
 22
81.46593607865901
 32
0.0
 13
170.427388471355
 23
81.46593607865901
 33
0.0
  0
MTEXT
  5
13D
330
137
100
AcDbEntity
  8
1
 62
     2
100
AcDbMText
 10
169.427388471355
 20
140.160314552159
 30
0.0
 40
3.0
 41
0.0
 71
     7
 72
     1
  1
\C2;ƒÆ\C2;129
  7
CONVERTER_11
 11
0.0
 21
1.0
 31
0.0
 73
     1
 44
0.60024009603842
  0
ENDBLK
  5
13F
330
137
100
AcDbEntity
  8
0
100
AcDbBlockEnd
  0
BLOCK
  5
149
330
142
100
AcDbEntity
  8
0
100
AcDbBlockBegin
  2
*D10
 70
     1
 71
     0
 10
0.0
 20
0.0
 30
0.0
  3
*D10
  1

  0
LINE
  5
143
330
142
100
AcDbEntity
  8
1
  6
Continuous
 62
     2
100
AcDbLine
 10
164.427388471355
 20
209.265936078659
 30
0.0
 11
164.427388471355
 21
82.665936078659
 31
0.0
  0
LINE
  5
144
330
142
100
AcDbEntity
  8
1
  6
Continuous
 62
     2
100
AcDbLine
 10
146.407773229055
 20
82.665936078659
 30
0.0
 11
165.227388471355
 21
82.665936078659
 31
0.0
  0
LINE
  5
145
330
142
100
AcDbEntity
  8
1
  6
Continuous
 62
     2
100
AcDbLine
 10
146.754183390555
 20
209.265936078659
 30
0.0
 11
165.227388471355
 21
209.265936078659
 31
0.0
  0
SOLID
  5
146
330
142
100
AcDbEntity
  8
1
 62
     2
100
AcDbTrace
 10
164.0982572273865
 20
85.165936078659
 30
0.0
 11
164.7565197153235
 21
85.165936078659
 31
0.0
 12
164.427388471355
 22
82.665936078659
 32
0.0
 13
164.427388471355
 23
82.665936078659
 33
0.0
  0
SOLID
  5
147
330
142
100
AcDbEntity
  8
1
 62
     2
100
AcDbTrace
 10
164.7565197153235
 20
206.765936078659
 30
0.0
 11
164.0982572273865
 21
206.765936078659
 31
0.0
 12
164.427388471355
 22
209.265936078659
 32
0.0
 13
164.427388471355
 23
209.265936078659
 33
0.0
  0
MTEXT
  5
148
330
142
100
AcDbEntity
  8
1
 62
     2
100
AcDbMText
 10
163.427388471355
 20
140.421326268492
 30
0.0
 40
3.0
 41
0.0
 71
     7
 72
     1
  1
\C2;ƒÆ\C2;126.6
  7
CONVERTER_11
 11
0.0
 21
1.0
 31
0.0
 73
     1
 44
0.60024009603842
  0
ENDBLK
  5
14A
330
142
100
AcDbEntity
  8
0
100
AcDbBlockEnd
  0
ENDSEC
  0
SECTION
  2
ENTITIES
  0
INSERT
  5
36
330
1F
100
AcDbEntity
  8
1
100
AcDbBlockReference
  2
_D11
 10
0.0
 20
0.0
 30
0.0
  0
POINT
  5
3F
330
1F
100
AcDbEntity
  8
1
 62
     7
100
AcDbPoint
 10
353.376011621861
 20
107.004441225805
 30
0.0
  0
POINT
  5
40
330
1F
100
AcDbEntity
  8
1
 62
     7
100
AcDbPoint
 10
361.376011621861
 20
105.004441225805
 30
0.0
  0
POINT
  5
41
330
1F
100
AcDbEntity
  8
1
 62
     7
100
AcDbPoint
 10
353.376011621861
 20
89.0044412258046
 30
0.0
  0
POINT
  5
42
330
1F
100
AcDbEntity
  8
1
 62
     7
100
AcDbPoint
 10
353.376011621861
 20
107.004441225805
 30
0.0
  0
POINT
  5
43
330
1F
100
AcDbEntity
  8
1
 62
     7
100
AcDbPoint
 10
70.4273884713551
 20
145.965936078659
 30
0.0
  0
POINT
  5
44
330
1F
100
AcDbEntity
  8
1
 62
     7
100
AcDbPoint
 10
146.427388471355
 20
209.165936078659
 30
0.0
  0
POINT
  5
45
330
1F
100
AcDbEntity
  8
1
 62
     7
100
AcDbPoint
 10
137.927388471355
 20
210.465893025659
 30
0.0
  0
POINT
  5
46
330
1F
100
AcDbEntity
  8
1
 62
     7
100
AcDbPoint
 10
146.427388471355
 20
209.165936078659
 30
0.0
  0
POINT
  5
47
330
1F
100
AcDbEntity
  8
1
 62
     7
100
AcDbPoint
 10
136.927388471355
 20
82.6794148997352
 30
0.0
  0
POINT
  5
48
330
1F
100
AcDbEntity
  8
1
 62
     7
100
AcDbPoint
 10
136.927388471271
 20
209.252457257483
 30
0.0
  0
POINT
  5
49
330
1F
100
AcDbEntity
  8
1
 62
     7
100
AcDbPoint
 10
136.927388471355
 20
209.965936078659
 30
0.0
  0
POINT
  5
4A
330
1F
100
AcDbEntity
  8
1
 62
     7
100
AcDbPoint
 10
137.927388471355
 20
210.465893025659
 30
0.0
  0
POINT
  5
4B
330
1F
100
AcDbEntity
  8
1
 62
     7
100
AcDbPoint
 10
70.4273884713551
 20
145.965936078659
 30
0.0
  0
POINT
  5
4C
330
1F
100
AcDbEntity
  8
1
 62
     7
100
AcDbPoint
 10
137.927388471355
 20
210.465893025659
 30
0.0
  0
POINT
  5
4D
330
1F
100
AcDbEntity
  8
1
 62
     7
100
AcDbPoint
 10
137.927388471355
 20
210.465893025659
 30
0.0
  0
POINT
  5
4E
330
1F
100
AcDbEntity
  8
1
 62
     7
100
AcDbPoint
 10
137.927388471355
 20
81.465936078659
 30
0.0
  0
POINT
  5
4F
330
1F
100
AcDbEntity
  8
1
 62
     7
100
AcDbPoint
 10
145.907773229055
 20
82.665936078659
 30
0.0
  0
POINT
  5
50
330
1F
100
AcDbEntity
  8
1
 62
     7
100
AcDbPoint
 10
146.254183390555
 20
209.265936078659
 30
0.0
  0
LINE
  5
51
330
1F
100
AcDbEntity
  8
1
  6
Continuous
 62
     7
100
AcDbLine
 10
346.460215648094
 20
66.1725635634138
 30
0.0
 11
371.588890561473
 21
66.1725635634138
 31
0.0
  0
LINE
  5
52
330
1F
100
AcDbEntity
  8
0
  6
Continuous
 62
     2
100
AcDbLine
 10
367.876011621861
 20
109.782232926493
 30
0.0
 11
367.876011621861
 21
87.7925844103598
 31
0.0
  0
LINE
  5
53
330
1F
100
AcDbEntity
  8
0
  6
Continuous
 62
     7
100
AcDbLine
 10
362.876011621861
 20
86.0776739199294
 30
0.0
 11
362.876011621861
 21
113.864392294821
 31
0.0
  0
LINE
  5
54
330
1F
100
AcDbEntity
  8
0
  6
Continuous
 62
     7
100
AcDbLine
 10
361.876011621861
 20
85.8174050147454
 30
0.0
 11
361.876011621861
 21
114.535461953713
 31
0.0
  0
LINE
  5
55
330
1F
100
AcDbEntity
  8
0
  6
Continuous
 62
     7
100
AcDbLine
 10
353.376011621861
 20
83.3768615393047
 30
0.0
 11
353.376011621861
 21
89.0044412258046
 31
0.0
  0
LINE
  5
56
330
1F
100
AcDbEntity
  8
0
  6
Continuous
 62
     2
100
AcDbLine
 10
353.895626864161
 20
83.5787057568488
 30
0.0
 11
353.895626864161
 21
89.0044412258046
 31
0.0
  0
LINE
  5
57
330
1F
100
AcDbEntity
  8
0
  6
Continuous
 62
     7
100
AcDbLine
 10
353.376011621861
 20
107.004441225805
 30
0.0
 11
359.376011621861
 21
107.004441225805
 31
0.0
  0
LINE
  5
58
330
1F
100
AcDbEntity
  8
0
  6
Continuous
 62
     6
100
AcDbLine
 10
359.376011621861
 20
97.0044412258046
 30
0.0
 11
353.376011621861
 21
97.0044412258046
 31
0.0
  0
LINE
  5
59
330
1F
100
AcDbEntity
  8
0
  6
Continuous
 62
     7
100
AcDbLine
 10
359.376011621861
 20
89.0044412258046
 30
0.0
 11
353.376011621861
 21
89.0044412258046
 31
0.0
  0
LINE
  5
5A
330
1F
100
AcDbEntity
  8
0
  6
Continuous
 62
     2
100
AcDbLine
 10
353.895626864161
 20
107.004441225805
 30
0.0
 11
353.895626864161
 21
119.596253535
 31
0.0
  0
LINE
  5
5B
330
1F
100
AcDbEntity
  8
0
  6
Continuous
 62
     7
100
AcDbLine
 10
353.376011621861
 20
107.004441225805
 30
0.0
 11
353.376011621861
 21
119.927040424029
 31
0.0
  0
LINE
  5
5C
330
1F
100
AcDbEntity
  8
05___PRT_ALL_DTM_CSYS
  6
Continuous
 62
     2
100
AcDbLine
 10
362.876011621861
 20
87.3044412258046
 30
0.0
 11
362.876011621861
 21
113.864392294821
 31
0.0
  0
LINE
  5
5D
330
1F
100
AcDbEntity
  8
0
  6
Continuous
 62
     7
100
AcDbLine
 10
361.376011621861
 20
91.0044412258046
 30
0.0
 11
361.376011621861
 21
105.004441225805
 31
0.0
  0
LINE
  5
5E
330
1F
100
AcDbEntity
  8
0
  6
Continuous
 62
     6
100
AcDbLine
 10
353.895626864161
 20
89.0044412258046
 30
0.0
 11
353.895626864161
 21
97.0044412258046
 31
0.0
  0
LINE
  5
5F
330
1F
100
AcDbEntity
  8
0
  6
Continuous
 62
     6
100
AcDbLine
 10
353.376011621861
 20
89.0044412258046
 30
0.0
 11
353.376011621861
 21
97.0044412258046
 31
0.0
  0
LINE
  5
60
330
1F
100
AcDbEntity
  8
1
  6
Continuous
 62
     7
100
AcDbLine
 10
335.44953859961
 20
149.329024056018
 30
0.0
 11
338.615749942886
 21
143.822569545973
 31
0.0
  0
LINE
  5
61
330
1F
100
AcDbEntity
  8
1
  6
Continuous
 62
     7
100
AcDbLine
 10
326.776872746289
 20
145.965936078659
 30
0.0
 11
335.44953859961
 21
149.329024056018
 31
0.0
  0
LINE
  5
62
330
1F
100
AcDbEntity
  8
1
  6
Continuous
 62
     7
100
AcDbLine
 10
346.600108982451
 20
145.965936078659
 30
0.0
 11
326.776872746289
 21
145.965936078659
 31
0.0
  0
LINE
  5
63
330
1F
100
AcDbEntity
  8
0
  6
Continuous
 62
     7
100
AcDbLine
 10
146.427388471355
 20
121.963184313459
 30
0.0
 11
146.427388471355
 21
116.948438926459
 31
0.0
  0
LINE
  5
64
330
1F
100
AcDbEntity
  8
0
  6
Continuous
 62
     7
100
AcDbLine
 10
146.427388471355
 20
114.373102173559
 30
0.0
 11
146.427388471355
 21
82.765936078659
 31
0.0
  0
LINE
  5
65
330
1F
100
AcDbEntity
  8
0
  6
Continuous
 62
     2
100
AcDbLine
 10
146.427388471355
 20
169.968687843759
 30
0.0
 11
146.427388471355
 21
169.672518670759
 31
0.0
  0
LINE
  5
66
330
1F
100
AcDbEntity
  8
0
  6
Continuous
 62
     6
100
AcDbLine
 10
146.427388471355
 20
158.965936078659
 30
0.0
 11
146.427388471355
 21
150.965936078659
 31
0.0
  0
LINE
  5
67
330
1F
100
AcDbEntity
  8
0
  6
Continuous
 62
     6
100
AcDbLine
 10
145.907773229055
 20
158.965936078659
 30
0.0
 11
145.907773229055
 21
150.965936078659
 31
0.0
  0
LINE
  5
68
330
1F
100
AcDbEntity
  8
0
  6
Continuous
 62
     7
100
AcDbLine
 10
262.271843656855
 20
82.665936078659
 30
0.0
 11
252.200101007255
 21
82.665936078659
 31
0.0
  0
LINE
  5
69
330
1F
100
AcDbEntity
  8
0
  6
Continuous
 62
     7
100
AcDbLine
 10
138.427388471355
 20
156.965936078659
 30
0.0
 11
138.427388471355
 21
142.965936078659
 31
0.0
  0
LINE
  5
6A
330
1F
100
AcDbEntity
  8
05___PRT_ALL_DTM_CSYS
  6
Continuous
 62
     2
100
AcDbLine
 10
136.927388471355
 20
160.665936078659
 30
0.0
 11
136.927388471355
 21
131.265936078659
 31
0.0
  0
LINE
  5
6B
330
1F
100
AcDbEntity
  8
0
  6
Continuous
 62
     7
100
AcDbLine
 10
146.254183390555
 20
209.265936078659
 30
0.0
 11
146.427388471355
 21
209.165936078659
 31
0.0
  0
LINE
  5
6C
330
1F
100
AcDbEntity
  8
0
  6
Continuous
 62
     7
100
AcDbLine
 10
146.254183390555
 20
82.665936078659
 30
0.0
 11
146.427388471355
 21
82.765936078659
 31
0.0
  0
LINE
  5
6D
330
1F
100
AcDbEntity
  8
0
  6
Continuous
 62
     7
100
AcDbLine
 10
137.427388471355
 20
210.465936078659
 30
0.0
 11
137.927388471355
 21
210.465936078659
 31
0.0
  0
LINE
  5
6E
330
1F
100
AcDbEntity
  8
0
  6
Continuous
 62
     7
100
AcDbLine
 10
137.927388471355
 20
209.265936078659
 30
0.0
 11
146.254183390555
 21
209.265936078659
 31
0.0
  0
LINE
  5
6F
330
1F
100
AcDbEntity
  8
0
  6
Continuous
 62
     7
100
AcDbLine
 10
136.453556449355
 20
208.753142491059
 30
0.0
 11
131.927388471355
 21
208.515936078659
 31
0.0
  0
LINE
  5
70
330
1F
100
AcDbEntity
  8
0
  6
Continuous
 62
     7
100
AcDbLine
 10
146.427388471355
 20
177.304224030759
 30
0.0
 11
146.427388471355
 21
209.165936078659
 31
0.0
  0
LINE
  5
71
330
1F
100
AcDbEntity
  8
0
  6
Continuous
 62
     2
100
AcDbLine
 10
146.427388471355
 20
114.627648126459
 30
0.0
 11
146.427388471355
 21
114.373102173559
 31
0.0
  0
LINE
  5
72
330
1F
100
AcDbEntity
  8
0
  6
Continuous
 62
     2
100
AcDbLine
 10
146.427388471355
 20
122.259353485659
 30
0.0
 11
146.427388471355
 21
121.963184313459
 31
0.0
  0
LINE
  5
73
330
1F
100
AcDbEntity
  8
0
  6
Continuous
 62
     7
100
AcDbLine
 10
146.427388471355
 20
140.965936078659
 30
0.0
 11
146.427388471355
 21
124.724313844059
 31
0.0
  0
LINE
  5
74
330
1F
100
AcDbEntity
  8
0
  6
Continuous
 62
     7
100
AcDbLine
 10
146.427388471355
 20
167.207558313159
 30
0.0
 11
146.427388471355
 21
158.965936078659
 31
0.0
  0
LINE
  5
75
330
1F
100
AcDbEntity
  8
0
  6
Continuous
 62
     7
100
AcDbLine
 10
146.427388471355
 20
174.983433230759
 30
0.0
 11
146.427388471355
 21
169.968687843759
 31
0.0
  0
LINE
  5
76
330
1F
100
AcDbEntity
  8
0
  6
Continuous
 62
     2
100
AcDbLine
 10
145.907773229055
 20
114.245836145959
 30
0.0
 11
145.907773229055
 21
82.665936078659
 31
0.0
  0
LINE
  5
77
330
1F
100
AcDbEntity
  8
0
  6
Continuous
 62
     2
100
AcDbLine
 10
145.907773229055
 20
140.965936078659
 30
0.0
 11
145.907773229055
 21
124.724313844059
 31
0.0
  0
LINE
  5
78
330
1F
100
AcDbEntity
  8
0
  6
Continuous
 62
     2
100
AcDbLine
 10
145.907773229055
 20
167.207558313159
 30
0.0
 11
145.907773229055
 21
158.965936078659
 31
0.0
  0
LINE
  5
79
330
1F
100
AcDbEntity
  8
0
  6
Continuous
 62
     2
100
AcDbLine
 10
145.907773229055
 20
209.265936078659
 30
0.0
 11
145.907773229055
 21
177.686036011359
 31
0.0
  0
LINE
  5
7A
330
1F
100
AcDbEntity
  8
0
  6
Continuous
 62
     9
100
AcDbLine
 10
145.427388471355
 20
121.540098028759
 30
0.0
 11
145.427388471355
 21
116.948438926459
 31
0.0
  0
LINE
  5
7B
330
1F
100
AcDbEntity
  8
0
  6
Continuous
 62
     9
100
AcDbLine
 10
145.427388471355
 20
174.983433230759
 30
0.0
 11
145.427388471355
 21
170.391774128459
 31
0.0
  0
LINE
  5
7C
330
1F
100
AcDbEntity
  8
0
  6
Continuous
 62
     7
100
AcDbLine
 10
144.427388471355
 20
116.948438926459
 30
0.0
 11
144.427388471355
 21
121.878565875259
 31
0.0
  0
LINE
  5
7D
330
1F
100
AcDbEntity
  8
0
  6
Continuous
 62
     7
100
AcDbLine
 10
144.427388471355
 20
174.983433230759
 30
0.0
 11
144.427388471355
 21
170.053306281959
 31
0.0
  0
LINE
  5
7E
330
1F
100
AcDbEntity
  8
0
  6
Continuous
 62
     7
100
AcDbLine
 10
140.927388471355
 20
177.686036011359
 30
0.0
 11
145.907773229055
 21
177.686036011359
 31
0.0
  0
LINE
  5
7F
330
1F
100
AcDbEntity
  8
0
  6
Continuous
 62
     2
100
AcDbLine
 10
140.927388471355
 20
177.176943970559
 30
0.0
 11
145.907773229055
 21
177.176943970559
 31
0.0
  0
LINE
  5
80
330
1F
100
AcDbEntity
  8
0
  6
Continuous
 62
     7
100
AcDbLine
 10
140.927388471355
 20
174.983433230759
 30
0.0
 11
140.927388471355
 21
177.686036011359
 31
0.0
  0
LINE
  5
81
330
1F
100
AcDbEntity
  8
0
  6
Continuous
 62
     7
100
AcDbLine
 10
140.927388471355
 20
167.207558313159
 30
0.0
 11
140.927388471355
 21
170.053306281959
 31
0.0
  0
LINE
  5
82
330
1F
100
AcDbEntity
  8
0
  6
Continuous
 62
     7
100
AcDbLine
 10
140.927388471355
 20
121.878565875259
 30
0.0
 11
140.927388471355
 21
124.724313844059
 31
0.0
  0
LINE
  5
83
330
1F
100
AcDbEntity
  8
0
  6
Continuous
 62
     7
100
AcDbLine
 10
140.927388471355
 20
114.245836145959
 30
0.0
 11
140.927388471355
 21
116.948438926459
 31
0.0
  0
LINE
  5
84
330
1F
100
AcDbEntity
  8
0
  6
Continuous
 62
     7
100
AcDbLine
 10
140.927388471355
 20
174.983433230759
 30
0.0
 11
146.427388471355
 21
174.983433230759
 31
0.0
  0
LINE
  5
85
330
1F
100
AcDbEntity
  8
0
  6
Continuous
 62
     7
100
AcDbLine
 10
137.927388471355
 20
210.465893025659
 30
0.0
 11
137.927388471355
 21
81.465979131659
 31
0.0
  0
LINE
  5
86
330
1F
100
AcDbEntity
  8
0
  6
Continuous
 62
     7
100
AcDbLine
 10
136.927388471355
 20
209.965936078659
 30
0.0
 11
136.927388471355
 21
81.965936078659
 31
0.0
  0
LINE
  5
87
330
1F
100
AcDbEntity
  8
0
  6
Continuous
 62
     7
100
AcDbLine
 10
145.427388471355
 20
170.391774128459
 30
0.0
 11
144.427388471355
 21
170.391774128459
 31
0.0
  0
LINE
  5
88
330
1F
100
AcDbEntity
  8
0
  6
Continuous
 62
     7
100
AcDbLine
 10
140.927388471355
 20
170.053306281959
 30
0.0
 11
144.427388471355
 21
170.053306281959
 31
0.0
  0
LINE
  5
89
330
1F
100
AcDbEntity
  8
0
  6
Continuous
 62
     2
100
AcDbLine
 10
140.927388471355
 20
169.545586508559
 30
0.0
 11
145.907773229055
 21
169.545586508559
 31
0.0
  0
LINE
  5
8A
330
1F
100
AcDbEntity
  8
0
  6
Continuous
 62
     7
100
AcDbLine
 10
140.927388471355
 20
167.207558313159
 30
0.0
 11
146.427388471355
 21
167.207558313159
 31
0.0
  0
LINE
  5
8B
330
1F
100
AcDbEntity
  8
0
  6
Continuous
 62
     2
100
AcDbLine
 10
131.927388471355
 20
83.415933659459
 30
0.0
 11
131.927388471355
 21
208.515938497859
 31
0.0
  0
LINE
  5
8C
330
1F
100
AcDbEntity
  8
0
  6
Continuous
 62
     7
100
AcDbLine
 10
140.427388471355
 20
158.965936078659
 30
0.0
 11
146.427388471355
 21
158.965936078659
 31
0.0
  0
LINE
  5
8D
330
1F
100
AcDbEntity
  8
0
  6
Continuous
 62
     6
100
AcDbLine
 10
140.427388471355
 20
150.965936078659
 30
0.0
 11
146.427388471355
 21
150.965936078659
 31
0.0
  0
LINE
  5
8E
330
1F
100
AcDbEntity
  8
0
  6
Continuous
 62
     7
100
AcDbLine
 10
146.427388471355
 20
140.965936078659
 30
0.0
 11
140.427388471355
 21
140.965936078659
 31
0.0
  0
LINE
  5
8F
330
1F
100
AcDbEntity
  8
0
  6
Continuous
 62
     7
100
AcDbLine
 10
140.927388471355
 20
124.724313844059
 30
0.0
 11
146.427388471355
 21
124.724313844059
 31
0.0
  0
LINE
  5
90
330
1F
100
AcDbEntity
  8
0
  6
Continuous
 62
     2
100
AcDbLine
 10
140.927388471355
 20
122.386285648659
 30
0.0
 11
145.907773229055
 21
122.386285648659
 31
0.0
  0
LINE
  5
91
330
1F
100
AcDbEntity
  8
0
  6
Continuous
 62
     7
100
AcDbLine
 10
140.927388471355
 20
121.878565875259
 30
0.0
 11
144.427388471355
 21
121.878565875259
 31
0.0
  0
LINE
  5
92
330
1F
100
AcDbEntity
  8
0
  6
Continuous
 62
     7
100
AcDbLine
 10
145.427388471355
 20
121.540098028759
 30
0.0
 11
144.427388471355
 21
121.540098028759
 31
0.0
  0
LINE
  5
93
330
1F
100
AcDbEntity
  8
0
  6
Continuous
 62
     7
100
AcDbLine
 10
140.927388471355
 20
116.948438926459
 30
0.0
 11
146.427388471355
 21
116.948438926459
 31
0.0
  0
LINE
  5
94
330
1F
100
AcDbEntity
  8
0
  6
Continuous
 62
     2
100
AcDbLine
 10
140.927388471355
 20
114.754928186659
 30
0.0
 11
145.907773229055
 21
114.754928186659
 31
0.0
  0
LINE
  5
95
330
1F
100
AcDbEntity
  8
0
  6
Continuous
 62
     7
100
AcDbLine
 10
140.927388471355
 20
114.245836145959
 30
0.0
 11
145.907773229055
 21
114.245836145959
 31
0.0
  0
LINE
  5
96
330
1F
100
AcDbEntity
  8
0
  6
Continuous
 62
     7
100
AcDbLine
 10
136.453556449355
 20
83.178729666259
 30
0.0
 11
131.927388471355
 21
83.415936078659
 31
0.0
  0
LINE
  5
97
330
1F
100
AcDbEntity
  8
0
  6
Continuous
 62
     7
100
AcDbLine
 10
137.927388471355
 20
82.665936078659
 30
0.0
 11
146.254183390555
 21
82.665936078659
 31
0.0
  0
LINE
  5
98
330
1F
100
AcDbEntity
  8
0
  6
Continuous
 62
     7
100
AcDbLine
 10
137.427388471355
 20
81.465936078659
 30
0.0
 11
137.927388471355
 21
81.465936078659
 31
0.0
  0
LINE
  5
99
330
1F
100
AcDbEntity
  8
0
  6
Continuous
 62
     7
100
AcDbLine
 10
252.200101007255
 20
209.265936078659
 30
0.0
 11
262.271843656855
 21
209.265936078659
 31
0.0
  0
LINE
  5
9A
330
1F
100
AcDbEntity
  8
0
  6
Continuous
 62
     7
100
AcDbLine
 10
199.855881193955
 20
174.983433230759
 30
0.0
 11
202.106353622855
 21
174.983433230759
 31
0.0
  0
LINE
  5
9B
330
1F
100
AcDbEntity
  8
0
  6
Continuous
 62
     7
100
AcDbLine
 10
314.616063470255
 20
174.983433230759
 30
0.0
 11
312.365591041255
 21
174.983433230759
 31
0.0
  0
LINE
  5
9C
330
1F
100
AcDbEntity
  8
0
  6
Continuous
 62
     7
100
AcDbLine
 10
315.802886924255
 20
167.207558313159
 30
0.0
 11
317.077792866255
 21
167.207558313159
 31
0.0
  0
LINE
  5
9D
330
1F
100
AcDbEntity
  8
0
  6
Continuous
 62
     7
100
AcDbLine
 10
197.394151797855
 20
167.207558313159
 30
0.0
 11
198.669057739955
 21
167.207558313159
 31
0.0
  0
LINE
  5
9E
330
1F
100
AcDbEntity
  8
0
  6
Continuous
 62
     7
100
AcDbLine
 10
195.080924266755
 20
158.965936078659
 30
0.0
 11
196.307407602555
 21
158.965936078659
 31
0.0
  0
LINE
  5
9F
330
1F
100
AcDbEntity
  8
0
  6
Continuous
 62
     7
100
AcDbLine
 10
202.226107214455
 20
177.686036011359
 30
0.0
 11
203.317858619055
 21
177.176943970559
 31
0.0
  0
LINE
  5
A0
330
1F
100
AcDbEntity
  8
0
  6
Continuous
 62
     7
100
AcDbLine
 10
314.901300611755
 20
122.386285648659
 30
0.0
 11
316.715955818655
 21
121.540098028759
 31
0.0
  0
LINE
  5
A1
330
1F
100
AcDbEntity
  8
0
  6
Continuous
 62
     7
100
AcDbLine
 10
320.538815870055
 20
150.965936078659
 30
0.0
 11
319.335006140955
 21
150.965936078659
 31
0.0
  0
LINE
  5
A2
330
1F
100
AcDbEntity
  8
0
  6
Continuous
 62
     7
100
AcDbLine
 10
203.317858619055
 20
114.754928186659
 30
0.0
 11
202.226107214455
 21
114.245836145959
 31
0.0
  0
LINE
  5
A3
330
1F
100
AcDbEntity
  8
0
  6
Continuous
 62
     7
100
AcDbLine
 10
314.901300611755
 20
169.545586508559
 30
0.0
 11
316.715955818655
 21
170.391774128459
 31
0.0
  0
LINE
  5
A4
330
1F
100
AcDbEntity
  8
0
  6
Continuous
 62
     7
100
AcDbLine
 10
260.235972332055
 20
208.215755355459
 30
0.0
 11
260.235972332055
 21
208.494009773559
 31
0.0
  0
LINE
  5
A5
330
1F
100
AcDbEntity
  8
0
  6
Continuous
 62
     7
100
AcDbLine
 10
197.755988845455
 20
170.391774128459
 30
0.0
 11
199.570644052455
 21
169.545586508559
 31
0.0
  0
LINE
  5
A6
330
1F
100
AcDbEntity
  8
0
  6
Continuous
 62
     7
100
AcDbLine
 10
195.136938523155
 20
140.965936078659
 30
0.0
 11
193.933128794055
 21
140.965936078659
 31
0.0
  0
LINE
  5
A7
330
1F
100
AcDbEntity
  8
0
  6
Continuous
 62
     7
100
AcDbLine
 10
197.755988845455
 20
121.540098028759
 30
0.0
 11
199.570644052455
 21
122.386285648659
 31
0.0
  0
LINE
  5
A8
330
1F
100
AcDbEntity
  8
0
  6
Continuous
 62
     7
100
AcDbLine
 10
254.235972332055
 20
208.494009773559
 30
0.0
 11
254.235972332055
 21
208.215755355459
 31
0.0
  0
LINE
  5
A9
330
1F
100
AcDbEntity
  8
0
  6
Continuous
 62
     7
100
AcDbLine
 10
311.154086045055
 20
114.754928186659
 30
0.0
 11
312.245837449655
 21
114.245836145959
 31
0.0
  0
LINE
  5
AA
330
1F
100
AcDbEntity
  8
0
  6
Continuous
 62
     7
100
AcDbLine
 10
311.154086045055
 20
177.176943970559
 30
0.0
 11
312.245837449655
 21
177.686036011359
 31
0.0
  0
LINE
  5
AB
330
1F
100
AcDbEntity
  8
0
  6
Continuous
 62
     7
100
AcDbLine
 10
318.164537061555
 20
132.965936078659
 30
0.0
 11
319.391020397355
 21
132.965936078659
 31
0.0
  0
LINE
  5
AC
330
1F
100
AcDbEntity
  8
0
  6
Continuous
 62
     7
100
AcDbLine
 10
315.802886924255
 20
124.724313844059
 30
0.0
 11
317.077792866255
 21
124.724313844059
 31
0.0
  0
LINE
  5
AD
330
1F
100
AcDbEntity
  8
0
  6
Continuous
 62
     7
100
AcDbLine
 10
197.394151797855
 20
124.724313844059
 30
0.0
 11
198.669057739955
 21
124.724313844059
 31
0.0
  0
LINE
  5
AE
330
1F
100
AcDbEntity
  8
0
  6
Continuous
 62
     7
100
AcDbLine
 10
312.365591041255
 20
116.948438926459
 30
0.0
 11
314.616063470255
 21
116.948438926459
 31
0.0
  0
LINE
  5
AF
330
1F
100
AcDbEntity
  8
0
  6
Continuous
 62
     7
100
AcDbLine
 10
199.855881193955
 20
116.948438926459
 30
0.0
 11
202.106353622855
 21
116.948438926459
 31
0.0
  0
ARC
  5
B0
330
1F
100
AcDbEntity
  8
0
  6
Continuous
 62
     6
100
AcDbCircle
 10
359.376011621861
 20
99.0044412258046
 30
0.0
 40
2.0
100
AcDbArc
 50
-90.0
 51
0.0
  0
ARC
  5
B1
330
1F
100
AcDbEntity
  8
0
  6
Continuous
 62
     7
100
AcDbCircle
 10
359.376011621861
 20
105.004441225805
 30
0.0
 40
2.0
100
AcDbArc
 50
0.0
 51
90.0
  0
ARC
  5
B2
330
1F
100
AcDbEntity
  8
0
  6
Continuous
 62
     7
100
AcDbCircle
 10
359.376011621861
 20
91.0044412258046
 30
0.0
 40
2.0
100
AcDbArc
 50
-90.0
 51
0.0
  0
ARC
  5
B3
330
1F
100
AcDbEntity
  8
0
  6
Continuous
 62
     7
100
AcDbCircle
 10
132.927388471355
 20
145.965936078659
 30
0.0
 40
62.49999999999991
100
AcDbArc
 50
90.91677159059991
 51
180.0
  0
ARC
  5
B4
330
1F
100
AcDbEntity
  8
0
  6
Continuous
 62
     7
100
AcDbCircle
 10
140.427388471355
 20
156.965936078659
 30
0.0
 40
2.0
100
AcDbArc
 50
90.0
 51
180.0
  0
ARC
  5
B5
330
1F
100
AcDbEntity
  8
0
  6
Continuous
 62
     7
100
AcDbCircle
 10
140.427388471355
 20
142.965936078659
 30
0.0
 40
2.0
100
AcDbArc
 50
180.0
 51
-90.0
  0
ARC
  5
B6
330
1F
100
AcDbEntity
  8
0
  6
Continuous
 62
     6
100
AcDbCircle
 10
140.427388471355
 20
148.965936078659
 30
0.0
 40
2.0
100
AcDbArc
 50
90.0
 51
180.0
  0
ARC
  5
B7
330
1F
100
AcDbEntity
  8
0
  6
Continuous
 62
     7
100
AcDbCircle
 10
132.927388471355
 20
145.965936078659
 30
0.0
 40
62.49999999999989
100
AcDbArc
 50
180.0
 51
-90.91677159059991
  0
ARC
  5
B8
330
1F
100
AcDbEntity
  8
0
  6
Continuous
 62
     7
100
AcDbCircle
 10
137.427388471355
 20
209.965936078659
 30
0.0
 40
0.5
100
AcDbArc
 50
90.0
 51
180.0
  0
ARC
  5
B9
330
1F
100
AcDbEntity
  8
0
  6
Continuous
 62
     7
100
AcDbCircle
 10
137.427388471355
 20
81.965936078659
 30
0.0
 40
0.5
100
AcDbArc
 50
180.0
 51
-90.0
  0
ARC
  5
BA
330
1F
100
AcDbEntity
  8
0
  6
Continuous
 62
     7
100
AcDbCircle
 10
136.427388471355
 20
82.679414898859
 30
0.0
 40
0.5
100
AcDbArc
 50
0.0000001004066
 51
87.00000001403481
  0
ARC
  5
BB
330
1F
100
AcDbEntity
  8
0
  6
Continuous
 62
     7
100
AcDbCircle
 10
136.427388471355
 20
209.252457258359
 30
0.0
 40
0.4999999999164408
100
AcDbArc
 50
-87.00000001343489
 51
-0.00000010038054
  0
ARC
  5
BC
330
1F
100
AcDbEntity
  8
0
  6
Continuous
 62
     2
100
AcDbCircle
 10
257.235972332055
 20
145.965936078659
 30
0.0
 40
62.60000000000058
100
AcDbArc
 50
-27.6156638452
 51
-22.25314375939956
  0
ARC
  5
BD
330
1F
100
AcDbEntity
  8
0
  6
Continuous
 62
     2
100
AcDbCircle
 10
257.235972332055
 20
145.965936078659
 30
0.0
 40
63.20000000000029
100
AcDbArc
 50
4.5376358905996
 51
19.63954066699982
  0
ARC
  5
BE
330
1F
100
AcDbEntity
  8
0
  6
Continuous
 62
     2
100
AcDbCircle
 10
257.235972332055
 20
145.965936078659
 30
0.0
 40
62.59999999999999
100
AcDbArc
 50
-175.4187799147
 51
-160.1643646825998
  0
ARC
  5
BF
330
1F
100
AcDbEntity
  8
0
  6
Continuous
 62
     2
100
AcDbCircle
 10
257.235972332055
 20
145.965936078659
 30
0.0
 40
62.59999999999982
100
AcDbArc
 50
160.1643646825998
 51
168.0142897262999
  0
ARC
  5
C0
330
1F
100
AcDbEntity
  8
0
  6
Continuous
 62
     2
100
AcDbCircle
 10
257.235972332055
 20
145.965936078659
 30
0.0
 40
62.59999999999955
100
AcDbArc
 50
-149.9595267190999
 51
-30.04047328090013
  0
ARC
  5
C1
330
1F
100
AcDbEntity
  8
0
  6
Continuous
 62
     2
100
AcDbCircle
 10
257.235972332055
 20
145.965936078659
 30
0.0
 40
62.59999999999986
100
AcDbArc
 50
-19.8356353174002
 51
-11.98571027370013
  0
ARC
  5
C2
330
1F
100
AcDbEntity
  8
0
  6
Continuous
 62
     2
100
AcDbCircle
 10
257.235972332055
 20
145.965936078659
 30
0.0
 40
63.19999999999978
100
AcDbArc
 50
29.99249862170004
 51
150.0075013783
  0
ARC
  5
C3
330
1F
100
AcDbEntity
  8
0
  6
Continuous
 62
     2
100
AcDbCircle
 10
257.235972332055
 20
145.965936078659
 30
0.0
 40
62.59999999999992
100
AcDbArc
 50
-157.7468562406001
 51
-152.3843361547996
  0
ARC
  5
C4
330
1F
100
AcDbEntity
  8
0
  6
Continuous
 62
     2
100
AcDbCircle
 10
257.235972332055
 20
145.965936078659
 30
0.0
 40
62.59999999999999
100
AcDbArc
 50
4.5812200853
 51
19.83563531740019
  0
ARC
  5
C5
330
1F
100
AcDbEntity
  8
0
  6
Continuous
 62
     2
100
AcDbCircle
 10
257.235972332055
 20
145.965936078659
 30
0.0
 40
62.59999999999996
100
AcDbArc
 50
22.25314375939988
 51
27.61566384519998
  0
ARC
  5
C6
330
1F
100
AcDbEntity
  8
0
  6
Continuous
 62
     2
100
AcDbCircle
 10
257.235972332055
 20
145.965936078659
 30
0.0
 40
62.59999999999956
100
AcDbArc
 50
30.04047328090011
 51
87.25314375944698
  0
ARC
  5
C7
330
1F
100
AcDbEntity
  8
0
  6
Continuous
 62
     2
100
AcDbCircle
 10
257.235972332055
 20
145.965936078659
 30
0.0
 40
63.19999999999976
100
AcDbArc
 50
-150.0075013783
 51
-29.99249862170005
  0
ARC
  5
C8
330
1F
100
AcDbEntity
  8
0
  6
Continuous
 62
     2
100
AcDbCircle
 10
257.235972332055
 20
145.965936078659
 30
0.0
 40
63.20000000000027
100
AcDbArc
 50
-175.4623641094004
 51
-160.3604593330002
  0
ARC
  5
C9
330
1F
100
AcDbEntity
  8
0
  6
Continuous
 62
     2
100
AcDbCircle
 10
257.235972332055
 20
145.965936078659
 30
0.0
 40
62.5999999999588
100
AcDbArc
 50
92.746856240553
 51
149.9595267190997
  0
ARC
  5
CA
330
1F
100
AcDbEntity
  8
0
  6
Continuous
 62
     2
100
AcDbCircle
 10
257.235972332055
 20
145.965936078659
 30
0.0
 40
62.60000000000051
100
AcDbArc
 50
152.3843361548
 51
157.7468562406005
  0
ARC
  5
CB
330
1F
100
AcDbEntity
  8
0
  6
Continuous
 62
     2
100
AcDbCircle
 10
257.235972332055
 20
145.965936078659
 30
0.0
 40
63.20000000000022
100
AcDbArc
 50
-19.63954066699984
 51
-11.87025711149996
  0
ARC
  5
CC
330
1F
100
AcDbEntity
  8
0
  6
Continuous
 62
     2
100
AcDbCircle
 10
257.235972332055
 20
145.965936078659
 30
0.0
 40
63.20000000000019
100
AcDbArc
 50
160.3604593330002
 51
168.1297428885001
  0
ARC
  5
CD
330
1F
100
AcDbEntity
  8
0
  6
Continuous
 62
     7
100
AcDbCircle
 10
257.235972332055
 20
145.965936078659
 30
0.0
 40
62.30000000000042
100
AcDbArc
 50
92.75964504229977
 51
87.24035495770022
  0
ARC
  5
CE
330
1F
100
AcDbEntity
  8
0
  6
Continuous
 62
     7
100
AcDbCircle
 10
257.235972332055
 20
145.965936078659
 30
0.0
 40
64.29999999991283
100
AcDbArc
 50
153.1739700113823
 51
157.6741797935642
  0
ARC
  5
CF
330
1F
100
AcDbEntity
  8
0
  6
Continuous
 62
     7
100
AcDbCircle
 10
257.235972332055
 20
145.965936078659
 30
0.0
 40
63.50000000000053
100
AcDbArc
 50
157.7078951978999
 51
-157.7078951978999
  0
ARC
  5
D0
330
1F
100
AcDbEntity
  8
0
  6
Continuous
 62
     7
100
AcDbCircle
 10
257.235972332055
 20
145.965936078659
 30
0.0
 40
63.49999999999953
100
AcDbArc
 50
94.5486217047168
 51
152.8083399531002
  0
ARC
  5
D1
330
1F
100
AcDbEntity
  8
0
  6
Continuous
 62
     7
100
AcDbCircle
 10
257.235972332055
 20
145.965936078659
 30
0.0
 40
64.30000000004783
100
AcDbArc
 50
-157.6741797934818
 51
-153.1739700113027
  0
ARC
  5
D2
330
1F
100
AcDbEntity
  8
0
  6
Continuous
 62
     7
100
AcDbCircle
 10
257.235972332055
 20
145.965936078659
 30
0.0
 40
63.49999999999954
100
AcDbArc
 50
-152.8083399531002
 51
-94.5486217047168
  0
ARC
  5
D3
330
1F
100
AcDbEntity
  8
0
  6
Continuous
 62
     7
100
AcDbCircle
 10
257.235972332055
 20
145.965936078659
 30
0.0
 40
64.30000000000986
100
AcDbArc
 50
22.32582020643574
 51
26.82602998857749
  0
ARC
  5
D4
330
1F
100
AcDbEntity
  8
0
  6
Continuous
 62
     7
100
AcDbCircle
 10
257.235972332055
 20
145.965936078659
 30
0.0
 40
63.49999999999957
100
AcDbArc
 50
-85.45137829528318
 51
-27.19166004689983
  0
ARC
  5
D5
330
1F
100
AcDbEntity
  8
0
  6
Continuous
 62
     7
100
AcDbCircle
 10
257.235972332055
 20
145.965936078659
 30
0.0
 40
63.50000000000057
100
AcDbArc
 50
-22.29210480210006
 51
22.29210480210004
  0
ARC
  5
D6
330
1F
100
AcDbEntity
  8
0
  6
Continuous
 62
     7
100
AcDbCircle
 10
257.235972332055
 20
145.965936078659
 30
0.0
 40
63.49999999999956
100
AcDbArc
 50
27.19166004689982
 51
85.45137829528318
  0
ARC
  5
D7
330
1F
100
AcDbEntity
  8
0
  6
Continuous
 62
     7
100
AcDbCircle
 10
257.235972332055
 20
145.965936078659
 30
0.0
 40
64.30000000004726
100
AcDbArc
 50
-26.82602998865702
 51
-22.32582020651819
  0
ARC
  5
D8
330
1F
100
AcDbEntity
  8
0
  6
Continuous
 62
     7
100
AcDbCircle
 10
259.735972332055
 20
208.215755355459
 30
0.0
 40
0.4999999999539591
100
AcDbArc
 50
-92.29980608924565
 51
0.0
  0
ARC
  5
D9
330
1F
100
AcDbEntity
  8
0
  6
Continuous
 62
     7
100
AcDbCircle
 10
254.735972332055
 20
208.215755355459
 30
0.0
 40
0.5
100
AcDbArc
 50
180.0
 51
-87.70019391073816
  0
ARC
  5
DA
330
1F
100
AcDbEntity
  8
0
  6
Continuous
 62
     7
100
AcDbCircle
 10
257.235972332055
 20
145.965936078659
 30
0.0
 40
61.79999999999998
100
AcDbArc
 50
87.70019390859981
 51
92.29980609140004
  0
CIRCLE
  5
DB
330
1F
100
AcDbEntity
  8
0
  6
Continuous
 62
     7
100
AcDbCircle
 10
257.235972332055
 20
145.965936078659
 30
0.0
 40
61.05000000000001
  0
CIRCLE
  5
DC
330
1F
100
AcDbEntity
  8
0
  6
Continuous
 62
     7
100
AcDbCircle
 10
257.235972332055
 20
145.965936078659
 30
0.0
 40
60.99180272789999
  0
CIRCLE
  5
DD
330
1F
100
AcDbEntity
  8
0
  6
Continuous
 62
     7
100
AcDbCircle
 10
257.235972332055
 20
145.965936078659
 30
0.0
 40
61.25952461700001
  0
CIRCLE
  5
DE
330
1F
100
AcDbEntity
  8
0
  6
Continuous
 62
     7
100
AcDbCircle
 10
257.235972332055
 20
145.965936078659
 30
0.0
 40
64.5
  0
SPLINE
  5
DF
330
1F
100
AcDbEntity
  8
0
  6
Continuous
 62
     7
100
AcDbSpline
210
0.0
220
0.0
230
1.0
 70
     8
 71
     3
 72
    31
 73
    27
 74
    25
 42
0.0000000001
 43
0.0000000001
 44
0.00000001
 40
0.0
 40
0.0
 40
0.0
 40
0.0
 40
0.0795612811258351
 40
0.1591255632030336
 40
0.1840154502939872
 40
0.2088630180777386
 40
0.233699195673016
 40
0.2585483693532888
 40
0.28778095818146
 40
0.3170096925247934
 40
0.3462455594414585
 40
0.3754832549462848
 40
0.4093042586562535
 40
0.4431250771784386
 40
0.4769442424599005
 40
0.5107639414275891
 40
0.5480340326196436
 40
0.5853040255832316
 40
0.6225738617317542
 40
0.6598440384172475
 40
0.7000221570441308
 40
0.7402000243904094
 40
0.780377409665809
 40
0.820555853707199
 40
0.9918391347908365
 40
1.163122416220383
 40
1.163122416220383
 40
1.163122416220383
 40
1.163122416220383
 10
146.427388471355
 20
169.968687843759
 30
0.0
 10
146.4237695030991
 20
169.9953275566629
 30
0.0
 10
146.4165314300843
 20
170.0486079872871
 30
0.0
 10
146.3796223998584
 20
170.1000406588349
 30
0.0
 10
146.3505928148444
 20
170.1317571480388
 30
0.0
 10
146.3325545765224
 20
170.14891654034
 30
0.0
 10
146.3136090319236
 20
170.1649971432588
 30
0.0
 10
146.2927169521343
 20
170.1810000371201
 30
0.0
 10
146.2699057428335
 20
170.1968554993962
 30
0.0
 10
146.2451588405918
 20
170.2124331897292
 30
0.0
 10
146.2197922101923
 20
170.2269796569904
 30
0.0
 10
146.1925534936431
 20
170.2412938114276
 30
0.0
 10
146.163451376841
 20
170.2553073277781
 30
0.0
 10
146.1324832696595
 20
170.2689164948092
 30
0.0
 10
146.101099111912
 20
170.2815329069626
 30
0.0
 10
146.0682852812524
 20
170.2936336736686
 30
0.0
 10
146.034062269715
 20
170.3051998029386
 30
0.0
 10
145.99844074661
 20
170.3161758481102
 30
0.0
 10
145.9625530990283
 20
170.3262460641281
 30
0.0
 10
145.9254985678748
 20
170.3357043143839
 30
0.0
 10
145.8872929359507
 20
170.3445325570162
 30
0.0
 10
145.8479487345925
 20
170.3526888718447
 30
0.0
 10
145.8084373138869
 20
170.3599990603641
 30
0.0
 10
145.7256566867918
 20
170.3735189730924
 30
0.0
 10
145.5987040082963
 20
170.3882312644373
 30
0.0
 10
145.4844936503739
 20
170.3905931737843
 30
0.0
 10
145.427388471355
 20
170.391774128459
 30
0.0
 11
146.427388471355
 21
169.968687843759
 31
0.0
 11
146.4103621367049
 21
170.0464059329196
 31
0.0
 11
146.3672054753554
 21
170.1132488649589
 31
0.0
 11
146.3503669046551
 21
170.1315783225661
 31
0.0
 11
146.3323989072532
 21
170.1487408600863
 31
0.0
 11
146.3134814656283
 21
170.1648332843882
 31
0.0
 11
146.2937737341547
 21
170.1799688964591
 31
0.0
 11
146.2697822494856
 21
170.1966707799747
 31
0.0
 11
146.2450578369275
 21
170.2122599536207
 31
0.0
 11
146.2197066068057
 21
170.2268219262096
 31
0.0
 11
146.1938347571553
 21
170.2404414061595
 31
0.0
 11
146.1633696960191
 21
170.2551295082122
 31
0.0
 11
146.1324133533274
 21
170.2687512780189
 31
0.0
 11
146.1010408127158
 21
170.2813805945447
 31
0.0
 11
146.0693155374551
 21
170.2930972044595
 31
0.0
 11
146.0340107612978
 21
170.3050400884474
 31
0.0
 11
145.9983963470278
 21
170.3160248902986
 31
0.0
 11
145.9625152846034
 21
170.3261040790474
 31
0.0
 11
145.9264055540554
 21
170.335331940659
 31
0.0
 11
145.8872604719821
 21
170.3443842202543
 31
0.0
 11
145.8479207249032
 21
170.3525478790088
 31
0.0
 11
145.8084143237475
 21
170.3598599618374
 31
0.0
 11
145.7687648791553
 21
170.3663583392594
 31
0.0
 11
145.5985578918626
 21
170.3855297725789
 31
0.0
 11
145.427388471355
 21
170.391774128459
 31
0.0
  0
SPLINE
  5
E0
330
1F
100
AcDbEntity
  8
0
  6
Continuous
 62
     7
100
AcDbSpline
210
0.0
220
0.0
230
1.0
 70
     8
 71
     3
 72
    31
 73
    27
 74
    25
 42
0.0000000001
 43
0.0000000001
 44
0.00000001
 40
0.0
 40
0.0
 40
0.0
 40
0.0
 40
0.1712612265524962
 40
0.3425224527518865
 40
0.3826983254887847
 40
0.4228731396200345
 40
0.4630484394946691
 40
0.5032239910405284
 40
0.5404978982356927
 40
0.5777714652192719
 40
0.6150451887962729
 40
0.6523190102385447
 40
0.6861398715664657
 40
0.7199601992011525
 40
0.7537821772792926
 40
0.7876043402837923
 40
0.8168413625802879
 40
0.8460765556958232
 40
0.8753046110596777
 40
0.9045365238878891
 40
0.9293889637865284
 40
0.954228402829986
 40
0.9790792775955157
 40
1.00397249014921
 40
1.083548812735611
 40
1.16312212390224
 40
1.16312212390224
 40
1.16312212390224
 40
1.16312212390224
 10
145.427388471355
 20
121.540098028759
 30
0.0
 10
145.4844862945613
 20
121.5412786855399
 30
0.0
 10
145.5986819408561
 20
121.5436399990993
 30
0.0
 10
145.7256192983579
 20
121.558348525051
 30
0.0
 10
145.8083912858473
 20
121.5718650974309
 30
0.0
 10
145.8479003612891
 20
121.5791738289807
 30
0.0
 10
145.887242272567
 20
121.587328532349
 30
0.0
 10
145.9254477187964
 20
121.5961554945602
 30
0.0
 10
145.96250413602
 20
121.6056129534259
 30
0.0
 10
145.9983956968455
 20
121.6156830338963
 30
0.0
 10
146.0340211315752
 20
121.6266590548742
 30
0.0
 10
146.0682472277635
 20
121.6382250362676
 30
0.0
 10
146.1010633368001
 20
121.6503254571345
 30
0.0
 10
146.1324489953298
 20
121.6629412485422
 30
0.0
 10
146.1634186491734
 20
121.6765497787086
 30
0.0
 10
146.1925217915239
 20
121.6905624278839
 30
0.0
 10
146.2197610427629
 20
121.7048754266395
 30
0.0
 10
146.2451277675851
 20
121.7194203663654
 30
0.0
 10
146.2698749357595
 20
121.7349963584474
 30
0.0
 10
146.2926876555515
 20
121.7508507560001
 30
0.0
 10
146.3135823805059
 20
121.7668534052985
 30
0.0
 10
146.3325315451935
 20
121.7829348076859
 30
0.0
 10
146.3505733860747
 20
121.8000952112071
 30
0.0
 10
146.3796093767745
 20
121.8318142170116
 30
0.0
 10
146.4165279360816
 20
121.8832520768966
 30
0.0
 10
146.4237683385981
 20
121.9365405707121
 30
0.0
 10
146.427388471355
 20
121.963184313459
 30
0.0
 11
145.427388471355
 21
121.540098028759
 31
0.0
 11
145.5985358810336
 21
121.5463407749958
 31
0.0
 11
145.7687212477553
 21
121.5655071140595
 31
0.0
 11
145.8083683029565
 21
121.5720041721667
 31
0.0
 11
145.8478723593647
 21
121.579314795791
 31
0.0
 11
145.8872098191765
 21
121.5874768406066
 31
0.0
 11
145.9263526790556
 21
121.5965273357589
 31
0.0
 11
145.9624663216089
 21
121.6057549562063
 31
0.0
 11
145.9983512970775
 21
121.6158340102937
 31
0.0
 11
146.0339696225613
 21
121.6268187888088
 31
0.0
 11
146.0692783051547
 21
121.6387617657589
 31
0.0
 11
146.1010050441276
 21
121.6504777674278
 31
0.0
 11
146.1323790876524
 21
121.6631064630938
 31
0.0
 11
146.1633369776673
 21
121.6767275954603
 31
0.0
 11
146.1938036413551
 21
121.6914150429593
 31
0.0
 11
146.2196754614975
 21
121.705033133695
 31
0.0
 11
146.2450267941886
 21
121.7195935748726
 31
0.0
 11
146.2697514778244
 21
121.7351810454648
 31
0.0
 11
146.2937434557547
 21
121.7518810371591
 31
0.0
 11
146.3134548126016
 21
121.7670172909944
 31
0.0
 11
146.3323758589929
 21
121.7831105111648
 31
0.0
 11
146.3503474532619
 21
121.8002740707036
 31
0.0
 11
146.3671895711552
 21
121.818604785259
 31
0.0
 11
146.4103571473027
 21
121.8854550020569
 31
0.0
 11
146.427388471355
 21
121.963184313459
 31
0.0
  0
SPLINE
  5
E1
330
1F
100
AcDbEntity
  8
0
  6
Continuous
 62
     7
100
AcDbSpline
210
0.0
220
0.0
230
1.0
 70
     8
 71
     3
 72
     9
 73
     5
 74
     3
 42
0.0000000001
 43
0.0000000001
 44
0.00000001
 40
0.0
 40
0.0
 40
0.0
 40
0.0
 40
0.2674867481823568
 40
0.534973496364805
 40
0.534973496364805
 40
0.534973496364805
 40
0.534973496364805
 10
146.427388471355
 20
114.373102173559
 30
0.0
 10
146.3407859970791
 20
114.3518908990486
 30
0.0
 10
146.1675810485273
 20
114.3094683500279
 30
0.0
 10
145.9943758355458
 20
114.2670468806486
 30
0.0
 10
145.907773229055
 20
114.245836145959
 30
0.0
 11
146.427388471355
 21
114.373102173559
 31
0.0
 11
146.1675809824199
 21
114.3094686199383
 31
0.0
 11
145.907773229055
 21
114.245836145959
 31
0.0
  0
SPLINE
  5
E2
330
1F
100
AcDbEntity
  8
0
  6
Continuous
 62
     7
100
AcDbSpline
210
0.0
220
0.0
230
1.0
 70
     8
 71
     3
 72
     9
 73
     5
 74
     3
 42
0.0000000001
 43
0.0000000001
 44
0.00000001
 40
0.0
 40
0.0
 40
0.0
 40
0.0
 40
0.2674867481943331
 40
0.5349734963885909
 40
0.5349734963885909
 40
0.5349734963885909
 40
0.5349734963885909
 10
146.427388471355
 20
177.558769983659
 30
0.0
 10
146.3407859970725
 20
177.5799812581594
 30
0.0
 10
146.1675810485077
 20
177.6224038071603
 30
0.0
 10
145.9943758355392
 20
177.6648252766261
 30
0.0
 10
145.907773229055
 20
177.686036011359
 30
0.0
 11
146.427388471355
 21
177.558769983659
 31
0.0
 11
146.1675809824067
 21
177.6224035372765
 31
0.0
 11
145.907773229055
 21
177.686036011359
 31
0.0
  0
SPLINE
  5
E3
330
1F
100
AcDbEntity
  8
0
  6
Continuous
 62
     2
100
AcDbSpline
210
0.0
220
0.0
230
1.0
 70
     8
 71
     3
 72
     9
 73
     5
 74
     3
 42
0.0000000001
 43
0.0000000001
 44
0.00000001
 40
0.0
 40
0.0
 40
0.0
 40
0.0
 40
0.2674884173921739
 40
0.5349768347847674
 40
0.5349768347847674
 40
0.5349768347847674
 40
0.5349768347847674
 10
145.907773229055
 20
114.754928186659
 30
0.0
 10
145.9943757004145
 20
114.7337145615061
 30
0.0
 10
146.1675806431337
 20
114.6912873112001
 30
0.0
 10
146.3407858619479
 20
114.6488611880394
 30
0.0
 10
146.427388471355
 20
114.627648126459
 30
0.0
 11
145.907773229055
 21
114.754928186659
 31
0.0
 11
146.1675807121574
 21
114.6912875929865
 31
0.0
 11
146.427388471355
 21
114.627648126459
 31
0.0
  0
SPLINE
  5
E4
330
1F
100
AcDbEntity
  8
0
  6
Continuous
 62
     2
100
AcDbSpline
210
0.0
220
0.0
230
1.0
 70
     8
 71
     3
 72
     9
 73
     5
 74
     3
 42
0.0000000001
 43
0.0000000001
 44
0.00000001
 40
0.0
 40
0.0
 40
0.0
 40
0.0
 40
0.2674884173924756
 40
0.5349768347847679
 40
0.5349768347847679
 40
0.5349768347847679
 40
0.5349768347847679
 10
146.427388471355
 20
177.304224030759
 30
0.0
 10
146.3407858619349
 20
177.2830109692316
 30
0.0
 10
146.1675806430948
 20
177.2405848461769
 30
0.0
 10
145.9943757004016
 20
177.198157595765
 30
0.0
 10
145.907773229055
 20
177.176943970559
 30
0.0
 11
146.427388471355
 21
177.304224030759
 31
0.0
 11
146.1675807121315
 21
177.2405845643376
 31
0.0
 11
145.907773229055
 21
177.176943970559
 31
0.0
  0
SPLINE
  5
E5
330
1F
100
AcDbEntity
  8
0
  6
Continuous
 62
     2
100
AcDbSpline
210
0.0
220
0.0
230
1.0
 70
     8
 71
     3
 72
     9
 73
     5
 74
     3
 42
0.0000000001
 43
0.0000000001
 44
0.00000001
 40
0.0
 40
0.0
 40
0.0
 40
0.0
 40
0.2674470853418947
 40
0.5348941706835684
 40
0.5348941706835684
 40
0.5348941706835684
 40
0.5348941706835684
 10
146.427388471355
 20
169.672518670759
 30
0.0
 10
146.3407859196084
 20
169.6513633569092
 30
0.0
 10
146.1675808161154
 20
169.6090527292097
 30
0.0
 10
145.9943757580751
 20
169.5667419154425
 30
0.0
 10
145.907773229055
 20
169.545586508559
 30
0.0
 11
146.427388471355
 21
169.672518670759
 31
0.0
 11
146.1675808274785
 21
169.6090526826927
 31
0.0
 11
145.907773229055
 21
169.545586508559
 31
0.0
  0
SPLINE
  5
E6
330
1F
100
AcDbEntity
  8
0
  6
Continuous
 62
     2
100
AcDbSpline
210
0.0
220
0.0
230
1.0
 70
     8
 71
     3
 72
     9
 73
     5
 74
     3
 42
0.0000000001
 43
0.0000000001
 44
0.00000001
 40
0.0
 40
0.0
 40
0.0
 40
0.0
 40
0.2674470854368245
 40
0.5348941708734141
 40
0.5348941708734141
 40
0.5348941708734141
 40
0.5348941708734141
 10
146.427388471355
 20
122.259353485659
 30
0.0
 10
146.340785919668
 20
122.2805087998862
 30
0.0
 10
146.1675808162942
 20
122.3228194283407
 30
0.0
 10
145.9943757581348
 20
122.3651302418862
 30
0.0
 10
145.907773229055
 20
122.386285648659
 30
0.0
 11
146.427388471355
 21
122.259353485659
 31
0.0
 11
146.1675808275978
 21
122.3228194746135
 31
0.0
 11
145.907773229055
 21
122.386285648659
 31
0.0
  0
MTEXT
  5
E8
330
1F
100
AcDbEntity
  8
1
 62
     2
100
AcDbMText
 10
359.202778860371
 20
69.4715889608126
 30
0.0
 40
5.0
 41
0.0
 71
     5
 72
     1
  1
View A
  7
CONVERTER_12
 73
     1
 44
1.0
  0
MTEXT
  5
E9
330
1F
100
AcDbEntity
  8
1
 62
     2
100
AcDbMText
 10
355.961081649527
 20
145.965936078659
 30
0.0
 40
4.0
 41
0.0
 71
     5
 72
     1
  1
View A
  7
CONVERTER_12
 73
     1
 44
1.0
  0
DIMENSION
  5
F4
330
1F
100
AcDbEntity
  8
1
100
AcDbDimension
  2
*D2
 10
353.3760116218608
 20
112.738339293374
 30
0.0
 11
348.445053326711
 21
115.238339293374
 31
0.0
 70
    32
  1
8
 71
     5
 42
-1.0
 53
0.00013888888889
  3
ME10_DIM_10
100
AcDbAlignedDimension
 13
361.376011621861
 23
105.004441225805
 33
0.0
 14
353.376011621861
 24
107.004441225805
 34
0.0
100
AcDbRotatedDimension
  0
DIMENSION
  5
FF
330
1F
100
AcDbEntity
  8
1
100
AcDbDimension
  2
*D3
 10
344.152025756499
 20
89.0044412258046
 30
0.0
 11
341.652025756499
 21
98.0044412258046
 31
0.0
 70
    32
  1
18
 71
     5
 42
-1.0
 53
90.0
  3
ME10_DIM_11
100
AcDbAlignedDimension
 13
353.376011621861
 23
107.004441225805
 33
0.0
 14
353.376011621861
 24
89.0044412258046
 34
0.0
 50
90.0
100
AcDbRotatedDimension
  0
DIMENSION
  5
10A
330
1F
100
AcDbEntity
  8
1
100
AcDbDimension
  2
*D4
 10
70.4273884713549
 20
228.465893025659
 30
0.0
 11
108.427388471355
 21
230.965893025659
 31
0.0
 70
    32
  1
(76
 71
     5
 42
-1.0
 53
0.00013888888889
  3
ME10_DIM_12
100
AcDbAlignedDimension
 13
146.427388471355
 23
209.165936078659
 33
0.0
 14
70.4273884713551
 24
145.965936078659
 34
0.0
100
AcDbRotatedDimension
  0
DIMENSION
  5
115
330
1F
100
AcDbEntity
  8
1
100
AcDbDimension
  2
*D5
 10
137.927388471355
 20
222.465893025659
 30
0.0
 11
142.177388471355
 21
224.965893025659
 31
0.0
 70
    32
  1
8.5
 71
     5
 42
-1.0
 53
0.00013888888889
  3
ME10_DIM_13
100
AcDbAlignedDimension
 13
146.427388471355
 23
209.165936078659
 33
0.0
 14
137.927388471355
 24
210.465893025659
 34
0.0
100
AcDbRotatedDimension
  0
DIMENSION
  5
120
330
1F
100
AcDbEntity
  8
1
100
AcDbDimension
  2
*D6
 10
58.42738847135501
 20
82.67941489973519
 30
0.0
 11
55.927388471355
 21
143.591002936564
 31
0.0
 70
    32
  1
(ƒÓ126.6
 71
     5
 42
-1.0
 53
90.0
  3
ME10_DIM_14
100
AcDbAlignedDimension
 13
136.927388471271
 23
209.252457257483
 33
0.0
 14
136.927388471355
 24
82.6794148997352
 34
0.0
 50
90.0
100
AcDbRotatedDimension
  0
DIMENSION
  5
12B
330
1F
100
AcDbEntity
  8
1
100
AcDbDimension
  2
*D7
 10
136.927388471355
 20
216.465893025659
 30
0.0
 11
129.194332400384
 21
218.965893025659
 31
0.0
 70
    32
  1
1
 71
     5
 42
-1.0
 53
0.00013888888889
  3
ME10_DIM_15
100
AcDbAlignedDimension
 13
137.927388471355
 23
210.465893025659
 33
0.0
 14
136.927388471355
 24
209.965936078659
 34
0.0
100
AcDbRotatedDimension
  0
DIMENSION
  5
136
330
1F
100
AcDbEntity
  8
1
100
AcDbDimension
  2
*D8
 10
70.4273884713549
 20
222.465893025659
 30
0.0
 11
104.177388471355
 21
224.965893025659
 31
0.0
 70
    32
  1
67.5
 71
     5
 42
-1.0
 53
0.00013888888889
  3
ME10_DIM_16
100
AcDbAlignedDimension
 13
137.927388471355
 23
210.465893025659
 33
0.0
 14
70.4273884713551
 24
145.965936078659
 34
0.0
100
AcDbRotatedDimension
  0
DIMENSION
  5
141
330
1F
100
AcDbEntity
  8
1
100
AcDbDimension
  2
*D9
 10
170.427388471355
 20
210.465893025659
 30
0.0
 11
167.927388471355
 21
145.965914552159
 31
0.0
 70
    32
  1
ƒÆ129
 71
     5
 42
-1.0
 53
90.0
  3
ME10_DIM_17
100
AcDbAlignedDimension
 13
137.927388471355
 23
81.465936078659
 33
0.0
 14
137.927388471355
 24
210.465893025659
 34
0.0
 50
90.0
100
AcDbRotatedDimension
  0
DIMENSION
  5
14C
330
1F
100
AcDbEntity
  8
1
100
AcDbDimension
  2
*D10
 10
164.427388471355
 20
82.665936078659
 30
0.0
 11
161.927388471355
 21
147.998126268492
 31
0.0
 70
    32
  1
ƒÆ126.6
 71
     5
 42
-1.0
 53
90.0
  3
ME10_DIM_18
100
AcDbAlignedDimension
 13
146.254183390555
 23
209.265936078659
 33
0.0
 14
145.907773229055
 24
82.665936078659
 34
0.0
 50
90.0
100
AcDbRotatedDimension
  0
ENDSEC
  0
SECTION
  2
OBJECTS
  0
DICTIONARY
  5
C
330
0
100
AcDbDictionary
281
     1
  3
ACAD_GROUP
350
D
  3
ACAD_LAYOUT
350
1A
  3
ACAD_MLINESTYLE
350
17
  3
ACAD_PLOTSETTINGS
350
19
  3
ACAD_PLOTSTYLENAME
350
E
  0
DICTIONARY
  5
D
102
{ACAD_REACTORS
330
C
102
}
330
C
100
AcDbDictionary
281
     1
  0
DICTIONARY
  5
1A
102
{ACAD_REACTORS
330
C
102
}
330
C
100
AcDbDictionary
281
     1
  3
Layout1
350
1E
  3
Layout2
350
26
  3
Model
350
22
  0
DICTIONARY
  5
17
102
{ACAD_REACTORS
330
C
102
}
330
C
100
AcDbDictionary
281
     1
  3
Standard
350
18
  0
DICTIONARY
  5
19
102
{ACAD_REACTORS
330
C
102
}
330
C
100
AcDbDictionary
281
     1
  0
ACDBDICTIONARYWDFLT
  5
E
102
{ACAD_REACTORS
330
C
102
}
330
C
100
AcDbDictionary
281
     1
  3
Normal
350
F
100
AcDbDictionaryWithDefault
340
F
  0
LAYOUT
  5
1E
102
{ACAD_REACTORS
330
1A
102
}
330
1A
100
AcDbPlotSettings
  1

  2

  4

  6

 40
0.0
 41
0.0
 42
0.0
 43
0.0
 44
0.0
 45
0.0
 46
0.0
 47
0.0
 48
0.0
 49
0.0
140
0.0
141
0.0
142
1.0
143
1.0
 70
   688
 72
     0
 73
     0
 74
     5
  7

 75
    16
147
1.0
148
0.0
149
0.0
100
AcDbLayout
  1
Layout1
 70
     1
 71
     1
 10
0.0
 20
0.0
 11
0.0
 21
0.0
 12
0.0
 22
0.0
 32
0.0
 14
0.0
 24
0.0
 34
0.0
 15
0.0
 25
0.0
 35
0.0
146
0.0
 13
0.0
 23
0.0
 33
0.0
 16
1.0
 26
0.0
 36
0.0
 17
0.0
 27
1.0
 37
0.0
 76
     0
330
1B
  0
LAYOUT
  5
26
102
{ACAD_REACTORS
330
1A
102
}
330
1A
100
AcDbPlotSettings
  1

  2

  4

  6

 40
0.0
 41
0.0
 42
0.0
 43
0.0
 44
0.0
 45
0.0
 46
0.0
 47
0.0
 48
0.0
 49
0.0
140
0.0
141
0.0
142
1.0
143
1.0
 70
   688
 72
     0
 73
     0
 74
     5
  7

 75
    16
147
1.0
148
0.0
149
0.0
100
AcDbLayout
  1
Layout2
 70
     1
 71
     2
 10
0.0
 20
0.0
 11
0.0
 21
0.0
 12
0.0
 22
0.0
 32
0.0
 14
0.0
 24
0.0
 34
0.0
 15
0.0
 25
0.0
 35
0.0
146
0.0
 13
0.0
 23
0.0
 33
0.0
 16
1.0
 26
0.0
 36
0.0
 17
0.0
 27
1.0
 37
0.0
 76
     0
330
23
  0
LAYOUT
  5
22
102
{ACAD_REACTORS
330
1A
102
}
330
1A
100
AcDbPlotSettings
  1

  2

  4

  6

 40
0.0
 41
0.0
 42
0.0
 43
0.0
 44
0.0
 45
0.0
 46
0.0
 47
0.0
 48
0.0
 49
0.0
140
0.0
141
0.0
142
1.0
143
1.0
 70
  1712
 72
     0
 73
     0
 74
     0
  7

 75
     0
147
1.0
148
0.0
149
0.0
100
AcDbLayout
  1
Model
 70
     1
 71
     0
 10
0.0
 20
0.0
 11
0.0
 21
0.0
 12
0.0
 22
0.0
 32
0.0
 14
54.427388471355
 24
66.1725635634138
 34
0.0
 15
371.588890561473
 25
232.4659016126745
 35
0.0
146
0.0
 13
0.0
 23
0.0
 33
0.0
 16
1.0
 26
0.0
 36
0.0
 17
0.0
 27
1.0
 37
0.0
 76
     0
330
1F
  0
MLINESTYLE
  5
18
102
{ACAD_REACTORS
330
17
102
}
330
17
100
AcDbMlineStyle
  2
Standard
 70
     0
  3

 62
   256
 51
90.0
 52
90.0
 71
     2
 49
0.5
 62
   256
  6
BYLAYER
 49
-0.5
 62
   256
  6
BYLAYER
  0
ACDBPLACEHOLDER
  5
F
102
{ACAD_REACTORS
330
E
102
}
330
E
  0
ENDSEC
  0
EOF
