  0
SECTION
  2
HEADER
  9
$ACADVER
  1
AC1015
  9
$ACADMAINTVER
 70
     6
  9
$DWGCODEPAGE
  3
ANSI_1252
  9
$INSBASE
 10
0.0
 20
0.0
 30
0.0
  9
$EXTMIN
 10
6917.44130524216
 20
-9578.97553475422
 30
0.0
  9
$EXTMAX
 10
7273.78097882745
 20
-9378.64954805067
 30
0.0
  9
$LIMMIN
 10
0.0
 20
0.0
  9
$LIMMAX
 10
12.0
 20
9.0
  9
$ORTHOMODE
 70
     0
  9
$REGENMODE
 70
     1
  9
$FILLMODE
 70
     1
  9
$QTEXTMODE
 70
     0
  9
$MIRRTEXT
 70
     1
  9
$LTSCALE
 40
1.0
  9
$ATTMODE
 70
     1
  9
$TEXTSIZE
 40
0.2
  9
$TRACEWID
 40
0.05
  9
$TEXTSTYLE
  7
Standard
  9
$CLAYER
  8
0
  9
$CELTYPE
  6
ByLayer
  9
$CECOLOR
 62
   256
  9
$CELTSCALE
 40
1.0
  9
$DISPSILH
 70
     0
  9
$DIMSCALE
 40
1.0
  9
$DIMASZ
 40
0.18
  9
$DIMEXO
 40
0.0625
  9
$DIMDLI
 40
0.38
  9
$DIMRND
 40
0.0
  9
$DIMDLE
 40
0.0
  9
$DIMEXE
 40
0.18
  9
$DIMTP
 40
0.0
  9
$DIMTM
 40
0.0
  9
$DIMTXT
 40
0.18
  9
$DIMCEN
 40
0.09
  9
$DIMTSZ
 40
0.0
  9
$DIMTOL
 70
     0
  9
$DIMLIM
 70
     0
  9
$DIMTIH
 70
     1
  9
$DIMTOH
 70
     1
  9
$DIMSE1
 70
     0
  9
$DIMSE2
 70
     0
  9
$DIMTAD
 70
     0
  9
$DIMZIN
 70
     0
  9
$DIMBLK
  1

  9
$DIMASO
 70
     1
  9
$DIMSHO
 70
     1
  9
$DIMPOST
  1

  9
$DIMAPOST
  1

  9
$DIMALT
 70
     0
  9
$DIMALTD
 70
     2
  9
$DIMALTF
 40
25.4
  9
$DIMLFAC
 40
1.0
  9
$DIMTOFL
 70
     0
  9
$DIMTVP
 40
0.0
  9
$DIMTIX
 70
     0
  9
$DIMSOXD
 70
     0
  9
$DIMSAH
 70
     0
  9
$DIMBLK1
  1

  9
$DIMBLK2
  1

  9
$DIMSTYLE
  2
Standard
  9
$DIMCLRD
 70
     0
  9
$DIMCLRE
 70
     0
  9
$DIMCLRT
 70
     0
  9
$DIMTFAC
 40
1.0
  9
$DIMGAP
 40
0.09
  9
$DIMJUST
 70
     0
  9
$DIMSD1
 70
     0
  9
$DIMSD2
 70
     0
  9
$DIMTOLJ
 70
     1
  9
$DIMTZIN
 70
     0
  9
$DIMALTZ
 70
     0
  9
$DIMALTTZ
 70
     0
  9
$DIMUPT
 70
     0
  9
$DIMDEC
 70
     4
  9
$DIMTDEC
 70
     4
  9
$DIMALTU
 70
     2
  9
$DIMALTTD
 70
     2
  9
$DIMTXSTY
  7
Standard
  9
$DIMAUNIT
 70
     0
  9
$DIMADEC
 70
     0
  9
$DIMALTRND
 40
0.0
  9
$DIMAZIN
 70
     0
  9
$DIMDSEP
 70
    46
  9
$DIMATFIT
 70
     3
  9
$DIMFRAC
 70
     0
  9
$DIMLDRBLK
  1

  9
$DIMLUNIT
 70
     2
  9
$DIMLWD
 70
    -2
  9
$DIMLWE
 70
    -2
  9
$DIMTMOVE
 70
     0
  9
$LUNITS
 70
     2
  9
$LUPREC
 70
     4
  9
$SKETCHINC
 40
0.1
  9
$FILLETRAD
 40
0.5
  9
$AUNITS
 70
     0
  9
$AUPREC
 70
     0
  9
$MENU
  1
.
  9
$ELEVATION
 40
0.0
  9
$PELEVATION
 40
0.0
  9
$THICKNESS
 40
0.0
  9
$LIMCHECK
 70
     0
  9
$CHAMFERA
 40
0.5
  9
$CHAMFERB
 40
0.5
  9
$CHAMFERC
 40
1.0
  9
$CHAMFERD
 40
0.0
  9
$SKPOLY
 70
     0
  9
$TDCREATE
 40
2456267.69151081
  9
$TDUCREATE
 40
2456267.31651081
  9
$TDUPDATE
 40
2456267.691510822
  9
$TDUUPDATE
 40
2456267.316510822
  9
$TDINDWG
 40
0.0000000116
  9
$TDUSRTIMER
 40
0.0000000116
  9
$USRTIMER
 70
     1
  9
$ANGBASE
 50
0.0
  9
$ANGDIR
 70
     0
  9
$PDMODE
 70
     0
  9
$PDSIZE
 40
0.0
  9
$PLINEWID
 40
0.0
  9
$SPLFRAME
 70
     0
  9
$SPLINETYPE
 70
     6
  9
$SPLINESEGS
 70
     8
  9
$HANDSEED
  5
1EC
  9
$SURFTAB1
 70
     6
  9
$SURFTAB2
 70
     6
  9
$SURFTYPE
 70
     6
  9
$SURFU
 70
     6
  9
$SURFV
 70
     6
  9
$UCSBASE
  2

  9
$UCSNAME
  2

  9
$UCSORG
 10
0.0
 20
0.0
 30
0.0
  9
$UCSXDIR
 10
1.0
 20
0.0
 30
0.0
  9
$UCSYDIR
 10
0.0
 20
1.0
 30
0.0
  9
$UCSORTHOREF
  2

  9
$UCSORTHOVIEW
 70
     0
  9
$UCSORGTOP
 10
0.0
 20
0.0
 30
0.0
  9
$UCSORGBOTTOM
 10
0.0
 20
0.0
 30
0.0
  9
$UCSORGLEFT
 10
0.0
 20
0.0
 30
0.0
  9
$UCSORGRIGHT
 10
0.0
 20
0.0
 30
0.0
  9
$UCSORGFRONT
 10
0.0
 20
0.0
 30
0.0
  9
$UCSORGBACK
 10
0.0
 20
0.0
 30
0.0
  9
$PUCSBASE
  2

  9
$PUCSNAME
  2

  9
$PUCSORG
 10
0.0
 20
0.0
 30
0.0
  9
$PUCSXDIR
 10
1.0
 20
0.0
 30
0.0
  9
$PUCSYDIR
 10
0.0
 20
1.0
 30
0.0
  9
$PUCSORTHOREF
  2

  9
$PUCSORTHOVIEW
 70
     0
  9
$PUCSORGTOP
 10
0.0
 20
0.0
 30
0.0
  9
$PUCSORGBOTTOM
 10
0.0
 20
0.0
 30
0.0
  9
$PUCSORGLEFT
 10
0.0
 20
0.0
 30
0.0
  9
$PUCSORGRIGHT
 10
0.0
 20
0.0
 30
0.0
  9
$PUCSORGFRONT
 10
0.0
 20
0.0
 30
0.0
  9
$PUCSORGBACK
 10
0.0
 20
0.0
 30
0.0
  9
$USERI1
 70
     0
  9
$USERI2
 70
     0
  9
$USERI3
 70
     0
  9
$USERI4
 70
     0
  9
$USERI5
 70
     0
  9
$USERR1
 40
14.5
  9
$USERR2
 40
0.0
  9
$USERR3
 40
0.0
  9
$USERR4
 40
0.0
  9
$USERR5
 40
0.0
  9
$WORLDVIEW
 70
     1
  9
$SHADEDGE
 70
     3
  9
$SHADEDIF
 70
    70
  9
$TILEMODE
 70
     1
  9
$MAXACTVP
 70
    64
  9
$PINSBASE
 10
0.0
 20
0.0
 30
0.0
  9
$PLIMCHECK
 70
     0
  9
$PEXTMIN
 10
1.00000000000000E+20
 20
1.00000000000000E+20
 30
1.00000000000000E+20
  9
$PEXTMAX
 10
-1.00000000000000E+20
 20
-1.00000000000000E+20
 30
-1.00000000000000E+20
  9
$PLIMMIN
 10
0.0
 20
0.0
  9
$PLIMMAX
 10
12.0
 20
9.0
  9
$UNITMODE
 70
     0
  9
$VISRETAIN
 70
     1
  9
$PLINEGEN
 70
     0
  9
$PSLTSCALE
 70
     1
  9
$TREEDEPTH
 70
  3020
  9
$CMLSTYLE
  2
Standard
  9
$CMLJUST
 70
     0
  9
$CMLSCALE
 40
1.0
  9
$PROXYGRAPHICS
 70
     1
  9
$MEASUREMENT
 70
     1
  9
$CELWEIGHT
370
    -1
  9
$ENDCAPS
280
     0
  9
$JOINSTYLE
280
     0
  9
$LWDISPLAY
290
     0
  9
$INSUNITS
 70
     1
  9
$HYPERLINKBASE
  1

  9
$STYLESHEET
  1

  9
$XEDIT
290
     1
  9
$CEPSNTYPE
380
     0
  9
$PSTYLEMODE
290
     1
  9
$FINGERPRINTGUID
  2
{5903A214-0108-408B-9519-FE1FA18EE555}
  9
$VERSIONGUID
  2
{FAEB1C32-E019-11D5-929B-00C0DF256EC4}
  9
$EXTNAMES
290
     1
  9
$PSVPSCALE
 40
0.0
  9
$OLESTARTUP
290
     0
  0
ENDSEC
  0
SECTION
  2
CLASSES
  0
CLASS
  1
ACDBDICTIONARYWDFLT
  2
AcDbDictionaryWithDefault
  3
ObjectDBX Classes
 90
        0
280
     0
281
     0
  0
CLASS
  1

  2
exOdDbCircle
  3

 90
        0
280
     0
281
     1
  0
CLASS
  1

  2
exOdDbPolyline
  3

 90
        0
280
     0
281
     1
  0
CLASS
  1

  2
exOdDbSpline
  3

 90
        0
280
     0
281
     1
  0
CLASS
  1
ACDBPLACEHOLDER
  2
AcDbPlaceHolder
  3
ObjectDBX Classes
 90
        0
280
     0
281
     0
  0
CLASS
  1
LAYOUT
  2
AcDbLayout
  3
ObjectDBX Classes
 90
        0
280
     0
281
     0
  0
ENDSEC
  0
SECTION
  2
TABLES
  0
TABLE
  2
VPORT
  5
8
330
0
100
AcDbSymbolTable
 70
     1
  0
VPORT
  5
29
330
8
100
AcDbSymbolTableRecord
100
AcDbViewportTableRecord
  2
*Active
 70
     0
 10
0.0
 20
0.0
 11
1.0
 21
1.0
 12
7095.611142034804
 22
-9478.812541402443
 13
0.0
 23
0.0
 14
0.5
 24
0.5
 15
0.5
 25
0.5
 16
0.0
 26
0.0
 36
1.0
 17
0.0
 27
0.0
 37
0.0
 40
244.5740823716311
 41
1.60267857142857
 42
50.0
 43
0.0
 44
0.0
 50
0.0
 51
0.0
 71
     0
 72
   100
 73
     1
 74
     3
 75
     0
 76
     0
 77
     0
 78
     0
281
     0
 65
     1
110
0.0
120
0.0
130
0.0
111
1.0
121
0.0
131
0.0
112
0.0
122
1.0
132
0.0
 79
     0
146
0.0
  0
ENDTAB
  0
TABLE
  2
LTYPE
  5
5
330
0
100
AcDbSymbolTable
 70
     8
  0
LTYPE
  5
14
330
5
100
AcDbSymbolTableRecord
100
AcDbLinetypeTableRecord
  2
ByBlock
 70
     0
  3

 72
    65
 73
     0
 40
0.0
  0
LTYPE
  5
15
330
5
100
AcDbSymbolTableRecord
100
AcDbLinetypeTableRecord
  2
ByLayer
 70
     0
  3

 72
    65
 73
     0
 40
0.0
  0
LTYPE
  5
16
330
5
100
AcDbSymbolTableRecord
100
AcDbLinetypeTableRecord
  2
Continuous
 70
     0
  3
Solid line
 72
    65
 73
     0
 40
0.0
  0
LTYPE
  5
2A
330
5
100
AcDbSymbolTableRecord
100
AcDbLinetypeTableRecord
  2
DASHED
 70
     0
  3
Dashed
 72
    65
 73
     2
 40
15.0
 49
7.0
 74
     0
 49
-8.0
 74
     0
  0
LTYPE
  5
2B
330
5
100
AcDbSymbolTableRecord
100
AcDbLinetypeTableRecord
  2
DOTTED
 70
     0
  3
Dotted
 72
    65
 73
     2
 40
1.0
 49
0.0
 74
     0
 49
-1.0
 74
     0
  0
LTYPE
  5
2C
330
5
100
AcDbSymbolTableRecord
100
AcDbLinetypeTableRecord
  2
DOT_CENTER
 70
     0
  3
Dot_Center
 72
    65
 73
     4
 40
14.0
 49
12.0
 74
     0
 49
-1.0
 74
     0
 49
0.0
 74
     0
 49
-1.0
 74
     0
  0
LTYPE
  5
2D
330
5
100
AcDbSymbolTableRecord
100
AcDbLinetypeTableRecord
  2
LONG_DASHED
 70
     0
  3
Long_Dashed
 72
    65
 73
     2
 40
15.0
 49
10.0
 74
     0
 49
-5.0
 74
     0
  0
LTYPE
  5
2E
330
5
100
AcDbSymbolTableRecord
100
AcDbLinetypeTableRecord
  2
DASH_CENTER
 70
     0
  3
Dash_Center
 72
    65
 73
     4
 40
14.0
 49
11.0
 74
     0
 49
-1.0
 74
     0
 49
1.0
 74
     0
 49
-1.0
 74
     0
  0
LTYPE
  5
2F
330
5
100
AcDbSymbolTableRecord
100
AcDbLinetypeTableRecord
  2
PHANTOM
 70
     0
  3
Phantom
 72
    65
 73
     6
 40
13.0
 49
10.0
 74
     0
 49
-1.0
 74
     0
 49
0.0
 74
     0
 49
-1.0
 74
     0
 49
0.0
 74
     0
 49
-1.0
 74
     0
  0
LTYPE
  5
30
330
5
100
AcDbSymbolTableRecord
100
AcDbLinetypeTableRecord
  2
CENTER_DASH_DASH
 70
     0
  3
Center_Dash_Dash
 72
    65
 73
     6
 40
14.0
 49
9.0
 74
     0
 49
-1.0
 74
     0
 49
1.0
 74
     0
 49
-1.0
 74
     0
 49
1.0
 74
     0
 49
-1.0
 74
     0
  0
ENDTAB
  0
TABLE
  2
LAYER
  5
2
330
0
100
AcDbSymbolTable
 70
     3
  0
LAYER
  5
10
330
2
100
AcDbSymbolTableRecord
100
AcDbLayerTableRecord
  2
0
 70
     0
 62
     7
  6
Continuous
370
    -3
390
F
  0
LAYER
  5
31
330
2
100
AcDbSymbolTableRecord
100
AcDbLayerTableRecord
  2
1
 70
     0
 62
     7
  6
Continuous
370
    -3
390
F
  0
LAYER
  5
32
330
2
100
AcDbSymbolTableRecord
100
AcDbLayerTableRecord
  2
DEFAULT_3
 70
     0
 62
     7
  6
Continuous
370
    -3
390
F
  0
ENDTAB
  0
TABLE
  2
STYLE
  5
3
330
0
100
AcDbSymbolTable
 70
     4
  0
STYLE
  5
11
330
3
100
AcDbSymbolTableRecord
100
AcDbTextStyleTableRecord
  2
Standard
 70
     0
 40
0.0
 41
1.0
 50
0.0
 71
     0
 42
0.2
  3
txt
  4

  0
STYLE
  5
B3
330
3
100
AcDbSymbolTableRecord
100
AcDbTextStyleTableRecord
  2
CONVERTER_11
 70
     0
 40
0.0
 41
0.6408
 50
0.0
 71
     0
 42
0.2
  3
txt.shx
  4

  0
STYLE
  5
D7
330
3
100
AcDbSymbolTableRecord
100
AcDbTextStyleTableRecord
  2
CONVERTER_12
 70
     0
 40
0.0
 41
0.72
 50
0.0
 71
     0
 42
0.2
  3
txt.shx
  4

  0
STYLE
  5
19F
330
3
100
AcDbSymbolTableRecord
100
AcDbTextStyleTableRecord
  2
CONVERTER_13
 70
     0
 40
0.0
 41
0.9
 50
0.0
 71
     0
 42
0.2
  3
txt.shx
  4

  0
ENDTAB
  0
TABLE
  2
VIEW
  5
6
330
0
100
AcDbSymbolTable
 70
     0
  0
ENDTAB
  0
TABLE
  2
UCS
  5
7
330
0
100
AcDbSymbolTable
 70
     0
  0
ENDTAB
  0
TABLE
  2
APPID
  5
9
330
0
100
AcDbSymbolTable
 70
     1
  0
APPID
  5
12
330
9
100
AcDbSymbolTableRecord
100
AcDbRegAppTableRecord
  2
ACAD
 70
     0
  0
ENDTAB
  0
TABLE
  2
DIMSTYLE
  5
A
330
0
100
AcDbSymbolTable
 70
     6
100
AcDbDimStyleTable
  0
DIMSTYLE
105
27
330
A
100
AcDbSymbolTableRecord
100
AcDbDimStyleTableRecord
  2
Standard
 70
     0
340
11
  0
DIMSTYLE
105
1B9
102
{ACAD_REACTORS
330
1BA
102
}
330
A
100
AcDbSymbolTableRecord
100
AcDbDimStyleTableRecord
  2
ME10_DIM_10
 70
     0
 41
2.5
 42
0.5
 44
0.8
 73
     0
 74
     0
 77
     1
 78
    12
140
3.0
147
1.0
172
     1
173
     1
176
     2
177
     2
178
     2
271
     3
340
D7
  0
DIMSTYLE
105
1C4
102
{ACAD_REACTORS
330
1C5
102
}
330
A
100
AcDbSymbolTableRecord
100
AcDbDimStyleTableRecord
  2
ME10_DIM_11
 70
     0
 41
2.5
 42
0.5
 44
0.8
 73
     0
 74
     0
 77
     1
 78
    12
140
3.0
147
1.0
172
     1
173
     1
176
     2
177
     2
178
     2
271
     3
340
B3
  0
DIMSTYLE
105
1CF
102
{ACAD_REACTORS
330
1D0
102
}
330
A
100
AcDbSymbolTableRecord
100
AcDbDimStyleTableRecord
  2
ME10_DIM_12
 70
     0
  3
(<>)
 41
2.5
 42
0.5
 44
0.8
 73
     0
 74
     0
 77
     1
 78
    12
140
3.0
147
1.0
172
     1
173
     1
176
     2
177
     2
178
     2
271
     3
340
D7
  0
DIMSTYLE
105
1DA
102
{ACAD_REACTORS
330
1DB
102
}
330
A
100
AcDbSymbolTableRecord
100
AcDbDimStyleTableRecord
  2
ME10_DIM_13
 70
     0
 41
2.5
 42
0.5
 44
0.8
 73
     0
 74
     0
 77
     1
 78
    12
140
3.0
147
1.0
172
     1
173
     1
176
     2
177
     2
178
     2
271
     3
340
B3
  0
DIMSTYLE
105
1E5
102
{ACAD_REACTORS
330
1E6
102
}
330
A
100
AcDbSymbolTableRecord
100
AcDbDimStyleTableRecord
  2
ME10_DIM_14
 70
     0
 41
2.5
 42
0.5
 44
0.8
 73
     0
 74
     0
 77
     1
 78
    12
140
3.0
147
1.0
172
     1
173
     1
176
     2
177
     2
178
     2
271
     3
340
D7
  0
ENDTAB
  0
TABLE
  2
BLOCK_RECORD
  5
1
330
0
100
AcDbSymbolTable
 70
    17
  0
BLOCK_RECORD
  5
1F
330
1
100
AcDbSymbolTableRecord
100
AcDbBlockTableRecord
  2
*Model_Space
340
22
  0
BLOCK_RECORD
  5
1B
330
1
100
AcDbSymbolTableRecord
100
AcDbBlockTableRecord
  2
*Paper_Space
340
1E
  0
BLOCK_RECORD
  5
23
330
1
100
AcDbSymbolTableRecord
100
AcDbBlockTableRecord
  2
*Paper_Space0
340
26
  0
BLOCK_RECORD
  5
33
330
1
100
AcDbSymbolTableRecord
100
AcDbBlockTableRecord
  2
sealing1
340
0
102
{BLKREFS
331
37
102
}
  0
BLOCK_RECORD
  5
36
330
1
100
AcDbSymbolTableRecord
100
AcDbBlockTableRecord
  2
3cx001737aaa_sealing_dome__2006_07_28_18_11_26
340
0
102
{BLKREFS
331
50
102
}
  0
BLOCK_RECORD
  5
3A
330
1
100
AcDbSymbolTableRecord
100
AcDbBlockTableRecord
  2
_D47
340
0
102
{BLKREFS
331
51
102
}
  0
BLOCK_RECORD
  5
3D
330
1
100
AcDbSymbolTableRecord
100
AcDbBlockTableRecord
  2
_D48
340
0
102
{BLKREFS
331
52
102
}
  0
BLOCK_RECORD
  5
40
330
1
100
AcDbSymbolTableRecord
100
AcDbBlockTableRecord
  2
_D49
340
0
102
{BLKREFS
331
53
102
}
  0
BLOCK_RECORD
  5
43
330
1
100
AcDbSymbolTableRecord
100
AcDbBlockTableRecord
  2
_D58
340
0
102
{BLKREFS
331
54
102
}
  0
BLOCK_RECORD
  5
46
330
1
100
AcDbSymbolTableRecord
100
AcDbBlockTableRecord
  2
_D67
340
0
102
{BLKREFS
331
55
102
}
  0
BLOCK_RECORD
  5
49
330
1
100
AcDbSymbolTableRecord
100
AcDbBlockTableRecord
  2
_D68
340
0
102
{BLKREFS
331
56
102
}
  0
BLOCK_RECORD
  5
4C
330
1
100
AcDbSymbolTableRecord
100
AcDbBlockTableRecord
  2
_D69
340
0
102
{BLKREFS
331
57
102
}
  0
BLOCK_RECORD
  5
4F
330
1
100
AcDbSymbolTableRecord
100
AcDbBlockTableRecord
  2
TOP
340
0
102
{BLKREFS
331
5B
102
}
  0
BLOCK_RECORD
  5
5A
330
1
100
AcDbSymbolTableRecord
100
AcDbBlockTableRecord
  2
dome-cover__2006_06_28_15_16_36
340
0
102
{BLKREFS
331
5E
102
}
  0
BLOCK_RECORD
  5
1B0
330
1
100
AcDbSymbolTableRecord
100
AcDbBlockTableRecord
  2
*D12
340
0
  0
BLOCK_RECORD
  5
1BB
330
1
100
AcDbSymbolTableRecord
100
AcDbBlockTableRecord
  2
*D13
340
0
  0
BLOCK_RECORD
  5
1C6
330
1
100
AcDbSymbolTableRecord
100
AcDbBlockTableRecord
  2
*D14
340
0
  0
BLOCK_RECORD
  5
1D1
330
1
100
AcDbSymbolTableRecord
100
AcDbBlockTableRecord
  2
*D15
340
0
  0
BLOCK_RECORD
  5
1DC
330
1
100
AcDbSymbolTableRecord
100
AcDbBlockTableRecord
  2
*D16
340
0
  0
ENDTAB
  0
ENDSEC
  0
SECTION
  2
BLOCKS
  0
BLOCK
  5
20
330
1F
100
AcDbEntity
  8
0
100
AcDbBlockBegin
  2
*Model_Space
 70
     0
 71
     0
 10
0.0
 20
0.0
 30
0.0
  3
*Model_Space
  1

  0
ENDBLK
  5
21
330
1F
100
AcDbEntity
  8
0
100
AcDbBlockEnd
  0
BLOCK
  5
1C
330
1B
100
AcDbEntity
 67
     1
  8
0
100
AcDbBlockBegin
  2
*Paper_Space
 70
     0
 71
     0
 10
0.0
 20
0.0
 30
0.0
  3
*Paper_Space
  1

  0
ENDBLK
  5
1D
330
1B
100
AcDbEntity
 67
     1
  8
0
100
AcDbBlockEnd
  0
BLOCK
  5
24
330
23
100
AcDbEntity
  8
0
100
AcDbBlockBegin
  2
*Paper_Space0
 70
     0
 71
     0
 10
0.0
 20
0.0
 30
0.0
  3
*Paper_Space0
  1

  0
ENDBLK
  5
25
330
23
100
AcDbEntity
  8
0
100
AcDbBlockEnd
  0
BLOCK
  5
34
330
33
100
AcDbEntity
  8
0
100
AcDbBlockBegin
  2
sealing1
 70
     0
 71
     0
 10
6407.3938651582
 20
-9719.15582396801
 30
0.0
  3
sealing1
  1

  0
LINE
  5
5F
102
{ACAD_REACTORS
330
AB
330
AB
102
}
330
33
100
AcDbEntity
  8
1
  6
Continuous
 62
     7
100
AcDbLine
 10
6987.72087146419
 20
-9427.22634277615
 30
0.0
 11
6991.58457828581
 21
-9426.19106025625
 31
0.0
  0
LINE
  5
60
102
{ACAD_REACTORS
330
AB
330
AB
102
}
330
33
100
AcDbEntity
  8
1
  6
Continuous
 62
     7
100
AcDbLine
 10
6992.29168573948
 20
-9424.96632293045
 30
0.0
 11
6991.75985562017
 21
-9422.98144665547
 31
0.0
  0
LINE
  5
61
102
{ACAD_REACTORS
330
AB
330
AB
102
}
330
33
100
AcDbEntity
  8
1
  6
Continuous
 62
     7
100
AcDbLine
 10
6986.49612346174
 20
-9426.51922934529
 30
0.0
 11
6985.96432477429
 21
-9424.5344721977
 31
0.0
  0
LINE
  5
62
102
{ACAD_REACTORS
330
AB
330
AB
102
}
330
33
100
AcDbEntity
  8
1
  6
Continuous
 62
     7
100
AcDbLine
 10
7032.42859493825
 20
-9541.53113038599
 30
0.0
 11
7033.23092885787
 21
-9543.42134866356
 31
0.0
  0
LINE
  5
63
102
{ACAD_REACTORS
330
AB
330
AB
102
}
330
33
100
AcDbEntity
  8
1
  6
Continuous
 62
     7
100
AcDbLine
 10
7026.90555747545
 20
-9543.87551039635
 30
0.0
 11
7027.70788866608
 21
-9545.76572344854
 31
0.0
  0
LINE
  5
64
102
{ACAD_REACTORS
330
AB
330
AB
102
}
330
33
100
AcDbEntity
  8
1
  6
Continuous
 62
     7
100
AcDbLine
 10
7031.11735493026
 20
-9541.00135051182
 30
0.0
 11
7027.4353329165
 21
-9542.56428179297
 31
0.0
  0
LINE
  5
65
102
{ACAD_REACTORS
330
AB
330
AB
102
}
330
33
100
AcDbEntity
  8
1
  6
Continuous
 62
     7
100
AcDbLine
 10
7003.81342318256
 20
-9427.83034527272
 30
0.0
 11
7007.06918730178
 21
-9427.83034527272
 31
0.0
  0
LINE
  5
66
102
{ACAD_REACTORS
330
AB
330
AB
102
}
330
33
100
AcDbEntity
  8
1
  6
Continuous
 62
     7
100
AcDbLine
 10
7018.82863263709
 20
-9429.37850560354
 30
0.0
 11
7021.97345928415
 21
-9430.22115936396
 31
0.0
  0
LINE
  5
67
102
{ACAD_REACTORS
330
AB
330
AB
102
}
330
33
100
AcDbEntity
  8
1
  6
Continuous
 62
     7
100
AcDbLine
 10
7056.31151440848
 20
-9513.12055747005
 30
0.0
 11
7054.68363234887
 21
-9515.94013190602
 31
0.0
  0
LINE
  5
68
102
{ACAD_REACTORS
330
AB
330
AB
102
}
330
33
100
AcDbEntity
  8
1
  6
Continuous
 62
     7
100
AcDbLine
 10
6956.19897833847
 20
-9515.94013202322
 30
0.0
 11
6954.57109627886
 21
-9513.12055758725
 31
0.0
  0
LINE
  5
69
102
{ACAD_REACTORS
330
AB
330
AB
102
}
330
33
100
AcDbEntity
  8
1
  6
Continuous
 62
     7
100
AcDbLine
 10
6955.1542370269
 20
-9450.64253696235
 30
0.0
 11
6953.3672851875
 21
-9446.32845359634
 31
0.0
  0
LINE
  5
6A
102
{ACAD_REACTORS
330
AB
330
AB
102
}
330
33
100
AcDbEntity
  8
1
  6
Continuous
 62
     7
100
AcDbLine
 10
6945.3678586063
 20
-9460.18386686639
 30
0.0
 11
6949.99744031501
 21
-9459.57437087165
 31
0.0
  0
LINE
  5
6B
102
{ACAD_REACTORS
330
AB
330
AB
102
}
330
33
100
AcDbEntity
  8
1
  6
Continuous
 62
     7
100
AcDbLine
 10
7013.44073182336
 20
-9550.37871535543
 30
0.0
 11
7010.53871561262
 21
-9546.5967341972
 31
0.0
  0
LINE
  5
6C
102
{ACAD_REACTORS
330
AB
330
AB
102
}
330
33
100
AcDbEntity
  8
1
  6
Continuous
 62
     7
100
AcDbLine
 10
7000.34389487177
 20
-9546.59673419712
 30
0.0
 11
6997.44187866097
 21
-9550.37871535543
 31
0.0
  0
LINE
  5
6D
102
{ACAD_REACTORS
330
AB
330
AB
102
}
330
33
100
AcDbEntity
  8
1
  6
Continuous
 62
     7
100
AcDbLine
 10
7057.51532529683
 20
-9446.32845359634
 30
0.0
 11
7055.69104164249
 21
-9450.73266393627
 31
0.0
  0
LINE
  5
6E
102
{ACAD_REACTORS
330
AB
330
AB
102
}
330
33
100
AcDbEntity
  8
1
  6
Continuous
 62
     7
100
AcDbLine
 10
7060.78845201289
 20
-9459.5616376848
 30
0.0
 11
7065.51475187803
 21
-9460.18386686639
 31
0.0
  0
LINE
  5
6F
330
33
100
AcDbEntity
  8
1
  6
Continuous
 62
     2
100
AcDbLine
 10
7205.34573242891
 20
-9540.5653492712
 30
0.0
 11
7205.34573242891
 21
-9430.69680527425
 31
0.0
  0
LINE
  5
70
330
33
100
AcDbEntity
  8
1
  6
Continuous
 62
     2
100
AcDbLine
 10
7203.54573242982
 20
-9539.49156289361
 30
0.0
 11
7203.54573242982
 21
-9431.77059165193
 31
0.0
  0
LINE
  5
71
330
33
100
AcDbEntity
  8
1
  6
Continuous
 62
     2
100
AcDbLine
 10
7205.34573242891
 20
-9430.69680527425
 30
0.0
 11
7205.3457324292
 21
-9429.52964227272
 31
0.0
  0
LINE
  5
72
330
33
100
AcDbEntity
  8
1
  6
Continuous
 62
     2
100
AcDbLine
 10
7203.54573242982
 20
-9431.77059165193
 30
0.0
 11
7203.54573242982
 21
-9429.52964227272
 31
0.0
  0
LINE
  5
73
330
33
100
AcDbEntity
  8
1
  6
Continuous
 62
     2
100
AcDbLine
 10
7203.54573242982
 20
-9541.73251227272
 30
0.0
 11
7203.54573242982
 21
-9539.49156289361
 31
0.0
  0
LINE
  5
74
330
33
100
AcDbEntity
  8
1
  6
Continuous
 62
     2
100
AcDbLine
 10
7203.84573242951
 20
-9419.38107727272
 30
0.0
 11
7203.84573242951
 21
-9428.92964227311
 31
0.0
  0
LINE
  5
75
330
33
100
AcDbEntity
  8
1
  6
Continuous
 62
     2
100
AcDbLine
 10
7205.04573242951
 20
-9419.38107727272
 30
0.0
 11
7203.84573242951
 21
-9419.38107727272
 31
0.0
  0
LINE
  5
76
330
33
100
AcDbEntity
  8
1
  6
Continuous
 62
     2
100
AcDbLine
 10
7205.04573242951
 20
-9428.92964227311
 30
0.0
 11
7205.04573242951
 21
-9419.38107727272
 31
0.0
  0
LINE
  5
77
330
33
100
AcDbEntity
  8
1
  6
Continuous
 62
     2
100
AcDbLine
 10
7205.04573242951
 20
-9551.88107727272
 30
0.0
 11
7205.04573242951
 21
-9542.33251227233
 31
0.0
  0
LINE
  5
78
330
33
100
AcDbEntity
  8
1
  6
Continuous
 62
     2
100
AcDbLine
 10
7203.84573242951
 20
-9551.88107727272
 30
0.0
 11
7205.04573242951
 21
-9551.88107727272
 31
0.0
  0
LINE
  5
79
330
33
100
AcDbEntity
  8
1
  6
Continuous
 62
     2
100
AcDbLine
 10
7203.84573242951
 20
-9542.33251227233
 30
0.0
 11
7203.84573242951
 21
-9551.88107727272
 31
0.0
  0
LINE
  5
7A
330
33
100
AcDbEntity
  8
1
  6
Continuous
 62
     2
100
AcDbLine
 10
7205.3457324292
 20
-9541.73251227272
 30
0.0
 11
7205.34573242891
 21
-9540.5653492712
 31
0.0
  0
ARC
  5
7B
102
{ACAD_REACTORS
330
AB
330
AB
102
}
330
33
100
AcDbEntity
  8
1
  6
Continuous
 62
     7
100
AcDbCircle
 10
6949.14902006558
 20
-9453.12997927272
 30
0.0
 40
6.500000000000646
100
AcDbArc
 50
-82.50000000000293
 51
22.49999999998762
  0
ARC
  5
7C
102
{ACAD_REACTORS
330
AB
330
AB
102
}
330
33
100
AcDbEntity
  8
1
  6
Continuous
 62
     7
100
AcDbCircle
 10
7005.44130524217
 20
-9485.63034527272
 30
0.0
 40
66.25000000000185
100
AcDbArc
 50
158.5805982424957
 51
-98.5805982425009
  0
ARC
  5
7D
102
{ACAD_REACTORS
330
AB
330
AB
102
}
330
33
100
AcDbEntity
  8
1
  6
Continuous
 62
     7
100
AcDbCircle
 10
7005.44130524217
 20
-9425.13034527272
 30
0.0
 40
3.200000000000728
100
AcDbArc
 50
90.0
 51
-124.1484243450393
  0
ARC
  5
7E
102
{ACAD_REACTORS
330
AB
330
AB
102
}
330
33
100
AcDbEntity
  8
1
  6
Continuous
 62
     7
100
AcDbCircle
 10
7005.44130524217
 20
-9425.13034527272
 30
0.0
 40
3.199999999998608
100
AcDbArc
 50
-55.85157565510892
 51
90.0
  0
ARC
  5
7F
102
{ACAD_REACTORS
330
AB
330
AB
102
}
330
33
100
AcDbEntity
  8
1
  6
Continuous
 62
     7
100
AcDbCircle
 10
7021.0998573824
 20
-9427.19183275277
 30
0.0
 40
3.199999999999901
100
AcDbArc
 50
-70.8515756551091
 51
74.99999999998029
  0
ARC
  5
80
102
{ACAD_REACTORS
330
AB
330
AB
102
}
330
33
100
AcDbEntity
  8
1
  6
Continuous
 62
     7
100
AcDbCircle
 10
7021.0998573824
 20
-9427.19183275277
 30
0.0
 40
3.200000000005278
100
AcDbArc
 50
74.99999999998029
 51
-139.1484243449461
  0
ARC
  5
81
102
{ACAD_REACTORS
330
AB
330
AB
102
}
330
33
100
AcDbEntity
  8
1
  6
Continuous
 62
     7
100
AcDbCircle
 10
7057.83584196889
 20
-9515.88034468803
 30
0.0
 40
3.199999999998221
100
AcDbArc
 50
-175.8515756549636
 51
-30.00000000000782
  0
ARC
  5
82
102
{ACAD_REACTORS
330
AB
330
AB
102
}
330
33
100
AcDbEntity
  8
1
  6
Continuous
 62
     7
100
AcDbCircle
 10
7057.83584196889
 20
-9515.88034468803
 30
0.0
 40
3.199999999999972
100
AcDbArc
 50
-30.00000000000782
 51
115.8515756551155
  0
ARC
  5
83
102
{ACAD_REACTORS
330
AB
330
AB
102
}
330
33
100
AcDbEntity
  8
1
  6
Continuous
 62
     7
100
AcDbCircle
 10
6953.04676871845
 20
-9515.88034480524
 30
0.0
 40
3.199999999999972
100
AcDbArc
 50
-149.9999999999922
 51
-4.14842434484265
  0
ARC
  5
84
102
{ACAD_REACTORS
330
AB
330
AB
102
}
330
33
100
AcDbEntity
  8
1
  6
Continuous
 62
     7
100
AcDbCircle
 10
6953.04676871845
 20
-9515.88034480524
 30
0.0
 40
3.200000000001079
100
AcDbArc
 50
64.14842434513092
 51
-149.9999999999922
  0
ARC
  5
85
102
{ACAD_REACTORS
330
AB
330
AB
102
}
330
33
100
AcDbEntity
  8
1
  6
Continuous
 62
     7
100
AcDbCircle
 10
7005.44130524217
 20
-9485.63034527272
 30
0.0
 40
66.25000000000136
100
AcDbArc
 50
-62.53077649702062
 51
21.41940175750714
  0
ARC
  5
86
102
{ACAD_REACTORS
330
AB
330
AB
102
}
330
33
100
AcDbEntity
  8
1
  6
Continuous
 62
     7
100
AcDbCircle
 10
7005.44130524217
 20
-9550.63107727272
 30
0.0
 40
6.500731999998607
100
AcDbArc
 50
90.0
 51
141.6401630284386
  0
ARC
  5
87
102
{ACAD_REACTORS
330
AB
330
AB
102
}
330
33
100
AcDbEntity
  8
1
  6
Continuous
 62
     7
100
AcDbCircle
 10
7005.44130524217
 20
-9550.63107727272
 30
0.0
 40
6.500731999995924
100
AcDbArc
 50
38.35983697074221
 51
90.0
  0
ARC
  5
88
102
{ACAD_REACTORS
330
AB
330
AB
102
}
330
33
100
AcDbEntity
  8
1
  6
Continuous
 62
     7
100
AcDbCircle
 10
7005.44130524217
 20
-9485.63034527272
 30
0.0
 40
66.25000000000377
100
AcDbArc
 50
-81.41940175750688
 51
-71.45843171801873
  0
ARC
  5
89
102
{ACAD_REACTORS
330
AB
330
AB
102
}
330
33
100
AcDbEntity
  8
1
  6
Continuous
 62
     7
100
AcDbCircle
 10
7061.73359041875
 20
-9453.12997927272
 30
0.0
 40
6.500732000003653
100
AcDbArc
 50
158.359836971838
 51
-98.35983697164778
  0
ARC
  5
8A
102
{ACAD_REACTORS
330
AB
330
AB
102
}
330
33
100
AcDbEntity
  8
1
  6
Continuous
 62
     7
100
AcDbCircle
 10
7005.44130524217
 20
-9485.63034527272
 30
0.0
 40
66.2500000000039
100
AcDbArc
 50
109.463813980138
 51
141.4194017575095
  0
ARC
  5
8B
102
{ACAD_REACTORS
330
AB
330
AB
102
}
330
33
100
AcDbEntity
  8
1
  6
Continuous
 62
     7
100
AcDbCircle
 10
7005.44130524217
 20
-9485.63034527272
 30
0.0
 40
66.2499999999945
100
AcDbArc
 50
38.58059824249536
 51
100.537152355281
  0
ARC
  5
8C
330
33
100
AcDbEntity
  8
1
  6
Continuous
 62
     2
100
AcDbCircle
 10
7204.59573242951
 20
-9429.52964227272
 30
0.0
 40
0.7499999996907718
100
AcDbArc
 50
0.0
 51
53.13010233628566
  0
ARC
  5
8D
330
33
100
AcDbEntity
  8
1
  6
Continuous
 62
     2
100
AcDbCircle
 10
7204.29573242951
 20
-9541.73251227272
 30
0.0
 40
0.7499999996898623
100
AcDbArc
 50
180.0
 51
-126.8698976637144
  0
ARC
  5
8E
330
33
100
AcDbEntity
  8
1
  6
Continuous
 62
     2
100
AcDbCircle
 10
7204.59573242951
 20
-9541.73251227272
 30
0.0
 40
0.7499999996893166
100
AcDbArc
 50
-53.13010233628566
 51
0.0
  0
ARC
  5
8F
330
33
100
AcDbEntity
  8
1
  6
Continuous
 62
     2
100
AcDbCircle
 10
7204.29573242951
 20
-9429.52964227272
 30
0.0
 40
0.7499999996893166
100
AcDbArc
 50
126.8698976637144
 51
180.0
  0
ARC
  5
90
102
{ACAD_REACTORS
330
AB
330
AB
102
}
330
33
100
AcDbEntity
  8
1
  6
Continuous
 62
     7
100
AcDbCircle
 10
6987.46205116016
 20
-9426.26041728719
 30
0.0
 40
0.99999999999547
100
AcDbArc
 50
-165.000414447334
 51
-74.99992532421258
  0
ARC
  5
91
102
{ACAD_REACTORS
330
AB
330
AB
102
}
330
33
100
AcDbEntity
  8
1
  6
Continuous
 62
     7
100
AcDbCircle
 10
6991.32575798178
 20
-9425.22513476729
 30
0.0
 40
0.999999999999631
100
AcDbArc
 50
-74.99992532426292
 51
14.99957242837686
  0
ARC
  5
92
102
{ACAD_REACTORS
330
AB
330
AB
102
}
330
33
100
AcDbEntity
  8
1
  6
Continuous
 62
     7
100
AcDbCircle
 10
7027.82606524472
 20
-9543.48478613717
 30
0.0
 40
1.000000000005179
100
AcDbArc
 50
113.0000746757785
 51
-157.0004275716746
  0
ARC
  5
93
102
{ACAD_REACTORS
330
AB
330
AB
102
}
330
33
100
AcDbEntity
  8
1
  6
Continuous
 62
     7
100
AcDbCircle
 10
7031.50808725848
 20
-9541.92185485602
 30
0.0
 40
0.9999999999974877
100
AcDbArc
 50
22.99958555242553
 51
113.0000746758192
  0
ARC
  5
94
102
{ACAD_REACTORS
330
AB
330
AB
102
}
330
33
100
AcDbEntity
  8
1
  6
Continuous
 62
     7
100
AcDbCircle
 10
6945.62891099074
 20
-9462.16675658914
 30
0.0
 40
2.000000000003176
100
AcDbArc
 50
97.5
 51
158.5805982422916
  0
ARC
  5
95
102
{ACAD_REACTORS
330
AB
330
AB
102
}
330
33
100
AcDbEntity
  8
1
  6
Continuous
 62
     7
100
AcDbCircle
 10
7015.02743850394
 20
-9549.16119249742
 30
0.0
 40
1.999999999993232
100
AcDbArc
 50
-142.5000000001548
 51
-81.41940175737963
  0
ARC
  5
96
102
{ACAD_REACTORS
330
AB
330
AB
102
}
330
33
100
AcDbEntity
  8
1
  6
Continuous
 62
     7
100
AcDbCircle
 10
7055.66756623181
 20
-9445.56308673162
 30
0.0
 40
1.999999999993692
100
AcDbArc
 50
-22.49999999975636
 51
38.58059824258903
  0
ARC
  5
97
102
{ACAD_REACTORS
330
AB
330
AB
102
}
330
33
100
AcDbEntity
  8
1
  6
Continuous
 62
     7
100
AcDbCircle
 10
6995.85517198039
 20
-9549.16119249742
 30
0.0
 40
1.999999999999382
100
AcDbArc
 50
-98.58059824262038
 51
-37.49999999984516
  0
ARC
  5
98
102
{ACAD_REACTORS
330
AB
330
AB
102
}
330
33
100
AcDbEntity
  8
1
  6
Continuous
 62
     7
100
AcDbCircle
 10
7035.07194421741
 20
-9542.63989972349
 30
0.0
 40
2.000000000000077
100
AcDbArc
 50
-157.0004144472968
 51
-62.33387987566898
  0
ARC
  5
99
102
{ACAD_REACTORS
330
AB
330
AB
102
}
330
33
100
AcDbEntity
  8
1
  6
Continuous
 62
     7
100
AcDbCircle
 10
7025.86687312753
 20
-9546.54717196689
 30
0.0
 40
2.000000000010153
100
AcDbArc
 50
-71.29350092801026
 51
22.9995724279634
  0
ARC
  5
9A
102
{ACAD_REACTORS
330
AB
330
AB
102
}
330
33
100
AcDbEntity
  8
1
  6
Continuous
 62
     7
100
AcDbCircle
 10
7065.25369949359
 20
-9462.16675658913
 30
0.0
 40
1.999999999992682
100
AcDbArc
 50
21.4194017574173
 51
82.49999999995919
  0
ARC
  5
9B
102
{ACAD_REACTORS
330
AB
330
AB
102
}
330
33
100
AcDbEntity
  8
1
  6
Continuous
 62
     7
100
AcDbCircle
 10
6993.69171113559
 20
-9422.46382298179
 30
0.0
 40
1.999999999999062
100
AcDbArc
 50
100.5371523553107
 51
-165.0004275717648
  0
ARC
  5
9C
102
{ACAD_REACTORS
330
AB
330
AB
102
}
330
33
100
AcDbEntity
  8
1
  6
Continuous
 62
     7
100
AcDbCircle
 10
6984.03246937744
 20
-9425.0520963139
 30
0.0
 40
2.000000000002423
100
AcDbArc
 50
14.9995855526858
 51
109.4638139802186
  0
ARC
  5
9D
102
{ACAD_REACTORS
330
AB
330
AB
102
}
330
33
100
AcDbEntity
  8
1
  6
Continuous
 62
     7
100
AcDbCircle
 10
6955.21504425252
 20
-9445.56308673162
 30
0.0
 40
2.000000000002714
100
AcDbArc
 50
141.419401757411
 51
-157.5000000002436
  0
ARC
  5
9E
102
{ACAD_REACTORS
330
AB
330
AB
102
}
330
33
100
AcDbEntity
  8
1
  6
Continuous
 62
     7
100
AcDbCircle
 10
6955.93917071733
 20
-9516.09013202322
 30
0.0
 40
0.3000000000047418
100
AcDbArc
 50
-4.14842434505545
 51
29.99999999981675
  0
ARC
  5
9F
102
{ACAD_REACTORS
330
AB
330
AB
102
}
330
33
100
AcDbEntity
  8
1
  6
Continuous
 62
     7
100
AcDbCircle
 10
6954.31128865772
 20
-9513.27055758725
 30
0.0
 40
0.3000000000036628
100
AcDbArc
 50
29.99999999951589
 51
64.14842434529828
  0
ARC
  5
A0
102
{ACAD_REACTORS
330
AB
330
AB
102
}
330
33
100
AcDbEntity
  8
1
  6
Continuous
 62
     7
100
AcDbCircle
 10
7007.06918730178
 20
-9427.53034527272
 30
0.0
 40
0.2999999999992724
100
AcDbArc
 50
-90.0
 51
-55.85157565581738
  0
ARC
  5
A1
102
{ACAD_REACTORS
330
AB
330
AB
102
}
330
33
100
AcDbEntity
  8
1
  6
Continuous
 62
     7
100
AcDbCircle
 10
7003.81342318256
 20
-9427.53034527272
 30
0.0
 40
0.3000000000045788
100
AcDbArc
 50
-124.1484243459077
 51
-90.0
  0
ARC
  5
A2
102
{ACAD_REACTORS
330
AB
330
AB
102
}
330
33
100
AcDbEntity
  8
1
  6
Continuous
 62
     7
100
AcDbCircle
 10
7018.90627835062
 20
-9429.08872785566
 30
0.0
 40
0.2999999999928559
100
AcDbArc
 50
-139.1484243451251
 51
-105.0000000001953
  0
ARC
  5
A3
102
{ACAD_REACTORS
330
AB
330
AB
102
}
330
33
100
AcDbEntity
  8
1
  6
Continuous
 62
     7
100
AcDbCircle
 10
7022.05110499768
 20
-9429.93138161607
 30
0.0
 40
0.3000000000033386
100
AcDbArc
 50
-104.9999999998236
 51
-70.85157565506125
  0
ARC
  5
A4
102
{ACAD_REACTORS
330
AB
330
AB
102
}
330
33
100
AcDbEntity
  8
1
  6
Continuous
 62
     7
100
AcDbCircle
 10
7056.57132202961
 20
-9513.27055747005
 30
0.0
 40
0.3000000000011925
100
AcDbArc
 50
115.8515756547017
 51
149.9999999995287
  0
ARC
  5
A5
102
{ACAD_REACTORS
330
AB
330
AB
102
}
330
33
100
AcDbEntity
  8
1
  6
Continuous
 62
     7
100
AcDbCircle
 10
7054.94343997
 20
-9516.09013190602
 30
0.0
 40
0.2999999999957864
100
AcDbArc
 50
149.9999999996156
 51
-175.8515756544724
  0
CIRCLE
  5
A6
102
{ACAD_REACTORS
330
AC
330
AC
330
AD
330
AD
102
}
330
33
100
AcDbEntity
  8
1
  6
Continuous
 62
     2
100
AcDbCircle
 10
7005.44130117191
 20
-9485.63036636891
 30
0.0
 40
55.50000407025982
  0
CIRCLE
  5
A7
102
{ACAD_REACTORS
330
AD
330
AD
102
}
330
33
100
AcDbEntity
  8
1
  6
Continuous
 62
     7
100
AcDbCircle
 10
7005.44130524217
 20
-9485.63107727272
 30
0.0
 40
54.00073200000043
  0
CIRCLE
  5
A8
102
{ACAD_REACTORS
330
AB
330
AB
330
AC
330
AC
102
}
330
33
100
AcDbEntity
  8
1
  6
Continuous
 62
     2
100
AcDbCircle
 10
7005.44130117191
 20
-9485.63036636891
 30
0.0
 40
56.70000407026055
  0
HATCH
  5
AA
330
33
100
AcDbEntity
  8
1
  6
DOTTED
 62
     2
100
AcDbHatch
 10
0.0
 20
0.0
 30
0.0
210
0.0
220
0.0
230
1.0
  2
_USER
 70
     0
 71
     0
 91
        1
 92
        1
 93
       32
 72
     1
 10
7205.04573242951
 20
-9551.88107727272
 11
7203.84573242951
 21
-9551.88107727272
 72
     1
 10
7203.84573242951
 20
-9551.88107727272
 11
7203.84573242951
 21
-9542.33251227233
 72
     1
 10
7203.84573242951
 20
-9542.33251227233
 11
7203.73550087108
 21
-9542.23115102019
 72
     1
 10
7203.73550087108
 20
-9542.23115102019
 11
7203.64760397698
 21
-9542.10991061473
 72
     1
 10
7203.64760397698
 20
-9542.10991061473
 11
7203.58554591898
 21
-9541.97362452832
 72
     1
 10
7203.58554591898
 20
-9541.97362452832
 11
7203.55180075604
 21
-9541.82772605716
 72
     1
 10
7203.55180075604
 20
-9541.82772605716
 11
7203.54573242982
 21
-9541.73251227272
 72
     1
 10
7203.54573242982
 20
-9541.73251227272
 11
7203.54573242982
 21
-9539.49156289361
 72
     1
 10
7203.54573242982
 20
-9539.49156289361
 11
7203.54573242982
 21
-9431.77059165193
 72
     1
 10
7203.54573242982
 20
-9431.77059165193
 11
7203.54573242982
 21
-9429.52964227272
 72
     1
 10
7203.54573242982
 20
-9429.52964227272
 11
7203.56068249643
 21
-9429.38064027469
 72
     1
 10
7203.56068249643
 20
-9429.38064027469
 11
7203.60493668429
 21
-9429.23757851611
 72
     1
 10
7203.60493668429
 20
-9429.23757851611
 11
7203.67673071858
 21
-9429.10616041785
 72
     1
 10
7203.67673071858
 20
-9429.10616041785
 11
7203.77320239772
 21
-9428.99162520477
 72
     1
 10
7203.77320239772
 20
-9428.99162520477
 11
7203.84573242951
 21
-9428.92964227311
 72
     1
 10
7203.84573242951
 20
-9428.92964227311
 11
7203.84573242951
 21
-9419.38107727272
 72
     1
 10
7203.84573242951
 20
-9419.38107727272
 11
7205.04573242951
 21
-9419.38107727272
 72
     1
 10
7205.04573242951
 20
-9419.38107727272
 11
7205.04573242951
 21
-9428.92964227311
 72
     1
 10
7205.04573242951
 20
-9428.92964227311
 11
7205.15596398794
 21
-9429.03100352526
 72
     1
 10
7205.15596398794
 20
-9429.03100352526
 11
7205.24386088205
 21
-9429.15224393072
 72
     1
 10
7205.24386088205
 20
-9429.15224393072
 11
7205.30591894004
 21
-9429.28853001713
 72
     1
 10
7205.30591894004
 20
-9429.28853001713
 11
7205.33966410298
 21
-9429.43442848829
 72
     1
 10
7205.33966410298
 20
-9429.43442848829
 11
7205.3457324292
 21
-9429.52964227272
 72
     1
 10
7205.3457324292
 20
-9429.52964227272
 11
7205.34573242891
 21
-9430.69680527425
 72
     1
 10
7205.34573242891
 20
-9430.69680527425
 11
7205.34573242891
 21
-9540.5653492712
 72
     1
 10
7205.34573242891
 20
-9540.5653492712
 11
7205.3457324292
 21
-9541.73251227272
 72
     1
 10
7205.3457324292
 20
-9541.73251227272
 11
7205.33078236259
 21
-9541.88151427076
 72
     1
 10
7205.33078236259
 20
-9541.88151427076
 11
7205.28652817473
 21
-9542.02457602933
 72
     1
 10
7205.28652817473
 20
-9542.02457602933
 11
7205.21473414044
 21
-9542.15599412759
 72
     1
 10
7205.21473414044
 20
-9542.15599412759
 11
7205.1182624613
 21
-9542.27052934067
 72
     1
 10
7205.1182624613
 20
-9542.27052934067
 11
7205.04573242951
 21
-9542.33251227233
 72
     1
 10
7205.04573242951
 20
-9542.33251227233
 11
7205.04573242951
 21
-9551.88107727272
 97
        0
 75
     1
 76
     0
 52
0.0
 41
0.25
 77
     0
 78
     1
 53
0.0
 43
0.0
 44
0.0
 45
0.0
 46
0.25
 79
     0
 98
        1
 10
0.0
 20
0.0
  0
HATCH
  5
AB
330
33
100
AcDbEntity
  8
1
  6
DOTTED
 62
     2
100
AcDbHatch
 10
0.0
 20
0.0
 30
0.0
210
0.0
220
0.0
230
1.0
  2
_USER
 70
     0
 71
     1
 91
        6
 92
        1
 93
       35
 72
     2
 10
7005.44130524217
 20
-9485.63034527272
 40
66.25000000000136
 50
338.5805982424928
 51
422.5307764970206
 73
     0
 72
     2
 10
7035.07194421741
 20
-9542.63989972349
 40
2.000000000000077
 50
62.33387987566898
 51
157.0004144472968
 73
     0
 72
     1
 10
7033.23092885787
 20
-9543.42134866356
 11
7032.42859493825
 21
-9541.53113038599
 72
     2
 10
7031.50808725848
 20
-9541.92185485602
 40
0.9999999999974877
 50
22.99958555242553
 51
113.0000746758192
 73
     1
 72
     1
 10
7031.11735493026
 20
-9541.00135051182
 11
7027.4353329165
 21
-9542.56428179297
 72
     2
 10
7027.82606524472
 20
-9543.48478613717
 40
1.000000000005179
 50
113.0000746757785
 51
202.9995724283254
 73
     1
 72
     1
 10
7026.90555747545
 20
-9543.87551039635
 11
7027.70788866608
 21
-9545.76572344854
 72
     2
 10
7025.86687312753
 20
-9546.54717196689
 40
2.000000000010153
 50
337.0004275720366
 51
431.2935009280102
 73
     0
 72
     2
 10
7005.44130524217
 20
-9485.63034527272
 40
66.25000000000377
 50
71.45843171801873
 51
81.41940175750688
 73
     0
 72
     2
 10
7015.02743850394
 20
-9549.16119249742
 40
1.999999999993232
 50
81.41940175737963
 51
142.5000000001548
 73
     0
 72
     1
 10
7013.44073182336
 20
-9550.37871535543
 11
7010.53871561262
 21
-9546.5967341972
 72
     2
 10
7005.44130524217
 20
-9550.63107727272
 40
6.500731999995924
 50
38.35983697074221
 51
90.0
 73
     1
 72
     2
 10
7005.44130524217
 20
-9550.63107727272
 40
6.500731999998607
 50
90.0
 51
141.6401630284386
 73
     1
 72
     1
 10
7000.34389487177
 20
-9546.59673419712
 11
6997.44187866097
 21
-9550.37871535543
 72
     2
 10
6995.85517198039
 20
-9549.16119249742
 40
1.999999999999382
 50
37.49999999984516
 51
98.58059824262037
 73
     0
 72
     2
 10
7005.44130524217
 20
-9485.63034527272
 40
66.25000000000185
 50
98.5805982425009
 51
201.4194017575043
 73
     0
 72
     2
 10
6945.62891099074
 20
-9462.16675658914
 40
2.000000000003176
 50
201.4194017577084
 51
262.5
 73
     0
 72
     1
 10
6945.3678586063
 20
-9460.18386686639
 11
6949.99744031501
 21
-9459.57437087165
 72
     2
 10
6949.14902006558
 20
-9453.12997927272
 40
6.500000000000646
 50
277.4999999999971
 51
382.4999999999876
 73
     1
 72
     1
 10
6955.1542370269
 20
-9450.64253696235
 11
6953.3672851875
 21
-9446.32845359634
 72
     2
 10
6955.21504425252
 20
-9445.56308673162
 40
2.000000000002714
 50
157.5000000002436
 51
218.580598242589
 73
     0
 72
     2
 10
7005.44130524217
 20
-9485.63034527272
 40
66.2500000000039
 50
218.5805982424905
 51
250.536186019862
 73
     0
 72
     2
 10
6984.03246937744
 20
-9425.0520963139
 40
2.000000000002423
 50
250.5361860197814
 51
345.0004144473142
 73
     0
 72
     1
 10
6985.96432477429
 20
-9424.5344721977
 11
6986.49612346174
 21
-9426.51922934529
 72
     2
 10
6987.46205116016
 20
-9426.26041728719
 40
0.99999999999547
 50
194.999585552666
 51
285.0000746757875
 73
     1
 72
     1
 10
6987.72087146419
 20
-9427.22634277615
 11
6991.58457828581
 21
-9426.19106025625
 72
     2
 10
6991.32575798178
 20
-9425.22513476729
 40
0.999999999999631
 50
285.0000746757371
 51
374.9995724283769
 73
     1
 72
     1
 10
6992.29168573948
 20
-9424.96632293045
 11
6991.75985562017
 21
-9422.98144665547
 72
     2
 10
6993.69171113559
 20
-9422.46382298179
 40
1.999999999999062
 50
165.0004275717648
 51
259.4628476446892
 73
     0
 72
     2
 10
7005.44130524217
 20
-9485.63034527272
 40
66.2499999999945
 50
259.462847644719
 51
321.4194017575046
 73
     0
 72
     2
 10
7055.66756623181
 20
-9445.56308673162
 40
1.999999999993692
 50
321.419401757411
 51
382.4999999997564
 73
     0
 72
     1
 10
7057.51532529683
 20
-9446.32845359634
 11
7055.69104164249
 21
-9450.73266393627
 72
     2
 10
7061.73359041875
 20
-9453.12997927272
 40
6.500732000003653
 50
158.359836971838
 51
261.6401630283522
 73
     1
 72
     1
 10
7060.78845201289
 20
-9459.5616376848
 11
7065.51475187803
 21
-9460.18386686639
 72
     2
 10
7065.25369949359
 20
-9462.16675658913
 40
1.999999999992682
 50
277.5000000000408
 51
338.5805982425827
 73
     0
 97
       35
330
6E
330
89
330
6D
330
96
330
8B
330
9B
330
60
330
91
330
5F
330
90
330
61
330
9C
330
8A
330
9D
330
69
330
7B
330
6A
330
94
330
7C
330
97
330
6C
330
86
330
87
330
6B
330
95
330
88
330
99
330
63
330
92
330
64
330
93
330
62
330
98
330
85
330
9A
 92
       16
 93
        5
 72
     2
 10
7056.57132202961
 20
-9513.27055747005
 40
0.3000000000011925
 50
115.8515756547017
 51
149.9999999995287
 73
     1
 72
     1
 10
7056.31151440848
 20
-9513.12055747005
 11
7054.68363234887
 21
-9515.94013190602
 72
     2
 10
7054.94343997
 20
-9516.09013190602
 40
0.2999999999957864
 50
149.9999999996156
 51
184.1484243455276
 73
     1
 72
     2
 10
7057.83584196889
 20
-9515.88034468803
 40
3.199999999998221
 50
184.1484243450364
 51
329.9999999999922
 73
     1
 72
     2
 10
7057.83584196889
 20
-9515.88034468803
 40
3.199999999999972
 50
329.9999999999922
 51
475.8515756551155
 73
     1
 97
        5
330
A4
330
67
330
A5
330
81
330
82
 92
       16
 93
        5
 72
     2
 10
7018.90627835062
 20
-9429.08872785566
 40
0.2999999999928559
 50
220.8515756548749
 51
254.9999999998047
 73
     1
 72
     1
 10
7018.82863263709
 20
-9429.37850560354
 11
7021.97345928415
 21
-9430.22115936396
 72
     2
 10
7022.05110499768
 20
-9429.93138161607
 40
0.3000000000033386
 50
255.0000000001764
 51
289.1484243449387
 73
     1
 72
     2
 10
7021.0998573824
 20
-9427.19183275277
 40
3.199999999999901
 50
289.1484243448909
 51
434.9999999999803
 73
     1
 72
     2
 10
7021.0998573824
 20
-9427.19183275277
 40
3.200000000005278
 50
74.99999999998029
 51
220.8515756550539
 73
     1
 97
        5
330
A2
330
66
330
A3
330
7F
330
80
 92
       16
 93
        5
 72
     2
 10
7007.06918730178
 20
-9427.53034527272
 40
0.2999999999992724
 50
270.0
 51
304.1484243441826
 73
     1
 72
     2
 10
7005.44130524217
 20
-9425.13034527272
 40
3.199999999998608
 50
304.1484243448911
 51
450.0
 73
     1
 72
     2
 10
7005.44130524217
 20
-9425.13034527272
 40
3.200000000000728
 50
90.0
 51
235.8515756549607
 73
     1
 72
     2
 10
7003.81342318256
 20
-9427.53034527272
 40
0.3000000000045788
 50
235.8515756540924
 51
270.0
 73
     1
 72
     1
 10
7003.81342318256
 20
-9427.83034527272
 11
7007.06918730178
 21
-9427.83034527272
 97
        5
330
A0
330
7E
330
7D
330
A1
330
65
 92
       16
 93
        5
 72
     2
 10
6955.93917071733
 20
-9516.09013202322
 40
0.3000000000047418
 50
355.8515756549446
 51
389.9999999998167
 73
     1
 72
     1
 10
6956.19897833847
 20
-9515.94013202322
 11
6954.57109627886
 21
-9513.12055758725
 72
     2
 10
6954.31128865772
 20
-9513.27055758725
 40
0.3000000000036628
 50
29.99999999951589
 51
64.14842434529828
 73
     1
 72
     2
 10
6953.04676871845
 20
-9515.88034480524
 40
3.200000000001079
 50
64.14842434513092
 51
210.0000000000078
 73
     1
 72
     2
 10
6953.04676871845
 20
-9515.88034480524
 40
3.199999999999972
 50
210.0000000000078
 51
355.8515756551574
 73
     1
 97
        5
330
9E
330
68
330
9F
330
84
330
83
 92
       16
 93
        1
 72
     2
 10
7005.44130117191
 20
-9485.63036636891
 40
56.70000407026055
 50
0.0
 51
360.0
 73
     1
 97
        1
330
A8
 75
     1
 76
     0
 52
0.0
 41
0.25
 77
     0
 78
     1
 53
0.0
 43
0.0
 44
0.0
 45
0.0
 46
0.25
 79
     0
 98
        1
 10
0.0
 20
0.0
  0
HATCH
  5
AC
330
33
100
AcDbEntity
  8
1
  6
DOTTED
 62
     2
100
AcDbHatch
 10
0.0
 20
0.0
 30
0.0
210
0.0
220
0.0
230
1.0
  2
_USER
 70
     0
 71
     1
 91
        2
 92
        1
 93
        1
 72
     2
 10
7005.44130117191
 20
-9485.63036636891
 40
56.70000407026055
 50
0.0
 51
360.0
 73
     1
 97
        1
330
A8
 92
       16
 93
        1
 72
     2
 10
7005.44130117191
 20
-9485.63036636891
 40
55.50000407025982
 50
0.0
 51
360.0
 73
     1
 97
        1
330
A6
 75
     1
 76
     0
 52
0.0
 41
0.25
 77
     0
 78
     1
 53
0.0
 43
0.0
 44
0.0
 45
0.0
 46
0.25
 79
     0
 98
        1
 10
0.0
 20
0.0
  0
HATCH
  5
AD
330
33
100
AcDbEntity
  8
1
  6
DOTTED
 62
     2
100
AcDbHatch
 10
0.0
 20
0.0
 30
0.0
210
0.0
220
0.0
230
1.0
  2
_USER
 70
     0
 71
     1
 91
        2
 92
        1
 93
        1
 72
     2
 10
7005.44130117191
 20
-9485.63036636891
 40
55.50000407025982
 50
0.0
 51
360.0
 73
     1
 97
        1
330
A6
 92
       16
 93
        1
 72
     2
 10
7005.44130524217
 20
-9485.63107727272
 40
54.00073200000043
 50
0.0
 51
360.0
 73
     1
 97
        1
330
A7
 75
     1
 76
     0
 52
0.0
 41
0.25
 77
     0
 78
     1
 53
0.0
 43
0.0
 44
0.0
 45
0.0
 46
0.25
 79
     0
 98
        1
 10
0.0
 20
0.0
  0
ENDBLK
  5
35
330
33
100
AcDbEntity
  8
0
100
AcDbBlockEnd
  0
BLOCK
  5
38
330
36
100
AcDbEntity
  8
0
100
AcDbBlockBegin
  2
3cx001737aaa_sealing_dome__2006_07_28_18_11_26
 70
     0
 71
     0
 10
7275.2820293497
 20
-9736.3414680225
 30
0.0
  3
3cx001737aaa_sealing_dome__2006_07_28_18_11_26
  1

  0
INSERT
  5
37
330
36
100
AcDbEntity
  8
1
100
AcDbBlockReference
  2
sealing1
 10
6407.3938651582
 20
-9719.15582396801
 30
0.0
  0
ENDBLK
  5
39
330
36
100
AcDbEntity
  8
0
100
AcDbBlockEnd
  0
BLOCK
  5
3B
330
3A
100
AcDbEntity
  8
0
100
AcDbBlockBegin
  2
_D47
 70
     0
 71
     0
 10
0.0
 20
0.0
 30
0.0
  3
_D47
  1

  0
LINE
  5
AE
330
3A
100
AcDbEntity
  8
1
  6
Continuous
 62
     2
100
AcDbLine
 10
7050.25472145536
 20
-9477.44931230552
 30
0.0
 11
7033.57472145536
 21
-9477.44931230552
 31
0.0
  0
LINE
  5
AF
330
3A
100
AcDbEntity
  8
1
  6
Continuous
 62
     2
100
AcDbLine
 10
7061.73295648817
 20
-9453.13107727272
 30
0.0
 11
7050.25472145536
 21
-9477.44931230552
 31
0.0
  0
LINE
  5
B0
102
{ACAD_REACTORS
330
B5
330
B5
102
}
330
3A
100
AcDbEntity
  8
1
  6
Continuous
 62
     2
100
AcDbLine
 10
7058.02057193578
 20
-9460.22519654935
 30
0.0
 11
7058.61585570238
 21
-9460.50617117497
 31
0.0
  0
LINE
  5
B1
102
{ACAD_REACTORS
330
B5
330
B5
102
}
330
3A
100
AcDbEntity
  8
1
  6
Continuous
 62
     2
100
AcDbLine
 10
7058.61585570238
 20
-9460.50617117497
 30
0.0
 11
7059.38532090317
 21
-9458.10486930296
 31
0.0
  0
LINE
  5
B2
102
{ACAD_REACTORS
330
B5
330
B5
102
}
330
3A
100
AcDbEntity
  8
1
  6
Continuous
 62
     2
100
AcDbLine
 10
7059.38532090317
 20
-9458.10486930296
 30
0.0
 11
7058.02057193578
 21
-9460.22519654935
 31
0.0
  0
MTEXT
  5
B4
330
3A
100
AcDbEntity
  8
1
 62
     2
100
AcDbMText
 10
7027.11472145541
 20
-9476.44934808477
 30
0.0
 40
3.0
 41
0.0
 71
     7
 72
     1
  1
R|q5.5
  7
CONVERTER_11
 11
0.999999999997062
 21
2.424068405545310E-6
 31
0.0
 73
     1
 44
1.32052821128451
  0
HATCH
  5
B5
330
3A
100
AcDbEntity
  8
1
  6
Continuous
 62
     2
100
AcDbHatch
 10
0.0
 20
0.0
 30
0.0
210
0.0
220
0.0
230
1.0
  2
SOLID
 70
     1
 71
     1
 91
        1
 92
        1
 93
        3
 72
     1
 10
7058.02057193578
 20
-9460.22519654935
 11
7058.61585570238
 21
-9460.50617117497
 72
     1
 10
7058.61585570238
 20
-9460.50617117497
 11
7059.38532090317
 21
-9458.10486930296
 72
     1
 10
7059.38532090317
 20
-9458.10486930296
 11
7058.02057193578
 21
-9460.22519654935
 97
        3
330
B0
330
B1
330
B2
 75
     0
 76
     1
 98
        1
 10
0.0
 20
0.0
  0
ENDBLK
  5
3C
330
3A
100
AcDbEntity
  8
0
100
AcDbBlockEnd
  0
BLOCK
  5
3E
330
3D
100
AcDbEntity
  8
0
100
AcDbBlockBegin
  2
_D48
 70
     0
 71
     0
 10
0.0
 20
0.0
 30
0.0
  3
_D48
  1

  0
LINE
  5
B6
330
3D
100
AcDbEntity
  8
1
  6
Continuous
 62
     2
100
AcDbLine
 10
7191.8457324292
 20
-9485.63107727272
 30
0.0
 11
7141.47531244293
 21
-9447.16053180011
 31
0.0
  0
LINE
  5
B7
102
{ACAD_REACTORS
330
BB
330
BB
102
}
330
3D
100
AcDbEntity
  8
1
  6
Continuous
 62
     2
100
AcDbLine
 10
7148.33572953559
 20
-9451.98604828517
 30
0.0
 11
7147.93618262778
 21
-9452.50918476018
 31
0.0
  0
LINE
  5
B8
102
{ACAD_REACTORS
330
BB
330
BB
102
}
330
3D
100
AcDbEntity
  8
1
  6
Continuous
 62
     2
100
AcDbLine
 10
7147.93618262778
 20
-9452.50918476018
 30
0.0
 11
7150.12276409748
 21
-9453.76504655677
 31
0.0
  0
LINE
  5
B9
102
{ACAD_REACTORS
330
BB
330
BB
102
}
330
3D
100
AcDbEntity
  8
1
  6
Continuous
 62
     2
100
AcDbLine
 10
7150.12276409748
 20
-9453.76504655677
 30
0.0
 11
7148.33572953559
 21
-9451.98604828517
 31
0.0
  0
MTEXT
  5
BA
330
3D
100
AcDbEntity
  8
1
 62
     2
100
AcDbMText
 10
7131.82991353578
 20
-9446.55358363934
 30
0.0
 40
3.0
 41
0.0
 71
     7
 72
     1
  1
rq52.5
  7
CONVERTER_11
 11
0.999999999997062
 21
2.424068405545310E-6
 31
0.0
 73
     1
 44
1.32052821128451
  0
HATCH
  5
BB
330
3D
100
AcDbEntity
  8
1
  6
Continuous
 62
     2
100
AcDbHatch
 10
0.0
 20
0.0
 30
0.0
210
0.0
220
0.0
230
1.0
  2
SOLID
 70
     1
 71
     1
 91
        1
 92
        1
 93
        3
 72
     1
 10
7148.33572953559
 20
-9451.98604828517
 11
7147.93618262778
 21
-9452.50918476018
 72
     1
 10
7147.93618262778
 20
-9452.50918476018
 11
7150.12276409748
 21
-9453.76504655677
 72
     1
 10
7150.12276409748
 20
-9453.76504655677
 11
7148.33572953559
 21
-9451.98604828517
 97
        3
330
B7
330
B8
330
B9
 75
     0
 76
     1
 98
        1
 10
0.0
 20
0.0
  0
ENDBLK
  5
3F
330
3D
100
AcDbEntity
  8
0
100
AcDbBlockEnd
  0
BLOCK
  5
41
330
40
100
AcDbEntity
  8
0
100
AcDbBlockBegin
  2
_D49
 70
     0
 71
     0
 10
0.0
 20
0.0
 30
0.0
  3
_D49
  1

  0
LINE
  5
BC
330
40
100
AcDbEntity
  8
1
  6
Continuous
 62
     2
100
AcDbLine
 10
7057.83584217116
 20
-9515.88107727272
 30
0.0
 11
7050.84385256514
 21
-9540.51120667606
 31
0.0
  0
LINE
  5
BD
330
40
100
AcDbEntity
  8
1
  6
Continuous
 62
     2
100
AcDbLine
 10
7050.84385256514
 20
-9540.51120667606
 30
0.0
 11
7069.68385256514
 21
-9540.51120667606
 31
0.0
  0
LINE
  5
BE
102
{ACAD_REACTORS
330
C2
330
C2
102
}
330
40
100
AcDbEntity
  8
1
  6
Continuous
 62
     2
100
AcDbLine
 10
7055.94896026608
 20
-9521.32263073217
 30
0.0
 11
7056.58220140214
 21
-9521.50239492946
 31
0.0
  0
LINE
  5
BF
102
{ACAD_REACTORS
330
C2
330
C2
102
}
330
40
100
AcDbEntity
  8
1
  6
Continuous
 62
     2
100
AcDbLine
 10
7056.58220140214
 20
-9521.50239492946
 30
0.0
 11
7056.94830315457
 21
-9519.00754084904
 31
0.0
  0
LINE
  5
C0
102
{ACAD_REACTORS
330
C2
330
C2
102
}
330
40
100
AcDbEntity
  8
1
  6
Continuous
 62
     2
100
AcDbLine
 10
7056.94830315457
 20
-9519.00754084904
 30
0.0
 11
7055.94896026608
 21
-9521.32263073217
 31
0.0
  0
MTEXT
  5
C1
330
40
100
AcDbEntity
  8
1
 62
     2
100
AcDbMText
 10
7048.38385256518
 20
-9539.51124245531
 30
0.0
 40
3.0
 41
0.0
 71
     7
 72
     1
  1
S|q3.25
  7
CONVERTER_11
 11
0.999999999997062
 21
2.424068405545310E-6
 31
0.0
 73
     1
 44
1.32052821128451
  0
HATCH
  5
C2
330
40
100
AcDbEntity
  8
1
  6
Continuous
 62
     2
100
AcDbHatch
 10
0.0
 20
0.0
 30
0.0
210
0.0
220
0.0
230
1.0
  2
SOLID
 70
     1
 71
     1
 91
        1
 92
        1
 93
        3
 72
     1
 10
7055.94896026608
 20
-9521.32263073217
 11
7056.58220140214
 21
-9521.50239492946
 72
     1
 10
7056.58220140214
 20
-9521.50239492946
 11
7056.94830315457
 21
-9519.00754084904
 72
     1
 10
7056.94830315457
 20
-9519.00754084904
 11
7055.94896026608
 21
-9521.32263073217
 97
        3
330
BE
330
BF
330
C0
 75
     0
 76
     1
 98
        1
 10
0.0
 20
0.0
  0
ENDBLK
  5
42
330
40
100
AcDbEntity
  8
0
100
AcDbBlockEnd
  0
BLOCK
  5
44
330
43
100
AcDbEntity
  8
0
100
AcDbBlockBegin
  2
_D58
 70
     0
 71
     0
 10
0.0
 20
0.0
 30
0.0
  3
_D58
  1

  0
LINE
  5
C3
330
43
100
AcDbEntity
  8
1
  6
Continuous
 62
     2
100
AcDbLine
 10
6982.40133537153
 20
-9515.9625392378
 30
0.0
 11
6968.84579128148
 21
-9533.80802568122
 31
0.0
  0
LINE
  5
C4
330
43
100
AcDbEntity
  8
1
  6
Continuous
 62
     2
100
AcDbLine
 10
7042.03681920285
 20
-9437.45412886423
 30
0.0
 11
6985.88992335516
 21
-9511.36991284413
 31
0.0
  0
LINE
  5
C5
102
{ACAD_REACTORS
330
CC
330
CC
102
}
330
43
100
AcDbEntity
  8
1
  6
Continuous
 62
     2
100
AcDbLine
 10
6970.62009415524
 20
-9532.01632908638
 30
0.0
 11
6970.09591104911
 21
-9531.61815629188
 31
0.0
  0
LINE
  5
C6
102
{ACAD_REACTORS
330
CC
330
CC
102
}
330
43
100
AcDbEntity
  8
1
  6
Continuous
 62
     2
100
AcDbLine
 10
6970.09591104911
 20
-9531.61815629188
 30
0.0
 11
6968.84579128148
 21
-9533.80802568122
 31
0.0
  0
LINE
  5
C7
102
{ACAD_REACTORS
330
CC
330
CC
102
}
330
43
100
AcDbEntity
  8
1
  6
Continuous
 62
     2
100
AcDbLine
 10
6968.84579128148
 20
-9533.80802568122
 30
0.0
 11
6970.62009415524
 21
-9532.01632908638
 31
0.0
  0
LINE
  5
C8
102
{ACAD_REACTORS
330
CD
330
CD
102
}
330
43
100
AcDbEntity
  8
1
  6
Continuous
 62
     2
100
AcDbLine
 10
7040.2625163291
 20
-9439.24582545907
 30
0.0
 11
7040.78669943522
 21
-9439.64399825356
 31
0.0
  0
LINE
  5
C9
102
{ACAD_REACTORS
330
CD
330
CD
102
}
330
43
100
AcDbEntity
  8
1
  6
Continuous
 62
     2
100
AcDbLine
 10
7040.78669943522
 20
-9439.64399825356
 30
0.0
 11
7042.03681920285
 21
-9437.45412886423
 31
0.0
  0
LINE
  5
CA
102
{ACAD_REACTORS
330
CD
330
CD
102
}
330
43
100
AcDbEntity
  8
1
  6
Continuous
 62
     2
100
AcDbLine
 10
7042.03681920285
 20
-9437.45412886423
 30
0.0
 11
7040.2625163291
 21
-9439.24582545907
 31
0.0
  0
MTEXT
  5
CB
330
43
100
AcDbEntity
  8
1
 62
     2
100
AcDbMText
 10
6965.77328025751
 20
-9515.16627374662
 30
0.0
 40
3.0
 41
0.0
 71
     7
 72
     1
  1
obcÓ121
  7
CONVERTER_11
 11
0.999999999997062
 21
2.424068405545310E-6
 31
0.0
 73
     1
 44
1.32052821128451
  0
HATCH
  5
CC
330
43
100
AcDbEntity
  8
1
  6
Continuous
 62
     2
100
AcDbHatch
 10
0.0
 20
0.0
 30
0.0
210
0.0
220
0.0
230
1.0
  2
SOLID
 70
     1
 71
     1
 91
        1
 92
        1
 93
        3
 72
     1
 10
6970.62009415524
 20
-9532.01632908638
 11
6970.09591104911
 21
-9531.61815629188
 72
     1
 10
6970.09591104911
 20
-9531.61815629188
 11
6968.84579128148
 21
-9533.80802568122
 72
     1
 10
6968.84579128148
 20
-9533.80802568122
 11
6970.62009415524
 21
-9532.01632908638
 97
        3
330
C5
330
C6
330
C7
 75
     0
 76
     1
 98
        1
 10
0.0
 20
0.0
  0
HATCH
  5
CD
330
43
100
AcDbEntity
  8
1
  6
Continuous
 62
     2
100
AcDbHatch
 10
0.0
 20
0.0
 30
0.0
210
0.0
220
0.0
230
1.0
  2
SOLID
 70
     1
 71
     1
 91
        1
 92
        1
 93
        3
 72
     1
 10
7040.2625163291
 20
-9439.24582545907
 11
7040.78669943522
 21
-9439.64399825356
 72
     1
 10
7040.78669943522
 20
-9439.64399825356
 11
7042.03681920285
 21
-9437.45412886423
 72
     1
 10
7042.03681920285
 20
-9437.45412886423
 11
7040.2625163291
 21
-9439.24582545907
 97
        3
330
C8
330
C9
330
CA
 75
     0
 76
     1
 98
        1
 10
0.0
 20
0.0
  0
ENDBLK
  5
45
330
43
100
AcDbEntity
  8
0
100
AcDbBlockEnd
  0
BLOCK
  5
47
330
46
100
AcDbEntity
  8
0
100
AcDbBlockBegin
  2
_D67
 70
     0
 71
     0
 10
0.0
 20
0.0
 30
0.0
  3
_D67
  1

  0
LINE
  5
CE
330
46
100
AcDbEntity
  8
1
  6
Continuous
 62
     2
100
AcDbLine
 10
7023.22427579978
 20
-9419.2641276424
 30
0.0
 11
7027.43585531802
 21
-9403.54629890014
 31
0.0
  0
LINE
  5
CF
330
46
100
AcDbEntity
  8
1
  6
Continuous
 62
     2
100
AcDbLine
 10
7027.43585531802
 20
-9403.54629890014
 30
0.0
 11
7027.64291055411
 21
-9402.77355823911
 31
0.0
  0
LINE
  5
D0
102
{ACAD_REACTORS
330
D9
330
D9
102
}
330
46
100
AcDbEntity
  8
1
  6
Continuous
 62
     2
100
AcDbLine
 10
7025.09228479916
 20
-9402.61570521928
 30
0.0
 11
7024.93128466026
 21
-9403.25397511384
 31
0.0
  0
LINE
  5
D1
102
{ACAD_REACTORS
330
D9
330
D9
102
}
330
46
100
AcDbEntity
  8
1
  6
Continuous
 62
     2
100
AcDbLine
 10
7024.93128466026
 20
-9403.25397511384
 30
0.0
 11
7027.43585531802
 21
-9403.54629890014
 31
0.0
  0
LINE
  5
D2
102
{ACAD_REACTORS
330
D9
330
D9
102
}
330
46
100
AcDbEntity
  8
1
  6
Continuous
 62
     2
100
AcDbLine
 10
7027.43585531802
 20
-9403.54629890014
 30
0.0
 11
7025.09228479916
 21
-9402.61570521928
 31
0.0
  0
LINE
  5
D3
102
{ACAD_REACTORS
330
DA
330
DA
102
}
330
46
100
AcDbEntity
  8
1
  6
Continuous
 62
     2
100
AcDbLine
 10
7007.93619368751
 20
-9401.01652894056
 30
0.0
 11
7007.94587589994
 21
-9400.35833766305
 31
0.0
  0
LINE
  5
D4
102
{ACAD_REACTORS
330
DA
330
DA
102
}
330
46
100
AcDbEntity
  8
1
  6
Continuous
 62
     2
100
AcDbLine
 10
7007.94587589994
 20
-9400.35833766305
 30
0.0
 11
7005.44130524218
 21
-9400.65066144935
 31
0.0
  0
LINE
  5
D5
102
{ACAD_REACTORS
330
DA
330
DA
102
}
330
46
100
AcDbEntity
  8
1
  6
Continuous
 62
     2
100
AcDbLine
 10
7005.44130524218
 20
-9400.65066144935
 30
0.0
 11
7007.93619368751
 21
-9401.01652894056
 31
0.0
  0
ARC
  5
D6
330
46
100
AcDbEntity
  8
1
  6
Continuous
 62
     2
100
AcDbCircle
 10
7005.44130524216
 20
-9485.63107727316
 30
0.0
 40
84.9804158238069
100
AcDbArc
 50
75.00000000005058
 51
89.99999999998651
  0
MTEXT
  5
D8
330
46
100
AcDbEntity
  8
1
 62
     2
100
AcDbMText
 10
7014.40350724124
 20
-9400.0886361076
 30
0.0
 40
3.0
 41
0.0
 71
     7
 72
     1
  1
15{\Fgdt;~}
  7
CONVERTER_12
 11
0.9914448613737594
 21
-0.1305261922204401
 31
0.0
 73
     1
 44
1.0
  0
HATCH
  5
D9
330
46
100
AcDbEntity
  8
1
  6
Continuous
 62
     2
100
AcDbHatch
 10
0.0
 20
0.0
 30
0.0
210
0.0
220
0.0
230
1.0
  2
SOLID
 70
     1
 71
     1
 91
        1
 92
        1
 93
        3
 72
     1
 10
7025.09228479916
 20
-9402.61570521928
 11
7024.93128466026
 21
-9403.25397511384
 72
     1
 10
7024.93128466026
 20
-9403.25397511384
 11
7027.43585531802
 21
-9403.54629890014
 72
     1
 10
7027.43585531802
 20
-9403.54629890014
 11
7025.09228479916
 21
-9402.61570521928
 97
        3
330
D0
330
D1
330
D2
 75
     0
 76
     1
 98
        1
 10
0.0
 20
0.0
  0
HATCH
  5
DA
330
46
100
AcDbEntity
  8
1
  6
Continuous
 62
     2
100
AcDbHatch
 10
0.0
 20
0.0
 30
0.0
210
0.0
220
0.0
230
1.0
  2
SOLID
 70
     1
 71
     1
 91
        1
 92
        1
 93
        3
 72
     1
 10
7007.93619368751
 20
-9401.01652894056
 11
7007.94587589994
 21
-9400.35833766305
 72
     1
 10
7007.94587589994
 20
-9400.35833766305
 11
7005.44130524218
 21
-9400.65066144935
 72
     1
 10
7005.44130524218
 20
-9400.65066144935
 11
7007.93619368751
 21
-9401.01652894056
 97
        3
330
D3
330
D4
330
D5
 75
     0
 76
     1
 98
        1
 10
0.0
 20
0.0
  0
ENDBLK
  5
48
330
46
100
AcDbEntity
  8
0
100
AcDbBlockEnd
  0
BLOCK
  5
4A
330
49
100
AcDbEntity
  8
0
100
AcDbBlockBegin
  2
_D68
 70
     0
 71
     0
 10
0.0
 20
0.0
 30
0.0
  3
_D68
  1

  0
LINE
  5
DB
330
49
100
AcDbEntity
  8
1
  6
Continuous
 62
     2
100
AcDbLine
 10
6942.65446346791
 20
-9449.38107727252
 30
0.0
 11
6931.84293292431
 21
-9443.13903720276
 31
0.0
  0
LINE
  5
DC
330
49
100
AcDbEntity
  8
1
  6
Continuous
 62
     2
100
AcDbLine
 10
6931.84293292431
 20
-9443.13903720276
 30
0.0
 11
6931.15011260128
 21
-9442.73903720276
 31
0.0
  0
LINE
  5
DD
102
{ACAD_REACTORS
330
E5
330
E5
102
}
330
49
100
AcDbEntity
  8
1
  6
Continuous
 62
     2
100
AcDbLine
 10
6930.33748648739
 20
-9445.16189617
 30
0.0
 11
6930.91233775708
 21
-9445.48260713142
 31
0.0
  0
LINE
  5
DE
102
{ACAD_REACTORS
330
E5
330
E5
102
}
330
49
100
AcDbEntity
  8
1
  6
Continuous
 62
     2
100
AcDbLine
 10
6930.91233775708
 20
-9445.48260713142
 30
0.0
 11
6931.84293292431
 21
-9443.13903720276
 31
0.0
  0
LINE
  5
DF
102
{ACAD_REACTORS
330
E5
330
E5
102
}
330
49
100
AcDbEntity
  8
1
  6
Continuous
 62
     2
100
AcDbLine
 10
6931.84293292431
 20
-9443.13903720276
 30
0.0
 11
6930.33748648739
 21
-9445.16189617
 31
0.0
  0
LINE
  5
E0
102
{ACAD_REACTORS
330
E6
330
E6
102
}
330
49
100
AcDbEntity
  8
1
  6
Continuous
 62
     2
100
AcDbLine
 10
7002.94641656479
 20
-9570.24929150335
 30
0.0
 11
7002.9367347698
 21
-9570.907482787
 31
0.0
  0
LINE
  5
E1
102
{ACAD_REACTORS
330
E6
330
E6
102
}
330
49
100
AcDbEntity
  8
1
  6
Continuous
 62
     2
100
AcDbLine
 10
7002.9367347698
 20
-9570.907482787
 30
0.0
 11
7005.44130524217
 21
-9570.61515741222
 31
0.0
  0
LINE
  5
E2
102
{ACAD_REACTORS
330
E6
330
E6
102
}
330
49
100
AcDbEntity
  8
1
  6
Continuous
 62
     2
100
AcDbLine
 10
7005.44130524217
 20
-9570.61515741222
 30
0.0
 11
7002.94641656479
 21
-9570.24929150335
 31
0.0
  0
ARC
  5
E3
330
49
100
AcDbEntity
  8
1
  6
Continuous
 62
     2
100
AcDbCircle
 10
7005.44130524217
 20
-9485.63107727277
 30
0.0
 40
84.984080139457
100
AcDbArc
 50
149.9999999997806
 51
-90.0
  0
MTEXT
  5
E4
330
49
100
AcDbEntity
  8
1
 62
     2
100
AcDbMText
 10
6930.81895832786
 20
-9524.34954131605
 30
0.0
 40
3.0
 41
0.0
 71
     7
 72
     1
  1
120{\Fgdt;~}
  7
CONVERTER_12
 11
0.499999999998382
 21
-0.866025403785373
 31
0.0
 73
     1
 44
1.0
  0
HATCH
  5
E5
330
49
100
AcDbEntity
  8
1
  6
Continuous
 62
     2
100
AcDbHatch
 10
0.0
 20
0.0
 30
0.0
210
0.0
220
0.0
230
1.0
  2
SOLID
 70
     1
 71
     1
 91
        1
 92
        1
 93
        3
 72
     1
 10
6930.33748648739
 20
-9445.16189617
 11
6930.91233775708
 21
-9445.48260713142
 72
     1
 10
6930.91233775708
 20
-9445.48260713142
 11
6931.84293292431
 21
-9443.13903720276
 72
     1
 10
6931.84293292431
 20
-9443.13903720276
 11
6930.33748648739
 21
-9445.16189617
 97
        3
330
DD
330
DE
330
DF
 75
     0
 76
     1
 98
        1
 10
0.0
 20
0.0
  0
HATCH
  5
E6
330
49
100
AcDbEntity
  8
1
  6
Continuous
 62
     2
100
AcDbHatch
 10
0.0
 20
0.0
 30
0.0
210
0.0
220
0.0
230
1.0
  2
SOLID
 70
     1
 71
     1
 91
        1
 92
        1
 93
        3
 72
     1
 10
7002.94641656479
 20
-9570.24929150335
 11
7002.9367347698
 21
-9570.907482787
 72
     1
 10
7002.9367347698
 20
-9570.907482787
 11
7005.44130524217
 21
-9570.61515741222
 72
     1
 10
7005.44130524217
 20
-9570.61515741222
 11
7002.94641656479
 21
-9570.24929150335
 97
        3
330
E0
330
E1
330
E2
 75
     0
 76
     1
 98
        1
 10
0.0
 20
0.0
  0
ENDBLK
  5
4B
330
49
100
AcDbEntity
  8
0
100
AcDbBlockEnd
  0
BLOCK
  5
4D
330
4C
100
AcDbEntity
  8
0
100
AcDbBlockBegin
  2
_D69
 70
     0
 71
     0
 10
0.0
 20
0.0
 30
0.0
  3
_D69
  1

  0
LINE
  5
E7
330
4C
100
AcDbEntity
  8
1
  6
Continuous
 62
     2
100
AcDbLine
 10
7068.22814701656
 20
-9449.38107727276
 30
0.0
 11
7079.05339618445
 21
-9443.13111675161
 31
0.0
  0
LINE
  5
E8
330
4C
100
AcDbEntity
  8
1
  6
Continuous
 62
     2
100
AcDbLine
 10
7079.05339618445
 20
-9443.13111675161
 30
0.0
 11
7079.74621650747
 21
-9442.73111675161
 31
0.0
  0
LINE
  5
E9
102
{ACAD_REACTORS
330
F1
330
F1
102
}
330
4C
100
AcDbEntity
  8
1
  6
Continuous
 62
     2
100
AcDbLine
 10
7007.94587491321
 20
-9570.9233305554
 30
0.0
 11
7007.93619492242
 21
-9570.26513924522
 31
0.0
  0
LINE
  5
EA
102
{ACAD_REACTORS
330
F1
330
F1
102
}
330
4C
100
AcDbEntity
  8
1
  6
Continuous
 62
     2
100
AcDbLine
 10
7007.93619492242
 20
-9570.26513924522
 30
0.0
 11
7005.44130524217
 21
-9570.63099831521
 31
0.0
  0
LINE
  5
EB
102
{ACAD_REACTORS
330
F1
330
F1
102
}
330
4C
100
AcDbEntity
  8
1
  6
Continuous
 62
     2
100
AcDbLine
 10
7005.44130524217
 20
-9570.63099831521
 30
0.0
 11
7007.94587491321
 21
-9570.9233305554
 31
0.0
  0
LINE
  5
EC
102
{ACAD_REACTORS
330
F2
330
F2
102
}
330
4C
100
AcDbEntity
  8
1
  6
Continuous
 62
     2
100
AcDbLine
 10
7079.98399777576
 20
-9445.47468412935
 30
0.0
 11
7080.55884816632
 21
-9445.15397159219
 31
0.0
  0
LINE
  5
ED
102
{ACAD_REACTORS
330
F2
330
F2
102
}
330
4C
100
AcDbEntity
  8
1
  6
Continuous
 62
     2
100
AcDbLine
 10
7080.55884816632
 20
-9445.15397159219
 30
0.0
 11
7079.05339618445
 21
-9443.13111675161
 31
0.0
  0
LINE
  5
EE
102
{ACAD_REACTORS
330
F2
330
F2
102
}
330
4C
100
AcDbEntity
  8
1
  6
Continuous
 62
     2
100
AcDbLine
 10
7079.05339618445
 20
-9443.13111675161
 30
0.0
 11
7079.98399777576
 21
-9445.47468412935
 31
0.0
  0
ARC
  5
EF
330
4C
100
AcDbEntity
  8
1
  6
Continuous
 62
     2
100
AcDbCircle
 10
7005.44130524217
 20
-9485.63107727288
 30
0.0
 40
84.99992104233024
100
AcDbArc
 50
-90.0
 51
30.00000000007696
  0
MTEXT
  5
F0
330
4C
100
AcDbEntity
  8
1
 62
     2
100
AcDbMText
 10
7076.29737078074
 20
-9530.90461382031
 30
0.0
 40
3.0
 41
0.0
 71
     7
 72
     1
  1
120{\Fgdt;~}
  7
CONVERTER_12
 11
0.4999999999994932
 21
0.8660254037847314
 31
0.0
 73
     1
 44
1.0
  0
HATCH
  5
F1
330
4C
100
AcDbEntity
  8
1
  6
Continuous
 62
     2
100
AcDbHatch
 10
0.0
 20
0.0
 30
0.0
210
0.0
220
0.0
230
1.0
  2
SOLID
 70
     1
 71
     1
 91
        1
 92
        1
 93
        3
 72
     1
 10
7007.94587491321
 20
-9570.9233305554
 11
7007.93619492242
 21
-9570.26513924522
 72
     1
 10
7007.93619492242
 20
-9570.26513924522
 11
7005.44130524217
 21
-9570.63099831521
 72
     1
 10
7005.44130524217
 20
-9570.63099831521
 11
7007.94587491321
 21
-9570.9233305554
 97
        3
330
E9
330
EA
330
EB
 75
     0
 76
     1
 98
        1
 10
0.0
 20
0.0
  0
HATCH
  5
F2
330
4C
100
AcDbEntity
  8
1
  6
Continuous
 62
     2
100
AcDbHatch
 10
0.0
 20
0.0
 30
0.0
210
0.0
220
0.0
230
1.0
  2
SOLID
 70
     1
 71
     1
 91
        1
 92
        1
 93
        3
 72
     1
 10
7079.98399777576
 20
-9445.47468412935
 11
7080.55884816632
 21
-9445.15397159219
 72
     1
 10
7080.55884816632
 20
-9445.15397159219
 11
7079.05339618445
 21
-9443.13111675161
 72
     1
 10
7079.05339618445
 20
-9443.13111675161
 11
7079.98399777576
 21
-9445.47468412935
 97
        3
330
EC
330
ED
330
EE
 75
     0
 76
     1
 98
        1
 10
0.0
 20
0.0
  0
ENDBLK
  5
4E
330
4C
100
AcDbEntity
  8
0
100
AcDbBlockEnd
  0
BLOCK
  5
58
330
4F
100
AcDbEntity
  8
0
100
AcDbBlockBegin
  2
TOP
 70
     0
 71
     0
 10
6907.44806061103
 20
-8773.60582324883
 30
0.0
  3
TOP
  1

  0
INSERT
  5
50
330
4F
100
AcDbEntity
  8
0
100
AcDbBlockReference
  2
3cx001737aaa_sealing_dome__2006_07_28_18_11_26
 10
7275.2820293497
 20
-9736.3414680225
 30
0.0
  0
INSERT
  5
51
330
4F
100
AcDbEntity
  8
1
100
AcDbBlockReference
  2
_D47
 10
0.0
 20
0.0
 30
0.0
  0
INSERT
  5
52
330
4F
100
AcDbEntity
  8
1
100
AcDbBlockReference
  2
_D48
 10
0.0
 20
0.0
 30
0.0
  0
INSERT
  5
53
330
4F
100
AcDbEntity
  8
1
100
AcDbBlockReference
  2
_D49
 10
0.0
 20
0.0
 30
0.0
  0
INSERT
  5
54
330
4F
100
AcDbEntity
  8
1
100
AcDbBlockReference
  2
_D58
 10
0.0
 20
0.0
 30
0.0
  0
INSERT
  5
55
330
4F
100
AcDbEntity
  8
1
100
AcDbBlockReference
  2
_D67
 10
0.0
 20
0.0
 30
0.0
  0
INSERT
  5
56
330
4F
100
AcDbEntity
  8
1
100
AcDbBlockReference
  2
_D68
 10
0.0
 20
0.0
 30
0.0
  0
INSERT
  5
57
330
4F
100
AcDbEntity
  8
1
100
AcDbBlockReference
  2
_D69
 10
0.0
 20
0.0
 30
0.0
  0
POINT
  5
F3
330
4F
100
AcDbEntity
  8
1
 62
     7
100
AcDbPoint
 10
7208.3457324292
 20
-9551.96740627502
 30
0.0
  0
POINT
  5
F4
330
4F
100
AcDbEntity
  8
1
 62
     7
100
AcDbPoint
 10
7205.3457324292
 20
-9550.80995592742
 30
0.0
  0
POINT
  5
F5
330
4F
100
AcDbEntity
  8
1
 62
     7
100
AcDbPoint
 10
7208.3457324292
 20
-9551.96761573422
 30
0.0
  0
POINT
  5
F6
330
4F
100
AcDbEntity
  8
1
 62
     7
100
AcDbPoint
 10
7208.3457324292
 20
-9418.63107727272
 30
0.0
  0
POINT
  5
F7
330
4F
100
AcDbEntity
  8
1
 62
     7
100
AcDbPoint
 10
7208.3457324292
 20
-9551.96740627502
 30
0.0
  0
POINT
  5
F8
330
4F
100
AcDbEntity
  8
1
 62
     7
100
AcDbPoint
 10
7139.3457324292
 20
-9485.63107727272
 30
0.0
  0
POINT
  5
F9
330
4F
100
AcDbEntity
  8
1
 62
     7
100
AcDbPoint
 10
7205.34573242891
 20
-9431.61311205757
 30
0.0
  0
POINT
  5
FA
330
4F
100
AcDbEntity
  8
1
 62
     7
100
AcDbPoint
 10
7205.34573242891
 20
-9539.64904248788
 30
0.0
  0
POINT
  5
FB
330
4F
100
AcDbEntity
  8
1
 62
     7
100
AcDbPoint
 10
7139.3457324292
 20
-9485.63107727272
 30
0.0
  0
POINT
  5
FC
330
4F
100
AcDbEntity
  8
1
 62
     7
100
AcDbPoint
 10
7205.3457324292
 20
-9550.80995592742
 30
0.0
  0
LINE
  5
FD
330
4F
100
AcDbEntity
  8
1
  6
Continuous
 62
     7
100
AcDbLine
 10
7243.78097882745
 20
-9391.14954805067
 30
0.0
 11
7258.78097882745
 21
-9391.14954805067
 31
0.0
  0
LINE
  5
FE
330
4F
100
AcDbEntity
  8
1
  6
Continuous
 62
     2
100
AcDbLine
 10
7273.78097882745
 20
-9378.64954805067
 30
0.0
 11
7133.78097882745
 21
-9378.64954805067
 31
0.0
  0
LINE
  5
FF
330
4F
100
AcDbEntity
  8
1
  6
Continuous
 62
     2
100
AcDbLine
 10
7133.78097882745
 20
-9378.64954805067
 30
0.0
 11
7133.78097882745
 21
-9398.64954805067
 31
0.0
  0
LINE
  5
100
330
4F
100
AcDbEntity
  8
1
  6
Continuous
 62
     2
100
AcDbLine
 10
7133.78097882745
 20
-9398.64954805067
 30
0.0
 11
7273.78097882745
 21
-9398.64954805067
 31
0.0
  0
LINE
  5
101
330
4F
100
AcDbEntity
  8
1
  6
Continuous
 62
     2
100
AcDbLine
 10
7273.78097882745
 20
-9398.64954805067
 30
0.0
 11
7273.78097882745
 21
-9378.64954805067
 31
0.0
  0
LINE
  5
102
330
4F
100
AcDbEntity
  8
1
  6
Continuous
 62
     2
100
AcDbLine
 10
7133.78097882745
 20
-9383.64954805067
 30
0.0
 11
7273.78097882745
 21
-9383.64954805067
 31
0.0
  0
LINE
  5
103
330
4F
100
AcDbEntity
  8
1
  6
Continuous
 62
     2
100
AcDbLine
 10
7273.78097882745
 20
-9388.64954805067
 30
0.0
 11
7133.78097882745
 21
-9388.64954805067
 31
0.0
  0
LINE
  5
104
330
4F
100
AcDbEntity
  8
1
  6
Continuous
 62
     2
100
AcDbLine
 10
7133.78097882745
 20
-9393.64954805067
 30
0.0
 11
7273.78097882745
 21
-9393.64954805067
 31
0.0
  0
LINE
  5
105
330
4F
100
AcDbEntity
  8
1
  6
Continuous
 62
     2
100
AcDbLine
 10
7228.78097882745
 20
-9378.64954805067
 30
0.0
 11
7228.78097882745
 21
-9398.64954805067
 31
0.0
  0
LINE
  5
106
330
4F
100
AcDbEntity
  8
1
  6
Continuous
 62
     2
100
AcDbLine
 10
7188.78097882745
 20
-9378.64954805067
 30
0.0
 11
7188.78097882745
 21
-9398.64954805067
 31
0.0
  0
LINE
  5
107
330
4F
100
AcDbEntity
  8
1
  6
Continuous
 62
     2
100
AcDbLine
 10
7178.78097882745
 20
-9378.64954805067
 30
0.0
 11
7178.78097882745
 21
-9398.64954805067
 31
0.0
  0
LINE
  5
108
330
4F
100
AcDbEntity
  8
1
  6
Continuous
 62
     2
100
AcDbLine
 10
7143.78097882745
 20
-9378.64954805067
 30
0.0
 11
7143.78097882745
 21
-9398.64954805067
 31
0.0
  0
LINE
  5
109
330
4F
100
AcDbEntity
  8
1
  6
PHANTOM
 62
     4
100
AcDbLine
 10
7204.88169046712
 20
-9431.65371046862
 30
0.0
 11
7205.34573242891
 21
-9431.61311205757
 31
0.0
  0
LINE
  5
10A
330
4F
100
AcDbEntity
  8
1
  6
PHANTOM
 62
     4
100
AcDbLine
 10
7205.34573242891
 20
-9539.64904248788
 30
0.0
 11
7204.88169046712
 21
-9539.60844407682
 31
0.0
  0
LINE
  5
10B
330
4F
100
AcDbEntity
  8
0
  6
PHANTOM
 62
     4
100
AcDbLine
 10
7203.54573242982
 20
-9539.49156289361
 30
0.0
 11
7204.4328881719
 21
-9539.56917896382
 31
0.0
  0
LINE
  5
10C
330
4F
100
AcDbEntity
  8
0
  6
PHANTOM
 62
     4
100
AcDbLine
 10
7203.54573242982
 20
-9431.77059165193
 30
0.0
 11
7204.4328881719
 21
-9431.69297558172
 31
0.0
  0
LINE
  5
10D
330
4F
100
AcDbEntity
  8
DEFAULT_3
  6
DOT_CENTER
 62
     2
100
AcDbLine
 10
7005.44130524225
 20
-9485.63107727282
 30
0.0
 11
7023.09486627723
 21
-9419.74709055555
 31
0.0
  0
LINE
  5
10E
330
4F
100
AcDbEntity
  8
DEFAULT_3
  6
DOT_CENTER
 62
     2
100
AcDbLine
 10
7005.44130524217
 20
-9429.82476823244
 30
0.0
 11
7005.44130524218
 21
-9397.63107727272
 31
0.0
  0
LINE
  5
10F
330
4F
100
AcDbEntity
  8
0
  6
Continuous
 62
     7
100
AcDbLine
 10
7201.98248049043
 20
-9539.44457085688
 30
0.0
 11
7203.54573242982
 21
-9539.49156289361
 31
0.0
  0
LINE
  5
110
330
4F
100
AcDbEntity
  8
0
  6
Continuous
 62
     7
100
AcDbLine
 10
7200.03161743956
 20
-9432.07803687589
 30
0.0
 11
7203.54573242982
 21
-9431.77059165193
 31
0.0
  0
LINE
  5
111
330
4F
100
AcDbEntity
  8
0
  6
Continuous
 62
     7
100
AcDbLine
 10
7189.84573242923
 20
-9433.16918634226
 30
0.0
 11
7189.8457324292
 21
-9432.96918634222
 31
0.0
  0
LINE
  5
112
330
4F
100
AcDbEntity
  8
0
  6
Continuous
 62
     7
100
AcDbLine
 10
7189.84573242923
 20
-9538.09296820319
 30
0.0
 11
7189.84573242923
 21
-9433.16918634226
 31
0.0
  0
LINE
  5
113
330
4F
100
AcDbEntity
  8
0
  6
Continuous
 62
     7
100
AcDbLine
 10
6938.94130524217
 20
-9483.13107727262
 30
0.0
 11
6938.94130524217
 21
-9488.13107727262
 31
0.0
  0
LINE
  5
114
330
4F
100
AcDbEntity
  8
0
  6
PHANTOM
 62
     4
100
AcDbLine
 10
7054.17951743236
 20
-9516.71401748932
 30
0.0
 11
7054.58824690697
 21
-9516.00607727272
 31
0.0
  0
LINE
  5
115
330
4F
100
AcDbEntity
  8
0
  6
PHANTOM
 62
     4
100
AcDbLine
 10
7022.85074241536
 20
-9430.50872248532
 30
0.0
 11
7022.06113770431
 21
-9430.2971485406
 31
0.0
  0
LINE
  5
116
330
4F
100
AcDbEntity
  8
0
  6
PHANTOM
 62
     4
100
AcDbLine
 10
7007.99081499896
 20
-9427.88107727272
 30
0.0
 11
7007.17335604974
 21
-9427.88107727272
 31
0.0
  0
LINE
  5
117
330
4F
100
AcDbEntity
  8
DEFAULT_3
  6
DOT_CENTER
 62
     2
100
AcDbLine
 10
7005.44130524217
 20
-9578.97553475422
 30
0.0
 11
7005.44130524225
 21
-9485.63107727282
 31
0.0
  0
LINE
  5
118
330
4F
100
AcDbEntity
  8
0
  6
PHANTOM
 62
     4
100
AcDbLine
 10
6954.15369467266
 20
-9512.29832996752
 30
0.0
 11
6954.56245485886
 21
-9513.00632337817
 31
0.0
  0
LINE
  5
119
330
4F
100
AcDbEntity
  8
0
  6
Continuous
 62
     7
100
AcDbLine
 10
6938.94130524216
 20
-9493.80114459192
 30
0.0
 11
6938.94130524216
 21
-9477.46100995352
 31
0.0
  0
LINE
  5
11A
330
4F
100
AcDbEntity
  8
1
  6
DOT_CENTER
 62
     2
100
AcDbLine
 10
6946.79963026886
 20
-9519.48786410456
 30
0.0
 11
7005.44130524225
 21
-9485.63107727282
 31
0.0
  0
LINE
  5
11B
330
4F
100
AcDbEntity
  8
1
  6
DOT_CENTER
 62
     2
100
AcDbLine
 10
7079.93449160372
 20
-9485.63107727272
 30
0.0
 11
6917.44130524216
 21
-9485.63107727272
 31
0.0
  0
LINE
  5
11C
330
4F
100
AcDbEntity
  8
1
  6
DOT_CENTER
 62
     2
100
AcDbLine
 10
7064.78631092861
 20
-9519.89393228081
 30
0.0
 11
7005.44130524225
 21
-9485.63107727282
 31
0.0
  0
LINE
  5
11D
330
4F
100
AcDbEntity
  8
DEFAULT_3
  6
DOT_CENTER
 62
     2
100
AcDbLine
 10
7005.44130524225
 20
-9485.63107727282
 30
0.0
 11
7005.44130524217
 21
-9429.82476823244
 31
0.0
  0
LINE
  5
11E
330
4F
100
AcDbEntity
  8
1
  6
DOT_CENTER
 62
     2
100
AcDbLine
 10
7005.44130524225
 20
-9485.63107727282
 30
0.0
 11
6943.0874761698
 21
-9449.63107727252
 31
0.0
  0
LINE
  5
11F
330
4F
100
AcDbEntity
  8
1
  6
DOT_CENTER
 62
     2
100
AcDbLine
 10
7005.44130524225
 20
-9485.63107727282
 30
0.0
 11
7067.79513431466
 21
-9449.63107727276
 31
0.0
  0
LINE
  5
120
330
4F
100
AcDbEntity
  8
1
  6
DOT_CENTER
 62
     2
100
AcDbLine
 10
7130.82328043679
 20
-9485.63107727272
 30
0.0
 11
7217.3719826151
 21
-9485.63107727272
 31
0.0
  0
LINE
  5
121
330
4F
100
AcDbEntity
  8
0
  6
Continuous
 62
     9
100
AcDbLine
 10
7206.4010386866
 20
-9551.82464741432
 30
0.0
 11
7208.3457324292
 21
-9551.92549119212
 31
0.0
  0
LINE
  5
122
330
4F
100
AcDbEntity
  8
0
  6
Continuous
 62
     7
100
AcDbLine
 10
7206.4010386866
 20
-9551.86569865382
 30
0.0
 11
7208.3457324292
 21
-9551.96761573422
 31
0.0
  0
LINE
  5
123
330
4F
100
AcDbEntity
  8
0
  6
Continuous
 62
     9
100
AcDbLine
 10
7206.4010386866
 20
-9549.41814015032
 30
0.0
 11
7208.3457324292
 21
-9549.51531769172
 31
0.0
  0
LINE
  5
124
330
4F
100
AcDbEntity
  8
0
  6
Continuous
 62
     7
100
AcDbLine
 10
7206.4010386866
 20
-9544.91667322342
 30
0.0
 11
7208.3457324292
 21
-9545.01859030382
 31
0.0
  0
LINE
  5
125
330
4F
100
AcDbEntity
  8
0
  6
Continuous
 62
     7
100
AcDbLine
 10
7189.8457324292
 20
-9538.29296820322
 30
0.0
 11
7201.98248049043
 21
-9539.44457085688
 31
0.0
  0
LINE
  5
126
330
4F
100
AcDbEntity
  8
0
  6
Continuous
 62
     9
100
AcDbLine
 10
7206.4010386866
 20
-9551.82464741432
 30
0.0
 11
7205.3457324292
 21
-9550.78045473012
 31
0.0
  0
LINE
  5
127
330
4F
100
AcDbEntity
  8
0
  6
Continuous
 62
     7
100
AcDbLine
 10
7205.3457324292
 20
-9419.78830061062
 30
0.0
 11
7206.4010386866
 21
-9418.73299435322
 31
0.0
  0
LINE
  5
128
330
4F
100
AcDbEntity
  8
0
  6
Continuous
 62
     9
100
AcDbLine
 10
7206.4010386866
 20
-9549.41814015032
 30
0.0
 11
7205.3457324292
 21
-9548.41190972252
 31
0.0
  0
LINE
  5
129
330
4F
100
AcDbEntity
  8
0
  6
Continuous
 62
     7
100
AcDbLine
 10
7205.3457324292
 20
-9550.81039239642
 30
0.0
 11
7206.4010386866
 21
-9551.86569865382
 31
0.0
  0
LINE
  5
12A
330
4F
100
AcDbEntity
  8
0
  6
Continuous
 62
     9
100
AcDbLine
 10
7206.4010386866
 20
-9444.14837676772
 30
0.0
 11
7205.3457324292
 21
-9444.80275954682
 31
0.0
  0
LINE
  5
12B
330
4F
100
AcDbEntity
  8
0
  6
Continuous
 62
     7
100
AcDbLine
 10
7205.3457324292
 20
-9543.86136696602
 30
0.0
 11
7206.4010386866
 21
-9544.91667322342
 31
0.0
  0
LINE
  5
12C
330
4F
100
AcDbEntity
  8
0
  6
Continuous
 62
     7
100
AcDbLine
 10
7205.3457324292
 20
-9459.51730809232
 30
0.0
 11
7206.4010386866
 21
-9458.46200183502
 31
0.0
  0
LINE
  5
12D
330
4F
100
AcDbEntity
  8
0
  6
Continuous
 62
     7
100
AcDbLine
 10
7189.8457324292
 20
-9538.29296820322
 30
0.0
 11
7189.84573242923
 21
-9538.09296820319
 31
0.0
  0
LINE
  5
12E
330
4F
100
AcDbEntity
  8
0
  6
Continuous
 62
     7
100
AcDbLine
 10
7206.4010386866
 20
-9458.46200183502
 30
0.0
 11
7208.3457324292
 21
-9458.36008475452
 31
0.0
  0
LINE
  5
12F
330
4F
100
AcDbEntity
  8
0
  6
Continuous
 62
     7
100
AcDbLine
 10
7205.3457324292
 20
-9419.78857183022
 30
0.0
 11
7205.3457324292
 21
-9550.80995592742
 31
0.0
  0
LINE
  5
130
330
4F
100
AcDbEntity
  8
0
  6
Continuous
 62
     2
100
AcDbLine
 10
7206.4010386866
 20
-9551.86569865382
 30
0.0
 11
7206.4010386866
 21
-9418.73299435322
 31
0.0
  0
LINE
  5
131
330
4F
100
AcDbEntity
  8
0
  6
Continuous
 62
     7
100
AcDbLine
 10
7208.3457324292
 20
-9551.96740627502
 30
0.0
 11
7208.3457324292
 21
-9418.63135325932
 31
0.0
  0
LINE
  5
132
330
4F
100
AcDbEntity
  8
0
  6
Continuous
 62
     9
100
AcDbLine
 10
7206.4010386866
 20
-9444.14837676772
 30
0.0
 11
7208.3457324292
 21
-9444.08517920602
 31
0.0
  0
LINE
  5
133
330
4F
100
AcDbEntity
  8
0
  6
Continuous
 62
     7
100
AcDbLine
 10
7189.8457324292
 20
-9432.96918634222
 30
0.0
 11
7200.03161743956
 21
-9432.07803687589
 31
0.0
  0
LINE
  5
134
330
4F
100
AcDbEntity
  8
0
  6
Continuous
 62
     7
100
AcDbLine
 10
7206.4010386866
 20
-9418.73299435322
 30
0.0
 11
7208.3457324292
 21
-9418.63107727272
 31
0.0
  0
LINE
  5
135
330
4F
100
AcDbEntity
  8
0
  6
PHANTOM
 62
     4
100
AcDbLine
 10
6954.56245485886
 20
-9513.00632337817
 30
0.0
 11
6956.29422148832
 21
-9516.00583116722
 31
0.0
  0
LINE
  5
136
330
4F
100
AcDbEntity
  8
0
  6
PHANTOM
 62
     4
100
AcDbLine
 10
6956.29422148832
 20
-9516.00583116722
 30
0.0
 11
6956.70298167456
 21
-9516.71382457792
 31
0.0
  0
LINE
  5
137
330
4F
100
AcDbEntity
  8
0
  6
PHANTOM
 62
     4
100
AcDbLine
 10
7056.32029771448
 20
-9513.00607727275
 30
0.0
 11
7056.72902718916
 21
-9512.29813705622
 31
0.0
  0
LINE
  5
138
330
4F
100
AcDbEntity
  8
0
  6
PHANTOM
 62
     4
100
AcDbLine
 10
7054.58824690697
 20
-9516.00607727272
 30
0.0
 11
7056.32029771448
 21
-9513.00607727275
 31
0.0
  0
LINE
  5
139
330
4F
100
AcDbEntity
  8
0
  6
PHANTOM
 62
     4
100
AcDbLine
 10
7022.06113770431
 20
-9430.2971485406
 30
0.0
 11
7018.71507248936
 21
-9429.40057306843
 31
0.0
  0
LINE
  5
13A
330
4F
100
AcDbEntity
  8
0
  6
PHANTOM
 62
     4
100
AcDbLine
 10
7018.71507248936
 20
-9429.40057306843
 30
0.0
 11
7017.92546777837
 21
-9429.18899912382
 31
0.0
  0
LINE
  5
13B
330
4F
100
AcDbEntity
  8
0
  6
PHANTOM
 62
     4
100
AcDbLine
 10
7007.17335604974
 20
-9427.88107727272
 30
0.0
 11
7003.70925443459
 21
-9427.88107727272
 31
0.0
  0
LINE
  5
13C
330
4F
100
AcDbEntity
  8
0
  6
PHANTOM
 62
     4
100
AcDbLine
 10
7003.70925443459
 20
-9427.88107727272
 30
0.0
 11
7002.89179548537
 21
-9427.88107727272
 31
0.0
  0
ARC
  5
13D
330
4F
100
AcDbEntity
  8
0
  6
PHANTOM
 62
     4
100
AcDbCircle
 10
7021.09985747086
 20
-9427.19256478222
 30
0.0
 40
3.75000000009317
100
AcDbArc
 50
-62.16657193353331
 51
-147.8334280655118
  0
ARC
  5
13E
330
4F
100
AcDbEntity
  8
0
  6
PHANTOM
 62
     4
100
AcDbCircle
 10
7005.44130524217
 20
-9425.13107727272
 30
0.0
 40
3.749999999995675
100
AcDbArc
 50
-47.16657193400404
 51
-132.8334280661081
  0
ARC
  5
13F
330
4F
100
AcDbEntity
  8
0
  6
PHANTOM
 62
     4
100
AcDbCircle
 10
7057.83584217116
 20
-9515.88107727272
 30
0.0
 40
3.749999999999061
100
AcDbArc
 50
-167.1665719336463
 51
107.1665719341751
  0
ARC
  5
140
330
4F
100
AcDbEntity
  8
0
  6
PHANTOM
 62
     4
100
AcDbCircle
 10
6953.04676831316
 20
-9515.88107727272
 30
0.0
 40
3.749848559378141
100
AcDbArc
 50
72.8309321057024
 51
-12.83093210638272
  0
ARC
  5
141
330
4F
100
AcDbEntity
  8
0
  6
Continuous
 62
     2
100
AcDbCircle
 10
7005.44130524217
 20
-9550.63107727272
 30
0.0
 40
6.65722333780558
100
AcDbArc
 50
154.9769381965997
 51
163.7180470958243
  0
ARC
  5
142
330
4F
100
AcDbEntity
  8
0
  6
PHANTOM
 62
     4
100
AcDbCircle
 10
7014.56029491397
 20
-9547.96761573422
 30
0.0
 40
2.8427766622066
100
AcDbArc
 50
-106.858742857843
 51
-81.677436498635
  0
ARC
  5
143
330
4F
100
AcDbEntity
  8
0
  6
PHANTOM
 62
     4
100
AcDbCircle
 10
7005.44130524225
 20
-9485.63107727282
 30
0.0
 40
65.84277666206316
100
AcDbArc
 50
-81.6774367512698
 51
-72.45797422414732
  0
ARC
  5
144
330
4F
100
AcDbEntity
  8
0
  6
PHANTOM
 62
     4
100
AcDbCircle
 10
7024.42983741687
 20
-9545.70133318902
 30
0.0
 40
2.842776662101595
100
AcDbArc
 50
-72.45799283035838
 51
19.81624702363246
  0
ARC
  5
145
330
4F
100
AcDbEntity
  8
0
  6
PHANTOM
 62
     2
100
AcDbCircle
 10
7029.13376024747
 20
-9544.00630811442
 30
0.0
 40
2.157223337807201
100
AcDbArc
 50
-179.0125150035601
 51
-160.183709452732
  0
ARC
  5
146
330
4F
100
AcDbEntity
  8
0
  6
PHANTOM
 62
     4
100
AcDbCircle
 10
7005.44130524225
 20
-9485.63107727282
 30
0.0
 40
60.84277666201282
100
AcDbArc
 50
-67.90949455088885
 51
-66.09050497168967
  0
ARC
  5
147
330
4F
100
AcDbEntity
  8
0
  6
PHANTOM
 62
     4
100
AcDbCircle
 10
7030.97476995437
 20
-9543.22484585742
 30
0.0
 40
2.157223337791982
100
AcDbArc
 50
90.36236435842075
 51
113.9094945509195
  0
ARC
  5
148
330
4F
100
AcDbEntity
  8
0
  6
PHANTOM
 62
     4
100
AcDbCircle
 10
7035.46168832136
 20
-9541.01859030382
 30
0.0
 40
2.842776662196971
100
AcDbArc
 50
-153.8162559281843
 51
-61.54204540512526
  0
ARC
  5
149
330
4F
100
AcDbEntity
  8
0
  6
PHANTOM
 62
     4
100
AcDbCircle
 10
7005.44130524225
 20
-9485.63107727282
 30
0.0
 40
65.84277666201741
100
AcDbArc
 50
-61.5420274267554
 51
21.67743727611145
  0
ARC
  5
14A
330
4F
100
AcDbEntity
  8
0
  6
Continuous
 62
     2
100
AcDbCircle
 10
7063.98582596966
 20
-9462.36008475452
 30
0.0
 40
2.842776662197805
100
AcDbArc
 50
46.9221076263776
 51
103.7180474522538
  0
ARC
  5
14B
330
4F
100
AcDbEntity
  8
0
  6
Continuous
 62
     2
100
AcDbCircle
 10
7061.73295648817
 20
-9453.13107727272
 30
0.0
 40
6.657223337808844
100
AcDbArc
 50
-84.97648474382059
 51
-76.28195289766596
  0
ARC
  5
14C
330
4F
100
AcDbEntity
  8
0
  6
PHANTOM
 62
     4
100
AcDbCircle
 10
7054.86683629796
 20
-9446.56553132942
 30
0.0
 40
2.842776662202673
100
AcDbArc
 50
13.11950992485843
 51
38.32256349930361
  0
ARC
  5
14D
330
4F
100
AcDbEntity
  8
0
  6
PHANTOM
 62
     4
100
AcDbCircle
 10
7005.44130524225
 20
-9485.63107727282
 30
0.0
 40
65.84277666216083
100
AcDbArc
 50
38.32256324873182
 51
99.54202565295937
  0
ARC
  5
14E
330
4F
100
AcDbEntity
  8
0
  6
PHANTOM
 62
     4
100
AcDbCircle
 10
6994.99773194866
 20
-9423.50272805222
 30
0.0
 40
2.842776662086924
100
AcDbArc
 50
99.54200432176631
 51
-168.1837530779408
  0
ARC
  5
14F
330
4F
100
AcDbEntity
  8
0
  6
PHANTOM
 62
     4
100
AcDbCircle
 10
6990.10368547576
 20
-9424.52659773232
 30
0.0
 40
2.157223337802329
100
AcDbArc
 50
-7.03574809782388
 51
11.81629068107227
  0
ARC
  5
150
330
4F
100
AcDbEntity
  8
0
  6
PHANTOM
 62
     4
100
AcDbCircle
 10
7005.44130524225
 20
-9485.63107727282
 30
0.0
 40
60.84277666209704
100
AcDbArc
 50
104.0905054498903
 51
105.9094950274912
  0
ARC
  5
151
330
4F
100
AcDbEntity
  8
0
  6
PHANTOM
 62
     4
100
AcDbCircle
 10
7005.44130524225
 20
-9485.63107727282
 30
0.0
 40
65.84277666221531
100
AcDbArc
 50
110.4579725729458
 51
141.6774377405802
  0
ARC
  5
152
330
4F
100
AcDbEntity
  8
0
  6
Continuous
 62
     2
100
AcDbCircle
 10
6949.14965399617
 20
-9453.13107727272
 30
0.0
 40
6.65722333779022
100
AcDbArc
 50
34.98352900176612
 51
43.71804710169909
  0
ARC
  5
153
330
4F
100
AcDbEntity
  8
0
  6
PHANTOM
 62
     4
100
AcDbCircle
 10
6946.89678451466
 20
-9462.36008475452
 30
0.0
 40
2.842776662190972
100
AcDbArc
 50
133.0778923734751
 51
158.3225634993566
  0
ARC
  5
154
330
4F
100
AcDbEntity
  8
0
  6
Continuous
 62
     2
100
AcDbCircle
 10
6996.32231557047
 20
-9547.96761573422
 30
0.0
 40
2.842776662198475
100
AcDbArc
 50
-73.14125714547848
 51
-16.28195253211884
  0
ARC
  5
155
330
4F
100
AcDbEntity
  8
0
  6
PHANTOM
 62
     4
100
AcDbCircle
 10
7005.44130524225
 20
-9485.63107727282
 30
0.0
 40
65.84277666226959
100
AcDbArc
 50
158.3225632485718
 51
-98.32256380738121
  0
ARC
  5
156
330
4F
100
AcDbEntity
  8
0
  6
PHANTOM
 62
     4
100
AcDbCircle
 10
7021.09985747086
 20
-9427.19256478222
 30
0.0
 40
3.25000000000157
100
AcDbArc
 50
-72.7957724959284
 51
-137.2042275039148
  0
ARC
  5
157
330
4F
100
AcDbEntity
  8
0
  6
PHANTOM
 62
     4
100
AcDbCircle
 10
7005.44130524217
 20
-9425.13107727272
 30
0.0
 40
3.250000000000586
100
AcDbArc
 50
-57.79577249601158
 51
-122.2042275041377
  0
ARC
  5
158
330
4F
100
AcDbEntity
  8
0
  6
PHANTOM
 62
     4
100
AcDbCircle
 10
7057.83584217116
 20
-9515.88107727272
 30
0.0
 40
3.249999999998197
100
AcDbArc
 50
-177.7957724960268
 51
117.795772497173
  0
ARC
  5
159
330
4F
100
AcDbEntity
  8
0
  6
PHANTOM
 62
     4
100
AcDbCircle
 10
6953.04676831316
 20
-9515.88107727272
 30
0.0
 40
3.249848559401903
100
AcDbArc
 50
62.1999881518673
 51
-2.19998815145277
  0
ARC
  5
15A
330
4F
100
AcDbEntity
  8
0
  6
Continuous
 62
     7
100
AcDbCircle
 10
7005.44130524225
 20
-9485.63107727282
 30
0.0
 40
62.00000000001184
100
AcDbArc
 50
-67.90949501204477
 51
-66.09050498803892
  0
ARC
  5
15B
330
4F
100
AcDbEntity
  8
0
  6
Continuous
 62
     7
100
AcDbCircle
 10
7024.42983741687
 20
-9545.70133318902
 30
0.0
 40
4.000000000001386
100
AcDbArc
 50
-72.45797338434066
 51
19.81626580009164
  0
ARC
  5
15C
330
4F
100
AcDbEntity
  8
0
  6
Continuous
 62
     7
100
AcDbCircle
 10
7005.44130524225
 20
-9485.63107727282
 30
0.0
 40
66.9999999998957
100
AcDbArc
 50
-81.67743676273605
 51
-72.45797338455733
  0
ARC
  5
15D
330
4F
100
AcDbEntity
  8
0
  6
Continuous
 62
     7
100
AcDbCircle
 10
7005.44130524217
 20
-9550.63107727272
 30
0.0
 40
5.499999999992286
100
AcDbArc
 50
16.281952792548
 51
163.7180472074785
  0
ARC
  5
15E
330
4F
100
AcDbEntity
  8
0
  6
Continuous
 62
     7
100
AcDbCircle
 10
7005.44130524225
 20
-9485.63107727282
 30
0.0
 40
67.00000000007921
100
AcDbArc
 50
-172.9958460219713
 51
-98.3225632374071
  0
ARC
  5
15F
330
4F
100
AcDbEntity
  8
0
  6
Continuous
 62
     7
100
AcDbCircle
 10
7005.44130524225
 20
-9485.63107727282
 30
0.0
 40
67.00000000011134
100
AcDbArc
 50
158.3225632374539
 51
172.995846021803
  0
ARC
  5
160
330
4F
100
AcDbEntity
  8
0
  6
Continuous
 62
     7
100
AcDbCircle
 10
7035.46168832136
 20
-9541.01859030382
 30
0.0
 40
4.00000000000112
100
AcDbArc
 50
-153.8162657994473
 51
-61.54202661019304
  0
ARC
  5
161
330
4F
100
AcDbEntity
  8
0
  6
Continuous
 62
     7
100
AcDbCircle
 10
7063.98582596966
 20
-9462.36008475452
 30
0.0
 40
4.00000000005818
100
AcDbArc
 50
21.67743676266861
 51
103.7180472234546
  0
ARC
  5
162
330
4F
100
AcDbEntity
  8
0
  6
Continuous
 62
     7
100
AcDbCircle
 10
7061.73295648817
 20
-9453.13107727272
 30
0.0
 40
5.499999999999657
100
AcDbArc
 50
136.2819528015465
 51
-76.28195280489113
  0
ARC
  5
163
330
4F
100
AcDbEntity
  8
0
  6
Continuous
 62
     7
100
AcDbCircle
 10
7054.86683629796
 20
-9446.56553132942
 30
0.0
 40
4.00000000000037
100
AcDbArc
 50
-43.71804721905578
 51
38.32256324014005
  0
ARC
  5
164
330
4F
100
AcDbEntity
  8
0
  6
Continuous
 62
     7
100
AcDbCircle
 10
7005.44130524225
 20
-9485.63107727282
 30
0.0
 40
66.99999999995634
100
AcDbArc
 50
38.32256323758723
 51
99.54202661555883
  0
ARC
  5
165
330
4F
100
AcDbEntity
  8
0
  6
Continuous
 62
     7
100
AcDbCircle
 10
6994.99773194866
 20
-9423.50272805222
 30
0.0
 40
3.999999999989688
100
AcDbArc
 50
99.54202661654595
 51
-168.1837342158747
  0
ARC
  5
166
330
4F
100
AcDbEntity
  8
0
  6
Continuous
 62
     7
100
AcDbCircle
 10
6990.10368547576
 20
-9424.52659773232
 30
0.0
 40
1.000000000001144
100
AcDbArc
 50
-75.9094950336298
 51
11.81626587175884
  0
ARC
  5
167
330
4F
100
AcDbEntity
  8
0
  6
Continuous
 62
     7
100
AcDbCircle
 10
7005.44130524225
 20
-9485.63107727282
 30
0.0
 40
62.00000000013169
100
AcDbArc
 50
104.0905049884335
 51
105.9094950116909
  0
ARC
  5
168
330
4F
100
AcDbEntity
  8
0
  6
Continuous
 62
     7
100
AcDbCircle
 10
6988.17183382326
 20
-9425.04423582252
 30
0.0
 40
1.000000000061935
100
AcDbArc
 50
-161.8162658014687
 51
-74.0905049675772
  0
ARC
  5
169
330
4F
100
AcDbEntity
  8
0
  6
Continuous
 62
     7
100
AcDbCircle
 10
6983.42153041037
 20
-9426.60456190582
 30
0.0
 40
4.00000000001292
100
AcDbArc
 50
18.18373419801809
 51
110.4579733835111
  0
ARC
  5
16A
330
4F
100
AcDbEntity
  8
0
  6
Continuous
 62
     7
100
AcDbCircle
 10
7005.44130524225
 20
-9485.63107727282
 30
0.0
 40
67.00000000013112
100
AcDbArc
 50
110.4579733845435
 51
141.6774367624809
  0
ARC
  5
16B
330
4F
100
AcDbEntity
  8
0
  6
Continuous
 62
     7
100
AcDbCircle
 10
6956.01577418637
 20
-9446.56553132942
 30
0.0
 40
4.000000000029748
100
AcDbArc
 50
141.6774367594991
 51
-136.2819527808501
  0
ARC
  5
16C
330
4F
100
AcDbEntity
  8
0
  6
Continuous
 62
     7
100
AcDbCircle
 10
6949.14965399617
 20
-9453.13107727272
 30
0.0
 40
5.500000000009249
100
AcDbArc
 50
-103.7180471952643
 51
43.71804719845707
  0
ARC
  5
16D
330
4F
100
AcDbEntity
  8
0
  6
Continuous
 62
     7
100
AcDbCircle
 10
6946.89678451466
 20
-9462.36008475452
 30
0.0
 40
3.999999999983378
100
AcDbArc
 50
76.28195277648068
 51
158.3225632405787
  0
ARC
  5
16E
330
4F
100
AcDbEntity
  8
0
  6
Continuous
 62
     7
100
AcDbCircle
 10
7005.44130524225
 20
-9485.63107727282
 30
0.0
 40
66.99999999981314
100
AcDbArc
 50
-61.54202661519214
 51
21.67743676279652
  0
ARC
  5
16F
330
4F
100
AcDbEntity
  8
0
  6
PHANTOM
 62
     2
100
AcDbCircle
 10
6988.17183382326
 20
-9425.04423582252
 30
0.0
 40
0.9999999999935699
100
AcDbArc
 50
-164.9999999993673
 51
-162.9309719332653
  0
ARC
  5
170
330
4F
100
AcDbEntity
  8
0
  6
PHANTOM
 62
     2
100
AcDbCircle
 10
6990.10368547576
 20
-9424.52659773232
 30
0.0
 40
1.000000000086537
100
AcDbArc
 50
12.9309719330264
 51
14.99999999919678
  0
ARC
  5
171
330
4F
100
AcDbEntity
  8
0
  6
Continuous
 62
     7
100
AcDbCircle
 10
7191.8457324292
 20
-9485.63107727272
 30
0.0
 40
52.5
100
AcDbArc
 50
180.0
 51
-92.18322464609611
  0
ARC
  5
172
330
4F
100
AcDbEntity
  8
0
  6
PHANTOM
 62
     4
100
AcDbCircle
 10
7204.3457324292
 20
-9430.69678088362
 30
0.0
 40
1.000000000004286
100
AcDbArc
 50
-85.00000000276793
 51
-0.00139748019561
  0
ARC
  5
173
330
4F
100
AcDbEntity
  8
0
  6
PHANTOM
 62
     4
100
AcDbCircle
 10
7204.3457324292
 20
-9540.56537366182
 30
0.0
 40
1.000000000007322
100
AcDbArc
 50
0.00139747957027
 51
85.00000000226834
  0
ARC
  5
174
330
4F
100
AcDbEntity
  8
0
  6
Continuous
 62
     7
100
AcDbCircle
 10
7191.8457324292
 20
-9485.63107727272
 30
0.0
 40
52.49999999999297
100
AcDbArc
 50
92.18322464609658
 51
180.0
  0
ARC
  5
175
330
4F
100
AcDbEntity
  8
0
  6
Continuous
 62
     2
100
AcDbCircle
 10
6956.01577418637
 20
-9446.56553132942
 30
0.0
 40
2.842776662204737
100
AcDbArc
 50
166.8804900749631
 51
-136.2819525458384
  0
ARC
  5
176
330
4F
100
AcDbEntity
  8
0
  6
PHANTOM
 62
     4
100
AcDbCircle
 10
6956.01577418637
 20
-9446.56553132942
 30
0.0
 40
2.842776662128867
100
AcDbArc
 50
141.6774594124655
 51
166.8804900749631
  0
ARC
  5
177
330
4F
100
AcDbEntity
  8
0
  6
PHANTOM
 62
     4
100
AcDbCircle
 10
6949.14965399617
 20
-9453.13107727272
 30
0.0
 40
6.657223337797972
100
AcDbArc
 50
-95.02351525618764
 51
34.98352900176612
  0
ARC
  5
178
330
4F
100
AcDbEntity
  8
0
  6
Continuous
 62
     2
100
AcDbCircle
 10
6949.14965399617
 20
-9453.13107727272
 30
0.0
 40
6.657223337803232
100
AcDbArc
 50
-103.7180478263791
 51
-95.02351525618764
  0
ARC
  5
179
330
4F
100
AcDbEntity
  8
0
  6
Continuous
 62
     2
100
AcDbCircle
 10
6946.89678451466
 20
-9462.36008475452
 30
0.0
 40
2.842776662189396
100
AcDbArc
 50
76.28195424292535
 51
133.0778923734751
  0
ARC
  5
17A
330
4F
100
AcDbEntity
  8
0
  6
PHANTOM
 62
     4
100
AcDbCircle
 10
6996.32231557047
 20
-9547.96761573422
 30
0.0
 40
2.842776662146491
100
AcDbArc
 50
-98.32257643934305
 51
-73.14125714547848
  0
ARC
  5
17B
330
4F
100
AcDbEntity
  8
0
  6
PHANTOM
 62
     4
100
AcDbCircle
 10
7005.44130524217
 20
-9550.63107727272
 30
0.0
 40
6.65722333779289
100
AcDbArc
 50
25.02306180355497
 51
154.9769381965997
  0
ARC
  5
17C
330
4F
100
AcDbEntity
  8
0
  6
Continuous
 62
     2
100
AcDbCircle
 10
7005.44130524217
 20
-9550.63107727272
 30
0.0
 40
6.657223337799831
100
AcDbArc
 50
16.28195218059461
 51
25.02306180355497
  0
ARC
  5
17D
330
4F
100
AcDbEntity
  8
0
  6
Continuous
 62
     2
100
AcDbCircle
 10
7014.56029491397
 20
-9547.96761573422
 30
0.0
 40
2.842776662277552
100
AcDbArc
 50
-163.7180457739672
 51
-106.858742857843
  0
ARC
  5
17E
330
4F
100
AcDbEntity
  8
0
  6
Continuous
 62
     2
100
AcDbCircle
 10
7029.13376024747
 20
-9544.00630811442
 30
0.0
 40
2.157223337794667
100
AcDbArc
 50
135.6379648629807
 51
-179.0125150035601
  0
ARC
  5
17F
330
4F
100
AcDbEntity
  8
0
  6
PHANTOM
 62
     4
100
AcDbCircle
 10
7029.13376024747
 20
-9544.00630811442
 30
0.0
 40
2.157223337864412
100
AcDbArc
 50
112.0904919811421
 51
135.6379648629807
  0
ARC
  5
180
330
4F
100
AcDbEntity
  8
0
  6
Continuous
 62
     2
100
AcDbCircle
 10
7030.97476995437
 20
-9543.22484585742
 30
0.0
 40
2.157223337797508
100
AcDbArc
 50
45.00734839031367
 51
90.36236435842075
  0
ARC
  5
181
330
4F
100
AcDbEntity
  8
0
  6
PHANTOM
 62
     4
100
AcDbCircle
 10
7030.97476995437
 20
-9543.22484585742
 30
0.0
 40
2.157223337785849
100
AcDbArc
 50
26.18372118807422
 51
45.00734839031367
  0
ARC
  5
182
330
4F
100
AcDbEntity
  8
0
  6
PHANTOM
 62
     4
100
AcDbCircle
 10
7063.98582596966
 20
-9462.36008475452
 30
0.0
 40
2.842776662142165
100
AcDbArc
 50
21.67744865172516
 51
46.9221076263776
  0
ARC
  5
183
330
4F
100
AcDbEntity
  8
0
  6
PHANTOM
 62
     4
100
AcDbCircle
 10
7061.73295648817
 20
-9453.13107727272
 30
0.0
 40
6.657223337799162
100
AcDbArc
 50
145.0164709982878
 51
-84.97648474382059
  0
ARC
  5
184
330
4F
100
AcDbEntity
  8
0
  6
Continuous
 62
     2
100
AcDbCircle
 10
7054.86683629796
 20
-9446.56553132942
 30
0.0
 40
2.842776662207808
100
AcDbArc
 50
-43.71804576066128
 51
13.11950992485843
  0
ARC
  5
185
330
4F
100
AcDbEntity
  8
0
  6
Continuous
 62
     2
100
AcDbCircle
 10
7061.73295648817
 20
-9453.13107727272
 30
0.0
 40
6.657223337792221
100
AcDbArc
 50
136.2819521751996
 51
145.0164709982878
  0
ARC
  5
186
330
4F
100
AcDbEntity
  8
0
  6
Continuous
 62
     2
100
AcDbCircle
 10
6990.10368547576
 20
-9424.52659773232
 30
0.0
 40
2.157223337807425
100
AcDbArc
 50
-52.36272145419645
 51
-7.03574809782388
  0
ARC
  5
187
330
4F
100
AcDbEntity
  8
0
  6
PHANTOM
 62
     4
100
AcDbCircle
 10
6990.10368547576
 20
-9424.52659773232
 30
0.0
 40
2.157223338035859
100
AcDbArc
 50
-75.90950803681824
 51
-52.36272145419645
  0
ARC
  5
188
330
4F
100
AcDbEntity
  8
1
  6
Continuous
 62
     7
100
AcDbCircle
 10
7014.56029491397
 20
-9547.96761573422
 30
0.0
 40
4.000000000085095
100
AcDbArc
 50
-163.7180472071603
 51
-81.67743676378348
  0
ARC
  5
189
330
4F
100
AcDbEntity
  8
1
  6
Continuous
 62
     7
100
AcDbCircle
 10
6996.32231557047
 20
-9547.96761573422
 30
0.0
 40
4.000000000049382
100
AcDbArc
 50
-98.32256323777627
 51
-16.28195279328165
  0
ARC
  5
18A
330
4F
100
AcDbEntity
  8
1
  6
PHANTOM
 62
     2
100
AcDbCircle
 10
7029.13376024747
 20
-9544.00630811442
 30
0.0
 40
1.000000000035613
100
AcDbArc
 50
-159.4639836166788
 51
-156.9999999920996
  0
ARC
  5
18B
330
4F
100
AcDbEntity
  8
1
  6
Continuous
 62
     7
100
AcDbCircle
 10
7030.97476995437
 20
-9543.22484585742
 30
0.0
 40
0.9999999999816013
100
AcDbArc
 50
26.1837341915266
 51
113.9094950121251
  0
ARC
  5
18C
330
4F
100
AcDbEntity
  8
1
  6
Continuous
 62
     7
100
AcDbCircle
 10
7029.13376024747
 20
-9544.00630811442
 30
0.0
 40
0.9999999998653418
100
AcDbArc
 50
112.0905049873612
 51
-160.183734192002
  0
ARC
  5
18D
330
4F
100
AcDbEntity
  8
1
  6
PHANTOM
 62
     2
100
AcDbCircle
 10
7030.97476995437
 20
-9543.22484585742
 30
0.0
 40
0.9999999999632418
100
AcDbArc
 50
22.99999999093084
 51
25.46398361598672
  0
CIRCLE
  5
18E
330
4F
100
AcDbEntity
  8
1
  6
Continuous
 62
     2
100
AcDbCircle
 10
7191.28600795484
 20
-9417.23812102953
 30
0.0
 40
3.999999999989996
  0
CIRCLE
  5
18F
330
4F
100
AcDbEntity
  8
1
  6
Continuous
 62
     2
100
AcDbCircle
 10
7152.92111824672
 20
-9530.87625513038
 30
0.0
 40
4.0
  0
CIRCLE
  5
190
330
4F
100
AcDbEntity
  8
1
  6
DOT_CENTER
 62
     2
100
AcDbCircle
 10
7005.44130524225
 20
-9485.63107727282
 30
0.0
 40
60.49999999991996
  0
CIRCLE
  5
191
102
{ACAD_REACTORS
330
1EB
330
1EB
102
}
330
4F
100
AcDbEntity
  8
1
  6
Continuous
 62
     7
100
AcDbCircle
 10
7005.44130524217
 20
-9550.63107727272
 30
0.0
 40
0.25
  0
CIRCLE
  5
192
102
{ACAD_REACTORS
330
1EA
330
1EA
102
}
330
4F
100
AcDbEntity
  8
1
  6
Continuous
 62
     7
100
AcDbCircle
 10
6949.14965399617
 20
-9453.13107727272
 30
0.0
 40
0.2499999999899956
  0
CIRCLE
  5
193
102
{ACAD_REACTORS
330
1E9
330
1E9
102
}
330
4F
100
AcDbEntity
  8
1
  6
Continuous
 62
     7
100
AcDbCircle
 10
7061.73295648817
 20
-9453.13107727272
 30
0.0
 40
0.2499999999899956
  0
CIRCLE
  5
194
330
4F
100
AcDbEntity
  8
0
  6
Continuous
 62
     7
100
AcDbCircle
 10
7005.44130524225
 20
-9485.63107727282
 30
0.0
 40
52.66189093041066
  0
CIRCLE
  5
195
330
4F
100
AcDbEntity
  8
0
  6
Continuous
 62
     2
100
AcDbCircle
 10
7005.44130524225
 20
-9485.63107727282
 30
0.0
 40
52.46189093041994
  0
CIRCLE
  5
196
330
4F
100
AcDbEntity
  8
1
  6
PHANTOM
 62
     4
100
AcDbCircle
 10
7021.09985747086
 20
-9427.19256478222
 30
0.0
 40
3.25
  0
CIRCLE
  5
197
102
{ACAD_REACTORS
330
1E7
330
1E7
102
}
330
4F
100
AcDbEntity
  8
1
  6
Continuous
 62
     2
100
AcDbCircle
 10
7160.80587020326
 20
-9523.00793804062
 30
0.0
 40
0.25
  0
CIRCLE
  5
198
102
{ACAD_REACTORS
330
1E8
330
1E8
102
}
330
4F
100
AcDbEntity
  8
1
  6
Continuous
 62
     2
100
AcDbCircle
 10
7204.51310253527
 20
-9425.58261987963
 30
0.0
 40
0.25
  0
SPLINE
  5
199
330
4F
100
AcDbEntity
  8
0
  6
PHANTOM
 62
     4
100
AcDbSpline
210
0.0
220
0.0
230
1.0
 70
     8
 71
     3
 72
     9
 73
     5
 74
     3
 42
0.0000000001
 43
0.0000000001
 44
0.00000001
 40
0.0
 40
0.0
 40
0.0
 40
0.0
 40
0.3650562902060759
 40
0.7300723448905744
 40
0.7300723448905744
 40
0.7300723448905744
 40
0.7300723448905744
 10
6986.11248393377
 20
-9425.69637708642
 30
0.0
 10
6986.155064478649
 20
-9425.810927042945
 30
0.0
 10
6986.240220875295
 20
-9426.040014330609
 30
0.0
 10
6986.379107382676
 20
-9426.241118949914
 30
0.0
 10
6986.44854680923
 20
-9426.34166571796
 30
0.0
 11
6986.11248393377
 21
-9425.69637708642
 31
0.0
 11
6986.253659576711
 21
-9426.0330305178
 31
0.0
 11
6986.44854680923
 21
-9426.34166571796
 31
0.0
  0
SPLINE
  5
19A
330
4F
100
AcDbEntity
  8
0
  6
PHANTOM
 62
     4
100
AcDbSpline
210
0.0
220
0.0
230
1.0
 70
     8
 71
     3
 72
    23
 73
    19
 74
    17
 42
0.0000000001
 43
0.0000000001
 44
0.00000001
 40
0.0
 40
0.0
 40
0.0
 40
0.0
 40
0.5711112948914304
 40
1.142212159964037
 40
1.333158592469597
 40
1.524051816512719
 40
1.714798851397944
 40
1.905569792578732
 40
2.096263587828156
 40
2.286940936773293
 40
2.477613155203392
 40
2.668300864457646
 40
2.85907305836216
 40
3.049824487907574
 40
3.240739146608939
 40
3.431703239539419
 40
3.991140358226289
 40
4.550587221252275
 40
4.550587221252275
 40
4.550587221252275
 40
4.550587221252275
 10
6982.42792331609
 20
-9423.94108220951
 30
0.0
 10
6982.610418712093
 20
-9423.884738146004
 30
0.0
 10
6982.97540617131
 20
-9423.772051047963
 30
0.0
 10
6983.424497322754
 20
-9423.753326237294
 30
0.0
 10
6983.741147603353
 20
-9423.77769266653
 30
0.0
 10
6983.930179249744
 20
-9423.805471330497
 30
0.0
 10
6984.116774817303
 20
-9423.84594516001
 30
0.0
 10
6984.300179979684
 20
-9423.89884819112
 30
0.0
 10
6984.479643256238
 20
-9423.963794330044
 30
0.0
 10
6984.654328652463
 20
-9424.04060542842
 30
0.0
 10
6984.823395672611
 20
-9424.129095436863
 30
0.0
 10
6984.986178163537
 20
-9424.228723006045
 30
0.0
 10
6985.142019313716
 20
-9424.338948089011
 30
0.0
 10
6985.290175313705
 20
-9424.45939959757
 30
0.0
 10
6985.429998738142
 20
-9424.589627906062
 30
0.0
 10
6985.644221259954
 20
-9424.818808710399
 30
0.0
 10
6985.905827636878
 20
-9425.174528130865
 30
0.0
 10
6986.043598101525
 20
-9425.522426424623
 30
0.0
 10
6986.11248393377
 20
-9425.69637708642
 30
0.0
 11
6982.42792331609
 21
-9423.94108220951
 31
0.0
 11
6982.980354843775
 21
-9423.796211514158
 31
0.0
 11
6983.550599020634
 21
-9423.764942090673
 31
0.0
 11
6983.740959866655
 21
-9423.779884928039
 31
0.0
 11
6983.929830817164
 21
-9423.807597507126
 31
0.0
 11
6984.116246131054
 21
-9423.848017329796
 31
0.0
 11
6984.299551121028
 21
-9423.900864587526
 31
0.0
 11
6984.478857175885
 21
-9423.965775774837
 31
0.0
 11
6984.653394128873
 21
-9424.042552746923
 31
0.0
 11
6984.822339255838
 21
-9424.130946405947
 31
0.0
 11
6984.984994037341
 21
-9424.23047140037
 31
0.0
 11
6985.140734013173
 21
-9424.34064893844
 31
0.0
 11
6985.288737541252
 21
-9424.460986229209
 31
0.0
 11
6985.428402299035
 21
-9424.591148291041
 31
0.0
 11
6985.559011335456
 21
-9424.730462914804
 31
0.0
 11
6985.884402051241
 21
-9425.185535185818
 31
0.0
 11
6986.11248393377
 21
-9425.69637708642
 31
0.0
  0
SPLINE
  5
19B
330
4F
100
AcDbEntity
  8
0
  6
PHANTOM
 62
     4
100
AcDbSpline
210
0.0
220
0.0
230
1.0
 70
     8
 71
     3
 72
     9
 73
     5
 74
     3
 42
0.0000000001
 43
0.0000000001
 44
0.00000001
 40
0.0
 40
0.0
 40
0.0
 40
0.0
 40
0.4419973403679079
 40
0.8840488293343607
 40
0.8840488293343607
 40
0.8840488293343607
 40
0.8840488293343607
 10
6987.88608118459
 20
-9427.18218630456
 30
0.0
 10
6988.033888875343
 20
-9427.194268469375
 30
0.0
 10
6988.329522364604
 20
-9427.218434279177
 30
0.0
 10
6988.61861410966
 20
-9427.15203188748
 30
0.0
 10
6988.76316883572
 20
-9427.11882865803
 30
0.0
 11
6987.88608118459
 21
-9427.18218630456
 31
0.0
 11
6988.327869021135
 21
-9427.195793522225
 31
0.0
 11
6988.76316883572
 21
-9427.11882865803
 31
0.0
  0
SPLINE
  5
19C
330
4F
100
AcDbEntity
  8
0
  6
Continuous
 62
     2
100
AcDbSpline
210
0.0
220
0.0
230
1.0
 70
     8
 71
     3
 72
    19
 73
    15
 74
    13
 42
0.0000000001
 43
0.0000000001
 44
0.00000001
 40
0.0
 40
0.0
 40
0.0
 40
0.0
 40
0.1390089561121397
 40
0.2780184809188923
 40
0.4436360316536831
 40
0.6092905248003853
 40
0.7747335364376764
 40
0.9401802311794625
 40
1.105636913313094
 40
1.271097616504758
 40
1.436794230752106
 40
1.602421618277164
 40
1.655851229603934
 40
1.709280811371707
 40
1.709280811371707
 40
1.709280811371707
 40
1.709280811371707
 10
6986.44854680923
 20
-9426.34166571796
 30
0.0
 10
6986.477199919394
 20
-9426.37810042491
 30
0.0
 10
6986.534506256944
 20
-9426.450969987865
 30
0.0
 10
6986.634955097459
 20
-9426.559691025677
 30
0.0
 10
6986.748590474225
 20
-9426.66785875048
 30
0.0
 10
6986.877158452457
 20
-9426.772469000594
 30
0.0
 10
6987.013481303527
 20
-9426.866629810276
 30
0.0
 10
6987.156597287511
 20
-9426.949962340572
 30
0.0
 10
6987.305612843789
 20
-9427.022227766614
 30
0.0
 10
6987.459827973067
 20
-9427.082858891124
 30
0.0
 10
6987.618361371633
 20
-9427.131271299399
 30
0.0
 10
6987.743669738977
 20
-9427.159195395232
 30
0.0
 10
6987.833178788283
 20
-9427.17467784574
 30
0.0
 10
6987.86844705574
 20
-9427.179683485416
 30
0.0
 10
6987.88608118459
 20
-9427.18218630456
 30
0.0
 11
6986.44854680923
 21
-9426.34166571796
 31
0.0
 11
6986.535916906348
 21
-9426.449785817891
 31
0.0
 11
6986.629895347185
 21
-9426.552214820838
 31
0.0
 11
6986.750006018106
 21
-9426.66624376384
 31
0.0
 11
6986.87851496956
 21
-9426.770775388222
 31
0.0
 11
6987.014621479851
 21
-9426.864830733399
 31
0.0
 11
6987.15757674247
 21
-9426.948115796227
 31
0.0
 11
6987.306465297282
 21
-9427.020283045786
 31
0.0
 11
6987.460464509352
 21
-9427.080793267916
 31
0.0
 11
6987.618927541089
 21
-9427.129216769916
 31
0.0
 11
6987.780562113671
 21
-9427.165365026367
 31
0.0
 11
6987.833220327419
 21
-9427.17441134559
 31
0.0
 11
6987.88608118459
 21
-9427.18218630456
 31
0.0
  0
LEADER
  5
19D
330
4F
100
AcDbEntity
  8
1
  6
Continuous
 62
     2
100
AcDbLeader
  3
Standard
 71
     0
 76
     3
 10
7160.80587020326
 20
-9523.00793804062
 30
0.0
 10
7155.75724785272
 20
-9528.05555151994
 30
0.0
 10
7155.75731941029
 20
-9528.05564070049
 30
0.0
  0
LEADER
  5
19E
330
4F
100
AcDbEntity
  8
1
  6
Continuous
 62
     2
100
AcDbLeader
  3
Standard
 71
     0
 76
     2
 10
7204.51310253527
 20
-9425.58261987963
 30
0.0
 10
7194.86273233977
 20
-9419.02894281692
 30
0.0
  0
MTEXT
  5
1A0
330
4F
100
AcDbEntity
  8
1
 62
     7
100
AcDbMText
 10
7251.28097882745
 20
-9381.14954805067
 30
0.0
 40
3.0
 41
0.0
 71
     5
 72
     1
  1
Treatment
  7
CONVERTER_13
 73
     1
 44
1.0
  0
MTEXT
  5
1A1
330
4F
100
AcDbEntity
  8
1
 62
     7
100
AcDbMText
 10
7208.78097882745
 20
-9381.14954805067
 30
0.0
 40
3.0
 41
0.0
 71
     5
 72
     1
  1
Material
  7
CONVERTER_13
 73
     1
 44
1.0
  0
MTEXT
  5
1A2
330
4F
100
AcDbEntity
  8
1
 62
     7
100
AcDbMText
 10
7183.78097882745
 20
-9381.14954805067
 30
0.0
 40
3.0
 41
0.0
 71
     5
 72
     1
  1
Qty
  7
CONVERTER_13
 73
     1
 44
1.0
  0
MTEXT
  5
1A3
330
4F
100
AcDbEntity
  8
1
 62
     7
100
AcDbMText
 10
7161.28097882745
 20
-9381.14954805067
 30
0.0
 40
3.0
 41
0.0
 71
     5
 72
     1
  1
Part Name
  7
CONVERTER_13
 73
     1
 44
1.0
  0
MTEXT
  5
1A4
330
4F
100
AcDbEntity
  8
1
 62
     7
100
AcDbMText
 10
7138.78097882745
 20
-9381.14954805067
 30
0.0
 40
3.0
 41
0.0
 71
     5
 72
     1
  1
No.
  7
CONVERTER_13
 73
     1
 44
1.0
  0
MTEXT
  5
1A5
330
4F
100
AcDbEntity
  8
1
 62
     7
100
AcDbMText
 10
7183.78097882745
 20
-9391.14954805067
 30
0.0
 40
3.0
 41
0.0
 71
     5
 72
     1
  1
1
  7
CONVERTER_13
 73
     1
 44
1.0
  0
MTEXT
  5
1A6
330
4F
100
AcDbEntity
  8
1
 62
     7
100
AcDbMText
 10
7138.78097882745
 20
-9391.14954805067
 30
0.0
 40
3.0
 41
0.0
 71
     5
 72
     1
  1
2
  7
CONVERTER_13
 73
     1
 44
1.0
  0
MTEXT
  5
1A7
330
4F
100
AcDbEntity
  8
1
 62
     7
100
AcDbMText
 10
7138.78097882745
 20
-9386.14954805067
 30
0.0
 40
3.0
 41
0.0
 71
     5
 72
     1
  1
1
  7
CONVERTER_13
 73
     1
 44
1.0
  0
MTEXT
  5
1A8
330
4F
100
AcDbEntity
  8
1
 62
     7
100
AcDbMText
 10
7161.28097882745
 20
-9386.14954805067
 30
0.0
 40
3.0
 41
0.0
 71
     5
 72
     1
  1
Smoke Dome
  7
CONVERTER_13
 73
     1
 44
1.0
  0
MTEXT
  5
1A9
330
4F
100
AcDbEntity
  8
1
 62
     7
100
AcDbMText
 10
7161.28097882745
 20
-9391.14954805067
 30
0.0
 40
3.0
 41
0.0
 71
     5
 72
     1
  1
Sealing Packing
  7
CONVERTER_12
 73
     1
 44
1.0
  0
MTEXT
  5
1AA
330
4F
100
AcDbEntity
  8
1
 62
     7
100
AcDbMText
 10
7183.78097882745
 20
-9386.14954805067
 30
0.0
 40
3.0
 41
0.0
 71
     5
 72
     1
  1
1
  7
CONVERTER_13
 73
     1
 44
1.0
  0
MTEXT
  5
1AB
330
4F
100
AcDbEntity
  8
1
 62
     7
100
AcDbMText
 10
7208.78097882745
 20
-9386.14954805067
 30
0.0
 40
3.0
 41
0.0
 71
     5
 72
     1
  1
Polycarbonate Resin
  7
CONVERTER_12
 73
     1
 44
1.0
  0
MTEXT
  5
1AC
330
4F
100
AcDbEntity
  8
1
 62
     7
100
AcDbMText
 10
7208.78097882745
 20
-9391.14954805067
 30
0.0
 40
3.0
 41
0.0
 71
     5
 72
     1
  1
Silicon Rubber
  7
CONVERTER_12
 73
     1
 44
1.0
  0
MTEXT
  5
1AD
330
4F
100
AcDbEntity
  8
1
 62
     7
100
AcDbMText
 10
7251.28097882745
 20
-9386.14954805067
 30
0.0
 40
3.0
 41
0.0
 71
     5
 72
     1
  1
With Protective Seat
  7
CONVERTER_12
 73
     1
 44
1.0
  0
MTEXT
  5
1AE
330
4F
100
AcDbEntity
  8
1
 62
     2
100
AcDbMText
 10
7191.28600795484
 20
-9417.23812102953
 30
0.0
 40
4.0
 41
0.0
 71
     5
 72
     1
  1
2
  7
CONVERTER_13
 73
     1
 44
1.0
  0
MTEXT
  5
1AF
330
4F
100
AcDbEntity
  8
1
 62
     2
100
AcDbMText
 10
7152.92111824672
 20
-9530.87625513038
 30
0.0
 40
4.0
 41
0.0
 71
     5
 72
     1
  1
1
  7
CONVERTER_13
 73
     1
 44
1.0
  0
DIMENSION
  5
1BA
330
4F
100
AcDbEntity
  8
1
100
AcDbDimension
  2
*D12
 10
7208.345732429201
 20
-9557.96740627502
 30
0.0
 11
7215.09746861847
 21
-9555.46740627502
 31
0.0
 70
    32
  1
3
 71
     5
 42
-1.0
 53
0.00013888888889
  3
ME10_DIM_10
100
AcDbAlignedDimension
 13
7205.3457324292
 23
-9550.80995592742
 33
0.0
 14
7208.3457324292
 24
-9551.96740627502
 34
0.0
100
AcDbRotatedDimension
  0
DIMENSION
  5
1C5
330
4F
100
AcDbEntity
  8
1
100
AcDbDimension
  2
*D13
 10
7226.3457324292
 20
-9551.96761573422
 30
0.0
 11
7223.8457324292
 21
-9485.29934650347
 31
0.0
 70
    32
  1
ç133.4
 71
     5
 42
-1.0
 53
90.0
  3
ME10_DIM_11
100
AcDbAlignedDimension
 13
7208.3457324292
 23
-9418.63107727272
 33
0.0
 14
7208.3457324292
 24
-9551.96761573422
 34
0.0
 50
90.0
100
AcDbRotatedDimension
  0
DIMENSION
  5
1D0
330
4F
100
AcDbEntity
  8
1
100
AcDbDimension
  2
*D14
 10
7208.3457324292
 20
-9563.96740627502
 30
0.0
 11
7173.8457324292
 21
-9561.46740627502
 31
0.0
 70
    32
  1
(69
 71
     5
 42
-1.0
 53
0.00013888888889
  3
ME10_DIM_12
100
AcDbAlignedDimension
 13
7139.3457324292
 23
-9485.63107727272
 33
0.0
 14
7208.3457324292
 24
-9551.96740627502
 34
0.0
100
AcDbRotatedDimension
  0
DIMENSION
  5
1DB
330
4F
100
AcDbEntity
  8
1
100
AcDbDimension
  2
*D15
 10
7127.3457324292
 20
-9431.613112057563
 30
0.0
 11
7124.8457324292
 21
-9485.63107727272
 31
0.0
 70
    32
  1
(ç108
 71
     5
 42
-1.0
 53
90.0
  3
ME10_DIM_13
100
AcDbAlignedDimension
 13
7205.34573242891
 23
-9539.64904248788
 33
0.0
 14
7205.34573242891
 24
-9431.61311205757
 34
0.0
 50
90.0
100
AcDbRotatedDimension
  0
DIMENSION
  5
1E6
330
4F
100
AcDbEntity
  8
1
100
AcDbDimension
  2
*D16
 10
7139.345732429201
 20
-9557.96740627502
 30
0.0
 11
7175.63262980681
 21
-9555.46740627502
 31
0.0
 70
    32
  1
66
 71
     5
 42
-1.0
 53
0.00013888888889
  3
ME10_DIM_14
100
AcDbAlignedDimension
 13
7205.3457324292
 23
-9550.80995592742
 33
0.0
 14
7139.3457324292
 24
-9485.63107727272
 34
0.0
100
AcDbRotatedDimension
  0
HATCH
  5
1E7
330
4F
100
AcDbEntity
  8
1
  6
Continuous
 62
     2
100
AcDbHatch
 10
0.0
 20
0.0
 30
0.0
210
0.0
220
0.0
230
1.0
  2
SOLID
 70
     1
 71
     1
 91
        1
 92
        1
 93
        1
 72
     2
 10
7160.80587020326
 20
-9523.00793804062
 40
0.25
 50
0.0
 51
360.0
 73
     1
 97
        1
330
197
 75
     0
 76
     1
 98
        1
 10
0.0
 20
0.0
  0
HATCH
  5
1E8
330
4F
100
AcDbEntity
  8
1
  6
Continuous
 62
     2
100
AcDbHatch
 10
0.0
 20
0.0
 30
0.0
210
0.0
220
0.0
230
1.0
  2
SOLID
 70
     1
 71
     1
 91
        1
 92
        1
 93
        1
 72
     2
 10
7204.51310253527
 20
-9425.58261987963
 40
0.25
 50
0.0
 51
360.0
 73
     1
 97
        1
330
198
 75
     0
 76
     1
 98
        1
 10
0.0
 20
0.0
  0
HATCH
  5
1E9
330
4F
100
AcDbEntity
  8
1
  6
Continuous
 62
     3
100
AcDbHatch
 10
0.0
 20
0.0
 30
0.0
210
0.0
220
0.0
230
1.0
  2
CUSTOM0
 70
     0
 71
     1
 91
        1
 92
        1
 93
        1
 72
     2
 10
7061.73295648817
 20
-9453.13107727272
 40
0.2499999999899956
 50
0.0
 51
360.0
 73
     1
 97
        1
330
193
 75
     1
 76
     2
 52
0.0
 41
1.0
 77
     0
 78
     2
 53
44.99999999999998
 43
0.0
 44
0.0
 45
-0.0883883476483184
 46
0.0
 79
     0
 53
134.9999999999997
 43
0.0
 44
0.0
 45
-0.0000000000000004
 46
-0.0883883476483184
 79
     0
 98
        1
 10
0.0
 20
0.0
  0
HATCH
  5
1EA
330
4F
100
AcDbEntity
  8
1
  6
Continuous
 62
     3
100
AcDbHatch
 10
0.0
 20
0.0
 30
0.0
210
0.0
220
0.0
230
1.0
  2
CUSTOM1
 70
     0
 71
     1
 91
        1
 92
        1
 93
        1
 72
     2
 10
6949.14965399617
 20
-9453.13107727272
 40
0.2499999999899956
 50
0.0
 51
360.0
 73
     1
 97
        1
330
192
 75
     1
 76
     2
 52
0.0
 41
1.0
 77
     0
 78
     2
 53
44.99999999999998
 43
0.0
 44
0.0
 45
-0.0883883476483184
 46
0.0
 79
     0
 53
134.9999999999997
 43
0.0
 44
0.0
 45
-0.0000000000000004
 46
-0.0883883476483184
 79
     0
 98
        1
 10
0.0
 20
0.0
  0
HATCH
  5
1EB
330
4F
100
AcDbEntity
  8
1
  6
Continuous
 62
     3
100
AcDbHatch
 10
0.0
 20
0.0
 30
0.0
210
0.0
220
0.0
230
1.0
  2
CUSTOM2
 70
     0
 71
     1
 91
        1
 92
        1
 93
        1
 72
     2
 10
7005.44130524217
 20
-9550.63107727272
 40
0.25
 50
0.0
 51
360.0
 73
     1
 97
        1
330
191
 75
     1
 76
     2
 52
0.0
 41
1.0
 77
     0
 78
     2
 53
44.99999999999998
 43
0.0
 44
0.0
 45
-0.0883883476483184
 46
0.0
 79
     0
 53
134.9999999999997
 43
0.0
 44
0.0
 45
-0.0000000000000004
 46
-0.0883883476483184
 79
     0
 98
        1
 10
0.0
 20
0.0
  0
ENDBLK
  5
59
330
4F
100
AcDbEntity
  8
0
100
AcDbBlockEnd
  0
BLOCK
  5
5C
330
5A
100
AcDbEntity
  8
0
100
AcDbBlockBegin
  2
dome-cover__2006_06_28_15_16_36
 70
     0
 71
     0
 10
7482.04687188818
 20
-8221.13818645029
 30
0.0
  3
dome-cover__2006_06_28_15_16_36
  1

  0
INSERT
  5
5B
330
5A
100
AcDbEntity
  8
0
100
AcDbBlockReference
  2
TOP
 10
6907.44806061103
 20
-8773.60582324883
 30
0.0
  0
ENDBLK
  5
5D
330
5A
100
AcDbEntity
  8
0
100
AcDbBlockEnd
  0
BLOCK
  5
1B7
330
1B0
100
AcDbEntity
  8
0
100
AcDbBlockBegin
  2
*D12
 70
     1
 71
     0
 10
0.0
 20
0.0
 30
0.0
  3
*D12
  1

  0
LINE
  5
1B1
330
1B0
100
AcDbEntity
  8
1
  6
Continuous
 62
     2
100
AcDbLine
 10
7200.345732429201
 20
-9557.96740627502
 30
0.0
 11
7215.98307225457
 21
-9557.96740627502
 31
0.0
  0
LINE
  5
1B2
330
1B0
100
AcDbEntity
  8
1
  6
Continuous
 62
     2
100
AcDbLine
 10
7208.345732429201
 20
-9552.46740627502
 30
0.0
 11
7208.345732429201
 21
-9558.76740627502
 31
0.0
  0
LINE
  5
1B3
330
1B0
100
AcDbEntity
  8
1
  6
Continuous
 62
     2
100
AcDbLine
 10
7205.345732429201
 20
-9551.30995592742
 30
0.0
 11
7205.345732429201
 21
-9558.76740627502
 31
0.0
  0
SOLID
  5
1B4
330
1B0
100
AcDbEntity
  8
1
 62
     2
100
AcDbTrace
 10
7210.845732429201
 20
-9557.638275031051
 30
0.0
 11
7210.845732429201
 21
-9558.296537518989
 31
0.0
 12
7208.345732429201
 22
-9557.96740627502
 32
0.0
 13
7208.345732429201
 23
-9557.96740627502
 33
0.0
  0
SOLID
  5
1B5
330
1B0
100
AcDbEntity
  8
1
 62
     2
100
AcDbTrace
 10
7202.845732429201
 20
-9558.296537518989
 30
0.0
 11
7202.845732429201
 21
-9557.638275031051
 31
0.0
 12
7205.345732429201
 22
-9557.96740627502
 32
0.0
 13
7205.345732429201
 23
-9557.96740627502
 33
0.0
  0
MTEXT
  5
1B6
330
1B0
100
AcDbEntity
  8
1
 62
     2
100
AcDbMText
 10
7214.211872254576
 20
-9556.967408421771
 30
0.0
 40
3.0
 41
0.0
 71
     7
 72
     1
  1
3
  7
CONVERTER_12
 11
0.999999999988248
 21
4.848136811095759E-6
 31
0.0
 73
     1
 44
0.60024009603842
  0
ENDBLK
  5
1B8
330
1B0
100
AcDbEntity
  8
0
100
AcDbBlockEnd
  0
BLOCK
  5
1C2
330
1BB
100
AcDbEntity
  8
0
100
AcDbBlockBegin
  2
*D13
 70
     1
 71
     0
 10
0.0
 20
0.0
 30
0.0
  3
*D13
  1

  0
LINE
  5
1BC
330
1BB
100
AcDbEntity
  8
1
  6
Continuous
 62
     2
100
AcDbLine
 10
7226.3457324292
 20
-9418.631077272721
 30
0.0
 11
7226.3457324292
 21
-9551.96761573422
 31
0.0
  0
LINE
  5
1BD
330
1BB
100
AcDbEntity
  8
1
  6
Continuous
 62
     2
100
AcDbLine
 10
7208.8457324292
 20
-9551.96761573422
 30
0.0
 11
7227.145732429201
 21
-9551.96761573422
 31
0.0
  0
LINE
  5
1BE
330
1BB
100
AcDbEntity
  8
1
  6
Continuous
 62
     2
100
AcDbLine
 10
7208.8457324292
 20
-9418.631077272721
 30
0.0
 11
7227.145732429201
 21
-9418.631077272721
 31
0.0
  0
SOLID
  5
1BF
330
1BB
100
AcDbEntity
  8
1
 62
     2
100
AcDbTrace
 10
7226.016601185232
 20
-9549.46761573422
 30
0.0
 11
7226.674863673169
 21
-9549.46761573422
 31
0.0
 12
7226.3457324292
 22
-9551.96761573422
 32
0.0
 13
7226.3457324292
 23
-9551.96761573422
 33
0.0
  0
SOLID
  5
1C0
330
1BB
100
AcDbEntity
  8
1
 62
     2
100
AcDbTrace
 10
7226.674863673169
 20
-9421.131077272721
 30
0.0
 11
7226.016601185232
 21
-9421.131077272721
 31
0.0
 12
7226.3457324292
 22
-9418.631077272721
 32
0.0
 13
7226.3457324292
 23
-9418.631077272721
 33
0.0
  0
MTEXT
  5
1C1
330
1BB
100
AcDbEntity
  8
1
 62
     2
100
AcDbMText
 10
7225.3457324292
 20
-9491.42966650347
 30
0.0
 40
3.0
 41
0.0
 71
     7
 72
     1
  1
Ó133.4
  7
CONVERTER_11
 11
0.0
 21
1.0
 31
0.0
 73
     1
 44
0.60024009603842
  0
ENDBLK
  5
1C3
330
1BB
100
AcDbEntity
  8
0
100
AcDbBlockEnd
  0
BLOCK
  5
1CD
330
1C6
100
AcDbEntity
  8
0
100
AcDbBlockBegin
  2
*D14
 70
     1
 71
     0
 10
0.0
 20
0.0
 30
0.0
  3
*D14
  1

  0
LINE
  5
1C7
330
1C6
100
AcDbEntity
  8
1
  6
Continuous
 62
     2
100
AcDbLine
 10
7139.3457324292
 20
-9563.96740627502
 30
0.0
 11
7208.3457324292
 21
-9563.96740627502
 31
0.0
  0
LINE
  5
1C8
330
1C6
100
AcDbEntity
  8
1
  6
Continuous
 62
     2
100
AcDbLine
 10
7208.3457324292
 20
-9552.46740627502
 30
0.0
 11
7208.3457324292
 21
-9564.76740627502
 31
0.0
  0
LINE
  5
1C9
330
1C6
100
AcDbEntity
  8
1
  6
Continuous
 62
     2
100
AcDbLine
 10
7139.3457324292
 20
-9486.13107727272
 30
0.0
 11
7139.3457324292
 21
-9564.76740627502
 31
0.0
  0
SOLID
  5
1CA
330
1C6
100
AcDbEntity
  8
1
 62
     2
100
AcDbTrace
 10
7205.8457324292
 20
-9564.296537518989
 30
0.0
 11
7205.8457324292
 21
-9563.638275031051
 31
0.0
 12
7208.3457324292
 22
-9563.96740627502
 32
0.0
 13
7208.3457324292
 23
-9563.96740627502
 33
0.0
  0
SOLID
  5
1CB
330
1C6
100
AcDbEntity
  8
1
 62
     2
100
AcDbTrace
 10
7141.8457324292
 20
-9563.638275031051
 30
0.0
 11
7141.8457324292
 21
-9564.296537518989
 31
0.0
 12
7139.3457324292
 22
-9563.96740627502
 32
0.0
 13
7139.3457324292
 23
-9563.96740627502
 33
0.0
  0
MTEXT
  5
1CC
330
1C6
100
AcDbEntity
  8
1
 62
     2
100
AcDbMText
 10
7166.957736065345
 20
-9562.967428935208
 30
0.0
 40
3.0
 41
0.0
 71
     7
 72
     1
  1
\C2;(\C2;69\C2;)
  7
CONVERTER_12
 11
0.999999999988248
 21
4.848136811095759E-6
 31
0.0
 73
     1
 44
0.60024009603842
  0
ENDBLK
  5
1CE
330
1C6
100
AcDbEntity
  8
0
100
AcDbBlockEnd
  0
BLOCK
  5
1D8
330
1D1
100
AcDbEntity
  8
0
100
AcDbBlockBegin
  2
*D15
 70
     1
 71
     0
 10
0.0
 20
0.0
 30
0.0
  3
*D15
  1

  0
LINE
  5
1D2
330
1D1
100
AcDbEntity
  8
1
  6
Continuous
 62
     2
100
AcDbLine
 10
7127.3457324292
 20
-9539.649042487876
 30
0.0
 11
7127.3457324292
 21
-9431.613112057563
 31
0.0
  0
LINE
  5
1D3
330
1D1
100
AcDbEntity
  8
1
  6
Continuous
 62
     2
100
AcDbLine
 10
7204.845732428905
 20
-9431.613112057563
 30
0.0
 11
7126.5457324292
 21
-9431.613112057563
 31
0.0
  0
LINE
  5
1D4
330
1D1
100
AcDbEntity
  8
1
  6
Continuous
 62
     2
100
AcDbLine
 10
7204.845732428905
 20
-9539.649042487876
 30
0.0
 11
7126.5457324292
 21
-9539.649042487876
 31
0.0
  0
SOLID
  5
1D5
330
1D1
100
AcDbEntity
  8
1
 62
     2
100
AcDbTrace
 10
7127.674863673169
 20
-9434.113112057563
 30
0.0
 11
7127.016601185232
 21
-9434.113112057563
 31
0.0
 12
7127.3457324292
 22
-9431.613112057563
 32
0.0
 13
7127.3457324292
 23
-9431.613112057563
 33
0.0
  0
SOLID
  5
1D6
330
1D1
100
AcDbEntity
  8
1
 62
     2
100
AcDbTrace
 10
7127.016601185232
 20
-9537.149042487876
 30
0.0
 11
7127.674863673169
 21
-9537.149042487876
 31
0.0
 12
7127.3457324292
 22
-9539.649042487876
 32
0.0
 13
7127.3457324292
 23
-9539.649042487876
 33
0.0
  0
MTEXT
  5
1D7
330
1D1
100
AcDbEntity
  8
1
 62
     2
100
AcDbMText
 10
7126.3457324292
 20
-9490.885637272719
 30
0.0
 40
3.0
 41
0.0
 71
     7
 72
     1
  1
(Ó108
  7
CONVERTER_11
 11
0.0
 21
1.0
 31
0.0
 73
     1
 44
0.60024009603842
  0
ENDBLK
  5
1D9
330
1D1
100
AcDbEntity
  8
0
100
AcDbBlockEnd
  0
BLOCK
  5
1E3
330
1DC
100
AcDbEntity
  8
0
100
AcDbBlockBegin
  2
*D16
 70
     1
 71
     0
 10
0.0
 20
0.0
 30
0.0
  3
*D16
  1

  0
LINE
  5
1DD
330
1DC
100
AcDbEntity
  8
1
  6
Continuous
 62
     2
100
AcDbLine
 10
7205.345732429201
 20
-9557.96740627502
 30
0.0
 11
7139.345732429201
 21
-9557.96740627502
 31
0.0
  0
LINE
  5
1DE
330
1DC
100
AcDbEntity
  8
1
  6
Continuous
 62
     2
100
AcDbLine
 10
7139.345732429201
 20
-9486.13107727272
 30
0.0
 11
7139.345732429201
 21
-9558.76740627502
 31
0.0
  0
LINE
  5
1DF
330
1DC
100
AcDbEntity
  8
1
  6
Continuous
 62
     2
100
AcDbLine
 10
7205.345732429201
 20
-9551.30995592742
 30
0.0
 11
7205.345732429201
 21
-9558.76740627502
 31
0.0
  0
SOLID
  5
1E0
330
1DC
100
AcDbEntity
  8
1
 62
     2
100
AcDbTrace
 10
7141.845732429201
 20
-9557.638275031051
 30
0.0
 11
7141.845732429201
 21
-9558.296537518989
 31
0.0
 12
7139.345732429201
 22
-9557.96740627502
 32
0.0
 13
7139.345732429201
 23
-9557.96740627502
 33
0.0
  0
SOLID
  5
1E1
330
1DC
100
AcDbEntity
  8
1
 62
     2
100
AcDbTrace
 10
7202.845732429201
 20
-9558.296537518989
 30
0.0
 11
7202.845732429201
 21
-9557.638275031051
 31
0.0
 12
7205.345732429201
 22
-9557.96740627502
 32
0.0
 13
7205.345732429201
 23
-9557.96740627502
 33
0.0
  0
MTEXT
  5
1E2
330
1DC
100
AcDbEntity
  8
1
 62
     2
100
AcDbMText
 10
7173.861433442918
 20
-9556.967410568526
 30
0.0
 40
3.0
 41
0.0
 71
     7
 72
     1
  1
66
  7
CONVERTER_12
 11
0.999999999988248
 21
4.848136811095759E-6
 31
0.0
 73
     1
 44
0.60024009603842
  0
ENDBLK
  5
1E4
330
1DC
100
AcDbEntity
  8
0
100
AcDbBlockEnd
  0
ENDSEC
  0
SECTION
  2
ENTITIES
  0
INSERT
  5
5E
330
1F
100
AcDbEntity
  8
0
100
AcDbBlockReference
  2
dome-cover__2006_06_28_15_16_36
 10
7482.04687188818
 20
-8221.13818645029
 30
0.0
  0
ENDSEC
  0
SECTION
  2
OBJECTS
  0
DICTIONARY
  5
C
330
0
100
AcDbDictionary
281
     1
  3
ACAD_GROUP
350
D
  3
ACAD_LAYOUT
350
1A
  3
ACAD_MLINESTYLE
350
17
  3
ACAD_PLOTSETTINGS
350
19
  3
ACAD_PLOTSTYLENAME
350
E
  0
DICTIONARY
  5
D
102
{ACAD_REACTORS
330
C
102
}
330
C
100
AcDbDictionary
281
     1
  0
DICTIONARY
  5
1A
102
{ACAD_REACTORS
330
C
102
}
330
C
100
AcDbDictionary
281
     1
  3
Layout1
350
1E
  3
Layout2
350
26
  3
Model
350
22
  0
DICTIONARY
  5
17
102
{ACAD_REACTORS
330
C
102
}
330
C
100
AcDbDictionary
281
     1
  3
Standard
350
18
  0
DICTIONARY
  5
19
102
{ACAD_REACTORS
330
C
102
}
330
C
100
AcDbDictionary
281
     1
  0
ACDBDICTIONARYWDFLT
  5
E
102
{ACAD_REACTORS
330
C
102
}
330
C
100
AcDbDictionary
281
     1
  3
Normal
350
F
100
AcDbDictionaryWithDefault
340
F
  0
LAYOUT
  5
1E
102
{ACAD_REACTORS
330
1A
102
}
330
1A
100
AcDbPlotSettings
  1

  2

  4

  6

 40
0.0
 41
0.0
 42
0.0
 43
0.0
 44
0.0
 45
0.0
 46
0.0
 47
0.0
 48
0.0
 49
0.0
140
0.0
141
0.0
142
1.0
143
1.0
 70
   688
 72
     0
 73
     0
 74
     5
  7

 75
    16
147
1.0
148
0.0
149
0.0
100
AcDbLayout
  1
Layout1
 70
     1
 71
     1
 10
0.0
 20
0.0
 11
0.0
 21
0.0
 12
0.0
 22
0.0
 32
0.0
 14
0.0
 24
0.0
 34
0.0
 15
0.0
 25
0.0
 35
0.0
146
0.0
 13
0.0
 23
0.0
 33
0.0
 16
1.0
 26
0.0
 36
0.0
 17
0.0
 27
1.0
 37
0.0
 76
     0
330
1B
  0
LAYOUT
  5
26
102
{ACAD_REACTORS
330
1A
102
}
330
1A
100
AcDbPlotSettings
  1

  2

  4

  6

 40
0.0
 41
0.0
 42
0.0
 43
0.0
 44
0.0
 45
0.0
 46
0.0
 47
0.0
 48
0.0
 49
0.0
140
0.0
141
0.0
142
1.0
143
1.0
 70
   688
 72
     0
 73
     0
 74
     5
  7

 75
    16
147
1.0
148
0.0
149
0.0
100
AcDbLayout
  1
Layout2
 70
     1
 71
     2
 10
0.0
 20
0.0
 11
0.0
 21
0.0
 12
0.0
 22
0.0
 32
0.0
 14
0.0
 24
0.0
 34
0.0
 15
0.0
 25
0.0
 35
0.0
146
0.0
 13
0.0
 23
0.0
 33
0.0
 16
1.0
 26
0.0
 36
0.0
 17
0.0
 27
1.0
 37
0.0
 76
     0
330
23
  0
LAYOUT
  5
22
102
{ACAD_REACTORS
330
1A
102
}
330
1A
100
AcDbPlotSettings
  1

  2

  4

  6

 40
0.0
 41
0.0
 42
0.0
 43
0.0
 44
0.0
 45
0.0
 46
0.0
 47
0.0
 48
0.0
 49
0.0
140
0.0
141
0.0
142
1.0
143
1.0
 70
  1712
 72
     0
 73
     0
 74
     0
  7

 75
     0
147
1.0
148
0.0
149
0.0
100
AcDbLayout
  1
Model
 70
     1
 71
     0
 10
0.0
 20
0.0
 11
0.0
 21
0.0
 12
0.0
 22
0.0
 32
0.0
 14
6917.44130524216
 24
-9578.97553475422
 34
0.0
 15
7273.78097882745
 25
-9378.64954805067
 35
0.0
146
0.0
 13
0.0
 23
0.0
 33
0.0
 16
1.0
 26
0.0
 36
0.0
 17
0.0
 27
1.0
 37
0.0
 76
     0
330
1F
  0
MLINESTYLE
  5
18
102
{ACAD_REACTORS
330
17
102
}
330
17
100
AcDbMlineStyle
  2
Standard
 70
     0
  3

 62
   256
 51
90.0
 52
90.0
 71
     2
 49
0.5
 62
   256
  6
BYLAYER
 49
-0.5
 62
   256
  6
BYLAYER
  0
ACDBPLACEHOLDER
  5
F
102
{ACAD_REACTORS
330
E
102
}
330
E
  0
ENDSEC
  0
EOF
