  0
SECTION
  2
HEADER
  9
$ACADVER
  1
AC1015
  9
$ACADMAINTVER
 70
     6
  9
$DWGCODEPAGE
  3
ANSI_1252
  9
$INSBASE
 10
0.0
 20
0.0
 30
0.0
  9
$EXTMIN
 10
6917.44130524216
 20
-10188.9755347542
 30
0.0
  9
$EXTMAX
 10
7273.78097882745
 20
-9988.64954805067
 30
0.0
  9
$LIMMIN
 10
0.0
 20
0.0
  9
$LIMMAX
 10
12.0
 20
9.0
  9
$ORTHOMODE
 70
     0
  9
$REGENMODE
 70
     1
  9
$FILLMODE
 70
     1
  9
$QTEXTMODE
 70
     0
  9
$MIRRTEXT
 70
     1
  9
$LTSCALE
 40
1.0
  9
$ATTMODE
 70
     1
  9
$TEXTSIZE
 40
0.2
  9
$TRACEWID
 40
0.05
  9
$TEXTSTYLE
  7
Standard
  9
$CLAYER
  8
0
  9
$CELTYPE
  6
ByLayer
  9
$CECOLOR
 62
   256
  9
$CELTSCALE
 40
1.0
  9
$DISPSILH
 70
     0
  9
$DIMSCALE
 40
1.0
  9
$DIMASZ
 40
0.18
  9
$DIMEXO
 40
0.0625
  9
$DIMDLI
 40
0.38
  9
$DIMRND
 40
0.0
  9
$DIMDLE
 40
0.0
  9
$DIMEXE
 40
0.18
  9
$DIMTP
 40
0.0
  9
$DIMTM
 40
0.0
  9
$DIMTXT
 40
0.18
  9
$DIMCEN
 40
0.09
  9
$DIMTSZ
 40
0.0
  9
$DIMTOL
 70
     0
  9
$DIMLIM
 70
     0
  9
$DIMTIH
 70
     1
  9
$DIMTOH
 70
     1
  9
$DIMSE1
 70
     0
  9
$DIMSE2
 70
     0
  9
$DIMTAD
 70
     0
  9
$DIMZIN
 70
     0
  9
$DIMBLK
  1

  9
$DIMASO
 70
     1
  9
$DIMSHO
 70
     1
  9
$DIMPOST
  1

  9
$DIMAPOST
  1

  9
$DIMALT
 70
     0
  9
$DIMALTD
 70
     2
  9
$DIMALTF
 40
25.4
  9
$DIMLFAC
 40
1.0
  9
$DIMTOFL
 70
     0
  9
$DIMTVP
 40
0.0
  9
$DIMTIX
 70
     0
  9
$DIMSOXD
 70
     0
  9
$DIMSAH
 70
     0
  9
$DIMBLK1
  1

  9
$DIMBLK2
  1

  9
$DIMSTYLE
  2
Standard
  9
$DIMCLRD
 70
     0
  9
$DIMCLRE
 70
     0
  9
$DIMCLRT
 70
     0
  9
$DIMTFAC
 40
1.0
  9
$DIMGAP
 40
0.09
  9
$DIMJUST
 70
     0
  9
$DIMSD1
 70
     0
  9
$DIMSD2
 70
     0
  9
$DIMTOLJ
 70
     1
  9
$DIMTZIN
 70
     0
  9
$DIMALTZ
 70
     0
  9
$DIMALTTZ
 70
     0
  9
$DIMUPT
 70
     0
  9
$DIMDEC
 70
     4
  9
$DIMTDEC
 70
     4
  9
$DIMALTU
 70
     2
  9
$DIMALTTD
 70
     2
  9
$DIMTXSTY
  7
Standard
  9
$DIMAUNIT
 70
     0
  9
$DIMADEC
 70
     0
  9
$DIMALTRND
 40
0.0
  9
$DIMAZIN
 70
     0
  9
$DIMDSEP
 70
    46
  9
$DIMATFIT
 70
     3
  9
$DIMFRAC
 70
     0
  9
$DIMLDRBLK
  1

  9
$DIMLUNIT
 70
     2
  9
$DIMLWD
 70
    -2
  9
$DIMLWE
 70
    -2
  9
$DIMTMOVE
 70
     0
  9
$LUNITS
 70
     2
  9
$LUPREC
 70
     4
  9
$SKETCHINC
 40
0.1
  9
$FILLETRAD
 40
0.5
  9
$AUNITS
 70
     0
  9
$AUPREC
 70
     0
  9
$MENU
  1
.
  9
$ELEVATION
 40
0.0
  9
$PELEVATION
 40
0.0
  9
$THICKNESS
 40
0.0
  9
$LIMCHECK
 70
     0
  9
$CHAMFERA
 40
0.5
  9
$CHAMFERB
 40
0.5
  9
$CHAMFERC
 40
1.0
  9
$CHAMFERD
 40
0.0
  9
$SKPOLY
 70
     0
  9
$TDCREATE
 40
2456267.691826574
  9
$TDUCREATE
 40
2456267.316826574
  9
$TDUPDATE
 40
2456267.691826586
  9
$TDUUPDATE
 40
2456267.316826586
  9
$TDINDWG
 40
0.0000000116
  9
$TDUSRTIMER
 40
0.0000000116
  9
$USRTIMER
 70
     1
  9
$ANGBASE
 50
0.0
  9
$ANGDIR
 70
     0
  9
$PDMODE
 70
     0
  9
$PDSIZE
 40
0.0
  9
$PLINEWID
 40
0.0
  9
$SPLFRAME
 70
     0
  9
$SPLINETYPE
 70
     6
  9
$SPLINESEGS
 70
     8
  9
$HANDSEED
  5
1EC
  9
$SURFTAB1
 70
     6
  9
$SURFTAB2
 70
     6
  9
$SURFTYPE
 70
     6
  9
$SURFU
 70
     6
  9
$SURFV
 70
     6
  9
$UCSBASE
  2

  9
$UCSNAME
  2

  9
$UCSORG
 10
0.0
 20
0.0
 30
0.0
  9
$UCSXDIR
 10
1.0
 20
0.0
 30
0.0
  9
$UCSYDIR
 10
0.0
 20
1.0
 30
0.0
  9
$UCSORTHOREF
  2

  9
$UCSORTHOVIEW
 70
     0
  9
$UCSORGTOP
 10
0.0
 20
0.0
 30
0.0
  9
$UCSORGBOTTOM
 10
0.0
 20
0.0
 30
0.0
  9
$UCSORGLEFT
 10
0.0
 20
0.0
 30
0.0
  9
$UCSORGRIGHT
 10
0.0
 20
0.0
 30
0.0
  9
$UCSORGFRONT
 10
0.0
 20
0.0
 30
0.0
  9
$UCSORGBACK
 10
0.0
 20
0.0
 30
0.0
  9
$PUCSBASE
  2

  9
$PUCSNAME
  2

  9
$PUCSORG
 10
0.0
 20
0.0
 30
0.0
  9
$PUCSXDIR
 10
1.0
 20
0.0
 30
0.0
  9
$PUCSYDIR
 10
0.0
 20
1.0
 30
0.0
  9
$PUCSORTHOREF
  2

  9
$PUCSORTHOVIEW
 70
     0
  9
$PUCSORGTOP
 10
0.0
 20
0.0
 30
0.0
  9
$PUCSORGBOTTOM
 10
0.0
 20
0.0
 30
0.0
  9
$PUCSORGLEFT
 10
0.0
 20
0.0
 30
0.0
  9
$PUCSORGRIGHT
 10
0.0
 20
0.0
 30
0.0
  9
$PUCSORGFRONT
 10
0.0
 20
0.0
 30
0.0
  9
$PUCSORGBACK
 10
0.0
 20
0.0
 30
0.0
  9
$USERI1
 70
     0
  9
$USERI2
 70
     0
  9
$USERI3
 70
     0
  9
$USERI4
 70
     0
  9
$USERI5
 70
     0
  9
$USERR1
 40
14.5
  9
$USERR2
 40
0.0
  9
$USERR3
 40
0.0
  9
$USERR4
 40
0.0
  9
$USERR5
 40
0.0
  9
$WORLDVIEW
 70
     1
  9
$SHADEDGE
 70
     3
  9
$SHADEDIF
 70
    70
  9
$TILEMODE
 70
     1
  9
$MAXACTVP
 70
    64
  9
$PINSBASE
 10
0.0
 20
0.0
 30
0.0
  9
$PLIMCHECK
 70
     0
  9
$PEXTMIN
 10
1.00000000000000E+20
 20
1.00000000000000E+20
 30
1.00000000000000E+20
  9
$PEXTMAX
 10
-1.00000000000000E+20
 20
-1.00000000000000E+20
 30
-1.00000000000000E+20
  9
$PLIMMIN
 10
0.0
 20
0.0
  9
$PLIMMAX
 10
12.0
 20
9.0
  9
$UNITMODE
 70
     0
  9
$VISRETAIN
 70
     1
  9
$PLINEGEN
 70
     0
  9
$PSLTSCALE
 70
     1
  9
$TREEDEPTH
 70
  3020
  9
$CMLSTYLE
  2
Standard
  9
$CMLJUST
 70
     0
  9
$CMLSCALE
 40
1.0
  9
$PROXYGRAPHICS
 70
     1
  9
$MEASUREMENT
 70
     1
  9
$CELWEIGHT
370
    -1
  9
$ENDCAPS
280
     0
  9
$JOINSTYLE
280
     0
  9
$LWDISPLAY
290
     0
  9
$INSUNITS
 70
     1
  9
$HYPERLINKBASE
  1

  9
$STYLESHEET
  1

  9
$XEDIT
290
     1
  9
$CEPSNTYPE
380
     0
  9
$PSTYLEMODE
290
     1
  9
$FINGERPRINTGUID
  2
{EF1F6CC9-8CB4-4671-BD6F-39EC9ED94C59}
  9
$VERSIONGUID
  2
{FAEB1C32-E019-11D5-929B-00C0DF256EC4}
  9
$EXTNAMES
290
     1
  9
$PSVPSCALE
 40
0.0
  9
$OLESTARTUP
290
     0
  0
ENDSEC
  0
SECTION
  2
CLASSES
  0
CLASS
  1
ACDBDICTIONARYWDFLT
  2
AcDbDictionaryWithDefault
  3
ObjectDBX Classes
 90
        0
280
     0
281
     0
  0
CLASS
  1

  2
exOdDbCircle
  3

 90
        0
280
     0
281
     1
  0
CLASS
  1

  2
exOdDbPolyline
  3

 90
        0
280
     0
281
     1
  0
CLASS
  1

  2
exOdDbSpline
  3

 90
        0
280
     0
281
     1
  0
CLASS
  1
ACDBPLACEHOLDER
  2
AcDbPlaceHolder
  3
ObjectDBX Classes
 90
        0
280
     0
281
     0
  0
CLASS
  1
LAYOUT
  2
AcDbLayout
  3
ObjectDBX Classes
 90
        0
280
     0
281
     0
  0
ENDSEC
  0
SECTION
  2
TABLES
  0
TABLE
  2
VPORT
  5
8
330
0
100
AcDbSymbolTable
 70
     1
  0
VPORT
  5
29
330
8
100
AcDbSymbolTableRecord
100
AcDbViewportTableRecord
  2
*Active
 70
     0
 10
0.0
 20
0.0
 11
1.0
 21
1.0
 12
7095.611142034804
 22
-10088.81254140243
 13
0.0
 23
0.0
 14
0.5
 24
0.5
 15
0.5
 25
0.5
 16
0.0
 26
0.0
 36
1.0
 17
0.0
 27
0.0
 37
0.0
 40
244.5740823716311
 41
1.60267857142857
 42
50.0
 43
0.0
 44
0.0
 50
0.0
 51
0.0
 71
     0
 72
   100
 73
     1
 74
     3
 75
     0
 76
     0
 77
     0
 78
     0
281
     0
 65
     1
110
0.0
120
0.0
130
0.0
111
1.0
121
0.0
131
0.0
112
0.0
122
1.0
132
0.0
 79
     0
146
0.0
  0
ENDTAB
  0
TABLE
  2
LTYPE
  5
5
330
0
100
AcDbSymbolTable
 70
     8
  0
LTYPE
  5
14
330
5
100
AcDbSymbolTableRecord
100
AcDbLinetypeTableRecord
  2
ByBlock
 70
     0
  3

 72
    65
 73
     0
 40
0.0
  0
LTYPE
  5
15
330
5
100
AcDbSymbolTableRecord
100
AcDbLinetypeTableRecord
  2
ByLayer
 70
     0
  3

 72
    65
 73
     0
 40
0.0
  0
LTYPE
  5
16
330
5
100
AcDbSymbolTableRecord
100
AcDbLinetypeTableRecord
  2
Continuous
 70
     0
  3
Solid line
 72
    65
 73
     0
 40
0.0
  0
LTYPE
  5
2A
330
5
100
AcDbSymbolTableRecord
100
AcDbLinetypeTableRecord
  2
DASHED
 70
     0
  3
Dashed
 72
    65
 73
     2
 40
15.0
 49
7.0
 74
     0
 49
-8.0
 74
     0
  0
LTYPE
  5
2B
330
5
100
AcDbSymbolTableRecord
100
AcDbLinetypeTableRecord
  2
DOTTED
 70
     0
  3
Dotted
 72
    65
 73
     2
 40
1.0
 49
0.0
 74
     0
 49
-1.0
 74
     0
  0
LTYPE
  5
2C
330
5
100
AcDbSymbolTableRecord
100
AcDbLinetypeTableRecord
  2
DOT_CENTER
 70
     0
  3
Dot_Center
 72
    65
 73
     4
 40
14.0
 49
12.0
 74
     0
 49
-1.0
 74
     0
 49
0.0
 74
     0
 49
-1.0
 74
     0
  0
LTYPE
  5
2D
330
5
100
AcDbSymbolTableRecord
100
AcDbLinetypeTableRecord
  2
LONG_DASHED
 70
     0
  3
Long_Dashed
 72
    65
 73
     2
 40
15.0
 49
10.0
 74
     0
 49
-5.0
 74
     0
  0
LTYPE
  5
2E
330
5
100
AcDbSymbolTableRecord
100
AcDbLinetypeTableRecord
  2
DASH_CENTER
 70
     0
  3
Dash_Center
 72
    65
 73
     4
 40
14.0
 49
11.0
 74
     0
 49
-1.0
 74
     0
 49
1.0
 74
     0
 49
-1.0
 74
     0
  0
LTYPE
  5
2F
330
5
100
AcDbSymbolTableRecord
100
AcDbLinetypeTableRecord
  2
PHANTOM
 70
     0
  3
Phantom
 72
    65
 73
     6
 40
13.0
 49
10.0
 74
     0
 49
-1.0
 74
     0
 49
0.0
 74
     0
 49
-1.0
 74
     0
 49
0.0
 74
     0
 49
-1.0
 74
     0
  0
LTYPE
  5
30
330
5
100
AcDbSymbolTableRecord
100
AcDbLinetypeTableRecord
  2
CENTER_DASH_DASH
 70
     0
  3
Center_Dash_Dash
 72
    65
 73
     6
 40
14.0
 49
9.0
 74
     0
 49
-1.0
 74
     0
 49
1.0
 74
     0
 49
-1.0
 74
     0
 49
1.0
 74
     0
 49
-1.0
 74
     0
  0
ENDTAB
  0
TABLE
  2
LAYER
  5
2
330
0
100
AcDbSymbolTable
 70
     3
  0
LAYER
  5
10
330
2
100
AcDbSymbolTableRecord
100
AcDbLayerTableRecord
  2
0
 70
     0
 62
     7
  6
Continuous
370
    -3
390
F
  0
LAYER
  5
31
330
2
100
AcDbSymbolTableRecord
100
AcDbLayerTableRecord
  2
1
 70
     0
 62
     7
  6
Continuous
370
    -3
390
F
  0
LAYER
  5
32
330
2
100
AcDbSymbolTableRecord
100
AcDbLayerTableRecord
  2
DEFAULT_3
 70
     0
 62
     7
  6
Continuous
370
    -3
390
F
  0
ENDTAB
  0
TABLE
  2
STYLE
  5
3
330
0
100
AcDbSymbolTable
 70
     4
  0
STYLE
  5
11
330
3
100
AcDbSymbolTableRecord
100
AcDbTextStyleTableRecord
  2
Standard
 70
     0
 40
0.0
 41
1.0
 50
0.0
 71
     0
 42
0.2
  3
txt
  4

  0
STYLE
  5
B3
330
3
100
AcDbSymbolTableRecord
100
AcDbTextStyleTableRecord
  2
CONVERTER_11
 70
     0
 40
0.0
 41
0.6408
 50
0.0
 71
     0
 42
0.2
  3
txt.shx
  4

  0
STYLE
  5
D7
330
3
100
AcDbSymbolTableRecord
100
AcDbTextStyleTableRecord
  2
CONVERTER_12
 70
     0
 40
0.0
 41
0.72
 50
0.0
 71
     0
 42
0.2
  3
txt.shx
  4

  0
STYLE
  5
19F
330
3
100
AcDbSymbolTableRecord
100
AcDbTextStyleTableRecord
  2
CONVERTER_13
 70
     0
 40
0.0
 41
0.9
 50
0.0
 71
     0
 42
0.2
  3
txt.shx
  4

  0
ENDTAB
  0
TABLE
  2
VIEW
  5
6
330
0
100
AcDbSymbolTable
 70
     0
  0
ENDTAB
  0
TABLE
  2
UCS
  5
7
330
0
100
AcDbSymbolTable
 70
     0
  0
ENDTAB
  0
TABLE
  2
APPID
  5
9
330
0
100
AcDbSymbolTable
 70
     1
  0
APPID
  5
12
330
9
100
AcDbSymbolTableRecord
100
AcDbRegAppTableRecord
  2
ACAD
 70
     0
  0
ENDTAB
  0
TABLE
  2
DIMSTYLE
  5
A
330
0
100
AcDbSymbolTable
 70
     6
100
AcDbDimStyleTable
  0
DIMSTYLE
105
27
330
A
100
AcDbSymbolTableRecord
100
AcDbDimStyleTableRecord
  2
Standard
 70
     0
340
11
  0
DIMSTYLE
105
1B9
102
{ACAD_REACTORS
330
1BA
102
}
330
A
100
AcDbSymbolTableRecord
100
AcDbDimStyleTableRecord
  2
ME10_DIM_10
 70
     0
  3
(<>)
 41
2.5
 42
0.5
 44
0.8
 73
     0
 74
     0
 77
     1
 78
    12
140
3.0
147
1.0
172
     1
173
     1
176
     2
177
     2
178
     2
271
     3
340
D7
  0
DIMSTYLE
105
1C4
102
{ACAD_REACTORS
330
1C5
102
}
330
A
100
AcDbSymbolTableRecord
100
AcDbDimStyleTableRecord
  2
ME10_DIM_11
 70
     0
 41
2.5
 42
0.5
 44
0.8
 73
     0
 74
     0
 77
     1
 78
    12
140
3.0
147
1.0
172
     1
173
     1
176
     2
177
     2
178
     2
271
     3
340
B3
  0
DIMSTYLE
105
1CF
102
{ACAD_REACTORS
330
1D0
102
}
330
A
100
AcDbSymbolTableRecord
100
AcDbDimStyleTableRecord
  2
ME10_DIM_12
 70
     0
 41
2.5
 42
0.5
 44
0.8
 73
     0
 74
     0
 77
     1
 78
    12
140
3.0
147
1.0
172
     1
173
     1
176
     2
177
     2
178
     2
271
     3
340
D7
  0
DIMSTYLE
105
1DA
102
{ACAD_REACTORS
330
1DB
102
}
330
A
100
AcDbSymbolTableRecord
100
AcDbDimStyleTableRecord
  2
ME10_DIM_13
 70
     0
 41
2.5
 42
0.5
 44
0.8
 73
     0
 74
     0
 77
     1
 78
    12
140
3.0
147
1.0
172
     1
173
     1
176
     2
177
     2
178
     2
271
     3
340
D7
  0
DIMSTYLE
105
1E5
102
{ACAD_REACTORS
330
1E6
102
}
330
A
100
AcDbSymbolTableRecord
100
AcDbDimStyleTableRecord
  2
ME10_DIM_14
 70
     0
 41
2.5
 42
0.5
 44
0.8
 73
     0
 74
     0
 77
     1
 78
    12
140
3.0
147
1.0
172
     1
173
     1
176
     2
177
     2
178
     2
271
     3
340
B3
  0
ENDTAB
  0
TABLE
  2
BLOCK_RECORD
  5
1
330
0
100
AcDbSymbolTable
 70
    17
  0
BLOCK_RECORD
  5
1F
330
1
100
AcDbSymbolTableRecord
100
AcDbBlockTableRecord
  2
*Model_Space
340
22
  0
BLOCK_RECORD
  5
1B
330
1
100
AcDbSymbolTableRecord
100
AcDbBlockTableRecord
  2
*Paper_Space
340
1E
  0
BLOCK_RECORD
  5
23
330
1
100
AcDbSymbolTableRecord
100
AcDbBlockTableRecord
  2
*Paper_Space0
340
26
  0
BLOCK_RECORD
  5
33
330
1
100
AcDbSymbolTableRecord
100
AcDbBlockTableRecord
  2
sealing1
340
0
102
{BLKREFS
331
37
102
}
  0
BLOCK_RECORD
  5
36
330
1
100
AcDbSymbolTableRecord
100
AcDbBlockTableRecord
  2
3cx001737aaa_sealing_dome__2006_07_28_18_11_26
340
0
102
{BLKREFS
331
50
102
}
  0
BLOCK_RECORD
  5
3A
330
1
100
AcDbSymbolTableRecord
100
AcDbBlockTableRecord
  2
_D41
340
0
102
{BLKREFS
331
51
102
}
  0
BLOCK_RECORD
  5
3D
330
1
100
AcDbSymbolTableRecord
100
AcDbBlockTableRecord
  2
_D42
340
0
102
{BLKREFS
331
52
102
}
  0
BLOCK_RECORD
  5
40
330
1
100
AcDbSymbolTableRecord
100
AcDbBlockTableRecord
  2
_D43
340
0
102
{BLKREFS
331
53
102
}
  0
BLOCK_RECORD
  5
43
330
1
100
AcDbSymbolTableRecord
100
AcDbBlockTableRecord
  2
_D56
340
0
102
{BLKREFS
331
54
102
}
  0
BLOCK_RECORD
  5
46
330
1
100
AcDbSymbolTableRecord
100
AcDbBlockTableRecord
  2
_D61
340
0
102
{BLKREFS
331
55
102
}
  0
BLOCK_RECORD
  5
49
330
1
100
AcDbSymbolTableRecord
100
AcDbBlockTableRecord
  2
_D62
340
0
102
{BLKREFS
331
56
102
}
  0
BLOCK_RECORD
  5
4C
330
1
100
AcDbSymbolTableRecord
100
AcDbBlockTableRecord
  2
_D63
340
0
102
{BLKREFS
331
57
102
}
  0
BLOCK_RECORD
  5
4F
330
1
100
AcDbSymbolTableRecord
100
AcDbBlockTableRecord
  2
TOP
340
0
102
{BLKREFS
331
5B
102
}
  0
BLOCK_RECORD
  5
5A
330
1
100
AcDbSymbolTableRecord
100
AcDbBlockTableRecord
  2
dome-cover__2006_06_28_15_16_36
340
0
102
{BLKREFS
331
5E
102
}
  0
BLOCK_RECORD
  5
1B0
330
1
100
AcDbSymbolTableRecord
100
AcDbBlockTableRecord
  2
*D12
340
0
  0
BLOCK_RECORD
  5
1BB
330
1
100
AcDbSymbolTableRecord
100
AcDbBlockTableRecord
  2
*D13
340
0
  0
BLOCK_RECORD
  5
1C6
330
1
100
AcDbSymbolTableRecord
100
AcDbBlockTableRecord
  2
*D14
340
0
  0
BLOCK_RECORD
  5
1D1
330
1
100
AcDbSymbolTableRecord
100
AcDbBlockTableRecord
  2
*D15
340
0
  0
BLOCK_RECORD
  5
1DC
330
1
100
AcDbSymbolTableRecord
100
AcDbBlockTableRecord
  2
*D16
340
0
  0
ENDTAB
  0
ENDSEC
  0
SECTION
  2
BLOCKS
  0
BLOCK
  5
20
330
1F
100
AcDbEntity
  8
0
100
AcDbBlockBegin
  2
*Model_Space
 70
     0
 71
     0
 10
0.0
 20
0.0
 30
0.0
  3
*Model_Space
  1

  0
ENDBLK
  5
21
330
1F
100
AcDbEntity
  8
0
100
AcDbBlockEnd
  0
BLOCK
  5
1C
330
1B
100
AcDbEntity
 67
     1
  8
0
100
AcDbBlockBegin
  2
*Paper_Space
 70
     0
 71
     0
 10
0.0
 20
0.0
 30
0.0
  3
*Paper_Space
  1

  0
ENDBLK
  5
1D
330
1B
100
AcDbEntity
 67
     1
  8
0
100
AcDbBlockEnd
  0
BLOCK
  5
24
330
23
100
AcDbEntity
  8
0
100
AcDbBlockBegin
  2
*Paper_Space0
 70
     0
 71
     0
 10
0.0
 20
0.0
 30
0.0
  3
*Paper_Space0
  1

  0
ENDBLK
  5
25
330
23
100
AcDbEntity
  8
0
100
AcDbBlockEnd
  0
BLOCK
  5
34
330
33
100
AcDbEntity
  8
0
100
AcDbBlockBegin
  2
sealing1
 70
     0
 71
     0
 10
6407.3938651582
 20
-9719.15582396801
 30
0.0
  3
sealing1
  1

  0
LINE
  5
5F
102
{ACAD_REACTORS
330
AB
330
AB
102
}
330
33
100
AcDbEntity
  8
1
  6
Continuous
 62
     7
100
AcDbLine
 10
6987.72087146419
 20
-10037.2263427762
 30
0.0
 11
6991.58457828581
 21
-10036.1910602562
 31
0.0
  0
LINE
  5
60
102
{ACAD_REACTORS
330
AB
330
AB
102
}
330
33
100
AcDbEntity
  8
1
  6
Continuous
 62
     7
100
AcDbLine
 10
6992.29168573948
 20
-10034.9663229305
 30
0.0
 11
6991.75985562017
 21
-10032.9814466555
 31
0.0
  0
LINE
  5
61
102
{ACAD_REACTORS
330
AB
330
AB
102
}
330
33
100
AcDbEntity
  8
1
  6
Continuous
 62
     7
100
AcDbLine
 10
6986.49612346174
 20
-10036.5192293453
 30
0.0
 11
6985.96432477429
 21
-10034.5344721977
 31
0.0
  0
LINE
  5
62
102
{ACAD_REACTORS
330
AB
330
AB
102
}
330
33
100
AcDbEntity
  8
1
  6
Continuous
 62
     7
100
AcDbLine
 10
7032.42859493825
 20
-10151.531130386
 30
0.0
 11
7033.23092885787
 21
-10153.4213486636
 31
0.0
  0
LINE
  5
63
102
{ACAD_REACTORS
330
AB
330
AB
102
}
330
33
100
AcDbEntity
  8
1
  6
Continuous
 62
     7
100
AcDbLine
 10
7026.90555747545
 20
-10153.8755103964
 30
0.0
 11
7027.70788866608
 21
-10155.7657234485
 31
0.0
  0
LINE
  5
64
102
{ACAD_REACTORS
330
AB
330
AB
102
}
330
33
100
AcDbEntity
  8
1
  6
Continuous
 62
     7
100
AcDbLine
 10
7031.11735493026
 20
-10151.0013505118
 30
0.0
 11
7027.4353329165
 21
-10152.564281793
 31
0.0
  0
LINE
  5
65
102
{ACAD_REACTORS
330
AB
330
AB
102
}
330
33
100
AcDbEntity
  8
1
  6
Continuous
 62
     7
100
AcDbLine
 10
7003.81342318256
 20
-10037.8303452727
 30
0.0
 11
7007.06918730178
 21
-10037.8303452727
 31
0.0
  0
LINE
  5
66
102
{ACAD_REACTORS
330
AB
330
AB
102
}
330
33
100
AcDbEntity
  8
1
  6
Continuous
 62
     7
100
AcDbLine
 10
7018.82863263709
 20
-10039.3785056035
 30
0.0
 11
7021.97345928415
 21
-10040.221159364
 31
0.0
  0
LINE
  5
67
102
{ACAD_REACTORS
330
AB
330
AB
102
}
330
33
100
AcDbEntity
  8
1
  6
Continuous
 62
     7
100
AcDbLine
 10
7056.31151440848
 20
-10123.1205574701
 30
0.0
 11
7054.68363234887
 21
-10125.940131906
 31
0.0
  0
LINE
  5
68
102
{ACAD_REACTORS
330
AB
330
AB
102
}
330
33
100
AcDbEntity
  8
1
  6
Continuous
 62
     7
100
AcDbLine
 10
6956.19897833847
 20
-10125.9401320232
 30
0.0
 11
6954.57109627886
 21
-10123.1205575873
 31
0.0
  0
LINE
  5
69
102
{ACAD_REACTORS
330
AB
330
AB
102
}
330
33
100
AcDbEntity
  8
1
  6
Continuous
 62
     7
100
AcDbLine
 10
6955.1542370269
 20
-10060.6425369624
 30
0.0
 11
6953.3672851875
 21
-10056.3284535964
 31
0.0
  0
LINE
  5
6A
102
{ACAD_REACTORS
330
AB
330
AB
102
}
330
33
100
AcDbEntity
  8
1
  6
Continuous
 62
     7
100
AcDbLine
 10
6945.3678586063
 20
-10070.1838668664
 30
0.0
 11
6949.99744031501
 21
-10069.5743708717
 31
0.0
  0
LINE
  5
6B
102
{ACAD_REACTORS
330
AB
330
AB
102
}
330
33
100
AcDbEntity
  8
1
  6
Continuous
 62
     7
100
AcDbLine
 10
7013.44073182336
 20
-10160.3787153554
 30
0.0
 11
7010.53871561262
 21
-10156.5967341972
 31
0.0
  0
LINE
  5
6C
102
{ACAD_REACTORS
330
AB
330
AB
102
}
330
33
100
AcDbEntity
  8
1
  6
Continuous
 62
     7
100
AcDbLine
 10
7000.34389487177
 20
-10156.5967341971
 30
0.0
 11
6997.44187866097
 21
-10160.3787153554
 31
0.0
  0
LINE
  5
6D
102
{ACAD_REACTORS
330
AB
330
AB
102
}
330
33
100
AcDbEntity
  8
1
  6
Continuous
 62
     7
100
AcDbLine
 10
7057.51532529683
 20
-10056.3284535964
 30
0.0
 11
7055.69104164249
 21
-10060.7326639363
 31
0.0
  0
LINE
  5
6E
102
{ACAD_REACTORS
330
AB
330
AB
102
}
330
33
100
AcDbEntity
  8
1
  6
Continuous
 62
     7
100
AcDbLine
 10
7060.78845201289
 20
-10069.5616376848
 30
0.0
 11
7065.51475187803
 21
-10070.1838668664
 31
0.0
  0
LINE
  5
6F
330
33
100
AcDbEntity
  8
1
  6
Continuous
 62
     2
100
AcDbLine
 10
7205.34573242891
 20
-10150.5653492712
 30
0.0
 11
7205.34573242891
 21
-10040.6968052743
 31
0.0
  0
LINE
  5
70
330
33
100
AcDbEntity
  8
1
  6
Continuous
 62
     2
100
AcDbLine
 10
7203.54573242982
 20
-10149.4915628936
 30
0.0
 11
7203.54573242982
 21
-10041.7705916519
 31
0.0
  0
LINE
  5
71
330
33
100
AcDbEntity
  8
1
  6
Continuous
 62
     2
100
AcDbLine
 10
7205.34573242891
 20
-10040.6968052743
 30
0.0
 11
7205.3457324292
 21
-10039.5296422727
 31
0.0
  0
LINE
  5
72
330
33
100
AcDbEntity
  8
1
  6
Continuous
 62
     2
100
AcDbLine
 10
7203.54573242982
 20
-10041.7705916519
 30
0.0
 11
7203.54573242982
 21
-10039.5296422727
 31
0.0
  0
LINE
  5
73
330
33
100
AcDbEntity
  8
1
  6
Continuous
 62
     2
100
AcDbLine
 10
7203.54573242982
 20
-10151.7325122727
 30
0.0
 11
7203.54573242982
 21
-10149.4915628936
 31
0.0
  0
LINE
  5
74
330
33
100
AcDbEntity
  8
1
  6
Continuous
 62
     2
100
AcDbLine
 10
7203.84573242951
 20
-10029.3810772727
 30
0.0
 11
7203.84573242951
 21
-10038.9296422731
 31
0.0
  0
LINE
  5
75
330
33
100
AcDbEntity
  8
1
  6
Continuous
 62
     2
100
AcDbLine
 10
7205.04573242951
 20
-10029.3810772727
 30
0.0
 11
7203.84573242951
 21
-10029.3810772727
 31
0.0
  0
LINE
  5
76
330
33
100
AcDbEntity
  8
1
  6
Continuous
 62
     2
100
AcDbLine
 10
7205.04573242951
 20
-10038.9296422731
 30
0.0
 11
7205.04573242951
 21
-10029.3810772727
 31
0.0
  0
LINE
  5
77
330
33
100
AcDbEntity
  8
1
  6
Continuous
 62
     2
100
AcDbLine
 10
7205.04573242951
 20
-10161.8810772727
 30
0.0
 11
7205.04573242951
 21
-10152.3325122723
 31
0.0
  0
LINE
  5
78
330
33
100
AcDbEntity
  8
1
  6
Continuous
 62
     2
100
AcDbLine
 10
7203.84573242951
 20
-10161.8810772727
 30
0.0
 11
7205.04573242951
 21
-10161.8810772727
 31
0.0
  0
LINE
  5
79
330
33
100
AcDbEntity
  8
1
  6
Continuous
 62
     2
100
AcDbLine
 10
7203.84573242951
 20
-10152.3325122723
 30
0.0
 11
7203.84573242951
 21
-10161.8810772727
 31
0.0
  0
LINE
  5
7A
330
33
100
AcDbEntity
  8
1
  6
Continuous
 62
     2
100
AcDbLine
 10
7205.3457324292
 20
-10151.7325122727
 30
0.0
 11
7205.34573242891
 21
-10150.5653492712
 31
0.0
  0
ARC
  5
7B
102
{ACAD_REACTORS
330
AB
330
AB
102
}
330
33
100
AcDbEntity
  8
1
  6
Continuous
 62
     7
100
AcDbCircle
 10
6949.14902006558
 20
-10063.1299792727
 30
0.0
 40
6.500000000069177
100
AcDbArc
 50
-82.50000000008245
 51
22.49999999942471
  0
ARC
  5
7C
102
{ACAD_REACTORS
330
AB
330
AB
102
}
330
33
100
AcDbEntity
  8
1
  6
Continuous
 62
     7
100
AcDbCircle
 10
7005.44130524217
 20
-10095.6303452727
 30
0.0
 40
66.24999999999454
100
AcDbArc
 50
158.5805982425119
 51
-98.58059824249972
  0
ARC
  5
7D
102
{ACAD_REACTORS
330
AB
330
AB
102
}
330
33
100
AcDbEntity
  8
1
  6
Continuous
 62
     7
100
AcDbCircle
 10
7005.44130524217
 20
-10035.1303452727
 30
0.0
 40
3.200000000000728
100
AcDbArc
 50
90.0
 51
-124.1484243447468
  0
ARC
  5
7E
102
{ACAD_REACTORS
330
AB
330
AB
102
}
330
33
100
AcDbEntity
  8
1
  6
Continuous
 62
     7
100
AcDbCircle
 10
7005.44130524217
 20
-10035.1303452727
 30
0.0
 40
3.200000000022694
100
AcDbArc
 50
-55.85157565540144
 51
90.0
  0
ARC
  5
7F
102
{ACAD_REACTORS
330
AB
330
AB
102
}
330
33
100
AcDbEntity
  8
1
  6
Continuous
 62
     7
100
AcDbCircle
 10
7021.0998573824
 20
-10037.1918327528
 30
0.0
 40
3.199999999951787
100
AcDbArc
 50
-70.85157565480998
 51
75.00000000030903
  0
ARC
  5
80
102
{ACAD_REACTORS
330
AB
330
AB
102
}
330
33
100
AcDbEntity
  8
1
  6
Continuous
 62
     7
100
AcDbCircle
 10
7021.0998573824
 20
-10037.1918327528
 30
0.0
 40
3.200000000073801
100
AcDbArc
 50
75.00000000030903
 51
-139.1484243459069
  0
ARC
  5
81
102
{ACAD_REACTORS
330
AB
330
AB
102
}
330
33
100
AcDbEntity
  8
1
  6
Continuous
 62
     7
100
AcDbCircle
 10
7057.83584196889
 20
-10125.880344688
 30
0.0
 40
3.19999999999901
100
AcDbArc
 50
-175.8515756547687
 51
-30.00000000000782
  0
ARC
  5
82
102
{ACAD_REACTORS
330
AB
330
AB
102
}
330
33
100
AcDbEntity
  8
1
  6
Continuous
 62
     7
100
AcDbCircle
 10
7057.83584196889
 20
-10125.880344688
 30
0.0
 40
3.199999999999972
100
AcDbArc
 50
-30.00000000000782
 51
115.8515756555131
  0
ARC
  5
83
102
{ACAD_REACTORS
330
AB
330
AB
102
}
330
33
100
AcDbEntity
  8
1
  6
Continuous
 62
     7
100
AcDbCircle
 10
6953.04676871845
 20
-10125.8803448052
 30
0.0
 40
3.199999999999972
100
AcDbArc
 50
-149.9999999999922
 51
-4.14842434519996
  0
ARC
  5
84
102
{ACAD_REACTORS
330
AB
330
AB
102
}
330
33
100
AcDbEntity
  8
1
  6
Continuous
 62
     7
100
AcDbCircle
 10
6953.04676871845
 20
-10125.8803448052
 30
0.0
 40
3.199999999947059
100
AcDbArc
 50
64.14842434466227
 51
-149.9999999999922
  0
ARC
  5
85
102
{ACAD_REACTORS
330
AB
330
AB
102
}
330
33
100
AcDbEntity
  8
1
  6
Continuous
 62
     7
100
AcDbCircle
 10
7005.44130524217
 20
-10095.6303452727
 30
0.0
 40
66.2500000000288
100
AcDbArc
 50
-62.53077649703295
 51
21.41940175749103
  0
ARC
  5
86
102
{ACAD_REACTORS
330
AB
330
AB
102
}
330
33
100
AcDbEntity
  8
1
  6
Continuous
 62
     7
100
AcDbCircle
 10
7005.44130524217
 20
-10160.6310772727
 30
0.0
 40
6.500731999998607
100
AcDbArc
 50
90.0
 51
141.6401630284386
  0
ARC
  5
87
102
{ACAD_REACTORS
330
AB
330
AB
102
}
330
33
100
AcDbEntity
  8
1
  6
Continuous
 62
     7
100
AcDbCircle
 10
7005.44130524217
 20
-10160.6310772727
 30
0.0
 40
6.500731999983508
100
AcDbArc
 50
38.35983697060393
 51
90.0
  0
ARC
  5
88
102
{ACAD_REACTORS
330
AB
330
AB
102
}
330
33
100
AcDbEntity
  8
1
  6
Continuous
 62
     7
100
AcDbCircle
 10
7005.44130524217
 20
-10095.6303452727
 30
0.0
 40
66.25000000001276
100
AcDbArc
 50
-81.41940175750806
 51
-71.45843171802173
  0
ARC
  5
89
102
{ACAD_REACTORS
330
AB
330
AB
102
}
330
33
100
AcDbEntity
  8
1
  6
Continuous
 62
     7
100
AcDbCircle
 10
7061.73359041875
 20
-10063.1299792727
 30
0.0
 40
6.500731999984871
100
AcDbArc
 50
158.3598369722553
 51
-98.35983697162213
  0
ARC
  5
8A
102
{ACAD_REACTORS
330
AB
330
AB
102
}
330
33
100
AcDbEntity
  8
1
  6
Continuous
 62
     7
100
AcDbCircle
 10
7005.44130524217
 20
-10095.6303452727
 30
0.0
 40
66.24999999993872
100
AcDbArc
 50
109.463813980158
 51
141.4194017575501
  0
ARC
  5
8B
102
{ACAD_REACTORS
330
AB
330
AB
102
}
330
33
100
AcDbEntity
  8
1
  6
Continuous
 62
     7
100
AcDbCircle
 10
7005.44130524217
 20
-10095.6303452727
 30
0.0
 40
66.24999999995705
100
AcDbArc
 50
38.58059824245478
 51
100.537152355289
  0
ARC
  5
8C
330
33
100
AcDbEntity
  8
1
  6
Continuous
 62
     2
100
AcDbCircle
 10
7204.59573242951
 20
-10039.5296422727
 30
0.0
 40
0.7499999996907718
100
AcDbArc
 50
0.0
 51
53.13010233578539
  0
ARC
  5
8D
330
33
100
AcDbEntity
  8
1
  6
Continuous
 62
     2
100
AcDbCircle
 10
7204.29573242951
 20
-10151.7325122727
 30
0.0
 40
0.7499999996898623
100
AcDbArc
 50
180.0
 51
-126.8698976642146
  0
ARC
  5
8E
330
33
100
AcDbEntity
  8
1
  6
Continuous
 62
     2
100
AcDbCircle
 10
7204.59573242951
 20
-10151.7325122727
 30
0.0
 40
0.7499999996805854
100
AcDbArc
 50
-53.13010233578539
 51
0.0
  0
ARC
  5
8F
330
33
100
AcDbEntity
  8
1
  6
Continuous
 62
     2
100
AcDbCircle
 10
7204.29573242951
 20
-10039.5296422727
 30
0.0
 40
0.7499999996805854
100
AcDbArc
 50
126.8698976642146
 51
180.0
  0
ARC
  5
90
102
{ACAD_REACTORS
330
AB
330
AB
102
}
330
33
100
AcDbEntity
  8
1
  6
Continuous
 62
     7
100
AcDbCircle
 10
6987.46205116016
 20
-10036.2604172872
 30
0.0
 40
0.9999999999959407
100
AcDbArc
 50
-165.0004144472333
 51
-74.99992532483299
  0
ARC
  5
91
102
{ACAD_REACTORS
330
AB
330
AB
102
}
330
33
100
AcDbEntity
  8
1
  6
Continuous
 62
     7
100
AcDbCircle
 10
6991.32575798178
 20
-10035.2251347673
 30
0.0
 40
0.9999999999434067
100
AcDbArc
 50
-74.99992532339972
 51
14.99957242606146
  0
ARC
  5
92
102
{ACAD_REACTORS
330
AB
330
AB
102
}
330
33
100
AcDbEntity
  8
1
  6
Continuous
 62
     7
100
AcDbCircle
 10
7027.82606524472
 20
-10153.4847861372
 30
0.0
 40
1.000000000003505
100
AcDbArc
 50
113.0000746758192
 51
-157.0004275706193
  0
ARC
  5
93
102
{ACAD_REACTORS
330
AB
330
AB
102
}
330
33
100
AcDbEntity
  8
1
  6
Continuous
 62
     7
100
AcDbCircle
 10
7031.50808725848
 20
-10151.921854856
 30
0.0
 40
0.9999999999861161
100
AcDbArc
 50
22.99958555089056
 51
113.0000746758192
  0
ARC
  5
94
102
{ACAD_REACTORS
330
AB
330
AB
102
}
330
33
100
AcDbEntity
  8
1
  6
Continuous
 62
     7
100
AcDbCircle
 10
6945.62891099074
 20
-10072.1667565891
 30
0.0
 40
1.99999999995268
100
AcDbArc
 50
97.50000000019045
 51
158.5805982433589
  0
ARC
  5
95
102
{ACAD_REACTORS
330
AB
330
AB
102
}
330
33
100
AcDbEntity
  8
1
  6
Continuous
 62
     7
100
AcDbCircle
 10
7015.02743850394
 20
-10159.1611924974
 30
0.0
 40
1.999999999987696
100
AcDbArc
 50
-142.5000000003616
 51
-81.4194017574185
  0
ARC
  5
96
102
{ACAD_REACTORS
330
AB
330
AB
102
}
330
33
100
AcDbEntity
  8
1
  6
Continuous
 62
     7
100
AcDbCircle
 10
7055.66756623181
 20
-10055.5630867316
 30
0.0
 40
2.00000000002432
100
AcDbArc
 50
-22.50000000187468
 51
38.58059824124473
  0
ARC
  5
97
102
{ACAD_REACTORS
330
AB
330
AB
102
}
330
33
100
AcDbEntity
  8
1
  6
Continuous
 62
     7
100
AcDbCircle
 10
6995.85517198039
 20
-10159.1611924974
 30
0.0
 40
2.000000000008375
100
AcDbArc
 50
-98.5805982425815
 51
-37.49999999963845
  0
ARC
  5
98
102
{ACAD_REACTORS
330
AB
330
AB
102
}
330
33
100
AcDbEntity
  8
1
  6
Continuous
 62
     7
100
AcDbCircle
 10
7035.07194421741
 20
-10152.6398997235
 30
0.0
 40
2.000000000012159
100
AcDbArc
 50
-157.0004144464814
 51
-62.33387987569318
  0
ARC
  5
99
102
{ACAD_REACTORS
330
AB
330
AB
102
}
330
33
100
AcDbEntity
  8
1
  6
Continuous
 62
     7
100
AcDbCircle
 10
7025.86687312753
 20
-10156.5471719669
 30
0.0
 40
1.999999999991201
100
AcDbArc
 50
-71.29350092782641
 51
22.99957242930649
  0
ARC
  5
9A
102
{ACAD_REACTORS
330
AB
330
AB
102
}
330
33
100
AcDbEntity
  8
1
  6
Continuous
 62
     7
100
AcDbCircle
 10
7065.25369949359
 20
-10072.1667565891
 30
0.0
 40
1.999999999982054
100
AcDbArc
 50
21.41940175664112
 51
82.49999999980955
  0
ARC
  5
9B
102
{ACAD_REACTORS
330
AB
330
AB
102
}
330
33
100
AcDbEntity
  8
1
  6
Continuous
 62
     7
100
AcDbCircle
 10
6993.69171113559
 20
-10032.4638229818
 30
0.0
 40
1.999999999977602
100
AcDbArc
 50
100.5371523554251
 51
-165.0004275712111
  0
ARC
  5
9C
102
{ACAD_REACTORS
330
AB
330
AB
102
}
330
33
100
AcDbEntity
  8
1
  6
Continuous
 62
     7
100
AcDbCircle
 10
6984.03246937744
 20
-10035.0520963139
 30
0.0
 40
2.000000000002423
100
AcDbArc
 50
14.9995855526858
 51
109.4638139806874
  0
ARC
  5
9D
102
{ACAD_REACTORS
330
AB
330
AB
102
}
330
33
100
AcDbEntity
  8
1
  6
Continuous
 62
     7
100
AcDbCircle
 10
6955.21504425252
 20
-10055.5630867316
 30
0.0
 40
1.99999999996528
100
AcDbArc
 50
141.4194017587553
 51
-157.4999999981253
  0
ARC
  5
9E
102
{ACAD_REACTORS
330
AB
330
AB
102
}
330
33
100
AcDbEntity
  8
1
  6
Continuous
 62
     7
100
AcDbCircle
 10
6955.93917071733
 20
-10126.0901320232
 30
0.0
 40
0.3000000000047418
100
AcDbArc
 50
-4.14842434505545
 51
29.99999999981675
  0
ARC
  5
9F
102
{ACAD_REACTORS
330
AB
330
AB
102
}
330
33
100
AcDbEntity
  8
1
  6
Continuous
 62
     7
100
AcDbCircle
 10
6954.31128865772
 20
-10123.2705575873
 30
0.0
 40
0.3000000000045723
100
AcDbArc
 50
29.99999999981675
 51
64.14842434787346
  0
ARC
  5
A0
102
{ACAD_REACTORS
330
AB
330
AB
102
}
330
33
100
AcDbEntity
  8
1
  6
Continuous
 62
     7
100
AcDbCircle
 10
7007.06918730178
 20
-10037.5303452727
 30
0.0
 40
0.2999999999992724
100
AcDbArc
 50
-90.0
 51
-55.85157565893753
  0
ARC
  5
A1
102
{ACAD_REACTORS
330
AB
330
AB
102
}
330
33
100
AcDbEntity
  8
1
  6
Continuous
 62
     7
100
AcDbCircle
 10
7003.81342318256
 20
-10037.5303452727
 30
0.0
 40
0.3000000000286647
100
AcDbArc
 50
-124.1484243427875
 51
-90.0
  0
ARC
  5
A2
102
{ACAD_REACTORS
330
AB
330
AB
102
}
330
33
100
AcDbEntity
  8
1
  6
Continuous
 62
     7
100
AcDbCircle
 10
7018.90627835062
 20
-10039.0887278557
 30
0.0
 40
0.2999999999405045
100
AcDbArc
 50
-139.1484243566872
 51
-105.0000000041515
  0
ARC
  5
A3
102
{ACAD_REACTORS
330
AB
330
AB
102
}
330
33
100
AcDbEntity
  8
1
  6
Continuous
 62
     7
100
AcDbCircle
 10
7022.05110499768
 20
-10039.9313816161
 30
0.0
 40
0.3000000000138807
100
AcDbArc
 50
-104.9999999992841
 51
-70.85157565198452
  0
ARC
  5
A4
102
{ACAD_REACTORS
330
AB
330
AB
102
}
330
33
100
AcDbEntity
  8
1
  6
Continuous
 62
     7
100
AcDbCircle
 10
7056.57132202961
 20
-10123.2705574701
 30
0.0
 40
0.3000000000273839
100
AcDbArc
 50
115.851575652278
 51
149.9999999995287
  0
ARC
  5
A5
102
{ACAD_REACTORS
330
AB
330
AB
102
}
330
33
100
AcDbEntity
  8
1
  6
Continuous
 62
     7
100
AcDbCircle
 10
7054.94343997
 20
-10126.090131906
 30
0.0
 40
0.2999999999957864
100
AcDbArc
 50
149.9999999996156
 51
-175.8515756544724
  0
CIRCLE
  5
A6
102
{ACAD_REACTORS
330
AC
330
AC
330
AD
330
AD
102
}
330
33
100
AcDbEntity
  8
1
  6
Continuous
 62
     2
100
AcDbCircle
 10
7005.44130117191
 20
-10095.6303663689
 30
0.0
 40
55.50000407025982
  0
CIRCLE
  5
A7
102
{ACAD_REACTORS
330
AD
330
AD
102
}
330
33
100
AcDbEntity
  8
1
  6
Continuous
 62
     7
100
AcDbCircle
 10
7005.44130524217
 20
-10095.6310772727
 30
0.0
 40
54.00073199999042
  0
CIRCLE
  5
A8
102
{ACAD_REACTORS
330
AB
330
AB
330
AC
330
AC
102
}
330
33
100
AcDbEntity
  8
1
  6
Continuous
 62
     2
100
AcDbCircle
 10
7005.44130117191
 20
-10095.6303663689
 30
0.0
 40
56.70000407026055
  0
HATCH
  5
AA
330
33
100
AcDbEntity
  8
1
  6
DOTTED
 62
     2
100
AcDbHatch
 10
0.0
 20
0.0
 30
0.0
210
0.0
220
0.0
230
1.0
  2
_USER
 70
     0
 71
     0
 91
        1
 92
        1
 93
       32
 72
     1
 10
7205.04573242951
 20
-10161.8810772727
 11
7203.84573242951
 21
-10161.8810772727
 72
     1
 10
7203.84573242951
 20
-10161.8810772727
 11
7203.84573242951
 21
-10152.3325122723
 72
     1
 10
7203.84573242951
 20
-10152.3325122723
 11
7203.73550087108
 21
-10152.2311510202
 72
     1
 10
7203.73550087108
 20
-10152.2311510202
 11
7203.64760397698
 21
-10152.1099106147
 72
     1
 10
7203.64760397698
 20
-10152.1099106147
 11
7203.58554591898
 21
-10151.9736245283
 72
     1
 10
7203.58554591898
 20
-10151.9736245283
 11
7203.55180075604
 21
-10151.8277260572
 72
     1
 10
7203.55180075604
 20
-10151.8277260572
 11
7203.54573242982
 21
-10151.7325122727
 72
     1
 10
7203.54573242982
 20
-10151.7325122727
 11
7203.54573242982
 21
-10149.4915628936
 72
     1
 10
7203.54573242982
 20
-10149.4915628936
 11
7203.54573242982
 21
-10041.7705916519
 72
     1
 10
7203.54573242982
 20
-10041.7705916519
 11
7203.54573242982
 21
-10039.5296422727
 72
     1
 10
7203.54573242982
 20
-10039.5296422727
 11
7203.56068249644
 21
-10039.3806402747
 72
     1
 10
7203.56068249644
 20
-10039.3806402747
 11
7203.6049366843
 21
-10039.2375785161
 72
     1
 10
7203.6049366843
 20
-10039.2375785161
 11
7203.67673071859
 21
-10039.1061604179
 72
     1
 10
7203.67673071859
 20
-10039.1061604179
 11
7203.77320239772
 21
-10038.9916252048
 72
     1
 10
7203.77320239772
 20
-10038.9916252048
 11
7203.84573242951
 21
-10038.9296422731
 72
     1
 10
7203.84573242951
 20
-10038.9296422731
 11
7203.84573242951
 21
-10029.3810772727
 72
     1
 10
7203.84573242951
 20
-10029.3810772727
 11
7205.04573242951
 21
-10029.3810772727
 72
     1
 10
7205.04573242951
 20
-10029.3810772727
 11
7205.04573242951
 21
-10038.9296422731
 72
     1
 10
7205.04573242951
 20
-10038.9296422731
 11
7205.15596398794
 21
-10039.0310035253
 72
     1
 10
7205.15596398794
 20
-10039.0310035253
 11
7205.24386088205
 21
-10039.1522439307
 72
     1
 10
7205.24386088205
 20
-10039.1522439307
 11
7205.30591894004
 21
-10039.2885300171
 72
     1
 10
7205.30591894004
 20
-10039.2885300171
 11
7205.33966410298
 21
-10039.4344284883
 72
     1
 10
7205.33966410298
 20
-10039.4344284883
 11
7205.3457324292
 21
-10039.5296422727
 72
     1
 10
7205.3457324292
 20
-10039.5296422727
 11
7205.34573242891
 21
-10040.6968052743
 72
     1
 10
7205.34573242891
 20
-10040.6968052743
 11
7205.34573242891
 21
-10150.5653492712
 72
     1
 10
7205.34573242891
 20
-10150.5653492712
 11
7205.3457324292
 21
-10151.7325122727
 72
     1
 10
7205.3457324292
 20
-10151.7325122727
 11
7205.33078236259
 21
-10151.8815142708
 72
     1
 10
7205.33078236259
 20
-10151.8815142708
 11
7205.28652817473
 21
-10152.0245760293
 72
     1
 10
7205.28652817473
 20
-10152.0245760293
 11
7205.21473414044
 21
-10152.1559941276
 72
     1
 10
7205.21473414044
 20
-10152.1559941276
 11
7205.1182624613
 21
-10152.2705293407
 72
     1
 10
7205.1182624613
 20
-10152.2705293407
 11
7205.04573242951
 21
-10152.3325122723
 72
     1
 10
7205.04573242951
 20
-10152.3325122723
 11
7205.04573242951
 21
-10161.8810772727
 97
        0
 75
     1
 76
     0
 52
0.0
 41
0.25
 77
     0
 78
     1
 53
0.0
 43
0.0
 44
0.0
 45
0.0
 46
0.25
 79
     0
 98
        1
 10
0.0
 20
0.0
  0
HATCH
  5
AB
330
33
100
AcDbEntity
  8
1
  6
DOTTED
 62
     2
100
AcDbHatch
 10
0.0
 20
0.0
 30
0.0
210
0.0
220
0.0
230
1.0
  2
_USER
 70
     0
 71
     1
 91
        6
 92
        1
 93
       35
 72
     2
 10
7005.44130524217
 20
-10095.6303452727
 40
66.2500000000288
 50
338.580598242509
 51
422.5307764970329
 73
     0
 72
     2
 10
7035.07194421741
 20
-10152.6398997235
 40
2.000000000012159
 50
62.33387987569318
 51
157.0004144464814
 73
     0
 72
     1
 10
7033.23092885787
 20
-10153.4213486636
 11
7032.42859493825
 21
-10151.531130386
 72
     2
 10
7031.50808725848
 20
-10151.921854856
 40
0.9999999999861161
 50
22.99958555089056
 51
113.0000746758192
 73
     1
 72
     1
 10
7031.11735493026
 20
-10151.0013505118
 11
7027.4353329165
 21
-10152.564281793
 72
     2
 10
7027.82606524472
 20
-10153.4847861372
 40
1.000000000003505
 50
113.0000746758192
 51
202.9995724293807
 73
     1
 72
     1
 10
7026.90555747545
 20
-10153.8755103964
 11
7027.70788866608
 21
-10155.7657234485
 72
     2
 10
7025.86687312753
 20
-10156.5471719669
 40
1.999999999991201
 50
337.0004275706935
 51
431.2935009278264
 73
     0
 72
     2
 10
7005.44130524217
 20
-10095.6303452727
 40
66.25000000001276
 50
71.45843171802173
 51
81.41940175750806
 73
     0
 72
     2
 10
7015.02743850394
 20
-10159.1611924974
 40
1.999999999987696
 50
81.4194017574185
 51
142.5000000003616
 73
     0
 72
     1
 10
7013.44073182336
 20
-10160.3787153554
 11
7010.53871561262
 21
-10156.5967341972
 72
     2
 10
7005.44130524217
 20
-10160.6310772727
 40
6.500731999983508
 50
38.35983697060393
 51
90.0
 73
     1
 72
     2
 10
7005.44130524217
 20
-10160.6310772727
 40
6.500731999998607
 50
90.0
 51
141.6401630284386
 73
     1
 72
     1
 10
7000.34389487177
 20
-10156.5967341971
 11
6997.44187866097
 21
-10160.3787153554
 72
     2
 10
6995.85517198039
 20
-10159.1611924974
 40
2.000000000008375
 50
37.49999999963845
 51
98.58059824258149
 73
     0
 72
     2
 10
7005.44130524217
 20
-10095.6303452727
 40
66.24999999999454
 50
98.58059824249972
 51
201.4194017574882
 73
     0
 72
     2
 10
6945.62891099074
 20
-10072.1667565891
 40
1.99999999995268
 50
201.4194017566411
 51
262.4999999998095
 73
     0
 72
     1
 10
6945.3678586063
 20
-10070.1838668664
 11
6949.99744031501
 21
-10069.5743708717
 72
     2
 10
6949.14902006558
 20
-10063.1299792727
 40
6.500000000069177
 50
277.4999999999176
 51
382.4999999994247
 73
     1
 72
     1
 10
6955.1542370269
 20
-10060.6425369624
 11
6953.3672851875
 21
-10056.3284535964
 72
     2
 10
6955.21504425252
 20
-10055.5630867316
 40
1.99999999996528
 50
157.4999999981253
 51
218.5805982412447
 73
     0
 72
     2
 10
7005.44130524217
 20
-10095.6303452727
 40
66.24999999993872
 50
218.5805982424499
 51
250.5361860198421
 73
     0
 72
     2
 10
6984.03246937744
 20
-10035.0520963139
 40
2.000000000002423
 50
250.5361860193126
 51
345.0004144473142
 73
     0
 72
     1
 10
6985.96432477429
 20
-10034.5344721977
 11
6986.49612346174
 21
-10036.5192293453
 72
     2
 10
6987.46205116016
 20
-10036.2604172872
 40
0.9999999999959407
 50
194.9995855527667
 51
285.000074675167
 73
     1
 72
     1
 10
6987.72087146419
 20
-10037.2263427762
 11
6991.58457828581
 21
-10036.1910602562
 72
     2
 10
6991.32575798178
 20
-10035.2251347673
 40
0.9999999999434067
 50
285.0000746766003
 51
374.9995724260615
 73
     1
 72
     1
 10
6992.29168573948
 20
-10034.9663229305
 11
6991.75985562017
 21
-10032.9814466555
 72
     2
 10
6993.69171113559
 20
-10032.4638229818
 40
1.999999999977602
 50
165.0004275712111
 51
259.4628476445749
 73
     0
 72
     2
 10
7005.44130524217
 20
-10095.6303452727
 40
66.24999999995705
 50
259.462847644711
 51
321.4194017575452
 73
     0
 72
     2
 10
7055.66756623181
 20
-10055.5630867316
 40
2.00000000002432
 50
321.4194017587553
 51
382.5000000018747
 73
     0
 72
     1
 10
7057.51532529683
 20
-10056.3284535964
 11
7055.69104164249
 21
-10060.7326639363
 72
     2
 10
7061.73359041875
 20
-10063.1299792727
 40
6.500731999984871
 50
158.3598369722553
 51
261.6401630283779
 73
     1
 72
     1
 10
7060.78845201289
 20
-10069.5616376848
 11
7065.51475187803
 21
-10070.1838668664
 72
     2
 10
7065.25369949359
 20
-10072.1667565891
 40
1.999999999982054
 50
277.5000000001905
 51
338.5805982433588
 73
     0
 97
       35
330
6E
330
89
330
6D
330
96
330
8B
330
9B
330
60
330
91
330
5F
330
90
330
61
330
9C
330
8A
330
9D
330
69
330
7B
330
6A
330
94
330
7C
330
97
330
6C
330
86
330
87
330
6B
330
95
330
88
330
99
330
63
330
92
330
64
330
93
330
62
330
98
330
85
330
9A
 92
       16
 93
        5
 72
     2
 10
7056.57132202961
 20
-10123.2705574701
 40
0.3000000000273839
 50
115.851575652278
 51
149.9999999995287
 73
     1
 72
     1
 10
7056.31151440848
 20
-10123.1205574701
 11
7054.68363234887
 21
-10125.940131906
 72
     2
 10
7054.94343997
 20
-10126.090131906
 40
0.2999999999957864
 50
149.9999999996156
 51
184.1484243455276
 73
     1
 72
     2
 10
7057.83584196889
 20
-10125.880344688
 40
3.19999999999901
 50
184.1484243452313
 51
329.9999999999922
 73
     1
 72
     2
 10
7057.83584196889
 20
-10125.880344688
 40
3.199999999999972
 50
329.9999999999922
 51
475.8515756555132
 73
     1
 97
        5
330
A4
330
67
330
A5
330
81
330
82
 92
       16
 93
        5
 72
     2
 10
7018.90627835062
 20
-10039.0887278557
 40
0.2999999999405045
 50
220.8515756433128
 51
254.9999999958484
 73
     1
 72
     1
 10
7018.82863263709
 20
-10039.3785056035
 11
7021.97345928415
 21
-10040.221159364
 72
     2
 10
7022.05110499768
 20
-10039.9313816161
 40
0.3000000000138807
 50
255.0000000007159
 51
289.1484243480155
 73
     1
 72
     2
 10
7021.0998573824
 20
-10037.1918327528
 40
3.199999999951787
 50
289.1484243451901
 51
435.000000000309
 73
     1
 72
     2
 10
7021.0998573824
 20
-10037.1918327528
 40
3.200000000073801
 50
75.00000000030903
 51
220.8515756540931
 73
     1
 97
        5
330
A2
330
66
330
A3
330
7F
330
80
 92
       16
 93
        5
 72
     2
 10
7007.06918730178
 20
-10037.5303452727
 40
0.2999999999992724
 50
270.0
 51
304.1484243410625
 73
     1
 72
     2
 10
7005.44130524217
 20
-10035.1303452727
 40
3.200000000022694
 50
304.1484243445985
 51
450.0
 73
     1
 72
     2
 10
7005.44130524217
 20
-10035.1303452727
 40
3.200000000000728
 50
90.0
 51
235.8515756552532
 73
     1
 72
     2
 10
7003.81342318256
 20
-10037.5303452727
 40
0.3000000000286647
 50
235.8515756572125
 51
270.0
 73
     1
 72
     1
 10
7003.81342318256
 20
-10037.8303452727
 11
7007.06918730178
 21
-10037.8303452727
 97
        5
330
A0
330
7E
330
7D
330
A1
330
65
 92
       16
 93
        5
 72
     2
 10
6955.93917071733
 20
-10126.0901320232
 40
0.3000000000047418
 50
355.8515756549446
 51
389.9999999998167
 73
     1
 72
     1
 10
6956.19897833847
 20
-10125.9401320232
 11
6954.57109627886
 21
-10123.1205575873
 72
     2
 10
6954.31128865772
 20
-10123.2705575873
 40
0.3000000000045723
 50
29.99999999981675
 51
64.14842434787346
 73
     1
 72
     2
 10
6953.04676871845
 20
-10125.8803448052
 40
3.199999999947059
 50
64.14842434466227
 51
210.0000000000078
 73
     1
 72
     2
 10
6953.04676871845
 20
-10125.8803448052
 40
3.199999999999972
 50
210.0000000000078
 51
355.8515756548
 73
     1
 97
        5
330
9E
330
68
330
9F
330
84
330
83
 92
       16
 93
        1
 72
     2
 10
7005.44130117191
 20
-10095.6303663689
 40
56.70000407026055
 50
0.0
 51
360.0
 73
     1
 97
        1
330
A8
 75
     1
 76
     0
 52
0.0
 41
0.25
 77
     0
 78
     1
 53
0.0
 43
0.0
 44
0.0
 45
0.0
 46
0.25
 79
     0
 98
        1
 10
0.0
 20
0.0
  0
HATCH
  5
AC
330
33
100
AcDbEntity
  8
1
  6
DOTTED
 62
     2
100
AcDbHatch
 10
0.0
 20
0.0
 30
0.0
210
0.0
220
0.0
230
1.0
  2
_USER
 70
     0
 71
     1
 91
        2
 92
        1
 93
        1
 72
     2
 10
7005.44130117191
 20
-10095.6303663689
 40
56.70000407026055
 50
0.0
 51
360.0
 73
     1
 97
        1
330
A8
 92
       16
 93
        1
 72
     2
 10
7005.44130117191
 20
-10095.6303663689
 40
55.50000407025982
 50
0.0
 51
360.0
 73
     1
 97
        1
330
A6
 75
     1
 76
     0
 52
0.0
 41
0.25
 77
     0
 78
     1
 53
0.0
 43
0.0
 44
0.0
 45
0.0
 46
0.25
 79
     0
 98
        1
 10
0.0
 20
0.0
  0
HATCH
  5
AD
330
33
100
AcDbEntity
  8
1
  6
DOTTED
 62
     2
100
AcDbHatch
 10
0.0
 20
0.0
 30
0.0
210
0.0
220
0.0
230
1.0
  2
_USER
 70
     0
 71
     1
 91
        2
 92
        1
 93
        1
 72
     2
 10
7005.44130117191
 20
-10095.6303663689
 40
55.50000407025982
 50
0.0
 51
360.0
 73
     1
 97
        1
330
A6
 92
       16
 93
        1
 72
     2
 10
7005.44130524217
 20
-10095.6310772727
 40
54.00073199999042
 50
0.0
 51
360.0
 73
     1
 97
        1
330
A7
 75
     1
 76
     0
 52
0.0
 41
0.25
 77
     0
 78
     1
 53
0.0
 43
0.0
 44
0.0
 45
0.0
 46
0.25
 79
     0
 98
        1
 10
0.0
 20
0.0
  0
ENDBLK
  5
35
330
33
100
AcDbEntity
  8
0
100
AcDbBlockEnd
  0
BLOCK
  5
38
330
36
100
AcDbEntity
  8
0
100
AcDbBlockBegin
  2
3cx001737aaa_sealing_dome__2006_07_28_18_11_26
 70
     0
 71
     0
 10
7275.2820293497
 20
-9736.3414680225
 30
0.0
  3
3cx001737aaa_sealing_dome__2006_07_28_18_11_26
  1

  0
INSERT
  5
37
330
36
100
AcDbEntity
  8
1
100
AcDbBlockReference
  2
sealing1
 10
6407.3938651582
 20
-9719.15582396801
 30
0.0
  0
ENDBLK
  5
39
330
36
100
AcDbEntity
  8
0
100
AcDbBlockEnd
  0
BLOCK
  5
3B
330
3A
100
AcDbEntity
  8
0
100
AcDbBlockBegin
  2
_D41
 70
     0
 71
     0
 10
0.0
 20
0.0
 30
0.0
  3
_D41
  1

  0
LINE
  5
AE
330
3A
100
AcDbEntity
  8
1
  6
Continuous
 62
     2
100
AcDbLine
 10
7050.25472145536
 20
-10087.4493123055
 30
0.0
 11
7033.57472145536
 21
-10087.4493123055
 31
0.0
  0
LINE
  5
AF
330
3A
100
AcDbEntity
  8
1
  6
Continuous
 62
     2
100
AcDbLine
 10
7061.73295648817
 20
-10063.1310772727
 30
0.0
 11
7050.25472145536
 21
-10087.4493123055
 31
0.0
  0
LINE
  5
B0
102
{ACAD_REACTORS
330
B5
330
B5
102
}
330
3A
100
AcDbEntity
  8
1
  6
Continuous
 62
     2
100
AcDbLine
 10
7058.02057193578
 20
-10070.2251965493
 30
0.0
 11
7058.61585570238
 21
-10070.506171175
 31
0.0
  0
LINE
  5
B1
102
{ACAD_REACTORS
330
B5
330
B5
102
}
330
3A
100
AcDbEntity
  8
1
  6
Continuous
 62
     2
100
AcDbLine
 10
7058.61585570238
 20
-10070.506171175
 30
0.0
 11
7059.38532090317
 21
-10068.104869303
 31
0.0
  0
LINE
  5
B2
102
{ACAD_REACTORS
330
B5
330
B5
102
}
330
3A
100
AcDbEntity
  8
1
  6
Continuous
 62
     2
100
AcDbLine
 10
7059.38532090317
 20
-10068.104869303
 30
0.0
 11
7058.02057193578
 21
-10070.2251965493
 31
0.0
  0
MTEXT
  5
B4
330
3A
100
AcDbEntity
  8
1
 62
     2
100
AcDbMText
 10
7027.11472145541
 20
-10086.4493480848
 30
0.0
 40
3.0
 41
0.0
 71
     7
 72
     1
  1
R|q5.5
  7
CONVERTER_11
 11
0.999999999997062
 21
2.424068405545310E-6
 31
0.0
 73
     1
 44
1.32052821128451
  0
HATCH
  5
B5
330
3A
100
AcDbEntity
  8
1
  6
Continuous
 62
     2
100
AcDbHatch
 10
0.0
 20
0.0
 30
0.0
210
0.0
220
0.0
230
1.0
  2
SOLID
 70
     1
 71
     1
 91
        1
 92
        1
 93
        3
 72
     1
 10
7058.02057193578
 20
-10070.2251965493
 11
7058.61585570238
 21
-10070.506171175
 72
     1
 10
7058.61585570238
 20
-10070.506171175
 11
7059.38532090317
 21
-10068.104869303
 72
     1
 10
7059.38532090317
 20
-10068.104869303
 11
7058.02057193578
 21
-10070.2251965493
 97
        3
330
B0
330
B1
330
B2
 75
     0
 76
     1
 98
        1
 10
0.0
 20
0.0
  0
ENDBLK
  5
3C
330
3A
100
AcDbEntity
  8
0
100
AcDbBlockEnd
  0
BLOCK
  5
3E
330
3D
100
AcDbEntity
  8
0
100
AcDbBlockBegin
  2
_D42
 70
     0
 71
     0
 10
0.0
 20
0.0
 30
0.0
  3
_D42
  1

  0
LINE
  5
B6
330
3D
100
AcDbEntity
  8
1
  6
Continuous
 62
     2
100
AcDbLine
 10
7191.8457324292
 20
-10095.6310772727
 30
0.0
 11
7141.47531244293
 21
-10057.1605318001
 31
0.0
  0
LINE
  5
B7
102
{ACAD_REACTORS
330
BB
330
BB
102
}
330
3D
100
AcDbEntity
  8
1
  6
Continuous
 62
     2
100
AcDbLine
 10
7148.33572953559
 20
-10061.9860482852
 30
0.0
 11
7147.93618262778
 21
-10062.5091847602
 31
0.0
  0
LINE
  5
B8
102
{ACAD_REACTORS
330
BB
330
BB
102
}
330
3D
100
AcDbEntity
  8
1
  6
Continuous
 62
     2
100
AcDbLine
 10
7147.93618262778
 20
-10062.5091847602
 30
0.0
 11
7150.12276409748
 21
-10063.7650465568
 31
0.0
  0
LINE
  5
B9
102
{ACAD_REACTORS
330
BB
330
BB
102
}
330
3D
100
AcDbEntity
  8
1
  6
Continuous
 62
     2
100
AcDbLine
 10
7150.12276409748
 20
-10063.7650465568
 30
0.0
 11
7148.33572953559
 21
-10061.9860482852
 31
0.0
  0
MTEXT
  5
BA
330
3D
100
AcDbEntity
  8
1
 62
     2
100
AcDbMText
 10
7131.82991353578
 20
-10056.5535836393
 30
0.0
 40
3.0
 41
0.0
 71
     7
 72
     1
  1
rq52.5
  7
CONVERTER_11
 11
0.999999999997062
 21
2.424068405545310E-6
 31
0.0
 73
     1
 44
1.32052821128451
  0
HATCH
  5
BB
330
3D
100
AcDbEntity
  8
1
  6
Continuous
 62
     2
100
AcDbHatch
 10
0.0
 20
0.0
 30
0.0
210
0.0
220
0.0
230
1.0
  2
SOLID
 70
     1
 71
     1
 91
        1
 92
        1
 93
        3
 72
     1
 10
7148.33572953559
 20
-10061.9860482852
 11
7147.93618262778
 21
-10062.5091847602
 72
     1
 10
7147.93618262778
 20
-10062.5091847602
 11
7150.12276409748
 21
-10063.7650465568
 72
     1
 10
7150.12276409748
 20
-10063.7650465568
 11
7148.33572953559
 21
-10061.9860482852
 97
        3
330
B7
330
B8
330
B9
 75
     0
 76
     1
 98
        1
 10
0.0
 20
0.0
  0
ENDBLK
  5
3F
330
3D
100
AcDbEntity
  8
0
100
AcDbBlockEnd
  0
BLOCK
  5
41
330
40
100
AcDbEntity
  8
0
100
AcDbBlockBegin
  2
_D43
 70
     0
 71
     0
 10
0.0
 20
0.0
 30
0.0
  3
_D43
  1

  0
LINE
  5
BC
330
40
100
AcDbEntity
  8
1
  6
Continuous
 62
     2
100
AcDbLine
 10
7057.83584217116
 20
-10125.8810772727
 30
0.0
 11
7050.84385256514
 21
-10150.5112066761
 31
0.0
  0
LINE
  5
BD
330
40
100
AcDbEntity
  8
1
  6
Continuous
 62
     2
100
AcDbLine
 10
7050.84385256514
 20
-10150.5112066761
 30
0.0
 11
7069.68385256514
 21
-10150.5112066761
 31
0.0
  0
LINE
  5
BE
102
{ACAD_REACTORS
330
C2
330
C2
102
}
330
40
100
AcDbEntity
  8
1
  6
Continuous
 62
     2
100
AcDbLine
 10
7055.94896026608
 20
-10131.3226307322
 30
0.0
 11
7056.58220140214
 21
-10131.5023949295
 31
0.0
  0
LINE
  5
BF
102
{ACAD_REACTORS
330
C2
330
C2
102
}
330
40
100
AcDbEntity
  8
1
  6
Continuous
 62
     2
100
AcDbLine
 10
7056.58220140214
 20
-10131.5023949295
 30
0.0
 11
7056.94830315457
 21
-10129.007540849
 31
0.0
  0
LINE
  5
C0
102
{ACAD_REACTORS
330
C2
330
C2
102
}
330
40
100
AcDbEntity
  8
1
  6
Continuous
 62
     2
100
AcDbLine
 10
7056.94830315457
 20
-10129.007540849
 30
0.0
 11
7055.94896026608
 21
-10131.3226307322
 31
0.0
  0
MTEXT
  5
C1
330
40
100
AcDbEntity
  8
1
 62
     2
100
AcDbMText
 10
7048.38385256518
 20
-10149.5112424553
 30
0.0
 40
3.0
 41
0.0
 71
     7
 72
     1
  1
S|q3.25
  7
CONVERTER_11
 11
0.999999999997062
 21
2.424068405545310E-6
 31
0.0
 73
     1
 44
1.32052821128451
  0
HATCH
  5
C2
330
40
100
AcDbEntity
  8
1
  6
Continuous
 62
     2
100
AcDbHatch
 10
0.0
 20
0.0
 30
0.0
210
0.0
220
0.0
230
1.0
  2
SOLID
 70
     1
 71
     1
 91
        1
 92
        1
 93
        3
 72
     1
 10
7055.94896026608
 20
-10131.3226307322
 11
7056.58220140214
 21
-10131.5023949295
 72
     1
 10
7056.58220140214
 20
-10131.5023949295
 11
7056.94830315457
 21
-10129.007540849
 72
     1
 10
7056.94830315457
 20
-10129.007540849
 11
7055.94896026608
 21
-10131.3226307322
 97
        3
330
BE
330
BF
330
C0
 75
     0
 76
     1
 98
        1
 10
0.0
 20
0.0
  0
ENDBLK
  5
42
330
40
100
AcDbEntity
  8
0
100
AcDbBlockEnd
  0
BLOCK
  5
44
330
43
100
AcDbEntity
  8
0
100
AcDbBlockBegin
  2
_D56
 70
     0
 71
     0
 10
0.0
 20
0.0
 30
0.0
  3
_D56
  1

  0
LINE
  5
C3
330
43
100
AcDbEntity
  8
1
  6
Continuous
 62
     2
100
AcDbLine
 10
6982.40133537153
 20
-10125.9625392378
 30
0.0
 11
6968.84579128148
 21
-10143.8080256812
 31
0.0
  0
LINE
  5
C4
330
43
100
AcDbEntity
  8
1
  6
Continuous
 62
     2
100
AcDbLine
 10
7042.03681920285
 20
-10047.4541288642
 30
0.0
 11
6985.88992335516
 21
-10121.3699128441
 31
0.0
  0
LINE
  5
C5
102
{ACAD_REACTORS
330
CC
330
CC
102
}
330
43
100
AcDbEntity
  8
1
  6
Continuous
 62
     2
100
AcDbLine
 10
6970.62009415524
 20
-10142.0163290864
 30
0.0
 11
6970.09591104911
 21
-10141.6181562919
 31
0.0
  0
LINE
  5
C6
102
{ACAD_REACTORS
330
CC
330
CC
102
}
330
43
100
AcDbEntity
  8
1
  6
Continuous
 62
     2
100
AcDbLine
 10
6970.09591104911
 20
-10141.6181562919
 30
0.0
 11
6968.84579128148
 21
-10143.8080256812
 31
0.0
  0
LINE
  5
C7
102
{ACAD_REACTORS
330
CC
330
CC
102
}
330
43
100
AcDbEntity
  8
1
  6
Continuous
 62
     2
100
AcDbLine
 10
6968.84579128148
 20
-10143.8080256812
 30
0.0
 11
6970.62009415524
 21
-10142.0163290864
 31
0.0
  0
LINE
  5
C8
102
{ACAD_REACTORS
330
CD
330
CD
102
}
330
43
100
AcDbEntity
  8
1
  6
Continuous
 62
     2
100
AcDbLine
 10
7040.2625163291
 20
-10049.2458254591
 30
0.0
 11
7040.78669943522
 21
-10049.6439982536
 31
0.0
  0
LINE
  5
C9
102
{ACAD_REACTORS
330
CD
330
CD
102
}
330
43
100
AcDbEntity
  8
1
  6
Continuous
 62
     2
100
AcDbLine
 10
7040.78669943522
 20
-10049.6439982536
 30
0.0
 11
7042.03681920285
 21
-10047.4541288642
 31
0.0
  0
LINE
  5
CA
102
{ACAD_REACTORS
330
CD
330
CD
102
}
330
43
100
AcDbEntity
  8
1
  6
Continuous
 62
     2
100
AcDbLine
 10
7042.03681920285
 20
-10047.4541288642
 30
0.0
 11
7040.2625163291
 21
-10049.2458254591
 31
0.0
  0
MTEXT
  5
CB
330
43
100
AcDbEntity
  8
1
 62
     2
100
AcDbMText
 10
6965.77328025751
 20
-10125.1662737466
 30
0.0
 40
3.0
 41
0.0
 71
     7
 72
     1
  1
obcÓ121
  7
CONVERTER_11
 11
0.999999999997062
 21
2.424068405545310E-6
 31
0.0
 73
     1
 44
1.32052821128451
  0
HATCH
  5
CC
330
43
100
AcDbEntity
  8
1
  6
Continuous
 62
     2
100
AcDbHatch
 10
0.0
 20
0.0
 30
0.0
210
0.0
220
0.0
230
1.0
  2
SOLID
 70
     1
 71
     1
 91
        1
 92
        1
 93
        3
 72
     1
 10
6970.62009415524
 20
-10142.0163290864
 11
6970.09591104911
 21
-10141.6181562919
 72
     1
 10
6970.09591104911
 20
-10141.6181562919
 11
6968.84579128148
 21
-10143.8080256812
 72
     1
 10
6968.84579128148
 20
-10143.8080256812
 11
6970.62009415524
 21
-10142.0163290864
 97
        3
330
C5
330
C6
330
C7
 75
     0
 76
     1
 98
        1
 10
0.0
 20
0.0
  0
HATCH
  5
CD
330
43
100
AcDbEntity
  8
1
  6
Continuous
 62
     2
100
AcDbHatch
 10
0.0
 20
0.0
 30
0.0
210
0.0
220
0.0
230
1.0
  2
SOLID
 70
     1
 71
     1
 91
        1
 92
        1
 93
        3
 72
     1
 10
7040.2625163291
 20
-10049.2458254591
 11
7040.78669943522
 21
-10049.6439982536
 72
     1
 10
7040.78669943522
 20
-10049.6439982536
 11
7042.03681920285
 21
-10047.4541288642
 72
     1
 10
7042.03681920285
 20
-10047.4541288642
 11
7040.2625163291
 21
-10049.2458254591
 97
        3
330
C8
330
C9
330
CA
 75
     0
 76
     1
 98
        1
 10
0.0
 20
0.0
  0
ENDBLK
  5
45
330
43
100
AcDbEntity
  8
0
100
AcDbBlockEnd
  0
BLOCK
  5
47
330
46
100
AcDbEntity
  8
0
100
AcDbBlockBegin
  2
_D61
 70
     0
 71
     0
 10
0.0
 20
0.0
 30
0.0
  3
_D61
  1

  0
LINE
  5
CE
330
46
100
AcDbEntity
  8
1
  6
Continuous
 62
     2
100
AcDbLine
 10
7023.22427579978
 20
-10029.2641276424
 30
0.0
 11
7027.43585531802
 21
-10013.5462989001
 31
0.0
  0
LINE
  5
CF
330
46
100
AcDbEntity
  8
1
  6
Continuous
 62
     2
100
AcDbLine
 10
7027.43585531802
 20
-10013.5462989001
 30
0.0
 11
7027.64291055411
 21
-10012.7735582391
 31
0.0
  0
LINE
  5
D0
102
{ACAD_REACTORS
330
D9
330
D9
102
}
330
46
100
AcDbEntity
  8
1
  6
Continuous
 62
     2
100
AcDbLine
 10
7025.09228479916
 20
-10012.6157052193
 30
0.0
 11
7024.93128466026
 21
-10013.2539751138
 31
0.0
  0
LINE
  5
D1
102
{ACAD_REACTORS
330
D9
330
D9
102
}
330
46
100
AcDbEntity
  8
1
  6
Continuous
 62
     2
100
AcDbLine
 10
7024.93128466026
 20
-10013.2539751138
 30
0.0
 11
7027.43585531802
 21
-10013.5462989001
 31
0.0
  0
LINE
  5
D2
102
{ACAD_REACTORS
330
D9
330
D9
102
}
330
46
100
AcDbEntity
  8
1
  6
Continuous
 62
     2
100
AcDbLine
 10
7027.43585531802
 20
-10013.5462989001
 30
0.0
 11
7025.09228479916
 21
-10012.6157052193
 31
0.0
  0
LINE
  5
D3
102
{ACAD_REACTORS
330
DA
330
DA
102
}
330
46
100
AcDbEntity
  8
1
  6
Continuous
 62
     2
100
AcDbLine
 10
7007.93619368751
 20
-10011.0165289406
 30
0.0
 11
7007.94587589994
 21
-10010.3583376631
 31
0.0
  0
LINE
  5
D4
102
{ACAD_REACTORS
330
DA
330
DA
102
}
330
46
100
AcDbEntity
  8
1
  6
Continuous
 62
     2
100
AcDbLine
 10
7007.94587589994
 20
-10010.3583376631
 30
0.0
 11
7005.44130524218
 21
-10010.6506614493
 31
0.0
  0
LINE
  5
D5
102
{ACAD_REACTORS
330
DA
330
DA
102
}
330
46
100
AcDbEntity
  8
1
  6
Continuous
 62
     2
100
AcDbLine
 10
7005.44130524218
 20
-10010.6506614493
 30
0.0
 11
7007.93619368751
 21
-10011.0165289406
 31
0.0
  0
ARC
  5
D6
330
46
100
AcDbEntity
  8
1
  6
Continuous
 62
     2
100
AcDbCircle
 10
7005.44130524216
 20
-10095.6310772732
 30
0.0
 40
84.98041582388421
100
AcDbArc
 50
75.00000000006455
 51
89.99999999998651
  0
MTEXT
  5
D8
330
46
100
AcDbEntity
  8
1
 62
     2
100
AcDbMText
 10
7014.40350724124
 20
-10010.0886361076
 30
0.0
 40
3.0
 41
0.0
 71
     7
 72
     1
  1
15{\Fgdt;~}
  7
CONVERTER_12
 11
0.9914448613737594
 21
-0.1305261922204401
 31
0.0
 73
     1
 44
1.0
  0
HATCH
  5
D9
330
46
100
AcDbEntity
  8
1
  6
Continuous
 62
     2
100
AcDbHatch
 10
0.0
 20
0.0
 30
0.0
210
0.0
220
0.0
230
1.0
  2
SOLID
 70
     1
 71
     1
 91
        1
 92
        1
 93
        3
 72
     1
 10
7025.09228479916
 20
-10012.6157052193
 11
7024.93128466026
 21
-10013.2539751138
 72
     1
 10
7024.93128466026
 20
-10013.2539751138
 11
7027.43585531802
 21
-10013.5462989001
 72
     1
 10
7027.43585531802
 20
-10013.5462989001
 11
7025.09228479916
 21
-10012.6157052193
 97
        3
330
D0
330
D1
330
D2
 75
     0
 76
     1
 98
        1
 10
0.0
 20
0.0
  0
HATCH
  5
DA
330
46
100
AcDbEntity
  8
1
  6
Continuous
 62
     2
100
AcDbHatch
 10
0.0
 20
0.0
 30
0.0
210
0.0
220
0.0
230
1.0
  2
SOLID
 70
     1
 71
     1
 91
        1
 92
        1
 93
        3
 72
     1
 10
7007.93619368751
 20
-10011.0165289406
 11
7007.94587589994
 21
-10010.3583376631
 72
     1
 10
7007.94587589994
 20
-10010.3583376631
 11
7005.44130524218
 21
-10010.6506614493
 72
     1
 10
7005.44130524218
 20
-10010.6506614493
 11
7007.93619368751
 21
-10011.0165289406
 97
        3
330
D3
330
D4
330
D5
 75
     0
 76
     1
 98
        1
 10
0.0
 20
0.0
  0
ENDBLK
  5
48
330
46
100
AcDbEntity
  8
0
100
AcDbBlockEnd
  0
BLOCK
  5
4A
330
49
100
AcDbEntity
  8
0
100
AcDbBlockBegin
  2
_D62
 70
     0
 71
     0
 10
0.0
 20
0.0
 30
0.0
  3
_D62
  1

  0
LINE
  5
DB
330
49
100
AcDbEntity
  8
1
  6
Continuous
 62
     2
100
AcDbLine
 10
6942.65446346791
 20
-10059.3810772725
 30
0.0
 11
6931.84293292431
 21
-10053.1390372028
 31
0.0
  0
LINE
  5
DC
330
49
100
AcDbEntity
  8
1
  6
Continuous
 62
     2
100
AcDbLine
 10
6931.84293292431
 20
-10053.1390372028
 30
0.0
 11
6931.15011260128
 21
-10052.7390372028
 31
0.0
  0
LINE
  5
DD
102
{ACAD_REACTORS
330
E5
330
E5
102
}
330
49
100
AcDbEntity
  8
1
  6
Continuous
 62
     2
100
AcDbLine
 10
6930.33748648739
 20
-10055.16189617
 30
0.0
 11
6930.91233775708
 21
-10055.4826071314
 31
0.0
  0
LINE
  5
DE
102
{ACAD_REACTORS
330
E5
330
E5
102
}
330
49
100
AcDbEntity
  8
1
  6
Continuous
 62
     2
100
AcDbLine
 10
6930.91233775708
 20
-10055.4826071314
 30
0.0
 11
6931.84293292431
 21
-10053.1390372028
 31
0.0
  0
LINE
  5
DF
102
{ACAD_REACTORS
330
E5
330
E5
102
}
330
49
100
AcDbEntity
  8
1
  6
Continuous
 62
     2
100
AcDbLine
 10
6931.84293292431
 20
-10053.1390372028
 30
0.0
 11
6930.33748648739
 21
-10055.16189617
 31
0.0
  0
LINE
  5
E0
102
{ACAD_REACTORS
330
E6
330
E6
102
}
330
49
100
AcDbEntity
  8
1
  6
Continuous
 62
     2
100
AcDbLine
 10
7002.94641656479
 20
-10180.2492915034
 30
0.0
 11
7002.9367347698
 21
-10180.907482787
 31
0.0
  0
LINE
  5
E1
102
{ACAD_REACTORS
330
E6
330
E6
102
}
330
49
100
AcDbEntity
  8
1
  6
Continuous
 62
     2
100
AcDbLine
 10
7002.9367347698
 20
-10180.907482787
 30
0.0
 11
7005.44130524217
 21
-10180.6151574122
 31
0.0
  0
LINE
  5
E2
102
{ACAD_REACTORS
330
E6
330
E6
102
}
330
49
100
AcDbEntity
  8
1
  6
Continuous
 62
     2
100
AcDbLine
 10
7005.44130524217
 20
-10180.6151574122
 30
0.0
 11
7002.94641656479
 21
-10180.2492915034
 31
0.0
  0
ARC
  5
E3
330
49
100
AcDbEntity
  8
1
  6
Continuous
 62
     2
100
AcDbCircle
 10
7005.44130524217
 20
-10095.6310772728
 30
0.0
 40
84.98408013945156
100
AcDbArc
 50
149.999999999787
 51
-90.0
  0
MTEXT
  5
E4
330
49
100
AcDbEntity
  8
1
 62
     2
100
AcDbMText
 10
6930.81895832786
 20
-10134.3495413161
 30
0.0
 40
3.0
 41
0.0
 71
     7
 72
     1
  1
120{\Fgdt;~}
  7
CONVERTER_12
 11
0.499999999998382
 21
-0.866025403785373
 31
0.0
 73
     1
 44
1.0
  0
HATCH
  5
E5
330
49
100
AcDbEntity
  8
1
  6
Continuous
 62
     2
100
AcDbHatch
 10
0.0
 20
0.0
 30
0.0
210
0.0
220
0.0
230
1.0
  2
SOLID
 70
     1
 71
     1
 91
        1
 92
        1
 93
        3
 72
     1
 10
6930.33748648739
 20
-10055.16189617
 11
6930.91233775708
 21
-10055.4826071314
 72
     1
 10
6930.91233775708
 20
-10055.4826071314
 11
6931.84293292431
 21
-10053.1390372028
 72
     1
 10
6931.84293292431
 20
-10053.1390372028
 11
6930.33748648739
 21
-10055.16189617
 97
        3
330
DD
330
DE
330
DF
 75
     0
 76
     1
 98
        1
 10
0.0
 20
0.0
  0
HATCH
  5
E6
330
49
100
AcDbEntity
  8
1
  6
Continuous
 62
     2
100
AcDbHatch
 10
0.0
 20
0.0
 30
0.0
210
0.0
220
0.0
230
1.0
  2
SOLID
 70
     1
 71
     1
 91
        1
 92
        1
 93
        3
 72
     1
 10
7002.94641656479
 20
-10180.2492915034
 11
7002.9367347698
 21
-10180.907482787
 72
     1
 10
7002.9367347698
 20
-10180.907482787
 11
7005.44130524217
 21
-10180.6151574122
 72
     1
 10
7005.44130524217
 20
-10180.6151574122
 11
7002.94641656479
 21
-10180.2492915034
 97
        3
330
E0
330
E1
330
E2
 75
     0
 76
     1
 98
        1
 10
0.0
 20
0.0
  0
ENDBLK
  5
4B
330
49
100
AcDbEntity
  8
0
100
AcDbBlockEnd
  0
BLOCK
  5
4D
330
4C
100
AcDbEntity
  8
0
100
AcDbBlockBegin
  2
_D63
 70
     0
 71
     0
 10
0.0
 20
0.0
 30
0.0
  3
_D63
  1

  0
LINE
  5
E7
330
4C
100
AcDbEntity
  8
1
  6
Continuous
 62
     2
100
AcDbLine
 10
7068.22814701656
 20
-10059.3810772728
 30
0.0
 11
7079.05339618445
 21
-10053.1311167516
 31
0.0
  0
LINE
  5
E8
330
4C
100
AcDbEntity
  8
1
  6
Continuous
 62
     2
100
AcDbLine
 10
7079.05339618445
 20
-10053.1311167516
 30
0.0
 11
7079.74621650747
 21
-10052.7311167516
 31
0.0
  0
LINE
  5
E9
102
{ACAD_REACTORS
330
F1
330
F1
102
}
330
4C
100
AcDbEntity
  8
1
  6
Continuous
 62
     2
100
AcDbLine
 10
7007.94587491321
 20
-10180.9233305554
 30
0.0
 11
7007.93619492242
 21
-10180.2651392452
 31
0.0
  0
LINE
  5
EA
102
{ACAD_REACTORS
330
F1
330
F1
102
}
330
4C
100
AcDbEntity
  8
1
  6
Continuous
 62
     2
100
AcDbLine
 10
7007.93619492242
 20
-10180.2651392452
 30
0.0
 11
7005.44130524217
 21
-10180.6309983152
 31
0.0
  0
LINE
  5
EB
102
{ACAD_REACTORS
330
F1
330
F1
102
}
330
4C
100
AcDbEntity
  8
1
  6
Continuous
 62
     2
100
AcDbLine
 10
7005.44130524217
 20
-10180.6309983152
 30
0.0
 11
7007.94587491321
 21
-10180.9233305554
 31
0.0
  0
LINE
  5
EC
102
{ACAD_REACTORS
330
F2
330
F2
102
}
330
4C
100
AcDbEntity
  8
1
  6
Continuous
 62
     2
100
AcDbLine
 10
7079.98399777576
 20
-10055.4746841294
 30
0.0
 11
7080.55884816632
 21
-10055.1539715922
 31
0.0
  0
LINE
  5
ED
102
{ACAD_REACTORS
330
F2
330
F2
102
}
330
4C
100
AcDbEntity
  8
1
  6
Continuous
 62
     2
100
AcDbLine
 10
7080.55884816632
 20
-10055.1539715922
 30
0.0
 11
7079.05339618445
 21
-10053.1311167516
 31
0.0
  0
LINE
  5
EE
102
{ACAD_REACTORS
330
F2
330
F2
102
}
330
4C
100
AcDbEntity
  8
1
  6
Continuous
 62
     2
100
AcDbLine
 10
7079.05339618445
 20
-10053.1311167516
 30
0.0
 11
7079.98399777576
 21
-10055.4746841294
 31
0.0
  0
ARC
  5
EF
330
4C
100
AcDbEntity
  8
1
  6
Continuous
 62
     2
100
AcDbCircle
 10
7005.44130524217
 20
-10095.6310772729
 30
0.0
 40
84.99992104230114
100
AcDbArc
 50
-90.0
 51
30.00000000009501
  0
MTEXT
  5
F0
330
4C
100
AcDbEntity
  8
1
 62
     2
100
AcDbMText
 10
7076.29737078074
 20
-10140.9046138203
 30
0.0
 40
3.0
 41
0.0
 71
     7
 72
     1
  1
120{\Fgdt;~}
  7
CONVERTER_12
 11
0.4999999999994932
 21
0.8660254037847314
 31
0.0
 73
     1
 44
1.0
  0
HATCH
  5
F1
330
4C
100
AcDbEntity
  8
1
  6
Continuous
 62
     2
100
AcDbHatch
 10
0.0
 20
0.0
 30
0.0
210
0.0
220
0.0
230
1.0
  2
SOLID
 70
     1
 71
     1
 91
        1
 92
        1
 93
        3
 72
     1
 10
7007.94587491321
 20
-10180.9233305554
 11
7007.93619492242
 21
-10180.2651392452
 72
     1
 10
7007.93619492242
 20
-10180.2651392452
 11
7005.44130524217
 21
-10180.6309983152
 72
     1
 10
7005.44130524217
 20
-10180.6309983152
 11
7007.94587491321
 21
-10180.9233305554
 97
        3
330
E9
330
EA
330
EB
 75
     0
 76
     1
 98
        1
 10
0.0
 20
0.0
  0
HATCH
  5
F2
330
4C
100
AcDbEntity
  8
1
  6
Continuous
 62
     2
100
AcDbHatch
 10
0.0
 20
0.0
 30
0.0
210
0.0
220
0.0
230
1.0
  2
SOLID
 70
     1
 71
     1
 91
        1
 92
        1
 93
        3
 72
     1
 10
7079.98399777576
 20
-10055.4746841294
 11
7080.55884816632
 21
-10055.1539715922
 72
     1
 10
7080.55884816632
 20
-10055.1539715922
 11
7079.05339618445
 21
-10053.1311167516
 72
     1
 10
7079.05339618445
 20
-10053.1311167516
 11
7079.98399777576
 21
-10055.4746841294
 97
        3
330
EC
330
ED
330
EE
 75
     0
 76
     1
 98
        1
 10
0.0
 20
0.0
  0
ENDBLK
  5
4E
330
4C
100
AcDbEntity
  8
0
100
AcDbBlockEnd
  0
BLOCK
  5
58
330
4F
100
AcDbEntity
  8
0
100
AcDbBlockBegin
  2
TOP
 70
     0
 71
     0
 10
6907.44806061103
 20
-8773.60582324883
 30
0.0
  3
TOP
  1

  0
INSERT
  5
50
330
4F
100
AcDbEntity
  8
0
100
AcDbBlockReference
  2
3cx001737aaa_sealing_dome__2006_07_28_18_11_26
 10
7275.2820293497
 20
-9736.3414680225
 30
0.0
  0
INSERT
  5
51
330
4F
100
AcDbEntity
  8
1
100
AcDbBlockReference
  2
_D41
 10
0.0
 20
0.0
 30
0.0
  0
INSERT
  5
52
330
4F
100
AcDbEntity
  8
1
100
AcDbBlockReference
  2
_D42
 10
0.0
 20
0.0
 30
0.0
  0
INSERT
  5
53
330
4F
100
AcDbEntity
  8
1
100
AcDbBlockReference
  2
_D43
 10
0.0
 20
0.0
 30
0.0
  0
INSERT
  5
54
330
4F
100
AcDbEntity
  8
1
100
AcDbBlockReference
  2
_D56
 10
0.0
 20
0.0
 30
0.0
  0
INSERT
  5
55
330
4F
100
AcDbEntity
  8
1
100
AcDbBlockReference
  2
_D61
 10
0.0
 20
0.0
 30
0.0
  0
INSERT
  5
56
330
4F
100
AcDbEntity
  8
1
100
AcDbBlockReference
  2
_D62
 10
0.0
 20
0.0
 30
0.0
  0
INSERT
  5
57
330
4F
100
AcDbEntity
  8
1
100
AcDbBlockReference
  2
_D63
 10
0.0
 20
0.0
 30
0.0
  0
POINT
  5
F3
330
4F
100
AcDbEntity
  8
1
 62
     7
100
AcDbPoint
 10
7208.3457324292
 20
-10161.967406275
 30
0.0
  0
POINT
  5
F4
330
4F
100
AcDbEntity
  8
1
 62
     7
100
AcDbPoint
 10
7139.3457324292
 20
-10095.6310772727
 30
0.0
  0
POINT
  5
F5
330
4F
100
AcDbEntity
  8
1
 62
     7
100
AcDbPoint
 10
7205.34573242891
 20
-10041.6131120576
 30
0.0
  0
POINT
  5
F6
330
4F
100
AcDbEntity
  8
1
 62
     7
100
AcDbPoint
 10
7205.34573242891
 20
-10149.6490424879
 30
0.0
  0
POINT
  5
F7
330
4F
100
AcDbEntity
  8
1
 62
     7
100
AcDbPoint
 10
7139.3457324292
 20
-10095.6310772727
 30
0.0
  0
POINT
  5
F8
330
4F
100
AcDbEntity
  8
1
 62
     7
100
AcDbPoint
 10
7205.3457324292
 20
-10160.8099559274
 30
0.0
  0
POINT
  5
F9
330
4F
100
AcDbEntity
  8
1
 62
     7
100
AcDbPoint
 10
7208.3457324292
 20
-10161.967406275
 30
0.0
  0
POINT
  5
FA
330
4F
100
AcDbEntity
  8
1
 62
     7
100
AcDbPoint
 10
7205.3457324292
 20
-10160.8099559274
 30
0.0
  0
POINT
  5
FB
330
4F
100
AcDbEntity
  8
1
 62
     7
100
AcDbPoint
 10
7208.3457324292
 20
-10161.9676157342
 30
0.0
  0
POINT
  5
FC
330
4F
100
AcDbEntity
  8
1
 62
     7
100
AcDbPoint
 10
7208.3457324292
 20
-10028.6310772727
 30
0.0
  0
LINE
  5
FD
330
4F
100
AcDbEntity
  8
1
  6
Continuous
 62
     7
100
AcDbLine
 10
7243.78097882745
 20
-10001.1495480507
 30
0.0
 11
7258.78097882745
 21
-10001.1495480507
 31
0.0
  0
LINE
  5
FE
330
4F
100
AcDbEntity
  8
1
  6
Continuous
 62
     2
100
AcDbLine
 10
7273.78097882745
 20
-9988.64954805067
 30
0.0
 11
7133.78097882745
 21
-9988.64954805067
 31
0.0
  0
LINE
  5
FF
330
4F
100
AcDbEntity
  8
1
  6
Continuous
 62
     2
100
AcDbLine
 10
7133.78097882745
 20
-9988.64954805067
 30
0.0
 11
7133.78097882745
 21
-10008.6495480507
 31
0.0
  0
LINE
  5
100
330
4F
100
AcDbEntity
  8
1
  6
Continuous
 62
     2
100
AcDbLine
 10
7133.78097882745
 20
-10008.6495480507
 30
0.0
 11
7273.78097882745
 21
-10008.6495480507
 31
0.0
  0
LINE
  5
101
330
4F
100
AcDbEntity
  8
1
  6
Continuous
 62
     2
100
AcDbLine
 10
7273.78097882745
 20
-10008.6495480507
 30
0.0
 11
7273.78097882745
 21
-9988.64954805067
 31
0.0
  0
LINE
  5
102
330
4F
100
AcDbEntity
  8
1
  6
Continuous
 62
     2
100
AcDbLine
 10
7133.78097882745
 20
-9993.64954805067
 30
0.0
 11
7273.78097882745
 21
-9993.64954805067
 31
0.0
  0
LINE
  5
103
330
4F
100
AcDbEntity
  8
1
  6
Continuous
 62
     2
100
AcDbLine
 10
7273.78097882745
 20
-9998.64954805067
 30
0.0
 11
7133.78097882745
 21
-9998.64954805067
 31
0.0
  0
LINE
  5
104
330
4F
100
AcDbEntity
  8
1
  6
Continuous
 62
     2
100
AcDbLine
 10
7133.78097882745
 20
-10003.6495480507
 30
0.0
 11
7273.78097882745
 21
-10003.6495480507
 31
0.0
  0
LINE
  5
105
330
4F
100
AcDbEntity
  8
1
  6
Continuous
 62
     2
100
AcDbLine
 10
7228.78097882745
 20
-9988.64954805067
 30
0.0
 11
7228.78097882745
 21
-10008.6495480507
 31
0.0
  0
LINE
  5
106
330
4F
100
AcDbEntity
  8
1
  6
Continuous
 62
     2
100
AcDbLine
 10
7188.78097882745
 20
-9988.64954805067
 30
0.0
 11
7188.78097882745
 21
-10008.6495480507
 31
0.0
  0
LINE
  5
107
330
4F
100
AcDbEntity
  8
1
  6
Continuous
 62
     2
100
AcDbLine
 10
7178.78097882745
 20
-9988.64954805067
 30
0.0
 11
7178.78097882745
 21
-10008.6495480507
 31
0.0
  0
LINE
  5
108
330
4F
100
AcDbEntity
  8
1
  6
Continuous
 62
     2
100
AcDbLine
 10
7143.78097882745
 20
-9988.64954805067
 30
0.0
 11
7143.78097882745
 21
-10008.6495480507
 31
0.0
  0
LINE
  5
109
330
4F
100
AcDbEntity
  8
1
  6
PHANTOM
 62
     4
100
AcDbLine
 10
7204.88169046712
 20
-10041.6537104686
 30
0.0
 11
7205.34573242891
 21
-10041.6131120576
 31
0.0
  0
LINE
  5
10A
330
4F
100
AcDbEntity
  8
1
  6
PHANTOM
 62
     4
100
AcDbLine
 10
7205.34573242891
 20
-10149.6490424879
 30
0.0
 11
7204.88169046712
 21
-10149.6084440768
 31
0.0
  0
LINE
  5
10B
330
4F
100
AcDbEntity
  8
0
  6
PHANTOM
 62
     4
100
AcDbLine
 10
7203.54573242982
 20
-10149.4915628936
 30
0.0
 11
7204.4328881719
 21
-10149.5691789638
 31
0.0
  0
LINE
  5
10C
330
4F
100
AcDbEntity
  8
0
  6
PHANTOM
 62
     4
100
AcDbLine
 10
7203.54573242982
 20
-10041.7705916519
 30
0.0
 11
7204.4328881719
 21
-10041.6929755817
 31
0.0
  0
LINE
  5
10D
330
4F
100
AcDbEntity
  8
DEFAULT_3
  6
DOT_CENTER
 62
     2
100
AcDbLine
 10
7005.44130524225
 20
-10095.6310772728
 30
0.0
 11
7023.09486627723
 21
-10029.7470905555
 31
0.0
  0
LINE
  5
10E
330
4F
100
AcDbEntity
  8
DEFAULT_3
  6
DOT_CENTER
 62
     2
100
AcDbLine
 10
7005.44130524217
 20
-10039.8247682324
 30
0.0
 11
7005.44130524218
 21
-10007.6310772727
 31
0.0
  0
LINE
  5
10F
330
4F
100
AcDbEntity
  8
0
  6
Continuous
 62
     7
100
AcDbLine
 10
7201.98248049043
 20
-10149.4445708569
 30
0.0
 11
7203.54573242982
 21
-10149.4915628936
 31
0.0
  0
LINE
  5
110
330
4F
100
AcDbEntity
  8
0
  6
Continuous
 62
     7
100
AcDbLine
 10
7200.03161743956
 20
-10042.0780368759
 30
0.0
 11
7203.54573242982
 21
-10041.7705916519
 31
0.0
  0
LINE
  5
111
330
4F
100
AcDbEntity
  8
0
  6
Continuous
 62
     7
100
AcDbLine
 10
7189.84573242923
 20
-10043.1691863423
 30
0.0
 11
7189.8457324292
 21
-10042.9691863422
 31
0.0
  0
LINE
  5
112
330
4F
100
AcDbEntity
  8
0
  6
Continuous
 62
     7
100
AcDbLine
 10
7189.84573242923
 20
-10148.0929682032
 30
0.0
 11
7189.84573242923
 21
-10043.1691863423
 31
0.0
  0
LINE
  5
113
330
4F
100
AcDbEntity
  8
0
  6
Continuous
 62
     7
100
AcDbLine
 10
6938.94130524217
 20
-10093.1310772726
 30
0.0
 11
6938.94130524217
 21
-10098.1310772726
 31
0.0
  0
LINE
  5
114
330
4F
100
AcDbEntity
  8
0
  6
PHANTOM
 62
     4
100
AcDbLine
 10
7054.17951743236
 20
-10126.7140174893
 30
0.0
 11
7054.58824690697
 21
-10126.0060772727
 31
0.0
  0
LINE
  5
115
330
4F
100
AcDbEntity
  8
0
  6
PHANTOM
 62
     4
100
AcDbLine
 10
7022.85074241536
 20
-10040.5087224853
 30
0.0
 11
7022.06113770431
 21
-10040.2971485406
 31
0.0
  0
LINE
  5
116
330
4F
100
AcDbEntity
  8
0
  6
PHANTOM
 62
     4
100
AcDbLine
 10
7007.99081499896
 20
-10037.8810772727
 30
0.0
 11
7007.17335604974
 21
-10037.8810772727
 31
0.0
  0
LINE
  5
117
330
4F
100
AcDbEntity
  8
DEFAULT_3
  6
DOT_CENTER
 62
     2
100
AcDbLine
 10
7005.44130524217
 20
-10188.9755347542
 30
0.0
 11
7005.44130524225
 21
-10095.6310772728
 31
0.0
  0
LINE
  5
118
330
4F
100
AcDbEntity
  8
0
  6
PHANTOM
 62
     4
100
AcDbLine
 10
6954.15369467266
 20
-10122.2983299675
 30
0.0
 11
6954.56245485886
 21
-10123.0063233782
 31
0.0
  0
LINE
  5
119
330
4F
100
AcDbEntity
  8
0
  6
Continuous
 62
     7
100
AcDbLine
 10
6938.94130524216
 20
-10103.8011445919
 30
0.0
 11
6938.94130524216
 21
-10087.4610099535
 31
0.0
  0
LINE
  5
11A
330
4F
100
AcDbEntity
  8
1
  6
DOT_CENTER
 62
     2
100
AcDbLine
 10
6946.79963026886
 20
-10129.4878641046
 30
0.0
 11
7005.44130524225
 21
-10095.6310772728
 31
0.0
  0
LINE
  5
11B
330
4F
100
AcDbEntity
  8
1
  6
DOT_CENTER
 62
     2
100
AcDbLine
 10
7079.93449160372
 20
-10095.6310772727
 30
0.0
 11
6917.44130524216
 21
-10095.6310772727
 31
0.0
  0
LINE
  5
11C
330
4F
100
AcDbEntity
  8
1
  6
DOT_CENTER
 62
     2
100
AcDbLine
 10
7064.78631092861
 20
-10129.8939322808
 30
0.0
 11
7005.44130524225
 21
-10095.6310772728
 31
0.0
  0
LINE
  5
11D
330
4F
100
AcDbEntity
  8
DEFAULT_3
  6
DOT_CENTER
 62
     2
100
AcDbLine
 10
7005.44130524225
 20
-10095.6310772728
 30
0.0
 11
7005.44130524217
 21
-10039.8247682324
 31
0.0
  0
LINE
  5
11E
330
4F
100
AcDbEntity
  8
1
  6
DOT_CENTER
 62
     2
100
AcDbLine
 10
7005.44130524225
 20
-10095.6310772728
 30
0.0
 11
6943.0874761698
 21
-10059.6310772725
 31
0.0
  0
LINE
  5
11F
330
4F
100
AcDbEntity
  8
1
  6
DOT_CENTER
 62
     2
100
AcDbLine
 10
7005.44130524225
 20
-10095.6310772728
 30
0.0
 11
7067.79513431466
 21
-10059.6310772728
 31
0.0
  0
LINE
  5
120
330
4F
100
AcDbEntity
  8
1
  6
DOT_CENTER
 62
     2
100
AcDbLine
 10
7130.82328043679
 20
-10095.6310772727
 30
0.0
 11
7217.3719826151
 21
-10095.6310772727
 31
0.0
  0
LINE
  5
121
330
4F
100
AcDbEntity
  8
0
  6
Continuous
 62
     9
100
AcDbLine
 10
7206.4010386866
 20
-10161.8246474143
 30
0.0
 11
7208.3457324292
 21
-10161.9254911921
 31
0.0
  0
LINE
  5
122
330
4F
100
AcDbEntity
  8
0
  6
Continuous
 62
     7
100
AcDbLine
 10
7206.4010386866
 20
-10161.8656986538
 30
0.0
 11
7208.3457324292
 21
-10161.9676157342
 31
0.0
  0
LINE
  5
123
330
4F
100
AcDbEntity
  8
0
  6
Continuous
 62
     9
100
AcDbLine
 10
7206.4010386866
 20
-10159.4181401503
 30
0.0
 11
7208.3457324292
 21
-10159.5153176917
 31
0.0
  0
LINE
  5
124
330
4F
100
AcDbEntity
  8
0
  6
Continuous
 62
     7
100
AcDbLine
 10
7206.4010386866
 20
-10154.9166732234
 30
0.0
 11
7208.3457324292
 21
-10155.0185903038
 31
0.0
  0
LINE
  5
125
330
4F
100
AcDbEntity
  8
0
  6
Continuous
 62
     7
100
AcDbLine
 10
7189.8457324292
 20
-10148.2929682032
 30
0.0
 11
7201.98248049043
 21
-10149.4445708569
 31
0.0
  0
LINE
  5
126
330
4F
100
AcDbEntity
  8
0
  6
Continuous
 62
     9
100
AcDbLine
 10
7206.4010386866
 20
-10161.8246474143
 30
0.0
 11
7205.3457324292
 21
-10160.7804547301
 31
0.0
  0
LINE
  5
127
330
4F
100
AcDbEntity
  8
0
  6
Continuous
 62
     7
100
AcDbLine
 10
7205.3457324292
 20
-10029.7883006106
 30
0.0
 11
7206.4010386866
 21
-10028.7329943532
 31
0.0
  0
LINE
  5
128
330
4F
100
AcDbEntity
  8
0
  6
Continuous
 62
     9
100
AcDbLine
 10
7206.4010386866
 20
-10159.4181401503
 30
0.0
 11
7205.3457324292
 21
-10158.4119097225
 31
0.0
  0
LINE
  5
129
330
4F
100
AcDbEntity
  8
0
  6
Continuous
 62
     7
100
AcDbLine
 10
7205.3457324292
 20
-10160.8103923964
 30
0.0
 11
7206.4010386866
 21
-10161.8656986538
 31
0.0
  0
LINE
  5
12A
330
4F
100
AcDbEntity
  8
0
  6
Continuous
 62
     9
100
AcDbLine
 10
7206.4010386866
 20
-10054.1483767677
 30
0.0
 11
7205.3457324292
 21
-10054.8027595468
 31
0.0
  0
LINE
  5
12B
330
4F
100
AcDbEntity
  8
0
  6
Continuous
 62
     7
100
AcDbLine
 10
7205.3457324292
 20
-10153.861366966
 30
0.0
 11
7206.4010386866
 21
-10154.9166732234
 31
0.0
  0
LINE
  5
12C
330
4F
100
AcDbEntity
  8
0
  6
Continuous
 62
     7
100
AcDbLine
 10
7205.3457324292
 20
-10069.5173080923
 30
0.0
 11
7206.4010386866
 21
-10068.462001835
 31
0.0
  0
LINE
  5
12D
330
4F
100
AcDbEntity
  8
0
  6
Continuous
 62
     7
100
AcDbLine
 10
7189.8457324292
 20
-10148.2929682032
 30
0.0
 11
7189.84573242923
 21
-10148.0929682032
 31
0.0
  0
LINE
  5
12E
330
4F
100
AcDbEntity
  8
0
  6
Continuous
 62
     7
100
AcDbLine
 10
7206.4010386866
 20
-10068.462001835
 30
0.0
 11
7208.3457324292
 21
-10068.3600847545
 31
0.0
  0
LINE
  5
12F
330
4F
100
AcDbEntity
  8
0
  6
Continuous
 62
     7
100
AcDbLine
 10
7205.3457324292
 20
-10029.7885718302
 30
0.0
 11
7205.3457324292
 21
-10160.8099559274
 31
0.0
  0
LINE
  5
130
330
4F
100
AcDbEntity
  8
0
  6
Continuous
 62
     2
100
AcDbLine
 10
7206.4010386866
 20
-10161.8656986538
 30
0.0
 11
7206.4010386866
 21
-10028.7329943532
 31
0.0
  0
LINE
  5
131
330
4F
100
AcDbEntity
  8
0
  6
Continuous
 62
     7
100
AcDbLine
 10
7208.3457324292
 20
-10161.967406275
 30
0.0
 11
7208.3457324292
 21
-10028.6313532593
 31
0.0
  0
LINE
  5
132
330
4F
100
AcDbEntity
  8
0
  6
Continuous
 62
     9
100
AcDbLine
 10
7206.4010386866
 20
-10054.1483767677
 30
0.0
 11
7208.3457324292
 21
-10054.085179206
 31
0.0
  0
LINE
  5
133
330
4F
100
AcDbEntity
  8
0
  6
Continuous
 62
     7
100
AcDbLine
 10
7189.8457324292
 20
-10042.9691863422
 30
0.0
 11
7200.03161743956
 21
-10042.0780368759
 31
0.0
  0
LINE
  5
134
330
4F
100
AcDbEntity
  8
0
  6
Continuous
 62
     7
100
AcDbLine
 10
7206.4010386866
 20
-10028.7329943532
 30
0.0
 11
7208.3457324292
 21
-10028.6310772727
 31
0.0
  0
LINE
  5
135
330
4F
100
AcDbEntity
  8
0
  6
PHANTOM
 62
     4
100
AcDbLine
 10
6954.56245485886
 20
-10123.0063233782
 30
0.0
 11
6956.29422148832
 21
-10126.0058311672
 31
0.0
  0
LINE
  5
136
330
4F
100
AcDbEntity
  8
0
  6
PHANTOM
 62
     4
100
AcDbLine
 10
6956.29422148832
 20
-10126.0058311672
 30
0.0
 11
6956.70298167456
 21
-10126.7138245779
 31
0.0
  0
LINE
  5
137
330
4F
100
AcDbEntity
  8
0
  6
PHANTOM
 62
     4
100
AcDbLine
 10
7056.32029771448
 20
-10123.0060772728
 30
0.0
 11
7056.72902718916
 21
-10122.2981370562
 31
0.0
  0
LINE
  5
138
330
4F
100
AcDbEntity
  8
0
  6
PHANTOM
 62
     4
100
AcDbLine
 10
7054.58824690697
 20
-10126.0060772727
 30
0.0
 11
7056.32029771448
 21
-10123.0060772728
 31
0.0
  0
LINE
  5
139
330
4F
100
AcDbEntity
  8
0
  6
PHANTOM
 62
     4
100
AcDbLine
 10
7022.06113770431
 20
-10040.2971485406
 30
0.0
 11
7018.71507248936
 21
-10039.4005730684
 31
0.0
  0
LINE
  5
13A
330
4F
100
AcDbEntity
  8
0
  6
PHANTOM
 62
     4
100
AcDbLine
 10
7018.71507248936
 20
-10039.4005730684
 30
0.0
 11
7017.92546777837
 21
-10039.1889991238
 31
0.0
  0
LINE
  5
13B
330
4F
100
AcDbEntity
  8
0
  6
PHANTOM
 62
     4
100
AcDbLine
 10
7007.17335604974
 20
-10037.8810772727
 30
0.0
 11
7003.70925443459
 21
-10037.8810772727
 31
0.0
  0
LINE
  5
13C
330
4F
100
AcDbEntity
  8
0
  6
PHANTOM
 62
     4
100
AcDbLine
 10
7003.70925443459
 20
-10037.8810772727
 30
0.0
 11
7002.89179548537
 21
-10037.8810772727
 31
0.0
  0
ARC
  5
13D
330
4F
100
AcDbEntity
  8
0
  6
PHANTOM
 62
     4
100
AcDbCircle
 10
7021.09985747086
 20
-10037.1925647822
 30
0.0
 40
3.75000000009317
100
AcDbArc
 50
-62.16657193353331
 51
-147.8334280655118
  0
ARC
  5
13E
330
4F
100
AcDbEntity
  8
0
  6
PHANTOM
 62
     4
100
AcDbCircle
 10
7005.44130524217
 20
-10035.1310772727
 30
0.0
 40
3.749999999995675
100
AcDbArc
 50
-47.16657193400404
 51
-132.8334280661081
  0
ARC
  5
13F
330
4F
100
AcDbEntity
  8
0
  6
PHANTOM
 62
     4
100
AcDbCircle
 10
7057.83584217116
 20
-10125.8810772727
 30
0.0
 40
3.749999999999061
100
AcDbArc
 50
-167.1665719336463
 51
107.1665719341751
  0
ARC
  5
140
330
4F
100
AcDbEntity
  8
0
  6
PHANTOM
 62
     4
100
AcDbCircle
 10
6953.04676831316
 20
-10125.8810772727
 30
0.0
 40
3.749848559378141
100
AcDbArc
 50
72.8309321057024
 51
-12.83093210638272
  0
ARC
  5
141
330
4F
100
AcDbEntity
  8
0
  6
Continuous
 62
     2
100
AcDbCircle
 10
7005.44130524217
 20
-10160.6310772727
 30
0.0
 40
6.65722333780558
100
AcDbArc
 50
154.9769381965997
 51
163.7180470961549
  0
ARC
  5
142
330
4F
100
AcDbEntity
  8
0
  6
PHANTOM
 62
     4
100
AcDbCircle
 10
7014.56029491397
 20
-10157.9676157342
 30
0.0
 40
2.842776662264047
100
AcDbArc
 50
-106.8587428574921
 51
-81.67743649866154
  0
ARC
  5
143
330
4F
100
AcDbEntity
  8
0
  6
PHANTOM
 62
     4
100
AcDbCircle
 10
7005.44130524225
 20
-10095.6310772728
 30
0.0
 40
65.84277666207215
100
AcDbArc
 50
-81.67743675127095
 51
-72.45797422413378
  0
ARC
  5
144
330
4F
100
AcDbEntity
  8
0
  6
PHANTOM
 62
     4
100
AcDbCircle
 10
7024.42983741687
 20
-10155.701333189
 30
0.0
 40
2.842776662085532
100
AcDbArc
 50
-72.45799283004456
 51
19.8162470242188
  0
ARC
  5
145
330
4F
100
AcDbEntity
  8
0
  6
PHANTOM
 62
     2
100
AcDbCircle
 10
7029.13376024747
 20
-10154.0063081144
 30
0.0
 40
2.157223337806857
100
AcDbArc
 50
-179.0125150040914
 51
-160.1837094535047
  0
ARC
  5
146
330
4F
100
AcDbEntity
  8
0
  6
PHANTOM
 62
     4
100
AcDbCircle
 10
7005.44130524225
 20
-10095.6310772728
 30
0.0
 40
60.84277666203137
100
AcDbArc
 50
-67.90949455089593
 51
-66.09050497171604
  0
ARC
  5
147
330
4F
100
AcDbEntity
  8
0
  6
PHANTOM
 62
     4
100
AcDbCircle
 10
7030.97476995437
 20
-10153.2248458574
 30
0.0
 40
2.157223337801077
100
AcDbArc
 50
90.36236435841923
 51
113.9094945516635
  0
ARC
  5
148
330
4F
100
AcDbEntity
  8
0
  6
PHANTOM
 62
     4
100
AcDbCircle
 10
7035.46168832136
 20
-10151.0185903038
 30
0.0
 40
2.842776662188142
100
AcDbArc
 50
-153.8162559285462
 51
-61.54204540570177
  0
ARC
  5
149
330
4F
100
AcDbEntity
  8
0
  6
PHANTOM
 62
     4
100
AcDbCircle
 10
7005.44130524225
 20
-10095.6310772728
 30
0.0
 40
65.84277666207018
100
AcDbArc
 50
-61.5420274267803
 51
21.67743727608002
  0
ARC
  5
14A
330
4F
100
AcDbEntity
  8
0
  6
Continuous
 62
     2
100
AcDbCircle
 10
7063.98582596966
 20
-10072.3600847545
 30
0.0
 40
2.84277666215396
100
AcDbArc
 50
46.92210762555129
 51
103.7180474521582
  0
ARC
  5
14B
330
4F
100
AcDbEntity
  8
0
  6
Continuous
 62
     2
100
AcDbCircle
 10
7061.73295648817
 20
-10063.1310772727
 30
0.0
 40
6.657223337868641
100
AcDbArc
 50
-84.97648474386584
 51
-76.28195289762512
  0
ARC
  5
14C
330
4F
100
AcDbEntity
  8
0
  6
PHANTOM
 62
     4
100
AcDbCircle
 10
7054.86683629796
 20
-10056.5655313294
 30
0.0
 40
2.842776662189048
100
AcDbArc
 50
13.11950992368018
 51
38.32256349930361
  0
ARC
  5
14D
330
4F
100
AcDbEntity
  8
0
  6
PHANTOM
 62
     4
100
AcDbCircle
 10
7005.44130524225
 20
-10095.6310772728
 30
0.0
 40
65.84277666216083
100
AcDbArc
 50
38.32256324873182
 51
99.54202565295937
  0
ARC
  5
14E
330
4F
100
AcDbEntity
  8
0
  6
PHANTOM
 62
     4
100
AcDbCircle
 10
6994.99773194866
 20
-10033.5027280522
 30
0.0
 40
2.842776662086924
100
AcDbArc
 50
99.54200432176631
 51
-168.1837530771513
  0
ARC
  5
14F
330
4F
100
AcDbEntity
  8
0
  6
PHANTOM
 62
     4
100
AcDbCircle
 10
6990.10368547576
 20
-10034.5265977323
 30
0.0
 40
2.157223337803444
100
AcDbArc
 50
-7.03574809806362
 51
11.81629068003193
  0
ARC
  5
150
330
4F
100
AcDbEntity
  8
0
  6
PHANTOM
 62
     4
100
AcDbCircle
 10
7005.44130524225
 20
-10095.6310772728
 30
0.0
 40
60.84277666208821
100
AcDbArc
 50
104.0905054498923
 51
105.9094950274884
  0
ARC
  5
151
330
4F
100
AcDbEntity
  8
0
  6
PHANTOM
 62
     4
100
AcDbCircle
 10
7005.44130524225
 20
-10095.6310772728
 30
0.0
 40
65.8427766622068
100
AcDbArc
 50
110.4579725729486
 51
141.6774377405865
  0
ARC
  5
152
330
4F
100
AcDbEntity
  8
0
  6
Continuous
 62
     2
100
AcDbCircle
 10
6949.14965399617
 20
-10063.1310772727
 30
0.0
 40
6.657223337796477
100
AcDbArc
 50
34.98352900184308
 51
43.71804710132569
  0
ARC
  5
153
330
4F
100
AcDbEntity
  8
0
  6
PHANTOM
 62
     4
100
AcDbCircle
 10
6946.89678451466
 20
-10072.3600847545
 30
0.0
 40
2.842776662147128
100
AcDbArc
 50
133.0778923743015
 51
158.3225634993566
  0
ARC
  5
154
330
4F
100
AcDbEntity
  8
0
  6
Continuous
 62
     2
100
AcDbCircle
 10
6996.32231557047
 20
-10157.9676157342
 30
0.0
 40
2.842776662217624
100
AcDbArc
 50
-73.14125714559543
 51
-16.28195253289305
  0
ARC
  5
155
330
4F
100
AcDbEntity
  8
0
  6
PHANTOM
 62
     4
100
AcDbCircle
 10
7005.44130524225
 20
-10095.6310772728
 30
0.0
 40
65.84277666226959
100
AcDbArc
 50
158.3225632485718
 51
-98.32256380738374
  0
ARC
  5
156
330
4F
100
AcDbEntity
  8
0
  6
PHANTOM
 62
     4
100
AcDbCircle
 10
7021.09985747086
 20
-10037.1925647822
 30
0.0
 40
3.250000000020684
100
AcDbArc
 50
-72.79577249603274
 51
-137.2042275040325
  0
ARC
  5
157
330
4F
100
AcDbEntity
  8
0
  6
PHANTOM
 62
     4
100
AcDbCircle
 10
7005.44130524217
 20
-10035.1310772727
 30
0.0
 40
3.250000000000586
100
AcDbArc
 50
-57.79577249601158
 51
-122.2042275041377
  0
ARC
  5
158
330
4F
100
AcDbEntity
  8
0
  6
PHANTOM
 62
     4
100
AcDbCircle
 10
7057.83584217116
 20
-10125.8810772727
 30
0.0
 40
3.249999999998197
100
AcDbArc
 50
-177.7957724960268
 51
117.7957724977413
  0
ARC
  5
159
330
4F
100
AcDbEntity
  8
0
  6
PHANTOM
 62
     4
100
AcDbCircle
 10
6953.04676831316
 20
-10125.8810772727
 30
0.0
 40
3.24984855935685
100
AcDbArc
 50
62.19998815144852
 51
-2.19998815145277
  0
ARC
  5
15A
330
4F
100
AcDbEntity
  8
0
  6
Continuous
 62
     7
100
AcDbCircle
 10
7005.44130524225
 20
-10095.6310772728
 30
0.0
 40
62.00000000003038
100
AcDbArc
 50
-67.90949501205172
 51
-66.09050498803482
  0
ARC
  5
15B
330
4F
100
AcDbEntity
  8
0
  6
Continuous
 62
     7
100
AcDbCircle
 10
7024.42983741687
 20
-10155.701333189
 30
0.0
 40
3.999999999982307
100
AcDbArc
 50
-72.45797338425427
 51
19.81626580033676
  0
ARC
  5
15C
330
4F
100
AcDbEntity
  8
0
  6
Continuous
 62
     7
100
AcDbCircle
 10
7005.44130524225
 20
-10095.6310772728
 30
0.0
 40
66.99999999987591
100
AcDbArc
 50
-81.67743676273358
 51
-72.45797338455219
  0
ARC
  5
15D
330
4F
100
AcDbEntity
  8
0
  6
Continuous
 62
     7
100
AcDbCircle
 10
7005.44130524217
 20
-10160.6310772727
 30
0.0
 40
5.499999999997896
100
AcDbArc
 50
16.28195279274808
 51
163.7180472072785
  0
ARC
  5
15E
330
4F
100
AcDbEntity
  8
0
  6
Continuous
 62
     7
100
AcDbCircle
 10
7005.44130524225
 20
-10095.6310772728
 30
0.0
 40
67.00000000007921
100
AcDbArc
 50
-172.9958460219713
 51
-98.32256323740958
  0
ARC
  5
15F
330
4F
100
AcDbEntity
  8
0
  6
Continuous
 62
     7
100
AcDbCircle
 10
7005.44130524225
 20
-10095.6310772728
 30
0.0
 40
67.00000000011538
100
AcDbArc
 50
158.3225632374453
 51
172.995846021803
  0
ARC
  5
160
330
4F
100
AcDbEntity
  8
0
  6
Continuous
 62
     7
100
AcDbCircle
 10
7035.46168832136
 20
-10151.0185903038
 30
0.0
 40
4.00000000000112
100
AcDbArc
 50
-153.8162657994473
 51
-61.54202661039169
  0
ARC
  5
161
330
4F
100
AcDbEntity
  8
0
  6
Continuous
 62
     7
100
AcDbCircle
 10
7063.98582596966
 20
-10072.3600847545
 30
0.0
 40
4.000000000054821
100
AcDbArc
 50
21.67743676254755
 51
103.7180472236215
  0
ARC
  5
162
330
4F
100
AcDbEntity
  8
0
  6
Continuous
 62
     7
100
AcDbCircle
 10
7061.73295648817
 20
-10063.1310772727
 30
0.0
 40
5.499999999985828
100
AcDbArc
 50
136.2819528016971
 51
-76.28195280501247
  0
ARC
  5
163
330
4F
100
AcDbEntity
  8
0
  6
Continuous
 62
     7
100
AcDbCircle
 10
7054.86683629796
 20
-10056.5655313294
 30
0.0
 40
4.000000000014199
100
AcDbArc
 50
-43.71804721926293
 51
38.32256323960149
  0
ARC
  5
164
330
4F
100
AcDbEntity
  8
0
  6
Continuous
 62
     7
100
AcDbCircle
 10
7005.44130524225
 20
-10095.6310772728
 30
0.0
 40
66.99999999993936
100
AcDbArc
 50
38.32256323755508
 51
99.5420266155645
  0
ARC
  5
165
330
4F
100
AcDbEntity
  8
0
  6
Continuous
 62
     7
100
AcDbCircle
 10
6994.99773194866
 20
-10033.5027280522
 30
0.0
 40
3.999999999950224
100
AcDbArc
 50
99.54202661664098
 51
-168.1837342154411
  0
ARC
  5
166
330
4F
100
AcDbEntity
  8
0
  6
Continuous
 62
     7
100
AcDbCircle
 10
6990.10368547576
 20
-10034.5265977323
 30
0.0
 40
1.000000000050543
100
AcDbArc
 50
-75.90949503434024
 51
11.81626587002464
  0
ARC
  5
167
330
4F
100
AcDbEntity
  8
0
  6
Continuous
 62
     7
100
AcDbCircle
 10
7005.44130524225
 20
-10095.6310772728
 30
0.0
 40
62.00000000008229
100
AcDbArc
 50
104.0905049884449
 51
105.909495011701
  0
ARC
  5
168
330
4F
100
AcDbEntity
  8
0
  6
Continuous
 62
     7
100
AcDbCircle
 10
6988.17183382326
 20
-10035.0442358225
 30
0.0
 40
1.000000000068179
100
AcDbArc
 50
-161.8162658003795
 51
-74.09050496820572
  0
ARC
  5
169
330
4F
100
AcDbEntity
  8
0
  6
Continuous
 62
     7
100
AcDbCircle
 10
6983.42153041037
 20
-10036.6045619058
 30
0.0
 40
4.000000000006676
100
AcDbArc
 50
18.1837341977458
 51
110.4579733835566
  0
ARC
  5
16A
330
4F
100
AcDbEntity
  8
0
  6
Continuous
 62
     7
100
AcDbCircle
 10
7005.44130524225
 20
-10095.6310772728
 30
0.0
 40
67.00000000012261
100
AcDbArc
 50
110.4579733845463
 51
141.6774367624675
  0
ARC
  5
16B
330
4F
100
AcDbEntity
  8
0
  6
Continuous
 62
     7
100
AcDbCircle
 10
6956.01577418637
 20
-10056.5655313294
 30
0.0
 40
4.000000000042155
100
AcDbArc
 50
141.6774367592743
 51
-136.2819527807371
  0
ARC
  5
16C
330
4F
100
AcDbEntity
  8
0
  6
Continuous
 62
     7
100
AcDbCircle
 10
6949.14965399617
 20
-10063.1310772727
 30
0.0
 40
5.499999999998646
100
AcDbArc
 50
-103.7180471952913
 51
43.7180471983749
  0
ARC
  5
16D
330
4F
100
AcDbEntity
  8
0
  6
Continuous
 62
     7
100
AcDbCircle
 10
6946.89678451466
 20
-10072.3600847545
 30
0.0
 40
3.999999999993981
100
AcDbArc
 50
76.28195277651776
 51
158.3225632404334
  0
ARC
  5
16E
330
4F
100
AcDbEntity
  8
0
  6
Continuous
 62
     7
100
AcDbCircle
 10
7005.44130524225
 20
-10095.6310772728
 30
0.0
 40
66.99999999983872
100
AcDbArc
 50
-61.54202661520399
 51
21.67743676278929
  0
ARC
  5
16F
330
4F
100
AcDbEntity
  8
0
  6
PHANTOM
 62
     2
100
AcDbCircle
 10
6988.17183382326
 20
-10035.0442358225
 30
0.0
 40
0.9999999999907452
100
AcDbArc
 50
-164.9999999999714
 51
-162.9309719337635
  0
ARC
  5
170
330
4F
100
AcDbEntity
  8
0
  6
PHANTOM
 62
     2
100
AcDbCircle
 10
6990.10368547576
 20
-10034.5265977323
 30
0.0
 40
1.000000000075547
100
AcDbArc
 50
12.93097193028381
 51
14.99999999869343
  0
ARC
  5
171
330
4F
100
AcDbEntity
  8
0
  6
Continuous
 62
     7
100
AcDbCircle
 10
7191.8457324292
 20
-10095.6310772727
 30
0.0
 40
52.5
100
AcDbArc
 50
180.0
 51
-92.18322464609483
  0
ARC
  5
172
330
4F
100
AcDbEntity
  8
0
  6
PHANTOM
 62
     4
100
AcDbCircle
 10
7204.3457324292
 20
-10040.6967808836
 30
0.0
 40
1.000000000004286
100
AcDbArc
 50
-85.00000000276793
 51
-0.00139748415597
  0
ARC
  5
173
330
4F
100
AcDbEntity
  8
0
  6
PHANTOM
 62
     4
100
AcDbCircle
 10
7204.3457324292
 20
-10150.5653736618
 30
0.0
 40
1.000000000007322
100
AcDbArc
 50
0.00139747842385
 51
85.00000000226834
  0
ARC
  5
174
330
4F
100
AcDbEntity
  8
0
  6
Continuous
 62
     7
100
AcDbCircle
 10
7191.8457324292
 20
-10095.6310772727
 30
0.0
 40
52.49999999993298
100
AcDbArc
 50
92.18322464609906
 51
180.0
  0
ARC
  5
175
330
4F
100
AcDbEntity
  8
0
  6
Continuous
 62
     2
100
AcDbCircle
 10
6956.01577418637
 20
-10056.5655313294
 30
0.0
 40
2.842776662189048
100
AcDbArc
 50
166.8804900763198
 51
-136.281952544964
  0
ARC
  5
176
330
4F
100
AcDbEntity
  8
0
  6
PHANTOM
 62
     4
100
AcDbCircle
 10
6956.01577418637
 20
-10056.5655313294
 30
0.0
 40
2.842776662123227
100
AcDbArc
 50
141.6774594126094
 51
166.8804900763198
  0
ARC
  5
177
330
4F
100
AcDbEntity
  8
0
  6
PHANTOM
 62
     4
100
AcDbCircle
 10
6949.14965399617
 20
-10063.1310772727
 30
0.0
 40
6.657223337868641
100
AcDbArc
 50
-95.02351525613417
 51
34.98352900184308
  0
ARC
  5
178
330
4F
100
AcDbEntity
  8
0
  6
Continuous
 62
     2
100
AcDbCircle
 10
6949.14965399617
 20
-10063.1310772727
 30
0.0
 40
6.65722333782267
100
AcDbArc
 50
-103.7180478263382
 51
-95.02351525613417
  0
ARC
  5
179
330
4F
100
AcDbEntity
  8
0
  6
Continuous
 62
     2
100
AcDbCircle
 10
6946.89678451466
 20
-10072.3600847545
 30
0.0
 40
2.842776662169959
100
AcDbArc
 50
76.28195424282971
 51
133.0778923743015
  0
ARC
  5
17A
330
4F
100
AcDbEntity
  8
0
  6
PHANTOM
 62
     4
100
AcDbCircle
 10
6996.32231557047
 20
-10157.9676157342
 30
0.0
 40
2.842776662126693
100
AcDbArc
 50
-98.32257643940144
 51
-73.14125714559543
  0
ARC
  5
17B
330
4F
100
AcDbEntity
  8
0
  6
PHANTOM
 62
     4
100
AcDbCircle
 10
7005.44130524217
 20
-10160.6310772727
 30
0.0
 40
6.657223337788273
100
AcDbArc
 50
25.02306180346985
 51
154.9769381965997
  0
ARC
  5
17C
330
4F
100
AcDbEntity
  8
0
  6
Continuous
 62
     2
100
AcDbCircle
 10
7005.44130524217
 20
-10160.6310772727
 30
0.0
 40
6.657223337788611
100
AcDbArc
 50
16.28195218026401
 51
25.02306180346985
  0
ARC
  5
17D
330
4F
100
AcDbEntity
  8
0
  6
Continuous
 62
     2
100
AcDbCircle
 10
7014.56029491397
 20
-10157.9676157342
 30
0.0
 40
2.842776662288772
100
AcDbArc
 50
-163.718045773193
 51
-106.8587428574921
  0
ARC
  5
17E
330
4F
100
AcDbEntity
  8
0
  6
Continuous
 62
     2
100
AcDbCircle
 10
7029.13376024747
 20
-10154.0063081144
 30
0.0
 40
2.157223337808657
100
AcDbArc
 50
135.6379648626007
 51
-179.0125150040914
  0
ARC
  5
17F
330
4F
100
AcDbEntity
  8
0
  6
PHANTOM
 62
     4
100
AcDbCircle
 10
7029.13376024747
 20
-10154.0063081144
 30
0.0
 40
2.157223337845872
100
AcDbArc
 50
112.090491981342
 51
135.6379648626007
  0
ARC
  5
180
330
4F
100
AcDbEntity
  8
0
  6
Continuous
 62
     2
100
AcDbCircle
 10
7030.97476995437
 20
-10153.2248458574
 30
0.0
 40
2.157223337755057
100
AcDbArc
 50
45.00734838918647
 51
90.36236435841923
  0
ARC
  5
181
330
4F
100
AcDbEntity
  8
0
  6
PHANTOM
 62
     4
100
AcDbCircle
 10
7030.97476995437
 20
-10153.2248458574
 30
0.0
 40
2.157223337794677
100
AcDbArc
 50
26.18372118855113
 51
45.00734838918647
  0
ARC
  5
182
330
4F
100
AcDbEntity
  8
0
  6
PHANTOM
 62
     4
100
AcDbCircle
 10
7063.98582596966
 20
-10072.3600847545
 30
0.0
 40
2.842776662149337
100
AcDbArc
 50
21.67744865099703
 51
46.92210762555129
  0
ARC
  5
183
330
4F
100
AcDbEntity
  8
0
  6
PHANTOM
 62
     4
100
AcDbCircle
 10
7061.73295648817
 20
-10063.1310772727
 30
0.0
 40
6.657223337805419
100
AcDbArc
 50
145.0164709982108
 51
-84.97648474386584
  0
ARC
  5
184
330
4F
100
AcDbEntity
  8
0
  6
Continuous
 62
     2
100
AcDbCircle
 10
7054.86683629796
 20
-10056.5655313294
 30
0.0
 40
2.84277666219398
100
AcDbArc
 50
-43.71804576036981
 51
13.11950992368018
  0
ARC
  5
185
330
4F
100
AcDbEntity
  8
0
  6
Continuous
 62
     2
100
AcDbCircle
 10
7061.73295648817
 20
-10063.1310772727
 30
0.0
 40
6.65722333780605
100
AcDbArc
 50
136.2819521750751
 51
145.0164709982108
  0
ARC
  5
186
330
4F
100
AcDbEntity
  8
0
  6
Continuous
 62
     2
100
AcDbCircle
 10
6990.10368547576
 20
-10034.5265977323
 30
0.0
 40
2.157223337807425
100
AcDbArc
 50
-52.36272145419645
 51
-7.03574809806362
  0
ARC
  5
187
330
4F
100
AcDbEntity
  8
0
  6
PHANTOM
 62
     4
100
AcDbCircle
 10
6990.10368547576
 20
-10034.5265977323
 30
0.0
 40
2.15722333804468
100
AcDbArc
 50
-75.90950803687706
 51
-52.36272145419645
  0
ARC
  5
188
330
4F
100
AcDbEntity
  8
1
  6
Continuous
 62
     7
100
AcDbCircle
 10
7014.56029491397
 20
-10157.9676157342
 30
0.0
 40
4.000000000079486
100
AcDbArc
 50
-163.7180472074354
 51
-81.677436763742
  0
ARC
  5
189
330
4F
100
AcDbEntity
  8
1
  6
Continuous
 62
     7
100
AcDbCircle
 10
6996.32231557047
 20
-10157.9676157342
 30
0.0
 40
4.000000000029583
100
AcDbArc
 50
-98.32256323781776
 51
-16.28195279300655
  0
ARC
  5
18A
330
4F
100
AcDbEntity
  8
1
  6
PHANTOM
 62
     2
100
AcDbCircle
 10
7029.13376024747
 20
-10154.0063081144
 30
0.0
 40
1.000000000045823
100
AcDbArc
 50
-159.4639836151172
 51
-156.9999999938586
  0
ARC
  5
18B
330
4F
100
AcDbEntity
  8
1
  6
Continuous
 62
     7
100
AcDbCircle
 10
7030.97476995437
 20
-10153.2248458574
 30
0.0
 40
0.9999999999816013
100
AcDbArc
 50
26.1837341915266
 51
113.9094950118716
  0
ARC
  5
18C
330
4F
100
AcDbEntity
  8
1
  6
Continuous
 62
     7
100
AcDbCircle
 10
7029.13376024747
 20
-10154.0063081144
 30
0.0
 40
0.9999999998468018
100
AcDbArc
 50
112.0905049877923
 51
-160.1837341929825
  0
ARC
  5
18D
330
4F
100
AcDbEntity
  8
1
  6
PHANTOM
 62
     2
100
AcDbCircle
 10
7030.97476995437
 20
-10153.2248458574
 30
0.0
 40
0.9999999999518701
100
AcDbArc
 50
22.99999998939587
 51
25.46398361542214
  0
CIRCLE
  5
18E
330
4F
100
AcDbEntity
  8
1
  6
Continuous
 62
     2
100
AcDbCircle
 10
7191.28600795484
 20
-10027.2381210295
 30
0.0
 40
3.999999999989996
  0
CIRCLE
  5
18F
330
4F
100
AcDbEntity
  8
1
  6
Continuous
 62
     2
100
AcDbCircle
 10
7152.92111824672
 20
-10140.8762551304
 30
0.0
 40
4.0
  0
CIRCLE
  5
190
330
4F
100
AcDbEntity
  8
1
  6
DOT_CENTER
 62
     2
100
AcDbCircle
 10
7005.44130524225
 20
-10095.6310772728
 30
0.0
 40
60.49999999991996
  0
CIRCLE
  5
191
102
{ACAD_REACTORS
330
1EB
330
1EB
102
}
330
4F
100
AcDbEntity
  8
1
  6
Continuous
 62
     7
100
AcDbCircle
 10
7005.44130524217
 20
-10160.6310772727
 30
0.0
 40
0.25
  0
CIRCLE
  5
192
102
{ACAD_REACTORS
330
1EA
330
1EA
102
}
330
4F
100
AcDbEntity
  8
1
  6
Continuous
 62
     7
100
AcDbCircle
 10
6949.14965399617
 20
-10063.1310772727
 30
0.0
 40
0.25
  0
CIRCLE
  5
193
102
{ACAD_REACTORS
330
1E9
330
1E9
102
}
330
4F
100
AcDbEntity
  8
1
  6
Continuous
 62
     7
100
AcDbCircle
 10
7061.73295648817
 20
-10063.1310772727
 30
0.0
 40
0.2499999999899956
  0
CIRCLE
  5
194
330
4F
100
AcDbEntity
  8
0
  6
Continuous
 62
     7
100
AcDbCircle
 10
7005.44130524225
 20
-10095.6310772728
 30
0.0
 40
52.66189093041066
  0
CIRCLE
  5
195
330
4F
100
AcDbEntity
  8
0
  6
Continuous
 62
     2
100
AcDbCircle
 10
7005.44130524225
 20
-10095.6310772728
 30
0.0
 40
52.46189093041994
  0
CIRCLE
  5
196
330
4F
100
AcDbEntity
  8
1
  6
PHANTOM
 62
     4
100
AcDbCircle
 10
7021.09985747086
 20
-10037.1925647822
 30
0.0
 40
3.25
  0
CIRCLE
  5
197
102
{ACAD_REACTORS
330
1E7
330
1E7
102
}
330
4F
100
AcDbEntity
  8
1
  6
Continuous
 62
     2
100
AcDbCircle
 10
7160.80587020326
 20
-10133.0079380406
 30
0.0
 40
0.25
  0
CIRCLE
  5
198
102
{ACAD_REACTORS
330
1E8
330
1E8
102
}
330
4F
100
AcDbEntity
  8
1
  6
Continuous
 62
     2
100
AcDbCircle
 10
7204.51310253527
 20
-10035.5826198796
 30
0.0
 40
0.25
  0
SPLINE
  5
199
330
4F
100
AcDbEntity
  8
0
  6
PHANTOM
 62
     4
100
AcDbSpline
210
0.0
220
0.0
230
1.0
 70
     8
 71
     3
 72
     9
 73
     5
 74
     3
 42
0.0000000001
 43
0.0000000001
 44
0.00000001
 40
0.0
 40
0.0
 40
0.0
 40
0.0
 40
0.365056290224528
 40
0.730072344942863
 40
0.730072344942863
 40
0.730072344942863
 40
0.730072344942863
 10
6986.11248393377
 20
-10035.6963770864
 30
0.0
 10
6986.155064478651
 20
-10035.81092704293
 30
0.0
 10
6986.2402208753
 20
-10036.04001433061
 30
0.0
 10
6986.379107382676
 20
-10036.24111894994
 30
0.0
 10
6986.44854680923
 20
-10036.341665718
 30
0.0
 11
6986.11248393377
 21
-10035.6963770864
 31
0.0
 11
6986.253659576711
 21
-10036.0330305178
 31
0.0
 11
6986.44854680923
 21
-10036.341665718
 31
0.0
  0
SPLINE
  5
19A
330
4F
100
AcDbEntity
  8
0
  6
PHANTOM
 62
     4
100
AcDbSpline
210
0.0
220
0.0
230
1.0
 70
     8
 71
     3
 72
    23
 73
    19
 74
    17
 42
0.0000000001
 43
0.0000000001
 44
0.00000001
 40
0.0
 40
0.0
 40
0.0
 40
0.0
 40
0.5711112948850138
 40
1.142212159960333
 40
1.333158592465129
 40
1.524051816509043
 40
1.714798851396848
 40
1.905569792582541
 40
2.096263587834678
 40
2.286940936779083
 40
2.47761315520251
 40
2.668300864450292
 40
2.859073058352831
 40
3.049824487897097
 40
3.240739146599128
 40
3.431703239527742
 40
3.991140358192732
 40
4.550587221219281
 40
4.550587221219281
 40
4.550587221219281
 40
4.550587221219281
 10
6982.42792331609
 20
-10033.9410822095
 30
0.0
 10
6982.610418712093
 20
-10033.884738146
 30
0.0
 10
6982.975406171316
 20
-10033.77205104799
 30
0.0
 10
6983.424497322751
 20
-10033.75332623728
 30
0.0
 10
6983.741147603355
 20
-10033.77769266652
 30
0.0
 10
6983.930179249744
 20
-10033.8054713305
 30
0.0
 10
6984.116774817306
 20
-10033.84594516003
 30
0.0
 10
6984.30017997968
 20
-10033.89884819115
 30
0.0
 10
6984.479643256237
 20
-10033.96379433008
 30
0.0
 10
6984.654328652461
 20
-10034.04060542846
 30
0.0
 10
6984.823395672613
 20
-10034.12909543689
 30
0.0
 10
6984.986178163534
 20
-10034.22872300606
 30
0.0
 10
6985.142019313717
 20
-10034.33894808902
 30
0.0
 10
6985.290175313705
 20
-10034.45939959757
 30
0.0
 10
6985.429998738144
 20
-10034.58962790607
 30
0.0
 10
6985.644221259943
 20
-10034.81880871039
 30
0.0
 10
6985.905827636877
 20
-10035.17452813085
 30
0.0
 10
6986.043598101525
 20
-10035.5224264246
 30
0.0
 10
6986.11248393377
 20
-10035.6963770864
 30
0.0
 11
6982.42792331609
 21
-10033.9410822095
 31
0.0
 11
6982.980354843774
 21
-10033.79621151417
 31
0.0
 11
6983.550599020635
 21
-10033.76494209067
 31
0.0
 11
6983.740959866655
 21
-10033.77988492804
 31
0.0
 11
6983.929830817164
 21
-10033.80759750713
 31
0.0
 11
6984.116246131053
 21
-10033.84801732981
 31
0.0
 11
6984.299551121028
 21
-10033.90086458756
 31
0.0
 11
6984.478857175886
 21
-10033.96577577488
 31
0.0
 11
6984.653394128874
 21
-10034.04255274696
 31
0.0
 11
6984.822339255838
 21
-10034.13094640597
 31
0.0
 11
6984.98499403734
 21
-10034.23047140038
 31
0.0
 11
6985.140734013174
 21
-10034.34064893845
 31
0.0
 11
6985.288737541253
 21
-10034.46098622921
 31
0.0
 11
6985.428402299037
 21
-10034.59114829105
 31
0.0
 11
6985.559011335455
 21
-10034.73046291481
 31
0.0
 11
6985.884402051235
 21
-10035.1855351858
 31
0.0
 11
6986.11248393377
 21
-10035.6963770864
 31
0.0
  0
SPLINE
  5
19B
330
4F
100
AcDbEntity
  8
0
  6
PHANTOM
 62
     4
100
AcDbSpline
210
0.0
220
0.0
230
1.0
 70
     8
 71
     3
 72
     9
 73
     5
 74
     3
 42
0.0000000001
 43
0.0000000001
 44
0.00000001
 40
0.0
 40
0.0
 40
0.0
 40
0.0
 40
0.441997340367585
 40
0.8840488293385262
 40
0.8840488293385262
 40
0.8840488293385262
 40
0.8840488293385262
 10
6987.88608118459
 20
-10037.1821863046
 30
0.0
 10
6988.033888875344
 20
-10037.1942684694
 30
0.0
 10
6988.329522364609
 20
-10037.21843427917
 30
0.0
 10
6988.61861410966
 20
-10037.15203188746
 30
0.0
 10
6988.76316883572
 20
-10037.118828658
 30
0.0
 11
6987.88608118459
 21
-10037.1821863046
 31
0.0
 11
6988.327869021136
 21
-10037.19579352223
 31
0.0
 11
6988.76316883572
 21
-10037.118828658
 31
0.0
  0
SPLINE
  5
19C
330
4F
100
AcDbEntity
  8
0
  6
Continuous
 62
     2
100
AcDbSpline
210
0.0
220
0.0
230
1.0
 70
     8
 71
     3
 72
    19
 73
    15
 74
    13
 42
0.0000000001
 43
0.0000000001
 44
0.00000001
 40
0.0
 40
0.0
 40
0.0
 40
0.0
 40
0.1390089560951908
 40
0.2780184808885402
 40
0.4436360316177287
 40
0.6092905247602817
 40
0.7747335363978587
 40
0.9401802311452685
 40
1.105636913286909
 40
1.271097616480085
 40
1.436794230712888
 40
1.602421618232295
 40
1.655851229561165
 40
1.709280811340796
 40
1.709280811340796
 40
1.709280811340796
 40
1.709280811340796
 10
6986.44854680923
 20
-10036.341665718
 30
0.0
 10
6986.477199919397
 20
-10036.37810042494
 30
0.0
 10
6986.534506256952
 20
-10036.45096998788
 30
0.0
 10
6986.634955097467
 20
-10036.55969102567
 30
0.0
 10
6986.748590474233
 20
-10036.66785875047
 30
0.0
 10
6986.877158452464
 20
-10036.77246900058
 30
0.0
 10
6987.013481303531
 20
-10036.86662981026
 30
0.0
 10
6987.156597287516
 20
-10036.94996234057
 30
0.0
 10
6987.305612843791
 20
-10037.02222776662
 30
0.0
 10
6987.459827973067
 20
-10037.08285889114
 30
0.0
 10
6987.618361371633
 20
-10037.13127129939
 30
0.0
 10
6987.743669738977
 20
-10037.15919539522
 30
0.0
 10
6987.833178788284
 20
-10037.17467784569
 30
0.0
 10
6987.86844705574
 20
-10037.17968348543
 30
0.0
 10
6987.88608118459
 20
-10037.1821863046
 30
0.0
 11
6986.44854680923
 21
-10036.341665718
 31
0.0
 11
6986.535916906352
 21
-10036.44978581791
 31
0.0
 11
6986.62989534719
 21
-10036.55221482083
 31
0.0
 11
6986.750006018112
 21
-10036.66624376383
 31
0.0
 11
6986.878514969565
 21
-10036.7707753882
 31
0.0
 11
6987.014621479854
 21
-10036.86483073338
 31
0.0
 11
6987.157576742473
 21
-10036.94811579622
 31
0.0
 11
6987.306465297287
 21
-10037.02028304579
 31
0.0
 11
6987.460464509359
 21
-10037.08079326793
 31
0.0
 11
6987.618927541086
 21
-10037.12921676991
 31
0.0
 11
6987.780562113668
 21
-10037.16536502634
 31
0.0
 11
6987.833220327417
 21
-10037.17441134556
 31
0.0
 11
6987.88608118459
 21
-10037.1821863046
 31
0.0
  0
LEADER
  5
19D
330
4F
100
AcDbEntity
  8
1
  6
Continuous
 62
     2
100
AcDbLeader
  3
Standard
 71
     0
 76
     3
 10
7160.80587020326
 20
-10133.0079380406
 30
0.0
 10
7155.75724785272
 20
-10138.0555515199
 30
0.0
 10
7155.75731941029
 20
-10138.0556407005
 30
0.0
  0
LEADER
  5
19E
330
4F
100
AcDbEntity
  8
1
  6
Continuous
 62
     2
100
AcDbLeader
  3
Standard
 71
     0
 76
     2
 10
7204.51310253527
 20
-10035.5826198796
 30
0.0
 10
7194.86273233977
 20
-10029.0289428169
 30
0.0
  0
MTEXT
  5
1A0
330
4F
100
AcDbEntity
  8
1
 62
     7
100
AcDbMText
 10
7251.28097882745
 20
-9991.14954805067
 30
0.0
 40
3.0
 41
0.0
 71
     5
 72
     1
  1
Treatment
  7
CONVERTER_13
 73
     1
 44
1.0
  0
MTEXT
  5
1A1
330
4F
100
AcDbEntity
  8
1
 62
     7
100
AcDbMText
 10
7208.78097882745
 20
-9991.14954805067
 30
0.0
 40
3.0
 41
0.0
 71
     5
 72
     1
  1
Material
  7
CONVERTER_13
 73
     1
 44
1.0
  0
MTEXT
  5
1A2
330
4F
100
AcDbEntity
  8
1
 62
     7
100
AcDbMText
 10
7183.78097882745
 20
-9991.14954805067
 30
0.0
 40
3.0
 41
0.0
 71
     5
 72
     1
  1
Qty
  7
CONVERTER_13
 73
     1
 44
1.0
  0
MTEXT
  5
1A3
330
4F
100
AcDbEntity
  8
1
 62
     7
100
AcDbMText
 10
7161.28097882745
 20
-9991.14954805067
 30
0.0
 40
3.0
 41
0.0
 71
     5
 72
     1
  1
Part Name
  7
CONVERTER_13
 73
     1
 44
1.0
  0
MTEXT
  5
1A4
330
4F
100
AcDbEntity
  8
1
 62
     7
100
AcDbMText
 10
7138.78097882745
 20
-9991.14954805067
 30
0.0
 40
3.0
 41
0.0
 71
     5
 72
     1
  1
No.
  7
CONVERTER_13
 73
     1
 44
1.0
  0
MTEXT
  5
1A5
330
4F
100
AcDbEntity
  8
1
 62
     7
100
AcDbMText
 10
7183.78097882745
 20
-10001.1495480507
 30
0.0
 40
3.0
 41
0.0
 71
     5
 72
     1
  1
1
  7
CONVERTER_13
 73
     1
 44
1.0
  0
MTEXT
  5
1A6
330
4F
100
AcDbEntity
  8
1
 62
     7
100
AcDbMText
 10
7138.78097882745
 20
-10001.1495480507
 30
0.0
 40
3.0
 41
0.0
 71
     5
 72
     1
  1
2
  7
CONVERTER_13
 73
     1
 44
1.0
  0
MTEXT
  5
1A7
330
4F
100
AcDbEntity
  8
1
 62
     7
100
AcDbMText
 10
7138.78097882745
 20
-9996.14954805067
 30
0.0
 40
3.0
 41
0.0
 71
     5
 72
     1
  1
1
  7
CONVERTER_13
 73
     1
 44
1.0
  0
MTEXT
  5
1A8
330
4F
100
AcDbEntity
  8
1
 62
     7
100
AcDbMText
 10
7161.28097882745
 20
-9996.14954805067
 30
0.0
 40
3.0
 41
0.0
 71
     5
 72
     1
  1
Smoke Dome
  7
CONVERTER_13
 73
     1
 44
1.0
  0
MTEXT
  5
1A9
330
4F
100
AcDbEntity
  8
1
 62
     7
100
AcDbMText
 10
7161.28097882745
 20
-10001.1495480507
 30
0.0
 40
3.0
 41
0.0
 71
     5
 72
     1
  1
Sealing Packing
  7
CONVERTER_12
 73
     1
 44
1.0
  0
MTEXT
  5
1AA
330
4F
100
AcDbEntity
  8
1
 62
     7
100
AcDbMText
 10
7183.78097882745
 20
-9996.14954805067
 30
0.0
 40
3.0
 41
0.0
 71
     5
 72
     1
  1
1
  7
CONVERTER_13
 73
     1
 44
1.0
  0
MTEXT
  5
1AB
330
4F
100
AcDbEntity
  8
1
 62
     7
100
AcDbMText
 10
7208.78097882745
 20
-9996.14954805067
 30
0.0
 40
3.0
 41
0.0
 71
     5
 72
     1
  1
Polycarbonate Resin
  7
CONVERTER_12
 73
     1
 44
1.0
  0
MTEXT
  5
1AC
330
4F
100
AcDbEntity
  8
1
 62
     7
100
AcDbMText
 10
7208.78097882745
 20
-10001.1495480507
 30
0.0
 40
3.0
 41
0.0
 71
     5
 72
     1
  1
Silicon Rubber
  7
CONVERTER_12
 73
     1
 44
1.0
  0
MTEXT
  5
1AD
330
4F
100
AcDbEntity
  8
1
 62
     7
100
AcDbMText
 10
7251.28097882745
 20
-9996.14954805067
 30
0.0
 40
3.0
 41
0.0
 71
     5
 72
     1
  1
With Protective Seat
  7
CONVERTER_12
 73
     1
 44
1.0
  0
MTEXT
  5
1AE
330
4F
100
AcDbEntity
  8
1
 62
     2
100
AcDbMText
 10
7191.28600795484
 20
-10027.2381210295
 30
0.0
 40
4.0
 41
0.0
 71
     5
 72
     1
  1
2
  7
CONVERTER_13
 73
     1
 44
1.0
  0
MTEXT
  5
1AF
330
4F
100
AcDbEntity
  8
1
 62
     2
100
AcDbMText
 10
7152.92111824672
 20
-10140.8762551304
 30
0.0
 40
4.0
 41
0.0
 71
     5
 72
     1
  1
1
  7
CONVERTER_13
 73
     1
 44
1.0
  0
DIMENSION
  5
1BA
330
4F
100
AcDbEntity
  8
1
100
AcDbDimension
  2
*D12
 10
7208.3457324292
 20
-10173.967406275
 30
0.0
 11
7173.8457324292
 21
-10171.467406275
 31
0.0
 70
    32
  1
(69
 71
     5
 42
-1.0
 53
0.00013888888889
  3
ME10_DIM_10
100
AcDbAlignedDimension
 13
7139.3457324292
 23
-10095.6310772727
 33
0.0
 14
7208.3457324292
 24
-10161.967406275
 34
0.0
100
AcDbRotatedDimension
  0
DIMENSION
  5
1C5
330
4F
100
AcDbEntity
  8
1
100
AcDbDimension
  2
*D13
 10
7127.3457324292
 20
-10041.61311205755
 30
0.0
 11
7124.8457324292
 21
-10095.6310772727
 31
0.0
 70
    32
  1
(ç108
 71
     5
 42
-1.0
 53
90.0
  3
ME10_DIM_11
100
AcDbAlignedDimension
 13
7205.34573242891
 23
-10149.6490424879
 33
0.0
 14
7205.34573242891
 24
-10041.6131120576
 34
0.0
 50
90.0
100
AcDbRotatedDimension
  0
DIMENSION
  5
1D0
330
4F
100
AcDbEntity
  8
1
100
AcDbDimension
  2
*D14
 10
7139.345732429201
 20
-10167.967406275
 30
0.0
 11
7175.63262980681
 21
-10165.467406275
 31
0.0
 70
    32
  1
66
 71
     5
 42
-1.0
 53
0.00013888888889
  3
ME10_DIM_12
100
AcDbAlignedDimension
 13
7205.3457324292
 23
-10160.8099559274
 33
0.0
 14
7139.3457324292
 24
-10095.6310772727
 34
0.0
100
AcDbRotatedDimension
  0
DIMENSION
  5
1DB
330
4F
100
AcDbEntity
  8
1
100
AcDbDimension
  2
*D15
 10
7208.345732429201
 20
-10167.967406275
 30
0.0
 11
7215.09746861847
 21
-10165.467406275
 31
0.0
 70
    32
  1
3
 71
     5
 42
-1.0
 53
0.00013888888889
  3
ME10_DIM_13
100
AcDbAlignedDimension
 13
7205.3457324292
 23
-10160.8099559274
 33
0.0
 14
7208.3457324292
 24
-10161.967406275
 34
0.0
100
AcDbRotatedDimension
  0
DIMENSION
  5
1E6
330
4F
100
AcDbEntity
  8
1
100
AcDbDimension
  2
*D16
 10
7226.3457324292
 20
-10161.96761573425
 30
0.0
 11
7223.8457324292
 21
-10095.2993465035
 31
0.0
 70
    32
  1
ç133.4
 71
     5
 42
-1.0
 53
90.0
  3
ME10_DIM_14
100
AcDbAlignedDimension
 13
7208.3457324292
 23
-10028.6310772727
 33
0.0
 14
7208.3457324292
 24
-10161.9676157342
 34
0.0
 50
90.0
100
AcDbRotatedDimension
  0
HATCH
  5
1E7
330
4F
100
AcDbEntity
  8
1
  6
Continuous
 62
     2
100
AcDbHatch
 10
0.0
 20
0.0
 30
0.0
210
0.0
220
0.0
230
1.0
  2
SOLID
 70
     1
 71
     1
 91
        1
 92
        1
 93
        1
 72
     2
 10
7160.80587020326
 20
-10133.0079380406
 40
0.25
 50
0.0
 51
360.0
 73
     1
 97
        1
330
197
 75
     0
 76
     1
 98
        1
 10
0.0
 20
0.0
  0
HATCH
  5
1E8
330
4F
100
AcDbEntity
  8
1
  6
Continuous
 62
     2
100
AcDbHatch
 10
0.0
 20
0.0
 30
0.0
210
0.0
220
0.0
230
1.0
  2
SOLID
 70
     1
 71
     1
 91
        1
 92
        1
 93
        1
 72
     2
 10
7204.51310253527
 20
-10035.5826198796
 40
0.25
 50
0.0
 51
360.0
 73
     1
 97
        1
330
198
 75
     0
 76
     1
 98
        1
 10
0.0
 20
0.0
  0
HATCH
  5
1E9
330
4F
100
AcDbEntity
  8
1
  6
Continuous
 62
     3
100
AcDbHatch
 10
0.0
 20
0.0
 30
0.0
210
0.0
220
0.0
230
1.0
  2
CUSTOM0
 70
     0
 71
     1
 91
        1
 92
        1
 93
        1
 72
     2
 10
7061.73295648817
 20
-10063.1310772727
 40
0.2499999999899956
 50
0.0
 51
360.0
 73
     1
 97
        1
330
193
 75
     1
 76
     2
 52
0.0
 41
1.0
 77
     0
 78
     2
 53
44.99999999999998
 43
0.0
 44
0.0
 45
-0.0883883476483184
 46
0.0
 79
     0
 53
134.9999999999997
 43
0.0
 44
0.0
 45
-0.0000000000000004
 46
-0.0883883476483184
 79
     0
 98
        1
 10
0.0
 20
0.0
  0
HATCH
  5
1EA
330
4F
100
AcDbEntity
  8
1
  6
Continuous
 62
     3
100
AcDbHatch
 10
0.0
 20
0.0
 30
0.0
210
0.0
220
0.0
230
1.0
  2
CUSTOM1
 70
     0
 71
     1
 91
        1
 92
        1
 93
        1
 72
     2
 10
6949.14965399617
 20
-10063.1310772727
 40
0.25
 50
0.0
 51
360.0
 73
     1
 97
        1
330
192
 75
     1
 76
     2
 52
0.0
 41
1.0
 77
     0
 78
     2
 53
44.99999999999998
 43
0.0
 44
0.0
 45
-0.0883883476483184
 46
0.0
 79
     0
 53
134.9999999999997
 43
0.0
 44
0.0
 45
-0.0000000000000004
 46
-0.0883883476483184
 79
     0
 98
        1
 10
0.0
 20
0.0
  0
HATCH
  5
1EB
330
4F
100
AcDbEntity
  8
1
  6
Continuous
 62
     3
100
AcDbHatch
 10
0.0
 20
0.0
 30
0.0
210
0.0
220
0.0
230
1.0
  2
CUSTOM2
 70
     0
 71
     1
 91
        1
 92
        1
 93
        1
 72
     2
 10
7005.44130524217
 20
-10160.6310772727
 40
0.25
 50
0.0
 51
360.0
 73
     1
 97
        1
330
191
 75
     1
 76
     2
 52
0.0
 41
1.0
 77
     0
 78
     2
 53
44.99999999999998
 43
0.0
 44
0.0
 45
-0.0883883476483184
 46
0.0
 79
     0
 53
134.9999999999997
 43
0.0
 44
0.0
 45
-0.0000000000000004
 46
-0.0883883476483184
 79
     0
 98
        1
 10
0.0
 20
0.0
  0
ENDBLK
  5
59
330
4F
100
AcDbEntity
  8
0
100
AcDbBlockEnd
  0
BLOCK
  5
5C
330
5A
100
AcDbEntity
  8
0
100
AcDbBlockBegin
  2
dome-cover__2006_06_28_15_16_36
 70
     0
 71
     0
 10
7482.04687188818
 20
-8221.13818645029
 30
0.0
  3
dome-cover__2006_06_28_15_16_36
  1

  0
INSERT
  5
5B
330
5A
100
AcDbEntity
  8
0
100
AcDbBlockReference
  2
TOP
 10
6907.44806061103
 20
-8773.60582324883
 30
0.0
  0
ENDBLK
  5
5D
330
5A
100
AcDbEntity
  8
0
100
AcDbBlockEnd
  0
BLOCK
  5
1B7
330
1B0
100
AcDbEntity
  8
0
100
AcDbBlockBegin
  2
*D12
 70
     1
 71
     0
 10
0.0
 20
0.0
 30
0.0
  3
*D12
  1

  0
LINE
  5
1B1
330
1B0
100
AcDbEntity
  8
1
  6
Continuous
 62
     2
100
AcDbLine
 10
7139.3457324292
 20
-10173.967406275
 30
0.0
 11
7208.3457324292
 21
-10173.967406275
 31
0.0
  0
LINE
  5
1B2
330
1B0
100
AcDbEntity
  8
1
  6
Continuous
 62
     2
100
AcDbLine
 10
7208.3457324292
 20
-10162.467406275
 30
0.0
 11
7208.3457324292
 21
-10174.767406275
 31
0.0
  0
LINE
  5
1B3
330
1B0
100
AcDbEntity
  8
1
  6
Continuous
 62
     2
100
AcDbLine
 10
7139.3457324292
 20
-10096.1310772727
 30
0.0
 11
7139.3457324292
 21
-10174.767406275
 31
0.0
  0
SOLID
  5
1B4
330
1B0
100
AcDbEntity
  8
1
 62
     2
100
AcDbTrace
 10
7205.8457324292
 20
-10174.29653751897
 30
0.0
 11
7205.8457324292
 21
-10173.63827503103
 31
0.0
 12
7208.3457324292
 22
-10173.967406275
 32
0.0
 13
7208.3457324292
 23
-10173.967406275
 33
0.0
  0
SOLID
  5
1B5
330
1B0
100
AcDbEntity
  8
1
 62
     2
100
AcDbTrace
 10
7141.8457324292
 20
-10173.63827503103
 30
0.0
 11
7141.8457324292
 21
-10174.29653751897
 31
0.0
 12
7139.3457324292
 22
-10173.967406275
 32
0.0
 13
7139.3457324292
 23
-10173.967406275
 33
0.0
  0
MTEXT
  5
1B6
330
1B0
100
AcDbEntity
  8
1
 62
     2
100
AcDbMText
 10
7166.957736065345
 20
-10172.96742893519
 30
0.0
 40
3.0
 41
0.0
 71
     7
 72
     1
  1
\C2;(\C2;69\C2;)
  7
CONVERTER_12
 11
0.999999999988248
 21
4.848136811095759E-6
 31
0.0
 73
     1
 44
0.60024009603842
  0
ENDBLK
  5
1B8
330
1B0
100
AcDbEntity
  8
0
100
AcDbBlockEnd
  0
BLOCK
  5
1C2
330
1BB
100
AcDbEntity
  8
0
100
AcDbBlockBegin
  2
*D13
 70
     1
 71
     0
 10
0.0
 20
0.0
 30
0.0
  3
*D13
  1

  0
LINE
  5
1BC
330
1BB
100
AcDbEntity
  8
1
  6
Continuous
 62
     2
100
AcDbLine
 10
7127.3457324292
 20
-10149.64904248786
 30
0.0
 11
7127.3457324292
 21
-10041.61311205755
 31
0.0
  0
LINE
  5
1BD
330
1BB
100
AcDbEntity
  8
1
  6
Continuous
 62
     2
100
AcDbLine
 10
7204.845732428905
 20
-10041.61311205755
 30
0.0
 11
7126.5457324292
 21
-10041.61311205755
 31
0.0
  0
LINE
  5
1BE
330
1BB
100
AcDbEntity
  8
1
  6
Continuous
 62
     2
100
AcDbLine
 10
7204.845732428905
 20
-10149.64904248786
 30
0.0
 11
7126.5457324292
 21
-10149.64904248786
 31
0.0
  0
SOLID
  5
1BF
330
1BB
100
AcDbEntity
  8
1
 62
     2
100
AcDbTrace
 10
7127.674863673169
 20
-10044.11311205755
 30
0.0
 11
7127.016601185232
 21
-10044.11311205755
 31
0.0
 12
7127.3457324292
 22
-10041.61311205755
 32
0.0
 13
7127.3457324292
 23
-10041.61311205755
 33
0.0
  0
SOLID
  5
1C0
330
1BB
100
AcDbEntity
  8
1
 62
     2
100
AcDbTrace
 10
7127.016601185232
 20
-10147.14904248786
 30
0.0
 11
7127.674863673169
 21
-10147.14904248786
 31
0.0
 12
7127.3457324292
 22
-10149.64904248786
 32
0.0
 13
7127.3457324292
 23
-10149.64904248786
 33
0.0
  0
MTEXT
  5
1C1
330
1BB
100
AcDbEntity
  8
1
 62
     2
100
AcDbMText
 10
7126.3457324292
 20
-10100.8856372727
 30
0.0
 40
3.0
 41
0.0
 71
     7
 72
     1
  1
(Ó108
  7
CONVERTER_11
 11
0.0
 21
1.0
 31
0.0
 73
     1
 44
0.60024009603842
  0
ENDBLK
  5
1C3
330
1BB
100
AcDbEntity
  8
0
100
AcDbBlockEnd
  0
BLOCK
  5
1CD
330
1C6
100
AcDbEntity
  8
0
100
AcDbBlockBegin
  2
*D14
 70
     1
 71
     0
 10
0.0
 20
0.0
 30
0.0
  3
*D14
  1

  0
LINE
  5
1C7
330
1C6
100
AcDbEntity
  8
1
  6
Continuous
 62
     2
100
AcDbLine
 10
7205.345732429201
 20
-10167.967406275
 30
0.0
 11
7139.345732429201
 21
-10167.967406275
 31
0.0
  0
LINE
  5
1C8
330
1C6
100
AcDbEntity
  8
1
  6
Continuous
 62
     2
100
AcDbLine
 10
7139.345732429201
 20
-10096.1310772727
 30
0.0
 11
7139.345732429201
 21
-10168.767406275
 31
0.0
  0
LINE
  5
1C9
330
1C6
100
AcDbEntity
  8
1
  6
Continuous
 62
     2
100
AcDbLine
 10
7205.345732429201
 20
-10161.3099559274
 30
0.0
 11
7205.345732429201
 21
-10168.767406275
 31
0.0
  0
SOLID
  5
1CA
330
1C6
100
AcDbEntity
  8
1
 62
     2
100
AcDbTrace
 10
7141.845732429201
 20
-10167.63827503103
 30
0.0
 11
7141.845732429201
 21
-10168.29653751897
 31
0.0
 12
7139.345732429201
 22
-10167.967406275
 32
0.0
 13
7139.345732429201
 23
-10167.967406275
 33
0.0
  0
SOLID
  5
1CB
330
1C6
100
AcDbEntity
  8
1
 62
     2
100
AcDbTrace
 10
7202.845732429201
 20
-10168.29653751897
 30
0.0
 11
7202.845732429201
 21
-10167.63827503103
 31
0.0
 12
7205.345732429201
 22
-10167.967406275
 32
0.0
 13
7205.345732429201
 23
-10167.967406275
 33
0.0
  0
MTEXT
  5
1CC
330
1C6
100
AcDbEntity
  8
1
 62
     2
100
AcDbMText
 10
7173.861433442918
 20
-10166.96741056851
 30
0.0
 40
3.0
 41
0.0
 71
     7
 72
     1
  1
66
  7
CONVERTER_12
 11
0.999999999988248
 21
4.848136811095759E-6
 31
0.0
 73
     1
 44
0.60024009603842
  0
ENDBLK
  5
1CE
330
1C6
100
AcDbEntity
  8
0
100
AcDbBlockEnd
  0
BLOCK
  5
1D8
330
1D1
100
AcDbEntity
  8
0
100
AcDbBlockBegin
  2
*D15
 70
     1
 71
     0
 10
0.0
 20
0.0
 30
0.0
  3
*D15
  1

  0
LINE
  5
1D2
330
1D1
100
AcDbEntity
  8
1
  6
Continuous
 62
     2
100
AcDbLine
 10
7200.345732429201
 20
-10167.967406275
 30
0.0
 11
7215.98307225457
 21
-10167.967406275
 31
0.0
  0
LINE
  5
1D3
330
1D1
100
AcDbEntity
  8
1
  6
Continuous
 62
     2
100
AcDbLine
 10
7208.345732429201
 20
-10162.467406275
 30
0.0
 11
7208.345732429201
 21
-10168.767406275
 31
0.0
  0
LINE
  5
1D4
330
1D1
100
AcDbEntity
  8
1
  6
Continuous
 62
     2
100
AcDbLine
 10
7205.345732429201
 20
-10161.3099559274
 30
0.0
 11
7205.345732429201
 21
-10168.767406275
 31
0.0
  0
SOLID
  5
1D5
330
1D1
100
AcDbEntity
  8
1
 62
     2
100
AcDbTrace
 10
7210.845732429201
 20
-10167.63827503103
 30
0.0
 11
7210.845732429201
 21
-10168.29653751897
 31
0.0
 12
7208.345732429201
 22
-10167.967406275
 32
0.0
 13
7208.345732429201
 23
-10167.967406275
 33
0.0
  0
SOLID
  5
1D6
330
1D1
100
AcDbEntity
  8
1
 62
     2
100
AcDbTrace
 10
7202.845732429201
 20
-10168.29653751897
 30
0.0
 11
7202.845732429201
 21
-10167.63827503103
 31
0.0
 12
7205.345732429201
 22
-10167.967406275
 32
0.0
 13
7205.345732429201
 23
-10167.967406275
 33
0.0
  0
MTEXT
  5
1D7
330
1D1
100
AcDbEntity
  8
1
 62
     2
100
AcDbMText
 10
7214.211872254576
 20
-10166.96740842175
 30
0.0
 40
3.0
 41
0.0
 71
     7
 72
     1
  1
3
  7
CONVERTER_12
 11
0.999999999988248
 21
4.848136811095759E-6
 31
0.0
 73
     1
 44
0.60024009603842
  0
ENDBLK
  5
1D9
330
1D1
100
AcDbEntity
  8
0
100
AcDbBlockEnd
  0
BLOCK
  5
1E3
330
1DC
100
AcDbEntity
  8
0
100
AcDbBlockBegin
  2
*D16
 70
     1
 71
     0
 10
0.0
 20
0.0
 30
0.0
  3
*D16
  1

  0
LINE
  5
1DD
330
1DC
100
AcDbEntity
  8
1
  6
Continuous
 62
     2
100
AcDbLine
 10
7226.3457324292
 20
-10028.63107727275
 30
0.0
 11
7226.3457324292
 21
-10161.96761573425
 31
0.0
  0
LINE
  5
1DE
330
1DC
100
AcDbEntity
  8
1
  6
Continuous
 62
     2
100
AcDbLine
 10
7208.8457324292
 20
-10161.96761573425
 30
0.0
 11
7227.145732429201
 21
-10161.96761573425
 31
0.0
  0
LINE
  5
1DF
330
1DC
100
AcDbEntity
  8
1
  6
Continuous
 62
     2
100
AcDbLine
 10
7208.8457324292
 20
-10028.63107727275
 30
0.0
 11
7227.145732429201
 21
-10028.63107727275
 31
0.0
  0
SOLID
  5
1E0
330
1DC
100
AcDbEntity
  8
1
 62
     2
100
AcDbTrace
 10
7226.016601185232
 20
-10159.46761573425
 30
0.0
 11
7226.674863673169
 21
-10159.46761573425
 31
0.0
 12
7226.3457324292
 22
-10161.96761573425
 32
0.0
 13
7226.3457324292
 23
-10161.96761573425
 33
0.0
  0
SOLID
  5
1E1
330
1DC
100
AcDbEntity
  8
1
 62
     2
100
AcDbTrace
 10
7226.674863673169
 20
-10031.13107727275
 30
0.0
 11
7226.016601185232
 21
-10031.13107727275
 31
0.0
 12
7226.3457324292
 22
-10028.63107727275
 32
0.0
 13
7226.3457324292
 23
-10028.63107727275
 33
0.0
  0
MTEXT
  5
1E2
330
1DC
100
AcDbEntity
  8
1
 62
     2
100
AcDbMText
 10
7225.3457324292
 20
-10101.4296665035
 30
0.0
 40
3.0
 41
0.0
 71
     7
 72
     1
  1
Ó133.4
  7
CONVERTER_11
 11
0.0
 21
1.0
 31
0.0
 73
     1
 44
0.60024009603842
  0
ENDBLK
  5
1E4
330
1DC
100
AcDbEntity
  8
0
100
AcDbBlockEnd
  0
ENDSEC
  0
SECTION
  2
ENTITIES
  0
INSERT
  5
5E
330
1F
100
AcDbEntity
  8
0
100
AcDbBlockReference
  2
dome-cover__2006_06_28_15_16_36
 10
7482.04687188818
 20
-8221.13818645029
 30
0.0
  0
ENDSEC
  0
SECTION
  2
OBJECTS
  0
DICTIONARY
  5
C
330
0
100
AcDbDictionary
281
     1
  3
ACAD_GROUP
350
D
  3
ACAD_LAYOUT
350
1A
  3
ACAD_MLINESTYLE
350
17
  3
ACAD_PLOTSETTINGS
350
19
  3
ACAD_PLOTSTYLENAME
350
E
  0
DICTIONARY
  5
D
102
{ACAD_REACTORS
330
C
102
}
330
C
100
AcDbDictionary
281
     1
  0
DICTIONARY
  5
1A
102
{ACAD_REACTORS
330
C
102
}
330
C
100
AcDbDictionary
281
     1
  3
Layout1
350
1E
  3
Layout2
350
26
  3
Model
350
22
  0
DICTIONARY
  5
17
102
{ACAD_REACTORS
330
C
102
}
330
C
100
AcDbDictionary
281
     1
  3
Standard
350
18
  0
DICTIONARY
  5
19
102
{ACAD_REACTORS
330
C
102
}
330
C
100
AcDbDictionary
281
     1
  0
ACDBDICTIONARYWDFLT
  5
E
102
{ACAD_REACTORS
330
C
102
}
330
C
100
AcDbDictionary
281
     1
  3
Normal
350
F
100
AcDbDictionaryWithDefault
340
F
  0
LAYOUT
  5
1E
102
{ACAD_REACTORS
330
1A
102
}
330
1A
100
AcDbPlotSettings
  1

  2

  4

  6

 40
0.0
 41
0.0
 42
0.0
 43
0.0
 44
0.0
 45
0.0
 46
0.0
 47
0.0
 48
0.0
 49
0.0
140
0.0
141
0.0
142
1.0
143
1.0
 70
   688
 72
     0
 73
     0
 74
     5
  7

 75
    16
147
1.0
148
0.0
149
0.0
100
AcDbLayout
  1
Layout1
 70
     1
 71
     1
 10
0.0
 20
0.0
 11
0.0
 21
0.0
 12
0.0
 22
0.0
 32
0.0
 14
0.0
 24
0.0
 34
0.0
 15
0.0
 25
0.0
 35
0.0
146
0.0
 13
0.0
 23
0.0
 33
0.0
 16
1.0
 26
0.0
 36
0.0
 17
0.0
 27
1.0
 37
0.0
 76
     0
330
1B
  0
LAYOUT
  5
26
102
{ACAD_REACTORS
330
1A
102
}
330
1A
100
AcDbPlotSettings
  1

  2

  4

  6

 40
0.0
 41
0.0
 42
0.0
 43
0.0
 44
0.0
 45
0.0
 46
0.0
 47
0.0
 48
0.0
 49
0.0
140
0.0
141
0.0
142
1.0
143
1.0
 70
   688
 72
     0
 73
     0
 74
     5
  7

 75
    16
147
1.0
148
0.0
149
0.0
100
AcDbLayout
  1
Layout2
 70
     1
 71
     2
 10
0.0
 20
0.0
 11
0.0
 21
0.0
 12
0.0
 22
0.0
 32
0.0
 14
0.0
 24
0.0
 34
0.0
 15
0.0
 25
0.0
 35
0.0
146
0.0
 13
0.0
 23
0.0
 33
0.0
 16
1.0
 26
0.0
 36
0.0
 17
0.0
 27
1.0
 37
0.0
 76
     0
330
23
  0
LAYOUT
  5
22
102
{ACAD_REACTORS
330
1A
102
}
330
1A
100
AcDbPlotSettings
  1

  2

  4

  6

 40
0.0
 41
0.0
 42
0.0
 43
0.0
 44
0.0
 45
0.0
 46
0.0
 47
0.0
 48
0.0
 49
0.0
140
0.0
141
0.0
142
1.0
143
1.0
 70
  1712
 72
     0
 73
     0
 74
     0
  7

 75
     0
147
1.0
148
0.0
149
0.0
100
AcDbLayout
  1
Model
 70
     1
 71
     0
 10
0.0
 20
0.0
 11
0.0
 21
0.0
 12
0.0
 22
0.0
 32
0.0
 14
6917.44130524216
 24
-10188.9755347542
 34
0.0
 15
7273.78097882745
 25
-9988.64954805067
 35
0.0
146
0.0
 13
0.0
 23
0.0
 33
0.0
 16
1.0
 26
0.0
 36
0.0
 17
0.0
 27
1.0
 37
0.0
 76
     0
330
1F
  0
MLINESTYLE
  5
18
102
{ACAD_REACTORS
330
17
102
}
330
17
100
AcDbMlineStyle
  2
Standard
 70
     0
  3

 62
   256
 51
90.0
 52
90.0
 71
     2
 49
0.5
 62
   256
  6
BYLAYER
 49
-0.5
 62
   256
  6
BYLAYER
  0
ACDBPLACEHOLDER
  5
F
102
{ACAD_REACTORS
330
E
102
}
330
E
  0
ENDSEC
  0
EOF
