  0
SECTION
  2
HEADER
  9
$ACADVER
  1
AC1015
  9
$ACADMAINTVER
 70
     6
  9
$DWGCODEPAGE
  3
ANSI_1252
  9
$INSBASE
 10
0.0
 20
0.0
 30
0.0
  9
$EXTMIN
 10
37.00474235637446
 20
675.505486760829
 30
0.0
  9
$EXTMAX
 10
372.758797488543
 20
904.6619960309824
 30
0.0
  9
$LIMMIN
 10
0.0
 20
0.0
  9
$LIMMAX
 10
12.0
 20
9.0
  9
$ORTHOMODE
 70
     0
  9
$REGENMODE
 70
     1
  9
$FILLMODE
 70
     1
  9
$QTEXTMODE
 70
     0
  9
$MIRRTEXT
 70
     1
  9
$LTSCALE
 40
1.0
  9
$ATTMODE
 70
     1
  9
$TEXTSIZE
 40
0.2
  9
$TRACEWID
 40
0.05
  9
$TEXTSTYLE
  7
Standard
  9
$CLAYER
  8
0
  9
$CELTYPE
  6
ByLayer
  9
$CECOLOR
 62
   256
  9
$CELTSCALE
 40
1.0
  9
$DISPSILH
 70
     0
  9
$DIMSCALE
 40
1.0
  9
$DIMASZ
 40
0.18
  9
$DIMEXO
 40
0.0625
  9
$DIMDLI
 40
0.38
  9
$DIMRND
 40
0.0
  9
$DIMDLE
 40
0.0
  9
$DIMEXE
 40
0.18
  9
$DIMTP
 40
0.0
  9
$DIMTM
 40
0.0
  9
$DIMTXT
 40
0.18
  9
$DIMCEN
 40
0.09
  9
$DIMTSZ
 40
0.0
  9
$DIMTOL
 70
     0
  9
$DIMLIM
 70
     0
  9
$DIMTIH
 70
     1
  9
$DIMTOH
 70
     1
  9
$DIMSE1
 70
     0
  9
$DIMSE2
 70
     0
  9
$DIMTAD
 70
     0
  9
$DIMZIN
 70
     0
  9
$DIMBLK
  1

  9
$DIMASO
 70
     1
  9
$DIMSHO
 70
     1
  9
$DIMPOST
  1

  9
$DIMAPOST
  1

  9
$DIMALT
 70
     0
  9
$DIMALTD
 70
     2
  9
$DIMALTF
 40
25.4
  9
$DIMLFAC
 40
1.0
  9
$DIMTOFL
 70
     0
  9
$DIMTVP
 40
0.0
  9
$DIMTIX
 70
     0
  9
$DIMSOXD
 70
     0
  9
$DIMSAH
 70
     0
  9
$DIMBLK1
  1

  9
$DIMBLK2
  1

  9
$DIMSTYLE
  2
Standard
  9
$DIMCLRD
 70
     0
  9
$DIMCLRE
 70
     0
  9
$DIMCLRT
 70
     0
  9
$DIMTFAC
 40
1.0
  9
$DIMGAP
 40
0.09
  9
$DIMJUST
 70
     0
  9
$DIMSD1
 70
     0
  9
$DIMSD2
 70
     0
  9
$DIMTOLJ
 70
     1
  9
$DIMTZIN
 70
     0
  9
$DIMALTZ
 70
     0
  9
$DIMALTTZ
 70
     0
  9
$DIMUPT
 70
     0
  9
$DIMDEC
 70
     4
  9
$DIMTDEC
 70
     4
  9
$DIMALTU
 70
     2
  9
$DIMALTTD
 70
     2
  9
$DIMTXSTY
  7
Standard
  9
$DIMAUNIT
 70
     0
  9
$DIMADEC
 70
     0
  9
$DIMALTRND
 40
0.0
  9
$DIMAZIN
 70
     0
  9
$DIMDSEP
 70
    46
  9
$DIMATFIT
 70
     3
  9
$DIMFRAC
 70
     0
  9
$DIMLDRBLK
  1

  9
$DIMLUNIT
 70
     2
  9
$DIMLWD
 70
    -2
  9
$DIMLWE
 70
    -2
  9
$DIMTMOVE
 70
     0
  9
$LUNITS
 70
     2
  9
$LUPREC
 70
     4
  9
$SKETCHINC
 40
0.1
  9
$FILLETRAD
 40
0.5
  9
$AUNITS
 70
     0
  9
$AUPREC
 70
     0
  9
$MENU
  1
.
  9
$ELEVATION
 40
0.0
  9
$PELEVATION
 40
0.0
  9
$THICKNESS
 40
0.0
  9
$LIMCHECK
 70
     0
  9
$CHAMFERA
 40
0.5
  9
$CHAMFERB
 40
0.5
  9
$CHAMFERC
 40
1.0
  9
$CHAMFERD
 40
0.0
  9
$SKPOLY
 70
     0
  9
$TDCREATE
 40
2456267.716313403
  9
$TDUCREATE
 40
2456267.341313403
  9
$TDUPDATE
 40
2456267.716313414
  9
$TDUUPDATE
 40
2456267.341313414
  9
$TDINDWG
 40
0.0000000116
  9
$TDUSRTIMER
 40
0.0000000116
  9
$USRTIMER
 70
     1
  9
$ANGBASE
 50
0.0
  9
$ANGDIR
 70
     0
  9
$PDMODE
 70
     0
  9
$PDSIZE
 40
0.0
  9
$PLINEWID
 40
0.0
  9
$SPLFRAME
 70
     0
  9
$SPLINETYPE
 70
     6
  9
$SPLINESEGS
 70
     8
  9
$HANDSEED
  5
155
  9
$SURFTAB1
 70
     6
  9
$SURFTAB2
 70
     6
  9
$SURFTYPE
 70
     6
  9
$SURFU
 70
     6
  9
$SURFV
 70
     6
  9
$UCSBASE
  2

  9
$UCSNAME
  2

  9
$UCSORG
 10
0.0
 20
0.0
 30
0.0
  9
$UCSXDIR
 10
1.0
 20
0.0
 30
0.0
  9
$UCSYDIR
 10
0.0
 20
1.0
 30
0.0
  9
$UCSORTHOREF
  2

  9
$UCSORTHOVIEW
 70
     0
  9
$UCSORGTOP
 10
0.0
 20
0.0
 30
0.0
  9
$UCSORGBOTTOM
 10
0.0
 20
0.0
 30
0.0
  9
$UCSORGLEFT
 10
0.0
 20
0.0
 30
0.0
  9
$UCSORGRIGHT
 10
0.0
 20
0.0
 30
0.0
  9
$UCSORGFRONT
 10
0.0
 20
0.0
 30
0.0
  9
$UCSORGBACK
 10
0.0
 20
0.0
 30
0.0
  9
$PUCSBASE
  2

  9
$PUCSNAME
  2

  9
$PUCSORG
 10
0.0
 20
0.0
 30
0.0
  9
$PUCSXDIR
 10
1.0
 20
0.0
 30
0.0
  9
$PUCSYDIR
 10
0.0
 20
1.0
 30
0.0
  9
$PUCSORTHOREF
  2

  9
$PUCSORTHOVIEW
 70
     0
  9
$PUCSORGTOP
 10
0.0
 20
0.0
 30
0.0
  9
$PUCSORGBOTTOM
 10
0.0
 20
0.0
 30
0.0
  9
$PUCSORGLEFT
 10
0.0
 20
0.0
 30
0.0
  9
$PUCSORGRIGHT
 10
0.0
 20
0.0
 30
0.0
  9
$PUCSORGFRONT
 10
0.0
 20
0.0
 30
0.0
  9
$PUCSORGBACK
 10
0.0
 20
0.0
 30
0.0
  9
$USERI1
 70
     0
  9
$USERI2
 70
     0
  9
$USERI3
 70
     0
  9
$USERI4
 70
     0
  9
$USERI5
 70
     0
  9
$USERR1
 40
14.5
  9
$USERR2
 40
0.0
  9
$USERR3
 40
0.0
  9
$USERR4
 40
0.0
  9
$USERR5
 40
0.0
  9
$WORLDVIEW
 70
     1
  9
$SHADEDGE
 70
     3
  9
$SHADEDIF
 70
    70
  9
$TILEMODE
 70
     1
  9
$MAXACTVP
 70
    64
  9
$PINSBASE
 10
0.0
 20
0.0
 30
0.0
  9
$PLIMCHECK
 70
     0
  9
$PEXTMIN
 10
1.00000000000000E+20
 20
1.00000000000000E+20
 30
1.00000000000000E+20
  9
$PEXTMAX
 10
-1.00000000000000E+20
 20
-1.00000000000000E+20
 30
-1.00000000000000E+20
  9
$PLIMMIN
 10
0.0
 20
0.0
  9
$PLIMMAX
 10
12.0
 20
9.0
  9
$UNITMODE
 70
     0
  9
$VISRETAIN
 70
     1
  9
$PLINEGEN
 70
     0
  9
$PSLTSCALE
 70
     1
  9
$TREEDEPTH
 70
  3020
  9
$CMLSTYLE
  2
Standard
  9
$CMLJUST
 70
     0
  9
$CMLSCALE
 40
1.0
  9
$PROXYGRAPHICS
 70
     1
  9
$MEASUREMENT
 70
     1
  9
$CELWEIGHT
370
    -1
  9
$ENDCAPS
280
     0
  9
$JOINSTYLE
280
     0
  9
$LWDISPLAY
290
     0
  9
$INSUNITS
 70
     1
  9
$HYPERLINKBASE
  1

  9
$STYLESHEET
  1

  9
$XEDIT
290
     1
  9
$CEPSNTYPE
380
     0
  9
$PSTYLEMODE
290
     1
  9
$FINGERPRINTGUID
  2
{562481D0-B22B-45F6-B9A5-337AEBA4B1B8}
  9
$VERSIONGUID
  2
{FAEB1C32-E019-11D5-929B-00C0DF256EC4}
  9
$EXTNAMES
290
     1
  9
$PSVPSCALE
 40
0.0
  9
$OLESTARTUP
290
     0
  0
ENDSEC
  0
SECTION
  2
CLASSES
  0
CLASS
  1
ACDBDICTIONARYWDFLT
  2
AcDbDictionaryWithDefault
  3
ObjectDBX Classes
 90
        0
280
     0
281
     0
  0
CLASS
  1

  2
exOdDbCircle
  3

 90
        0
280
     0
281
     1
  0
CLASS
  1

  2
exOdDbSpline
  3

 90
        0
280
     0
281
     1
  0
CLASS
  1
ACDBPLACEHOLDER
  2
AcDbPlaceHolder
  3
ObjectDBX Classes
 90
        0
280
     0
281
     0
  0
CLASS
  1
LAYOUT
  2
AcDbLayout
  3
ObjectDBX Classes
 90
        0
280
     0
281
     0
  0
ENDSEC
  0
SECTION
  2
TABLES
  0
TABLE
  2
VPORT
  5
8
330
0
100
AcDbSymbolTable
 70
     1
  0
VPORT
  5
29
330
8
100
AcDbSymbolTableRecord
100
AcDbViewportTableRecord
  2
*Active
 70
     0
 10
0.0
 20
0.0
 11
1.0
 21
1.0
 12
204.8817699224587
 22
790.0837413959057
 13
0.0
 23
0.0
 14
0.5
 24
0.5
 15
0.5
 25
0.5
 16
0.0
 26
0.0
 36
1.0
 17
0.0
 27
0.0
 37
0.0
 40
252.0721601971689
 41
1.60267857142857
 42
50.0
 43
0.0
 44
0.0
 50
0.0
 51
0.0
 71
     0
 72
   100
 73
     1
 74
     3
 75
     0
 76
     0
 77
     0
 78
     0
281
     0
 65
     1
110
0.0
120
0.0
130
0.0
111
1.0
121
0.0
131
0.0
112
0.0
122
1.0
132
0.0
 79
     0
146
0.0
  0
ENDTAB
  0
TABLE
  2
LTYPE
  5
5
330
0
100
AcDbSymbolTable
 70
     8
  0
LTYPE
  5
14
330
5
100
AcDbSymbolTableRecord
100
AcDbLinetypeTableRecord
  2
ByBlock
 70
     0
  3

 72
    65
 73
     0
 40
0.0
  0
LTYPE
  5
15
330
5
100
AcDbSymbolTableRecord
100
AcDbLinetypeTableRecord
  2
ByLayer
 70
     0
  3

 72
    65
 73
     0
 40
0.0
  0
LTYPE
  5
16
330
5
100
AcDbSymbolTableRecord
100
AcDbLinetypeTableRecord
  2
Continuous
 70
     0
  3
Solid line
 72
    65
 73
     0
 40
0.0
  0
LTYPE
  5
2A
330
5
100
AcDbSymbolTableRecord
100
AcDbLinetypeTableRecord
  2
DASHED
 70
     0
  3
Dashed
 72
    65
 73
     2
 40
15.0
 49
7.0
 74
     0
 49
-8.0
 74
     0
  0
LTYPE
  5
2B
330
5
100
AcDbSymbolTableRecord
100
AcDbLinetypeTableRecord
  2
DOTTED
 70
     0
  3
Dotted
 72
    65
 73
     2
 40
1.0
 49
0.0
 74
     0
 49
-1.0
 74
     0
  0
LTYPE
  5
2C
330
5
100
AcDbSymbolTableRecord
100
AcDbLinetypeTableRecord
  2
DOT_CENTER
 70
     0
  3
Dot_Center
 72
    65
 73
     4
 40
14.0
 49
12.0
 74
     0
 49
-1.0
 74
     0
 49
0.0
 74
     0
 49
-1.0
 74
     0
  0
LTYPE
  5
2D
330
5
100
AcDbSymbolTableRecord
100
AcDbLinetypeTableRecord
  2
LONG_DASHED
 70
     0
  3
Long_Dashed
 72
    65
 73
     2
 40
15.0
 49
10.0
 74
     0
 49
-5.0
 74
     0
  0
LTYPE
  5
2E
330
5
100
AcDbSymbolTableRecord
100
AcDbLinetypeTableRecord
  2
DASH_CENTER
 70
     0
  3
Dash_Center
 72
    65
 73
     4
 40
14.0
 49
11.0
 74
     0
 49
-1.0
 74
     0
 49
1.0
 74
     0
 49
-1.0
 74
     0
  0
LTYPE
  5
2F
330
5
100
AcDbSymbolTableRecord
100
AcDbLinetypeTableRecord
  2
PHANTOM
 70
     0
  3
Phantom
 72
    65
 73
     6
 40
13.0
 49
10.0
 74
     0
 49
-1.0
 74
     0
 49
0.0
 74
     0
 49
-1.0
 74
     0
 49
0.0
 74
     0
 49
-1.0
 74
     0
  0
LTYPE
  5
30
330
5
100
AcDbSymbolTableRecord
100
AcDbLinetypeTableRecord
  2
CENTER_DASH_DASH
 70
     0
  3
Center_Dash_Dash
 72
    65
 73
     6
 40
14.0
 49
9.0
 74
     0
 49
-1.0
 74
     0
 49
1.0
 74
     0
 49
-1.0
 74
     0
 49
1.0
 74
     0
 49
-1.0
 74
     0
  0
ENDTAB
  0
TABLE
  2
LAYER
  5
2
330
0
100
AcDbSymbolTable
 70
     2
  0
LAYER
  5
10
330
2
100
AcDbSymbolTableRecord
100
AcDbLayerTableRecord
  2
0
 70
     0
 62
     7
  6
Continuous
370
    -3
390
F
  0
LAYER
  5
31
330
2
100
AcDbSymbolTableRecord
100
AcDbLayerTableRecord
  2
1
 70
     0
 62
     7
  6
Continuous
370
    -3
390
F
  0
ENDTAB
  0
TABLE
  2
STYLE
  5
3
330
0
100
AcDbSymbolTable
 70
     6
  0
STYLE
  5
11
330
3
100
AcDbSymbolTableRecord
100
AcDbTextStyleTableRecord
  2
Standard
 70
     0
 40
0.0
 41
1.0
 50
0.0
 71
     0
 42
0.2
  3
txt
  4

  0
STYLE
  5
126
330
3
100
AcDbSymbolTableRecord
100
AcDbTextStyleTableRecord
  2
CONVERTER_11
 70
     0
 40
0.0
 41
0.72
 50
0.0
 71
     0
 42
0.2
  3
txt.shx
  4

  0
STYLE
  5
129
330
3
100
AcDbSymbolTableRecord
100
AcDbTextStyleTableRecord
  2
CONVERTER_12
 70
     0
 40
0.0
 41
0.9
 50
0.0
 71
     0
 42
0.2
  3
txt.shx
  4

  0
STYLE
  5
12B
330
3
100
AcDbSymbolTableRecord
100
AcDbTextStyleTableRecord
  2
CONVERTER_13
 70
     0
 40
0.0
 41
0.63
 50
0.0
 71
     0
 42
0.2
  3
txt.shx
  4

  0
STYLE
  5
12E
330
3
100
AcDbSymbolTableRecord
100
AcDbTextStyleTableRecord
  2
CONVERTER_14
 70
     0
 40
0.0
 41
0.855
 50
0.0
 71
     0
 42
0.2
  3
txt.shx
  4

  0
STYLE
  5
132
330
3
100
AcDbSymbolTableRecord
100
AcDbTextStyleTableRecord
  2
CONVERTER_15
 70
     0
 40
0.0
 41
0.675
 50
0.0
 71
     0
 42
0.2
  3
txt.shx
  4

  0
ENDTAB
  0
TABLE
  2
VIEW
  5
6
330
0
100
AcDbSymbolTable
 70
     0
  0
ENDTAB
  0
TABLE
  2
UCS
  5
7
330
0
100
AcDbSymbolTable
 70
     0
  0
ENDTAB
  0
TABLE
  2
APPID
  5
9
330
0
100
AcDbSymbolTable
 70
     1
  0
APPID
  5
12
330
9
100
AcDbSymbolTableRecord
100
AcDbRegAppTableRecord
  2
ACAD
 70
     0
  0
ENDTAB
  0
TABLE
  2
DIMSTYLE
  5
A
330
0
100
AcDbSymbolTable
 70
     3
100
AcDbDimStyleTable
  0
DIMSTYLE
105
27
330
A
100
AcDbSymbolTableRecord
100
AcDbDimStyleTableRecord
  2
Standard
 70
     0
340
11
  0
DIMSTYLE
105
13D
102
{ACAD_REACTORS
330
13E
102
}
330
A
100
AcDbSymbolTableRecord
100
AcDbDimStyleTableRecord
  2
ME10_DIM_10
 70
     0
  3
{\Fgdt;n}<>
 41
2.5
 42
0.5
 44
0.8
 73
     0
 74
     0
 77
     1
 78
    12
140
3.0
147
1.0
172
     1
173
     1
176
     2
177
     2
178
     2
271
     1
340
126
  0
DIMSTYLE
105
148
102
{ACAD_REACTORS
330
149
102
}
330
A
100
AcDbSymbolTableRecord
100
AcDbDimStyleTableRecord
  2
ME10_DIM_11
 70
     0
 41
2.5
 42
0.5
 44
0.8
 73
     0
 74
     0
 77
     1
 78
    12
140
3.0
147
1.0
172
     1
173
     1
176
     2
177
     2
178
     2
271
     1
340
126
  0
ENDTAB
  0
TABLE
  2
BLOCK_RECORD
  5
1
330
0
100
AcDbSymbolTable
 70
     4
  0
BLOCK_RECORD
  5
1F
330
1
100
AcDbSymbolTableRecord
100
AcDbBlockTableRecord
  2
*Model_Space
340
22
  0
BLOCK_RECORD
  5
1B
330
1
100
AcDbSymbolTableRecord
100
AcDbBlockTableRecord
  2
*Paper_Space
340
1E
  0
BLOCK_RECORD
  5
23
330
1
100
AcDbSymbolTableRecord
100
AcDbBlockTableRecord
  2
*Paper_Space0
340
26
  0
BLOCK_RECORD
  5
32
330
1
100
AcDbSymbolTableRecord
100
AcDbBlockTableRecord
  2
TOP
340
0
102
{BLKREFS
331
35
102
}
  0
BLOCK_RECORD
  5
134
330
1
100
AcDbSymbolTableRecord
100
AcDbBlockTableRecord
  2
*D2
340
0
  0
BLOCK_RECORD
  5
13F
330
1
100
AcDbSymbolTableRecord
100
AcDbBlockTableRecord
  2
*D3
340
0
  0
ENDTAB
  0
ENDSEC
  0
SECTION
  2
BLOCKS
  0
BLOCK
  5
20
330
1F
100
AcDbEntity
  8
0
100
AcDbBlockBegin
  2
*Model_Space
 70
     0
 71
     0
 10
0.0
 20
0.0
 30
0.0
  3
*Model_Space
  1

  0
ENDBLK
  5
21
330
1F
100
AcDbEntity
  8
0
100
AcDbBlockEnd
  0
BLOCK
  5
1C
330
1B
100
AcDbEntity
 67
     1
  8
0
100
AcDbBlockBegin
  2
*Paper_Space
 70
     0
 71
     0
 10
0.0
 20
0.0
 30
0.0
  3
*Paper_Space
  1

  0
ENDBLK
  5
1D
330
1B
100
AcDbEntity
 67
     1
  8
0
100
AcDbBlockEnd
  0
BLOCK
  5
24
330
23
100
AcDbEntity
  8
0
100
AcDbBlockBegin
  2
*Paper_Space0
 70
     0
 71
     0
 10
0.0
 20
0.0
 30
0.0
  3
*Paper_Space0
  1

  0
ENDBLK
  5
25
330
23
100
AcDbEntity
  8
0
100
AcDbBlockEnd
  0
BLOCK
  5
33
330
32
100
AcDbEntity
  8
0
100
AcDbBlockBegin
  2
TOP
 70
     0
 71
     0
 10
-637.515037590528
 20
735.555058003278
 30
0.0
  3
TOP
  1

  0
POINT
  5
36
330
32
100
AcDbEntity
  8
1
 62
     7
100
AcDbPoint
 10
122.477735988707
 20
810.454668433748
 30
0.0
  0
POINT
  5
37
330
32
100
AcDbEntity
  8
1
 62
     7
100
AcDbPoint
 10
239.731494541307
 20
810.454668433748
 30
0.0
  0
POINT
  5
38
330
32
100
AcDbEntity
  8
1
 62
     7
100
AcDbPoint
 10
165.104615265007
 20
890.661978856947
 30
0.0
  0
POINT
  5
39
330
32
100
AcDbEntity
  8
1
 62
     7
100
AcDbPoint
 10
122.477735988707
 20
810.454668433748
 30
0.0
  0
LINE
  5
3A
330
32
100
AcDbEntity
  8
1
  6
Continuous
 62
     7
100
AcDbLine
 10
48.9042372929847
 20
790.161550617042
 30
0.0
 11
37.5905287940008
 21
801.475259116028
 31
0.0
  0
LINE
  5
3B
330
32
100
AcDbEntity
  8
1
  6
Continuous
 62
     7
100
AcDbLine
 10
77.1885085404467
 20
815.617394739758
 30
0.0
 11
51.732664417729
 21
790.161550617043
 31
0.0
  0
LINE
  5
3C
330
32
100
AcDbEntity
  8
1
  6
Continuous
 62
     7
100
AcDbLine
 10
37.590528794
 20
804.303686240773
 30
0.0
 11
63.0463729167157
 21
829.759530363489
 31
0.0
  0
LINE
  5
3D
330
32
100
AcDbEntity
  8
1
  6
Continuous
 62
     7
100
AcDbLine
 10
65.8748000414619
 20
829.759530363489
 30
0.0
 11
77.1885085404466
 21
818.445821864504
 31
0.0
  0
LINE
  5
3E
330
32
100
AcDbEntity
  8
0
  6
Continuous
 62
     7
100
AcDbLine
 10
196.604615265007
 20
856.454668433748
 30
0.0
 11
196.604615265007
 21
890.161978856947
 31
0.0
  0
LINE
  5
3F
330
32
100
AcDbEntity
  8
1
  6
PHANTOM
 62
     4
100
AcDbLine
 10
181.104615265007
 20
805.207894228971
 30
0.0
 11
181.104615265007
 21
895.581524074912
 31
0.0
  0
LINE
  5
40
330
32
100
AcDbEntity
  8
0
  6
Continuous
 62
     7
100
AcDbLine
 10
197.104615265007
 20
890.661978856947
 30
0.0
 11
197.245124856807
 21
890.641829932448
 31
0.0
  0
LINE
  5
41
330
32
100
AcDbEntity
  8
0
  6
Continuous
 62
     7
100
AcDbLine
 10
165.104615265007
 20
890.661978856947
 30
0.0
 11
197.104615265007
 21
890.661978856947
 31
0.0
  0
LINE
  5
42
330
32
100
AcDbEntity
  8
0
  6
Continuous
 62
     7
100
AcDbLine
 10
165.104615265007
 20
890.661978856947
 30
0.0
 11
164.964105673307
 21
890.641829932448
 31
0.0
  0
LINE
  5
43
330
32
100
AcDbEntity
  8
0
  6
Continuous
 62
     2
100
AcDbLine
 10
165.604615265007
 20
887.090844757048
 30
0.0
 11
196.604615265007
 21
887.090844757048
 31
0.0
  0
LINE
  5
44
330
32
100
AcDbEntity
  8
0
  6
Continuous
 62
     3
100
AcDbLine
 10
196.604615265007
 20
886.767445682648
 30
0.0
 11
165.604615265007
 21
886.767445682648
 31
0.0
  0
LINE
  5
45
330
32
100
AcDbEntity
  8
0
  6
Continuous
 62
     7
100
AcDbLine
 10
196.604615265007
 20
836.454668433748
 30
0.0
 11
196.604615265007
 21
856.454668433748
 31
0.0
  0
LINE
  5
46
330
32
100
AcDbEntity
  8
0
  6
Continuous
 62
     2
100
AcDbLine
 10
196.631707702607
 20
836.454668433748
 30
0.0
 11
196.604615265007
 21
836.454668433748
 31
0.0
  0
LINE
  5
47
330
32
100
AcDbEntity
  8
0
  6
Continuous
 62
     7
100
AcDbLine
 10
165.604615265007
 20
890.161978856947
 30
0.0
 11
165.604615265007
 21
836.454668433748
 31
0.0
  0
LINE
  5
48
330
32
100
AcDbEntity
  8
0
  6
Continuous
 62
     7
100
AcDbLine
 10
239.731494541307
 20
810.454668433748
 30
0.0
 11
122.477735988707
 21
810.454668433748
 31
0.0
  0
LINE
  5
49
330
32
100
AcDbEntity
  8
1
  6
PHANTOM
 62
     4
100
AcDbLine
 10
241.962848018697
 20
837.454668433579
 30
0.0
 11
118.683454124974
 21
837.454668433579
 31
0.0
  0
LINE
  5
4A
330
32
100
AcDbEntity
  8
0
  6
Continuous
 62
     7
100
AcDbLine
 10
196.604615265007
 20
836.454668433748
 30
0.0
 11
165.604615265007
 21
836.454668433748
 31
0.0
  0
LINE
  5
4B
330
32
100
AcDbEntity
  8
0
  6
Continuous
 62
     2
100
AcDbLine
 10
165.604615265007
 20
836.454668433748
 30
0.0
 11
165.577522827607
 21
836.454668433748
 31
0.0
  0
LINE
  5
4C
330
32
100
AcDbEntity
  8
1
  6
PHANTOM
 62
     4
100
AcDbLine
 10
314.131918212286
 20
794.454668433579
 30
0.0
 11
314.131918212286
 21
880.454668433579
 31
0.0
  0
LINE
  5
4D
330
32
100
AcDbEntity
  8
0
  6
Continuous
 62
     7
100
AcDbLine
 10
372.758797488543
 20
810.454668433753
 30
0.0
 11
255.505038935928
 21
810.454668433746
 31
0.0
  0
LINE
  5
4E
330
32
100
AcDbEntity
  8
1
  6
PHANTOM
 62
     4
100
AcDbLine
 10
271.131918212286
 20
837.454668433579
 30
0.0
 11
357.131918212286
 21
837.454668433579
 31
0.0
  0
LINE
  5
4F
330
32
100
AcDbEntity
  8
0
  6
Continuous
 62
     7
100
AcDbLine
 10
259.874146676386
 20
836.454668433474
 30
0.0
 11
258.020323339086
 21
836.454668433579
 31
0.0
  0
LINE
  5
50
330
32
100
AcDbEntity
  8
0
  6
Continuous
 62
     7
100
AcDbLine
 10
314.131918212286
 20
890.661978856779
 30
0.0
 11
330.131918212286
 21
890.661978856779
 31
0.0
  0
LINE
  5
51
330
32
100
AcDbEntity
  8
0
  6
Continuous
 62
     7
100
AcDbLine
 10
330.272427803986
 20
890.641829932279
 30
0.0
 11
330.131918212286
 21
890.661978856779
 31
0.0
  0
LINE
  5
52
330
32
100
AcDbEntity
  8
0
  6
Continuous
 62
     2
100
AcDbLine
 10
197.604615264975
 20
786.558221141394
 30
0.0
 11
197.604615265
 21
748.044879677597
 31
0.0
  0
LINE
  5
53
330
32
100
AcDbEntity
  8
0
  6
Continuous
 62
     2
100
AcDbLine
 10
164.604615265038
 20
786.558221141394
 30
0.0
 11
164.604615265012
 21
745.123558058265
 31
0.0
  0
LINE
  5
54
330
32
100
AcDbEntity
  8
1
  6
PHANTOM
 62
     2
100
AcDbLine
 10
166.518789313546
 20
732.001048663888
 30
0.0
 11
165.577768284419
 21
731.662700584624
 31
0.0
  0
LINE
  5
55
330
32
100
AcDbEntity
  8
0
  6
Continuous
 62
     2
100
AcDbLine
 10
230.104615265007
 20
749.690524287481
 30
0.0
 11
230.104615265007
 21
741.74544389248
 31
0.0
  0
LINE
  5
56
330
32
100
AcDbEntity
  8
0
  6
Continuous
 62
     2
100
AcDbLine
 10
230.104615265007
 20
732.74544389248
 30
0.0
 11
230.104615265007
 21
724.80036349748
 31
0.0
  0
LINE
  5
57
330
32
100
AcDbEntity
  8
0
  6
Continuous
 62
     7
100
AcDbLine
 10
197.604615265007
 20
791.92795049368
 30
0.0
 11
197.604615264975
 21
786.558221141394
 31
0.0
  0
LINE
  5
58
330
32
100
AcDbEntity
  8
0
  6
Continuous
 62
     7
100
AcDbLine
 10
196.604615265007
 20
792.21976997468
 30
0.0
 11
196.604615265033
 21
786.881620215795
 31
0.0
  0
LINE
  5
59
330
32
100
AcDbEntity
  8
0
  6
Continuous
 62
     2
100
AcDbLine
 10
128.163751666007
 20
749.690524287481
 30
0.0
 11
132.104615265007
 21
749.690524287481
 31
0.0
  0
LINE
  5
5A
330
32
100
AcDbEntity
  8
0
  6
Continuous
 62
     2
100
AcDbLine
 10
230.104615265007
 20
749.690524287481
 30
0.0
 11
234.045478863907
 21
749.690524287481
 31
0.0
  0
LINE
  5
5B
330
32
100
AcDbEntity
  8
0
  6
Continuous
 62
     2
100
AcDbLine
 10
127.944302885207
 20
748.95837644458
 30
0.0
 11
132.104615265007
 21
748.95837644458
 31
0.0
  0
LINE
  5
5C
330
32
100
AcDbEntity
  8
0
  6
Continuous
 62
     2
100
AcDbLine
 10
230.104615265007
 20
748.95837644458
 30
0.0
 11
234.264927644707
 21
748.95837644458
 31
0.0
  0
LINE
  5
5D
330
32
100
AcDbEntity
  8
0
  6
Continuous
 62
     7
100
AcDbLine
 10
141.071434891907
 20
696.50515673828
 30
0.0
 11
143.097625776207
 21
698.53134762258
 31
0.0
  0
LINE
  5
5E
330
32
100
AcDbEntity
  8
0
  6
Continuous
 62
     7
100
AcDbLine
 10
219.818711534907
 20
775.25243338128
 30
0.0
 11
221.844902419107
 21
777.27862426548
 31
0.0
  0
LINE
  5
5F
330
32
100
AcDbEntity
  8
0
  6
Continuous
 62
     7
100
AcDbLine
 10
221.137795638007
 20
777.98573104668
 30
0.0
 11
219.111604753707
 21
775.95954016248
 31
0.0
  0
LINE
  5
60
330
32
100
AcDbEntity
  8
0
  6
Continuous
 62
     7
100
AcDbLine
 10
142.390518995007
 20
699.23845440368
 30
0.0
 11
140.364328110807
 21
697.21226351948
 31
0.0
  0
LINE
  5
61
330
32
100
AcDbEntity
  8
0
  6
Continuous
 62
     2
100
AcDbLine
 10
127.996410347967
 20
738.495443892499
 30
0.0
 11
132.904615265007
 21
738.495443892476
 31
0.0
  0
LINE
  5
62
330
32
100
AcDbEntity
  8
0
  6
Continuous
 62
     7
100
AcDbLine
 10
221.844902419107
 20
697.21226351948
 30
0.0
 11
219.818711534907
 21
699.23845440368
 31
0.0
  0
LINE
  5
63
330
32
100
AcDbEntity
  8
0
  6
Continuous
 62
     7
100
AcDbLine
 10
143.097625776207
 20
775.95954016248
 30
0.0
 11
141.071434891907
 21
777.98573104668
 31
0.0
  0
LINE
  5
64
330
32
100
AcDbEntity
  8
0
  6
Continuous
 62
     7
100
AcDbLine
 10
140.364328110807
 20
777.27862426548
 30
0.0
 11
142.390518995007
 21
775.25243338128
 31
0.0
  0
LINE
  5
65
330
32
100
AcDbEntity
  8
0
  6
Continuous
 62
     7
100
AcDbLine
 10
219.111604753707
 20
698.53134762258
 30
0.0
 11
221.137795638007
 21
696.50515673828
 31
0.0
  0
LINE
  5
66
330
32
100
AcDbEntity
  8
0
  6
Continuous
 62
     2
100
AcDbLine
 10
127.996408381773
 20
735.99544389247
 30
0.0
 11
132.904615265007
 21
735.995443892483
 31
0.0
  0
LINE
  5
67
330
32
100
AcDbEntity
  8
0
  6
Continuous
 62
     2
100
AcDbLine
 10
127.944302885207
 20
725.53251134048
 30
0.0
 11
132.104615265007
 21
725.53251134048
 31
0.0
  0
LINE
  5
68
330
32
100
AcDbEntity
  8
0
  6
Continuous
 62
     2
100
AcDbLine
 10
230.104615265007
 20
725.53251134048
 30
0.0
 11
234.264927644707
 21
725.53251134048
 31
0.0
  0
LINE
  5
69
330
32
100
AcDbEntity
  8
0
  6
Continuous
 62
     7
100
AcDbLine
 10
165.604615265007
 20
792.21976997468
 30
0.0
 11
165.60461526498
 21
786.881620215795
 31
0.0
  0
LINE
  5
6A
330
32
100
AcDbEntity
  8
0
  6
Continuous
 62
     7
100
AcDbLine
 10
164.604615265007
 20
791.92795049368
 30
0.0
 11
164.604615265038
 21
786.558221141394
 31
0.0
  0
LINE
  5
6B
330
32
100
AcDbEntity
  8
0
  6
Continuous
 62
     2
100
AcDbLine
 10
128.163751666007
 20
724.80036349748
 30
0.0
 11
132.104615265007
 21
724.80036349748
 31
0.0
  0
LINE
  5
6C
330
32
100
AcDbEntity
  8
0
  6
Continuous
 62
     2
100
AcDbLine
 10
230.104615265007
 20
724.80036349748
 30
0.0
 11
234.045478863907
 21
724.80036349748
 31
0.0
  0
LINE
  5
6D
330
32
100
AcDbEntity
  8
0
  6
Continuous
 62
     2
100
AcDbLine
 10
132.104615265007
 20
749.690524287481
 30
0.0
 11
132.104615265007
 21
745.123558058265
 31
0.0
  0
LINE
  5
6E
330
32
100
AcDbEntity
  8
0
  6
Continuous
 62
     2
100
AcDbLine
 10
132.104615265007
 20
732.74544389248
 30
0.0
 11
132.104615265007
 21
724.80036349748
 31
0.0
  0
LINE
  5
6F
330
32
100
AcDbEntity
  8
1
  6
PHANTOM
 62
     4
100
AcDbLine
 10
116.270374411448
 20
737.24544389248
 30
0.0
 11
243.942262300537
 21
737.24544389248
 31
0.0
  0
LINE
  5
70
330
32
100
AcDbEntity
  8
1
  6
PHANTOM
 62
     4
100
AcDbLine
 10
181.104615265007
 20
675.505486760829
 30
0.0
 11
181.104615265007
 21
802.014450763458
 31
0.0
  0
LINE
  5
71
330
32
100
AcDbEntity
  8
1
  6
Continuous
 62
     2
100
AcDbLine
 10
132.104615265007
 20
732.74544389248
 30
0.0
 11
132.904615265007
 21
732.74544389248
 31
0.0
  0
LINE
  5
72
330
32
100
AcDbEntity
  8
1
  6
Continuous
 62
     2
100
AcDbLine
 10
132.104615265007
 20
741.74544389248
 30
0.0
 11
132.904615265007
 21
741.74544389248
 31
0.0
  0
LINE
  5
73
330
32
100
AcDbEntity
  8
1
  6
Continuous
 62
     2
100
AcDbLine
 10
132.904615265007
 20
732.74544389248
 30
0.0
 11
132.904615265007
 21
735.995443892483
 31
0.0
  0
LINE
  5
74
330
32
100
AcDbEntity
  8
1
  6
Continuous
 62
     2
100
AcDbLine
 10
132.904615265007
 20
741.74544389248
 30
0.0
 11
132.904615265007
 21
738.495443892476
 31
0.0
  0
LINE
  5
75
330
32
100
AcDbEntity
  8
1
  6
Continuous
 62
     2
100
AcDbLine
 10
229.304615265007
 20
738.495443892476
 30
0.0
 11
229.304615265007
 21
741.74544389248
 31
0.0
  0
LINE
  5
76
330
32
100
AcDbEntity
  8
1
  6
Continuous
 62
     2
100
AcDbLine
 10
229.304615265007
 20
735.995443892483
 30
0.0
 11
229.304615265007
 21
732.74544389248
 31
0.0
  0
LINE
  5
77
330
32
100
AcDbEntity
  8
1
  6
Continuous
 62
     2
100
AcDbLine
 10
229.304615265007
 20
741.74544389248
 30
0.0
 11
230.104615265007
 21
741.74544389248
 31
0.0
  0
LINE
  5
78
330
32
100
AcDbEntity
  8
1
  6
Continuous
 62
     2
100
AcDbLine
 10
229.304615265007
 20
732.74544389248
 30
0.0
 11
230.104615265007
 21
732.74544389248
 31
0.0
  0
LINE
  5
79
330
32
100
AcDbEntity
  8
0
  6
Continuous
 62
     2
100
AcDbLine
 10
229.304615265007
 20
735.995443892483
 30
0.0
 11
234.212822148132
 21
735.995443892452
 31
0.0
  0
LINE
  5
7A
330
32
100
AcDbEntity
  8
0
  6
Continuous
 62
     2
100
AcDbLine
 10
229.304615265007
 20
738.495443892476
 30
0.0
 11
234.212820187109
 21
738.49544389249
 31
0.0
  0
LINE
  5
7B
330
32
100
AcDbEntity
  8
0
  6
Continuous
 62
     2
100
AcDbLine
 10
164.604615265012
 20
745.123558058265
 30
0.0
 11
164.604615265007
 21
737.24544389248
 31
0.0
  0
LINE
  5
7C
330
32
100
AcDbEntity
  8
0
  6
Continuous
 62
     2
100
AcDbLine
 10
196.604615265033
 20
786.881620215795
 30
0.0
 11
196.604615265007
 21
737.24544389248
 31
0.0
  0
LINE
  5
7D
330
32
100
AcDbEntity
  8
0
  6
Continuous
 62
     2
100
AcDbLine
 10
132.104615265007
 20
745.123558058265
 30
0.0
 11
132.104615265007
 21
741.74544389248
 31
0.0
  0
LINE
  5
7E
330
32
100
AcDbEntity
  8
0
  6
Continuous
 62
     2
100
AcDbLine
 10
165.60461526498
 20
786.881620215795
 30
0.0
 11
165.604615265007
 21
737.24544389248
 31
0.0
  0
LINE
  5
7F
330
32
100
AcDbEntity
  8
0
  6
Continuous
 62
     2
100
AcDbLine
 10
197.604615265
 20
748.044879677597
 30
0.0
 11
197.604615265007
 21
737.24544389248
 31
0.0
  0
LINE
  5
80
330
32
100
AcDbEntity
  8
1
  6
Continuous
 62
     7
100
AcDbLine
 10
50.2979663282651
 20
767.558023017129
 30
0.0
 11
97.2979663282651
 21
767.558023017129
 31
0.0
  0
LINE
  5
81
330
32
100
AcDbEntity
  8
1
  6
Continuous
 62
     7
100
AcDbLine
 10
47.582796944864
 20
778.94061533231
 30
0.0
 11
89.1819553633555
 21
820.539773750802
 31
0.0
  0
LINE
  5
82
330
32
100
AcDbEntity
  8
1
  6
Continuous
 62
     2
100
AcDbLine
 10
82.8453627899397
 20
814.203181177386
 30
0.0
 11
61.9898357569333
 21
835.058708210392
 31
0.0
  0
LINE
  5
83
330
32
100
AcDbEntity
  8
1
  6
Continuous
 62
     2
100
AcDbLine
 10
60.6625784038486
 20
834.971752001104
 30
0.0
 11
82.1382560087532
 21
813.496074396199
 31
0.0
  0
LINE
  5
84
102
{ACAD_REACTORS
330
150
330
150
102
}
330
32
100
AcDbEntity
  8
1
  6
Continuous
 62
     2
100
AcDbLine
 10
45.5565901355107
 20
807.366235927191
 30
0.0
 11
46.5361062954401
 21
806.582661009188
 31
0.0
  0
LINE
  5
85
102
{ACAD_REACTORS
330
14F
330
14F
102
}
330
32
100
AcDbEntity
  8
1
  6
Continuous
 62
     2
100
AcDbLine
 10
41.1154612056937
 20
802.295662387035
 30
0.0
 11
41.68228443949
 21
801.728839153238
 31
0.0
  0
LINE
  5
86
102
{ACAD_REACTORS
330
150
330
150
102
}
330
32
100
AcDbEntity
  8
1
  6
Continuous
 62
     2
100
AcDbLine
 10
45.4907854264734
 20
806.827682586445
 30
0.0
 11
45.2904255289952
 21
806.244942690174
 31
0.0
  0
LINE
  5
87
102
{ACAD_REACTORS
330
150
330
150
102
}
330
32
100
AcDbEntity
  8
1
  6
Continuous
 62
     2
100
AcDbLine
 10
45.4907854264734
 20
806.827682586445
 30
0.0
 11
45.8463684173992
 21
806.47209959552
 31
0.0
  0
LINE
  5
88
102
{ACAD_REACTORS
330
150
330
150
102
}
330
32
100
AcDbEntity
  8
1
  6
Continuous
 62
     2
100
AcDbLine
 10
46.5361062954401
 20
806.582661009188
 30
0.0
 11
46.2102185703253
 21
806.256773284073
 31
0.0
  0
LINE
  5
89
102
{ACAD_REACTORS
330
150
330
150
102
}
330
32
100
AcDbEntity
  8
1
  6
Continuous
 62
     2
100
AcDbLine
 10
46.2102185703253
 20
806.256773284073
 30
0.0
 11
45.9996435014075
 21
806.425157319327
 31
0.0
  0
LINE
  5
8A
102
{ACAD_REACTORS
330
150
330
150
102
}
330
32
100
AcDbEntity
  8
1
  6
Continuous
 62
     2
100
AcDbLine
 10
45.6278587734563
 20
805.674413487204
 30
0.0
 11
45.7213157140166
 21
805.767585353212
 31
0.0
  0
LINE
  5
8B
102
{ACAD_REACTORS
330
150
330
150
102
}
330
32
100
AcDbEntity
  8
1
  6
Continuous
 62
     2
100
AcDbLine
 10
45.0039731168774
 20
806.119177300411
 30
0.0
 11
45.3419289980162
 21
806.812811197328
 31
0.0
  0
LINE
  5
8C
102
{ACAD_REACTORS
330
150
330
150
102
}
330
32
100
AcDbEntity
  8
1
  6
Continuous
 62
     2
100
AcDbLine
 10
45.2857217988899
 20
807.032746214029
 30
0.0
 11
45.3089553748601
 21
807.009512638059
 31
0.0
  0
LINE
  5
8D
102
{ACAD_REACTORS
330
14F
330
14F
102
}
330
32
100
AcDbEntity
  8
1
  6
Continuous
 62
     2
100
AcDbLine
 10
39.71184913756
 20
802.889472678401
 30
0.0
 11
41.2773835511066
 21
801.323938264854
 31
0.0
  0
LINE
  5
8E
102
{ACAD_REACTORS
330
14D
330
14D
102
}
330
32
100
AcDbEntity
  8
1
  6
Continuous
 62
     2
100
AcDbLine
 10
46.9443330535951
 20
808.664370411165
 30
0.0
 11
46.586754540808
 21
808.306791898377
 31
0.0
  0
LINE
  5
8F
102
{ACAD_REACTORS
330
150
330
150
102
}
330
32
100
AcDbEntity
  8
1
  6
Continuous
 62
     2
100
AcDbLine
 10
44.6773727053831
 20
806.289461832677
 30
0.0
 11
44.9759407859513
 21
806.588029913246
 31
0.0
  0
LINE
  5
90
102
{ACAD_REACTORS
330
14D
330
14D
102
}
330
32
100
AcDbEntity
  8
1
  6
Continuous
 62
     2
100
AcDbLine
 10
46.3762744967397
 20
807.943987018806
 30
0.0
 11
47.2305003911598
 21
808.200601627838
 31
0.0
  0
LINE
  5
91
102
{ACAD_REACTORS
330
150
330
150
102
}
330
32
100
AcDbEntity
  8
1
  6
Continuous
 62
     2
100
AcDbLine
 10
44.6224008293142
 20
806.93624847825
 30
0.0
 11
45.02283554972
 21
807.336683198655
 31
0.0
  0
LINE
  5
92
102
{ACAD_REACTORS
330
14D
330
14D
102
}
330
32
100
AcDbEntity
  8
1
  6
Continuous
 62
     2
100
AcDbLine
 10
46.4044968773659
 20
807.044861882479
 30
0.0
 11
46.784833841872
 21
807.425198846986
 31
0.0
  0
LINE
  5
93
102
{ACAD_REACTORS
330
14E
330
14E
102
}
330
32
100
AcDbEntity
  8
1
  6
Continuous
 62
     2
100
AcDbLine
 10
42.7916045453322
 20
804.128501705304
 30
0.0
 11
42.5912446478534
 21
803.545761809032
 31
0.0
  0
LINE
  5
94
102
{ACAD_REACTORS
330
152
330
152
102
}
330
32
100
AcDbEntity
  8
1
  6
Continuous
 62
     2
100
AcDbLine
 10
48.133379009086
 20
810.447226658021
 30
0.0
 11
48.457318724763
 21
810.771166373698
 31
0.0
  0
LINE
  5
95
102
{ACAD_REACTORS
330
152
330
152
102
}
330
32
100
AcDbEntity
  8
1
  6
Continuous
 62
     2
100
AcDbLine
 10
48.133379009086
 20
810.447226658021
 30
0.0
 11
49.2670254766796
 21
809.313580190427
 31
0.0
  0
LINE
  5
96
102
{ACAD_REACTORS
330
152
330
152
102
}
330
32
100
AcDbEntity
  8
1
  6
Continuous
 62
     2
100
AcDbLine
 10
49.631445778711
 20
811.216547848436
 30
0.0
 11
50.4007194566997
 21
810.447274170447
 31
0.0
  0
LINE
  5
97
102
{ACAD_REACTORS
330
152
330
152
102
}
330
32
100
AcDbEntity
  8
1
  6
Continuous
 62
     2
100
AcDbLine
 10
50.4007194566997
 20
810.447274170447
 30
0.0
 11
50.0768272534474
 21
810.123381967195
 31
0.0
  0
LINE
  5
98
102
{ACAD_REACTORS
330
152
330
152
102
}
330
32
100
AcDbEntity
  8
1
  6
Continuous
 62
     2
100
AcDbLine
 10
49.4830169620817
 20
810.717192258561
 30
0.0
 11
50.0768272534474
 21
810.123381967195
 31
0.0
  0
LINE
  5
99
102
{ACAD_REACTORS
330
152
330
152
102
}
330
32
100
AcDbEntity
  8
1
  6
Continuous
 62
     2
100
AcDbLine
 10
48.9971549009909
 20
810.23133019747
 30
0.0
 11
49.5909651923567
 21
809.637519906104
 31
0.0
  0
LINE
  5
9A
102
{ACAD_REACTORS
330
152
330
152
102
}
330
32
100
AcDbEntity
  8
1
  6
Continuous
 62
     2
100
AcDbLine
 10
49.5909651923567
 20
809.637519906104
 30
0.0
 11
49.2670254766796
 21
809.313580190427
 31
0.0
  0
LINE
  5
9B
102
{ACAD_REACTORS
330
151
330
151
102
}
330
32
100
AcDbEntity
  8
1
  6
Continuous
 62
     2
100
AcDbLine
 10
44.3544782630627
 20
804.40103297681
 30
0.0
 11
44.0305860598107
 21
804.077140773558
 31
0.0
  0
LINE
  5
9C
102
{ACAD_REACTORS
330
151
330
151
102
}
330
32
100
AcDbEntity
  8
1
  6
Continuous
 62
     2
100
AcDbLine
 10
43.760667971697
 20
804.994843268177
 30
0.0
 11
44.3544782630627
 21
804.40103297681
 31
0.0
  0
LINE
  5
9D
102
{ACAD_REACTORS
330
151
330
151
102
}
330
32
100
AcDbEntity
  8
1
  6
Continuous
 62
     2
100
AcDbLine
 10
44.246530032787
 20
805.480705329267
 30
0.0
 11
44.8403403241526
 21
804.8868950379
 31
0.0
  0
LINE
  5
9E
102
{ACAD_REACTORS
330
151
330
151
102
}
330
32
100
AcDbEntity
  8
1
  6
Continuous
 62
     2
100
AcDbLine
 10
45.1642325274047
 20
805.210787241152
 30
0.0
 11
44.8403403241526
 21
804.8868950379
 31
0.0
  0
LINE
  5
9F
102
{ACAD_REACTORS
330
151
330
151
102
}
330
32
100
AcDbEntity
  8
1
  6
Continuous
 62
     2
100
AcDbLine
 10
44.3949588494163
 20
805.980060919141
 30
0.0
 11
45.1642325274047
 21
805.210787241152
 31
0.0
  0
LINE
  5
A0
102
{ACAD_REACTORS
330
151
330
151
102
}
330
32
100
AcDbEntity
  8
1
  6
Continuous
 62
     2
100
AcDbLine
 10
43.2208317954691
 20
805.534679444404
 30
0.0
 11
43.4312168146858
 21
805.324294425188
 31
0.0
  0
LINE
  5
A1
102
{ACAD_REACTORS
330
151
330
151
102
}
330
32
100
AcDbEntity
  8
1
  6
Continuous
 62
     2
100
AcDbLine
 10
42.8969395922168
 20
805.210787241152
 30
0.0
 11
43.2208317954691
 21
805.534679444404
 31
0.0
  0
LINE
  5
A2
102
{ACAD_REACTORS
330
14F
330
14F
102
}
330
32
100
AcDbEntity
  8
1
  6
Continuous
 62
     2
100
AcDbLine
 10
41.68228443949
 20
801.728839153238
 30
0.0
 11
41.2773835511066
 21
801.323938264854
 31
0.0
  0
LINE
  5
A3
102
{ACAD_REACTORS
330
151
330
151
102
}
330
32
100
AcDbEntity
  8
1
  6
Continuous
 62
     2
100
AcDbLine
 10
42.8969395922168
 20
805.210787241152
 30
0.0
 11
44.0305860598107
 21
804.077140773558
 31
0.0
  0
LINE
  5
A4
102
{ACAD_REACTORS
330
14F
330
14F
102
}
330
32
100
AcDbEntity
  8
1
  6
Continuous
 62
     2
100
AcDbLine
 10
41.1154612056937
 20
802.295662387035
 30
0.0
 11
41.5608426804306
 21
802.741043861772
 31
0.0
  0
LINE
  5
A5
102
{ACAD_REACTORS
330
152
330
152
102
}
330
32
100
AcDbEntity
  8
1
  6
Continuous
 62
     2
100
AcDbLine
 10
48.457318724763
 20
810.771166373698
 30
0.0
 11
48.6677037439798
 21
810.560781354482
 31
0.0
  0
LINE
  5
A6
102
{ACAD_REACTORS
330
14E
330
14E
102
}
330
32
100
AcDbEntity
  8
1
  6
Continuous
 62
     2
100
AcDbLine
 10
41.9232199481729
 20
804.237067597108
 30
0.0
 11
42.3236071561536
 21
804.637454805089
 31
0.0
  0
LINE
  5
A7
102
{ACAD_REACTORS
330
153
330
153
102
}
330
32
100
AcDbEntity
  8
1
  6
Continuous
 62
     2
100
AcDbLine
 10
49.5639781347871
 20
812.363687844815
 30
0.0
 11
49.37502121938
 21
812.552644760221
 31
0.0
  0
LINE
  5
A8
330
32
100
AcDbEntity
  8
1
  6
Continuous
 62
     2
100
AcDbLine
 10
50.7246116599518
 20
812.174778441832
 30
0.0
 11
50.9945297480652
 21
811.904860353719
 31
0.0
  0
LINE
  5
A9
330
32
100
AcDbEntity
  8
1
  6
Continuous
 62
     2
100
AcDbLine
 10
48.0523703239542
 20
809.502537105834
 30
0.0
 11
48.3222884120676
 21
809.232619017721
 31
0.0
  0
LINE
  5
AA
102
{ACAD_REACTORS
330
14E
330
14E
102
}
330
32
100
AcDbEntity
  8
1
  6
Continuous
 62
     2
100
AcDbLine
 10
42.8574092543692
 20
804.66705504605
 30
0.0
 11
43.8368779018735
 21
803.883432615621
 31
0.0
  0
LINE
  5
AB
330
32
100
AcDbEntity
  8
1
  6
Continuous
 62
     2
100
AcDbLine
 10
47.5665557752886
 20
809.016722557169
 30
0.0
 11
47.836473863402
 21
808.746804469056
 31
0.0
  0
LINE
  5
AC
330
32
100
AcDbEntity
  8
1
  6
Continuous
 62
     2
100
AcDbLine
 10
51.1334085672099
 20
812.718510636935
 30
0.0
 11
51.4059873511402
 21
812.991089420865
 31
0.0
  0
LINE
  5
AD
102
{ACAD_REACTORS
330
153
330
153
102
}
330
32
100
AcDbEntity
  8
1
  6
Continuous
 62
     2
100
AcDbLine
 10
49.2400859315352
 20
812.039795641563
 30
0.0
 11
49.0511290161289
 21
812.22875255697
 31
0.0
  0
LINE
  5
AE
102
{ACAD_REACTORS
330
154
330
154
102
}
330
32
100
AcDbEntity
  8
1
  6
Continuous
 62
     2
100
AcDbLine
 10
49.8608832804707
 20
812.066782699131
 30
0.0
 11
50.9405556329266
 21
810.987110346674
 31
0.0
  0
LINE
  5
AF
102
{ACAD_REACTORS
330
153
330
153
102
}
330
32
100
AcDbEntity
  8
1
  6
Continuous
 62
     2
100
AcDbLine
 10
49.0511290161289
 20
812.22875255697
 30
0.0
 11
49.37502121938
 21
812.552644760221
 31
0.0
  0
LINE
  5
B0
102
{ACAD_REACTORS
330
154
330
154
102
}
330
32
100
AcDbEntity
  8
1
  6
Continuous
 62
     2
100
AcDbLine
 10
50.9405556329266
 20
810.987110346674
 30
0.0
 11
50.6166634296753
 21
810.663218143423
 31
0.0
  0
LINE
  5
B1
102
{ACAD_REACTORS
330
154
330
154
102
}
330
32
100
AcDbEntity
  8
1
  6
Continuous
 62
     2
100
AcDbLine
 10
49.5369910772188
 20
811.742890495879
 30
0.0
 11
50.6166634296753
 21
810.663218143423
 31
0.0
  0
LINE
  5
B2
102
{ACAD_REACTORS
330
154
330
154
102
}
330
32
100
AcDbEntity
  8
1
  6
Continuous
 62
     2
100
AcDbLine
 10
49.5369910772188
 20
811.742890495879
 30
0.0
 11
49.8608832804707
 21
812.066782699131
 31
0.0
  0
LINE
  5
B3
102
{ACAD_REACTORS
330
153
330
153
102
}
330
32
100
AcDbEntity
  8
1
  6
Continuous
 62
     2
100
AcDbLine
 10
49.2400859315352
 20
812.039795641563
 30
0.0
 11
49.5639781347871
 21
812.363687844815
 31
0.0
  0
LINE
  5
B4
102
{ACAD_REACTORS
330
14E
330
14E
102
}
330
32
100
AcDbEntity
  8
1
  6
Continuous
 62
     2
100
AcDbLine
 10
41.9781918242411
 20
803.590280951536
 30
0.0
 11
42.2767123923846
 21
803.888801519679
 31
0.0
  0
LINE
  5
B5
330
32
100
AcDbEntity
  8
1
  6
Continuous
 62
     2
100
AcDbLine
 10
51.5383094555932
 20
812.313609748551
 30
0.0
 11
51.8108882395235
 21
812.586188532482
 31
0.0
  0
LINE
  5
B6
102
{ACAD_REACTORS
330
14E
330
14E
102
}
330
32
100
AcDbEntity
  8
1
  6
Continuous
 62
     2
100
AcDbLine
 10
43.5109901767588
 20
803.557544890506
 30
0.0
 11
43.3004626202664
 21
803.725976438186
 31
0.0
  0
LINE
  5
B7
102
{ACAD_REACTORS
330
14E
330
14E
102
}
330
32
100
AcDbEntity
  8
1
  6
Continuous
 62
     2
100
AcDbLine
 10
42.3047922357362
 20
803.41999641927
 30
0.0
 11
42.6427481168752
 21
804.113630316187
 31
0.0
  0
LINE
  5
B8
102
{ACAD_REACTORS
330
14E
330
14E
102
}
330
32
100
AcDbEntity
  8
1
  6
Continuous
 62
     2
100
AcDbLine
 10
42.5865409177487
 20
804.333565332888
 30
0.0
 11
42.609774493719
 21
804.310331756917
 31
0.0
  0
LINE
  5
B9
102
{ACAD_REACTORS
330
14E
330
14E
102
}
330
32
100
AcDbEntity
  8
1
  6
Continuous
 62
     2
100
AcDbLine
 10
43.8368779018735
 20
803.883432615621
 30
0.0
 11
43.5109901767588
 21
803.557544890506
 31
0.0
  0
LINE
  5
BA
102
{ACAD_REACTORS
330
14E
330
14E
102
}
330
32
100
AcDbEntity
  8
1
  6
Continuous
 62
     2
100
AcDbLine
 10
42.7916045453322
 20
804.128501705304
 30
0.0
 11
43.147187536258
 21
803.772918714378
 31
0.0
  0
LINE
  5
BB
102
{ACAD_REACTORS
330
14F
330
14F
102
}
330
32
100
AcDbEntity
  8
1
  6
Continuous
 62
     2
100
AcDbLine
 10
40.9265042902858
 20
802.484619302442
 30
0.0
 11
41.2234094359686
 21
802.781524448125
 31
0.0
  0
LINE
  5
BC
102
{ACAD_REACTORS
330
14F
330
14F
102
}
330
32
100
AcDbEntity
  8
1
  6
Continuous
 62
     2
100
AcDbLine
 10
39.71184913756
 20
802.889472678401
 30
0.0
 11
40.5621315006809
 21
803.739755041522
 31
0.0
  0
LINE
  5
BD
102
{ACAD_REACTORS
330
14D
330
14D
102
}
330
32
100
AcDbEntity
  8
1
  6
Continuous
 62
     2
100
AcDbLine
 10
46.9320748478677
 20
807.867206939527
 30
0.0
 11
46.2143046389012
 21
807.538943593146
 31
0.0
  0
LINE
  5
BE
102
{ACAD_REACTORS
330
14F
330
14F
102
}
330
32
100
AcDbEntity
  8
1
  6
Continuous
 62
     2
100
AcDbLine
 10
40.386668114058
 20
803.02445547867
 30
0.0
 11
40.9265042902858
 21
802.484619302442
 31
0.0
  0
LINE
  5
BF
102
{ACAD_REACTORS
330
14E
330
14E
102
}
330
32
100
AcDbEntity
  8
1
  6
Continuous
 62
     2
100
AcDbLine
 10
42.9286778923151
 20
802.975232606063
 30
0.0
 11
43.0183813512759
 21
803.064936065023
 31
0.0
  0
LINE
  5
C0
102
{ACAD_REACTORS
330
14F
330
14F
102
}
330
32
100
AcDbEntity
  8
1
  6
Continuous
 62
     2
100
AcDbLine
 10
40.386668114058
 20
803.02445547867
 30
0.0
 11
40.6835732597408
 21
803.321360624353
 31
0.0
  0
LINE
  5
C1
102
{ACAD_REACTORS
330
14C
330
14C
102
}
330
32
100
AcDbEntity
  8
1
  6
Continuous
 62
     2
100
AcDbLine
 10
205.106508902973
 20
695.802104497344
 30
0.0
 11
204.547954660148
 21
695.243550254519
 31
0.0
  0
LINE
  5
C2
102
{ACAD_REACTORS
330
14C
330
14C
102
}
330
32
100
AcDbEntity
  8
1
  6
Continuous
 62
     2
100
AcDbLine
 10
204.547954660148
 20
695.243550254519
 30
0.0
 11
206.94855212512
 21
693.401507032372
 31
0.0
  0
LINE
  5
C3
102
{ACAD_REACTORS
330
14C
330
14C
102
}
330
32
100
AcDbEntity
  8
1
  6
Continuous
 62
     2
100
AcDbLine
 10
206.94855212512
 20
693.401507032372
 30
0.0
 11
205.106508902973
 21
695.802104497344
 31
0.0
  0
ARC
  5
C4
330
32
100
AcDbEntity
  8
0
  6
Continuous
 62
     7
100
AcDbCircle
 10
197.104615265007
 20
890.161978856947
 30
0.0
 40
0.5
100
AcDbArc
 50
90.00000102742766
 51
180.0
  0
ARC
  5
C5
330
32
100
AcDbEntity
  8
0
  6
Continuous
 62
     7
100
AcDbCircle
 10
165.104615265007
 20
890.161978831948
 30
0.0
 40
0.5000000000000006
100
AcDbArc
 50
0.00000286468051
 51
89.99999998705061
  0
ARC
  5
C6
330
32
100
AcDbEntity
  8
0
  6
Continuous
 62
     7
100
AcDbCircle
 10
-275.068330921793
 20
854.694070373347
 30
0.0
 40
399.9999999999765
100
AcDbArc
 50
-6.34981789033449
 51
-2.17368644929905
  0
ARC
  5
C7
330
32
100
AcDbEntity
  8
0
  6
Continuous
 62
     7
100
AcDbCircle
 10
637.277561451907
 20
854.694070373347
 30
0.0
 40
399.9999999999998
100
AcDbArc
 50
-177.8263135506998
 51
-173.6501821096671
  0
ARC
  5
C8
330
32
100
AcDbEntity
  8
0
  6
Continuous
 62
     7
100
AcDbCircle
 10
258.020323339086
 20
835.954668433579
 30
0.0
 40
0.5
100
AcDbArc
 50
90.0
 51
177.3181503112581
  0
ARC
  5
C9
330
32
100
AcDbEntity
  8
0
  6
Continuous
 62
     7
100
AcDbCircle
 10
-142.041027974614
 20
854.694070373179
 30
0.0
 40
399.9999999999998
100
AcDbArc
 50
-6.3498178903102
 51
-2.68184968870287
  0
ARC
  5
CA
330
32
100
AcDbEntity
  8
0
  6
Continuous
 62
     7
100
AcDbCircle
 10
770.304864399086
 20
854.694070373179
 30
0.0
 40
399.9999999999997
100
AcDbArc
 50
-177.8263135507005
 51
-173.6501821096908
  0
ARC
  5
CB
330
32
100
AcDbEntity
  8
0
  6
Continuous
 62
     7
100
AcDbCircle
 10
181.104615265007
 20
737.24544389248
 30
0.0
 40
51.99999999999957
100
AcDbArc
 50
71.49981657690063
 51
72.65786478080024
  0
ARC
  5
CC
330
32
100
AcDbEntity
  8
0
  6
Continuous
 62
     7
100
AcDbCircle
 10
219.465158144307
 20
775.60598677188
 30
0.0
 40
0.50000000000953
100
AcDbArc
 50
134.9999999999954
 51
-45.0000000000023
  0
ARC
  5
CD
330
32
100
AcDbEntity
  8
0
  6
Continuous
 62
     7
100
AcDbCircle
 10
219.465158144307
 20
698.88490101318
 30
0.0
 40
0.4999999999388081
100
AcDbArc
 50
44.99999999189586
 51
-135.0000000000046
  0
ARC
  5
CE
330
32
100
AcDbEntity
  8
0
  6
Continuous
 62
     7
100
AcDbCircle
 10
142.744072385607
 20
698.88490101318
 30
0.0
 40
0.5000000000094497
100
AcDbArc
 50
-44.9999999999954
 51
135.0000000081042
  0
ARC
  5
CF
330
32
100
AcDbEntity
  8
0
  6
Continuous
 62
     7
100
AcDbCircle
 10
142.744072385607
 20
775.60598677188
 30
0.0
 40
0.5000000000095501
100
AcDbArc
 50
-134.9999999999977
 51
45.0000000000046
  0
ARC
  5
D0
330
32
100
AcDbEntity
  8
0
  6
Continuous
 62
     7
100
AcDbCircle
 10
181.104615265007
 20
737.24544389248
 30
0.0
 40
52.00000000000052
100
AcDbArc
 50
107.3421352192008
 51
108.5001834231004
  0
ARC
  5
D1
330
32
100
AcDbEntity
  8
0
  6
Continuous
 62
     2
100
AcDbCircle
 10
181.104615265007
 20
737.24544389248
 30
0.0
 40
15.5
100
AcDbArc
 50
180.0
 51
0.0
  0
ARC
  5
D2
330
32
100
AcDbEntity
  8
0
  6
Continuous
 62
     2
100
AcDbCircle
 10
181.104615265007
 20
737.24544389248
 30
0.0
 40
16.5
100
AcDbArc
 50
180.0
 51
0.0
  0
ARC
  5
D3
330
32
100
AcDbEntity
  8
0
  6
Continuous
 62
     7
100
AcDbCircle
 10
181.104615265007
 20
737.24544389248
 30
0.0
 40
57.11765513560828
100
AcDbArc
 50
106.790759838527
 51
134.4984343180878
  0
ARC
  5
D4
330
32
100
AcDbEntity
  8
0
  6
Continuous
 62
     7
100
AcDbCircle
 10
181.104615265007
 20
737.24544389248
 30
0.0
 40
57.11765513562386
100
AcDbArc
 50
74.25421273454262
 51
105.7457872654574
  0
ARC
  5
D5
330
32
100
AcDbEntity
  8
0
  6
Continuous
 62
     7
100
AcDbCircle
 10
181.104615265007
 20
737.24544389248
 30
0.0
 40
57.1176551355518
100
AcDbArc
 50
45.50156568198377
 51
73.209240161473
  0
ARC
  5
D6
330
32
100
AcDbEntity
  8
0
  6
Continuous
 62
     7
100
AcDbCircle
 10
181.104615265007
 20
737.24544389248
 30
0.0
 40
57.1176551354805
100
AcDbArc
 50
-44.49843431808659
 51
44.49843431808652
  0
ARC
  5
D7
330
32
100
AcDbEntity
  8
0
  6
Continuous
 62
     7
100
AcDbCircle
 10
181.104615265007
 20
737.24544389248
 30
0.0
 40
57.11765513559975
100
AcDbArc
 50
-84.99999999999676
 51
-45.50156568198377
  0
ARC
  5
D8
330
32
100
AcDbEntity
  8
0
  6
Continuous
 62
     7
100
AcDbCircle
 10
181.104615265007
 20
737.24544389248
 30
0.0
 40
57.11765513555174
100
AcDbArc
 50
135.5015656819838
 51
-135.5015656819837
  0
ARC
  5
D9
330
32
100
AcDbEntity
  8
0
  6
Continuous
 62
     7
100
AcDbCircle
 10
181.104615265007
 20
737.24544389248
 30
0.0
 40
57.1176551356219
100
AcDbArc
 50
-134.4984343180878
 51
-84.99999999999676
  0
ARC
  5
DA
330
32
100
AcDbEntity
  8
1
  6
Continuous
 62
     7
100
AcDbCircle
 10
181.104615265007
 20
737.24544389248
 30
0.0
 40
56.61765513559971
100
AcDbArc
 50
-84.99999999999693
 51
-45.5059952072207
  0
ARC
  5
DB
102
{ACAD_REACTORS
330
14D
330
14D
102
}
330
32
100
AcDbEntity
  8
1
  6
Continuous
 62
     2
100
AcDbCircle
 10
46.0849204245327
 20
807.853057463334
 30
0.0
 40
0.3397172329626133
100
AcDbArc
 50
148.6136143302952
 51
-67.61312634596659
  0
ARC
  5
DC
102
{ACAD_REACTORS
330
14D
330
14D
102
}
330
32
100
AcDbEntity
  8
1
  6
Continuous
 62
     2
100
AcDbCircle
 10
46.6934715009064
 20
808.218608878124
 30
0.0
 40
0.5115025542032829
100
AcDbArc
 50
60.63046355104856
 51
120.5315098262309
  0
ARC
  5
DD
330
32
100
AcDbEntity
  8
1
  6
Continuous
 62
     2
100
AcDbCircle
 10
51.2374459055458
 20
812.147780204449
 30
0.0
 40
0.3435379359602478
100
AcDbArc
 50
-134.9995644464388
 51
28.8626125651607
  0
ARC
  5
DE
102
{ACAD_REACTORS
330
14E
330
14E
102
}
330
32
100
AcDbEntity
  8
1
  6
Continuous
 62
     2
100
AcDbCircle
 10
42.6540097876041
 20
803.249901062747
 30
0.0
 40
0.3884396077169519
100
AcDbArc
 50
154.0304157284544
 51
-45.0000367107716
  0
ARC
  5
DF
102
{ACAD_REACTORS
330
14D
330
14D
102
}
330
32
100
AcDbEntity
  8
1
  6
Continuous
 62
     2
100
AcDbCircle
 10
45.9794946477285
 20
808.64426841769
 30
0.0
 40
1.851364516236317
100
AcDbArc
 50
-59.47032675989684
 51
-31.38673698189846
  0
ARC
  5
E0
102
{ACAD_REACTORS
330
14D
330
14D
102
}
330
32
100
AcDbEntity
  8
1
  6
Continuous
 62
     2
100
AcDbCircle
 10
47.2881767840583
 20
807.15294972041
 30
0.0
 40
1.731770296198919
100
AcDbArc
 50
119.5680779359749
 51
149.5731240903154
  0
ARC
  5
E1
102
{ACAD_REACTORS
330
14E
330
14E
102
}
330
32
100
AcDbEntity
  8
1
  6
Continuous
 62
     2
100
AcDbCircle
 10
42.5147783881806
 20
803.670540635914
 30
0.0
 40
0.7876375059140409
100
AcDbArc
 50
-50.25408512124681
 51
4.03595015076366
  0
ARC
  5
E2
102
{ACAD_REACTORS
330
14F
330
14F
102
}
330
32
100
AcDbEntity
  8
1
  6
Continuous
 62
     2
100
AcDbCircle
 10
40.9534913478545
 20
803.051442536239
 30
0.0
 40
0.3817218209407608
100
AcDbArc
 50
-44.99999999999849
 51
44.99999999999699
  0
ARC
  5
E3
330
32
100
AcDbEntity
  8
1
  6
Continuous
 62
     2
100
AcDbCircle
 10
50.9675258435791
 20
812.417687064645
 30
0.0
 40
0.3435286009119278
100
AcDbArc
 50
61.12640102807817
 51
-135.0006558176964
  0
ARC
  5
E4
102
{ACAD_REACTORS
330
14E
330
14E
102
}
330
32
100
AcDbEntity
  8
1
  6
Continuous
 62
     2
100
AcDbCircle
 10
42.5108174652269
 20
803.732828500428
 30
0.0
 40
0.6376316276331384
100
AcDbArc
 50
-45.64742692030899
 51
3.60477120933299
  0
ARC
  5
E5
102
{ACAD_REACTORS
330
14E
330
14E
102
}
330
32
100
AcDbEntity
  8
1
  6
Continuous
 62
     2
100
AcDbCircle
 10
42.4920365527685
 20
804.239063645732
 30
0.0
 40
0.133647461164239
100
AcDbArc
 50
44.9991882375093
 51
107.480798553452
  0
ARC
  5
E6
102
{ACAD_REACTORS
330
14E
330
14E
102
}
330
32
100
AcDbEntity
  8
1
  6
Continuous
 62
     2
100
AcDbCircle
 10
42.4882837177541
 20
804.188851460283
 30
0.0
 40
0.1718064932269641
100
AcDbArc
 50
-25.96517718214996
 51
44.99752883573134
  0
ARC
  5
E7
102
{ACAD_REACTORS
330
14D
330
14D
102
}
330
32
100
AcDbEntity
  8
1
  6
Continuous
 62
     2
100
AcDbCircle
 10
47.2667044633805
 20
807.858987915418
 30
0.0
 40
0.3435268015134068
100
AcDbArc
 50
-31.39055207551296
 51
96.04960012566434
  0
ARC
  5
E8
102
{ACAD_REACTORS
330
14F
330
14F
102
}
330
32
100
AcDbEntity
  8
1
  6
Continuous
 62
     2
100
AcDbCircle
 10
40.9534913478545
 20
803.051442536239
 30
0.0
 40
0.3817218209406101
100
AcDbArc
 50
44.99999999999699
 51
134.9999999999721
  0
ARC
  5
E9
102
{ACAD_REACTORS
330
14E
330
14E
102
}
330
32
100
AcDbEntity
  8
1
  6
Continuous
 62
     2
100
AcDbCircle
 10
42.4110778623028
 20
804.050152782635
 30
0.0
 40
0.209972163783176
100
AcDbArc
 50
168.8576486569388
 51
-129.7858837869978
  0
ARC
  5
EA
102
{ACAD_REACTORS
330
14E
330
14E
102
}
330
32
100
AcDbEntity
  8
1
  6
Continuous
 62
     2
100
AcDbCircle
 10
42.5608843911151
 20
804.020648704398
 30
0.0
 40
0.3626564350929057
100
AcDbArc
 50
107.4901923228239
 51
168.8579285622699
  0
ARC
  5
EB
102
{ACAD_REACTORS
330
14E
330
14E
102
}
330
32
100
AcDbEntity
  8
1
  6
Continuous
 62
     2
100
AcDbCircle
 10
42.1526446961111
 20
804.007605026572
 30
0.0
 40
0.3244823357957482
100
AcDbArc
 50
134.9952775439029
 51
171.0749880298436
  0
ARC
  5
EC
102
{ACAD_REACTORS
330
14E
330
14E
102
}
330
32
100
AcDbEntity
  8
1
  6
Continuous
 62
     2
100
AcDbCircle
 10
42.37887314565
 20
803.972109380428
 30
0.0
 40
0.5534785184956802
100
AcDbArc
 50
171.0782575145064
 51
-136.3801518007658
  0
ARC
  5
ED
330
32
100
AcDbEntity
  8
1
  6
Continuous
 62
     2
100
AcDbCircle
 10
47.8094630496214
 20
809.259629831502
 30
0.0
 40
0.3435227617599409
100
AcDbArc
 50
44.99999999990196
 51
-134.9999999999774
  0
ARC
  5
EE
102
{ACAD_REACTORS
330
14E
330
14E
102
}
330
32
100
AcDbEntity
  8
1
  6
Continuous
 62
     2
100
AcDbCircle
 10
42.6070444780142
 20
804.354044613575
 30
0.0
 40
0.400821721064989
100
AcDbArc
 50
51.34505507079501
 51
135.0027422795704
  0
ARC
  5
EF
330
32
100
AcDbEntity
  8
1
  6
Continuous
 62
     2
100
AcDbCircle
 10
48.0793811377348
 20
808.989711743388
 30
0.0
 40
0.3435227617600213
100
AcDbArc
 50
-135.0000000000846
 51
45.00000000002262
  0
ARC
  5
F0
102
{ACAD_REACTORS
330
14E
330
14E
102
}
330
32
100
AcDbEntity
  8
1
  6
Continuous
 62
     2
100
AcDbCircle
 10
42.8159470479134
 20
803.468447213643
 30
0.0
 40
0.2376314694077515
100
AcDbArc
 50
161.0129138542605
 51
-53.71804508160913
  0
ARC
  5
F1
102
{ACAD_REACTORS
330
14F
330
14F
102
}
330
32
100
AcDbEntity
  8
1
  6
Continuous
 62
     2
100
AcDbCircle
 10
41.0614870905556
 20
803.240399451646
 30
0.0
 40
0.7061954476480394
100
AcDbArc
 50
44.99999999999959
 51
134.9999999999246
  0
ARC
  5
F2
102
{ACAD_REACTORS
330
14D
330
14D
102
}
330
32
100
AcDbEntity
  8
1
  6
Continuous
 62
     2
100
AcDbCircle
 10
46.3524676283462
 20
808.123540338164
 30
0.0
 40
0.1811247124913649
100
AcDbArc
 50
160.7008488609978
 51
-82.44723994382142
  0
ARC
  5
F3
102
{ACAD_REACTORS
330
150
330
150
102
}
330
32
100
AcDbEntity
  8
1
  6
Continuous
 62
     2
100
AcDbCircle
 10
45.1875185596254
 20
806.888041387015
 30
0.0
 40
0.1717619425961233
100
AcDbArc
 50
-25.97577086992443
 51
45.00812252369497
  0
ARC
  5
F4
102
{ACAD_REACTORS
330
150
330
150
102
}
330
32
100
AcDbEntity
  8
1
  6
Continuous
 62
     2
100
AcDbCircle
 10
45.3531906687454
 20
805.949081943889
 30
0.0
 40
0.3884396077165933
100
AcDbArc
 50
154.0304157285965
 51
-45.00003671088795
  0
ARC
  5
F5
102
{ACAD_REACTORS
330
150
330
150
102
}
330
32
100
AcDbEntity
  8
1
  6
Continuous
 62
     2
100
AcDbCircle
 10
45.2192183850668
 20
806.367795342212
 30
0.0
 40
0.7825303563657928
100
AcDbArc
 50
-50.0863009982816
 51
4.20373427359859
  0
ARC
  5
F6
102
{ACAD_REACTORS
330
150
330
150
102
}
330
32
100
AcDbEntity
  8
1
  6
Continuous
 62
     2
100
AcDbCircle
 10
45.5151279290547
 20
806.167628094784
 30
0.0
 40
0.2376314694075771
100
AcDbArc
 50
161.0129138540142
 51
-53.71804508136199
  0
ARC
  5
F7
102
{ACAD_REACTORS
330
150
330
150
102
}
330
32
100
AcDbEntity
  8
1
  6
Continuous
 62
     2
100
AcDbCircle
 10
45.2099486133245
 20
806.43202849354
 30
0.0
 40
0.6376800610274834
100
AcDbArc
 50
-45.6454321476507
 51
3.60277643678983
  0
ARC
  5
F8
102
{ACAD_REACTORS
330
151
330
151
102
}
330
32
100
AcDbEntity
  8
1
  6
Continuous
 62
     2
100
AcDbCircle
 10
44.0428494391143
 20
805.474590769551
 30
0.0
 40
0.6298281181352606
100
AcDbArc
 50
127.029261750557
 51
-166.1942609000263
  0
ARC
  5
F9
102
{ACAD_REACTORS
330
151
330
151
102
}
330
32
100
AcDbEntity
  8
1
  6
Continuous
 62
     2
100
AcDbCircle
 10
44.0305763809109
 20
805.615688094326
 30
0.0
 40
0.5153078097776084
100
AcDbArc
 50
44.99924179932541
 51
135.4176153528068
  0
ARC
  5
FA
102
{ACAD_REACTORS
330
151
330
151
102
}
330
32
100
AcDbEntity
  8
1
  6
Continuous
 62
     2
100
AcDbCircle
 10
44.0035990022409
 20
805.237774298721
 30
0.0
 40
0.3435563581195413
100
AcDbArc
 50
44.99999999999498
 51
-134.9999999999858
  0
ARC
  5
FB
102
{ACAD_REACTORS
330
152
330
152
102
}
330
32
100
AcDbEntity
  8
1
  6
Continuous
 62
     2
100
AcDbCircle
 10
49.2400859315357
 20
810.474261228015
 30
0.0
 40
0.3435563581193856
100
AcDbArc
 50
44.99999999999414
 51
-134.9999999999723
  0
ARC
  5
FC
102
{ACAD_REACTORS
330
152
330
152
102
}
330
32
100
AcDbEntity
  8
1
  6
Continuous
 62
     2
100
AcDbCircle
 10
49.267063137361
 20
810.852127685843
 30
0.0
 40
0.5153414054988148
100
AcDbArc
 50
45.00294978127323
 51
135.4213236203654
  0
ARC
  5
FD
102
{ACAD_REACTORS
330
150
330
150
102
}
330
32
100
AcDbEntity
  8
1
  6
Continuous
 62
     2
100
AcDbCircle
 10
45.1912310986952
 20
806.938300328029
 30
0.0
 40
0.1335983450706396
100
AcDbArc
 50
44.98640991550954
 51
107.4935768754768
  0
ARC
  5
FE
102
{ACAD_REACTORS
330
150
330
150
102
}
330
32
100
AcDbEntity
  8
1
  6
Continuous
 62
     2
100
AcDbCircle
 10
45.1102367987446
 20
806.749395455885
 30
0.0
 40
0.2099386991566969
100
AcDbArc
 50
168.8730374975166
 51
-129.7688233326314
  0
ARC
  5
FF
102
{ACAD_REACTORS
330
14D
330
14D
102
}
330
32
100
AcDbEntity
  8
1
  6
Continuous
 62
     2
100
AcDbCircle
 10
46.4265038530087
 20
808.105959532633
 30
0.0
 40
0.2569317459374519
100
AcDbArc
 50
51.41249293115248
 51
162.4575022826747
  0
ARC
  5
100
102
{ACAD_REACTORS
330
14D
330
14D
102
}
330
32
100
AcDbEntity
  8
1
  6
Continuous
 62
     2
100
AcDbCircle
 10
46.9123705808941
 20
807.643491058601
 30
0.0
 40
0.2528183329036009
100
AcDbArc
 50
-120.2955132560653
 51
53.03503728332625
  0
ARC
  5
101
102
{ACAD_REACTORS
330
14F
330
14F
102
}
330
32
100
AcDbEntity
  8
1
  6
Continuous
 62
     2
100
AcDbCircle
 10
41.0614870905556
 20
803.240399451646
 30
0.0
 40
0.7061954476473159
100
AcDbArc
 50
-44.99999999994089
 51
44.99999999999959
  0
ARC
  5
102
102
{ACAD_REACTORS
330
14D
330
14D
102
}
330
32
100
AcDbEntity
  8
1
  6
Continuous
 62
     2
100
AcDbCircle
 10
46.6581562178381
 20
807.493426603038
 30
0.0
 40
0.5153187067620311
100
AcDbArc
 50
-119.4877713222682
 51
-59.46657935784766
  0
ARC
  5
103
102
{ACAD_REACTORS
330
150
330
150
102
}
330
32
100
AcDbEntity
  8
1
  6
Continuous
 62
     2
100
AcDbCircle
 10
45.3062228800628
 20
807.053270237068
 30
0.0
 40
0.4007883304123547
100
AcDbArc
 50
51.34078301743069
 51
134.9974090307676
  0
ARC
  5
104
102
{ACAD_REACTORS
330
150
330
150
102
}
330
32
100
AcDbEntity
  8
1
  6
Continuous
 62
     2
100
AcDbCircle
 10
45.0780540267912
 20
806.67129026157
 30
0.0
 40
0.5534785184951354
100
AcDbArc
 50
171.0782575146047
 51
-136.3801518006408
  0
ARC
  5
105
102
{ACAD_REACTORS
330
152
330
152
102
}
330
32
100
AcDbEntity
  8
1
  6
Continuous
 62
     2
100
AcDbCircle
 10
49.2793335316045
 20
810.711069725332
 30
0.0
 40
0.6298234606003509
100
AcDbArc
 50
127.0346724463397
 51
-166.1949037216886
  0
ARC
  5
106
102
{ACAD_REACTORS
330
150
330
150
102
}
330
32
100
AcDbEntity
  8
1
  6
Continuous
 62
     2
100
AcDbCircle
 10
45.260065272256
 20
806.719829585538
 30
0.0
 40
0.3626564350938495
100
AcDbArc
 50
107.4901923227592
 51
168.8579285622818
  0
ARC
  5
107
102
{ACAD_REACTORS
330
150
330
150
102
}
330
32
100
AcDbEntity
  8
1
  6
Continuous
 62
     2
100
AcDbCircle
 10
44.8518255772526
 20
806.706785907714
 30
0.0
 40
0.3244823357959642
100
AcDbArc
 50
134.9952775439127
 51
171.0749880300193
  0
ARC
  5
108
102
{ACAD_REACTORS
330
14D
330
14D
102
}
330
32
100
AcDbEntity
  8
1
  6
Continuous
 62
     2
100
AcDbCircle
 10
46.9781744729124
 20
807.73409416938
 30
0.0
 40
0.1408693898806819
100
AcDbArc
 50
52.26038771182974
 51
109.1019968652207
  0
ARC
  5
109
330
32
100
AcDbEntity
  8
1
  6
Continuous
 62
     7
100
AcDbCircle
 10
50.3184508553559
 20
791.575764179416
 30
0.0
 40
1.999999999999227
100
AcDbArc
 50
-134.9999999999452
 51
-44.99999999999784
  0
ARC
  5
10A
330
32
100
AcDbEntity
  8
1
  6
Continuous
 62
     7
100
AcDbCircle
 10
39.0047423563731
 20
802.8894726784
 30
0.0
 40
1.999999999999931
100
AcDbArc
 50
135.0000000000022
 51
-135.0000000000068
  0
ARC
  5
10B
330
32
100
AcDbEntity
  8
1
  6
Continuous
 62
     7
100
AcDbCircle
 10
64.4605864790888
 20
828.345316801115
 30
0.0
 40
2.000000000000649
100
AcDbArc
 50
45.00000000001872
 51
134.9999999999816
  0
ARC
  5
10C
330
32
100
AcDbEntity
  8
1
  6
Continuous
 62
     7
100
AcDbCircle
 10
75.7742949780736
 20
817.031608302131
 30
0.0
 40
1.999999999999936
100
AcDbArc
 50
-44.9999999999977
 51
44.99999999999972
  0
CIRCLE
  5
10D
330
32
100
AcDbEntity
  8
1
  6
Continuous
 62
     3
100
AcDbCircle
 10
93.2293261653941
 20
785.661978856947
 30
0.0
 40
4.000000000000199
  0
CIRCLE
  5
10E
330
32
100
AcDbEntity
  8
0
  6
Continuous
 62
     7
100
AcDbCircle
 10
181.104615265007
 20
737.24544389248
 30
0.0
 40
58.6268792763
  0
CIRCLE
  5
10F
330
32
100
AcDbEntity
  8
1
  6
Continuous
 62
     3
100
AcDbCircle
 10
116.229326165394
 20
785.661978856947
 30
0.0
 40
4.0
  0
CIRCLE
  5
110
102
{ACAD_REACTORS
330
14A
330
14A
102
}
330
32
100
AcDbEntity
  8
1
  6
Continuous
 62
     2
100
AcDbCircle
 10
75.9062064920719
 20
815.666502276737
 30
0.0
 40
0.75
  0
CIRCLE
  5
111
102
{ACAD_REACTORS
330
14B
330
14B
102
}
330
32
100
AcDbEntity
  8
1
  6
Continuous
 62
     2
100
AcDbCircle
 10
133.552445838716
 20
815.666502276737
 30
0.0
 40
0.75
  0
SPLINE
  5
112
330
32
100
AcDbEntity
  8
0
  6
Continuous
 62
     2
100
AcDbSpline
210
0.0
220
0.0
230
1.0
 70
    24
 71
     3
 72
     9
 73
     5
 74
     3
 42
0.0000000001
 43
0.0000000001
 44
0.00000001
 40
0.0
 40
0.0
 40
0.0
 40
0.0
 40
0.0488697697443787
 40
0.097739539488439
 40
0.097739539488439
 40
0.097739539488439
 40
0.097739539488439
 10
196.631707702607
 20
836.454668433748
 30
0.0
 10
196.6469659753737
 20
836.4489634612146
 30
0.0
 10
196.6774825209068
 20
836.4375535161475
 30
0.0
 10
196.7079990664403
 20
836.426143571081
 30
0.0
 10
196.723257339207
 20
836.420438598548
 30
0.0
 11
196.631707702607
 21
836.454668433748
 31
0.0
 11
196.677482520907
 21
836.4375535161475
 31
0.0
 11
196.723257339207
 21
836.420438598548
 31
0.0
  0
SPLINE
  5
113
330
32
100
AcDbEntity
  8
0
  6
Continuous
 62
     2
100
AcDbSpline
210
0.0
220
0.0
230
1.0
 70
    24
 71
     3
 72
     9
 73
     5
 74
     3
 42
0.0000000001
 43
0.0000000001
 44
0.00000001
 40
0.0
 40
0.0
 40
0.0
 40
0.0
 40
0.0488697696680959
 40
0.0977395393361388
 40
0.0977395393361388
 40
0.0977395393361388
 40
0.0977395393361388
 10
165.577522827607
 20
836.454668433748
 30
0.0
 10
165.5622645548737
 20
836.448963461198
 30
0.0
 10
165.5317480094071
 20
836.4375535160978
 30
0.0
 10
165.5012314639403
 20
836.4261435709979
 30
0.0
 10
165.485973191207
 20
836.420438598448
 30
0.0
 11
165.577522827607
 21
836.454668433748
 31
0.0
 11
165.531748009407
 21
836.4375535160979
 31
0.0
 11
165.485973191207
 21
836.420438598448
 31
0.0
  0
SPLINE
  5
114
330
32
100
AcDbEntity
  8
0
  6
Continuous
 62
     7
100
AcDbSpline
210
0.0
220
0.0
230
1.0
 70
     8
 71
     3
 72
    27
 73
    23
 74
    21
 42
0.0000000001
 43
0.0000000001
 44
0.00000001
 40
0.0
 40
0.0
 40
0.0
 40
0.0
 40
5.663343803513487
 40
11.32669162841635
 40
14.08509874955662
 40
16.84343613572713
 40
19.60139339280268
 40
22.35941132663256
 40
25.10801334252839
 40
27.8565513555497
 40
30.60529125295149
 40
33.35409338031193
 40
36.09359461269468
 40
38.83302635696418
 40
41.57238200007107
 40
44.31181424534987
 40
47.04376470866141
 40
49.7755953973704
 40
52.50841720770192
 40
55.24150584185723
 40
62.37959880613131
 40
69.51770409010287
 40
69.51770409010287
 40
69.51770409010287
 40
69.51770409010287
 10
164.964166421607
 20
890.641622478048
 30
0.0
 10
163.1667853681602
 20
890.0595395178361
 30
0.0
 10
159.5720219849941
 20
888.8953731840907
 30
0.0
 10
155.3125944538197
 20
886.8901311624733
 30
0.0
 10
152.0534490156229
 20
885.0821251898615
 30
0.0
 10
149.7100048973705
 20
883.6248674478168
 30
0.0
 10
147.4408235432326
 20
882.0552692212199
 30
0.0
 10
145.2536509434997
 20
880.3784702694936
 30
0.0
 10
143.1529269854869
 20
878.5994671058429
 30
0.0
 10
141.143976776422
 20
876.7219162757747
 30
0.0
 10
139.2302450874227
 20
874.7473050451197
 30
0.0
 10
137.4178694264685
 20
872.6833047359701
 30
0.0
 10
135.7105078257989
 20
870.5355943127827
 30
0.0
 10
134.1127790940741
 20
868.3089611950195
 30
0.0
 10
132.6278757915688
 20
866.0055689136942
 30
0.0
 10
131.2600725538328
 20
863.6336831906317
 30
0.0
 10
130.0118426237265
 20
861.1995253474502
 30
0.0
 10
128.887060549994
 20
858.7084567099748
 30
0.0
 10
127.8873895291671
 20
856.1636833225234
 30
0.0
 10
126.5534392419239
 20
852.1798600035506
 30
0.0
 10
125.1829953122156
 20
846.6501192504202
 30
0.0
 10
124.8236177632519
 20
841.8983831274807
 30
0.0
 10
124.643928833707
 20
839.522513015747
 30
0.0
 11
164.964166421607
 21
890.641622478048
 31
0.0
 11
159.6143973585522
 21
888.7832807417743
 31
0.0
 11
154.4756074855822
 21
886.4028716955613
 31
0.0
 11
152.0648864466034
 21
885.0622621632282
 31
0.0
 11
149.7222578965419
 21
883.606062790758
 31
0.0
 11
147.4540780567266
 21
882.0370859119892
 31
0.0
 11
145.2652077340769
 21
880.3591378693042
 31
0.0
 11
143.1678128598847
 21
878.582695417802
 31
0.0
 11
141.1599023602123
 21
876.705794612131
 31
0.0
 11
139.246820903988
 21
874.7320442820692
 31
0.0
 11
137.4330520680196
 21
872.6665768422263
 31
0.0
 11
135.7284395368802
 21
870.522010890592
 31
0.0
 11
134.1315667361597
 21
868.2961439718769
 31
0.0
 11
132.6471979669221
 21
865.9938149996547
 31
0.0
 11
131.2786094179233
 21
863.620746435533
 31
0.0
 11
130.0322299727365
 21
861.1896784371825
 31
0.0
 11
128.9080649167318
 21
858.6998688383114
 31
0.0
 11
127.9094328461193
 21
856.1560431692516
 31
0.0
 11
127.0387635763973
 21
853.5653466403407
 31
0.0
 11
125.3807110925593
 21
846.6224918148775
 31
0.0
 11
124.643928833707
 21
839.522513015747
 31
0.0
  0
SPLINE
  5
115
330
32
100
AcDbEntity
  8
0
  6
Continuous
 62
     7
100
AcDbSpline
210
0.0
220
0.0
230
1.0
 70
     8
 71
     3
 72
    27
 73
    23
 74
    21
 42
0.0000000001
 43
0.0000000001
 44
0.00000001
 40
0.0
 40
0.0
 40
0.0
 40
0.0
 40
5.663343803536549
 40
11.32669162846331
 40
14.08509874960358
 40
16.84343613577429
 40
19.60139339285055
 40
22.35941132668093
 40
25.10801334257688
 40
27.85655135559807
 40
30.60529125299997
 40
33.35409338036107
 40
36.09359461273717
 40
38.83302635699999
 40
41.57238200009936
 40
44.31181424537065
 40
47.04376470868146
 40
49.77559539739001
 40
52.50841720772162
 40
55.24150584187642
 40
62.37959880615068
 40
69.51770409012236
 40
69.51770409012236
 40
69.51770409012236
 40
69.51770409012236
 10
197.245064108407
 20
890.641622478047
 30
0.0
 10
199.042445161867
 20
890.0595395178491
 30
0.0
 10
202.6372085450595
 20
888.8953731841316
 30
0.0
 10
206.896636076237
 20
886.8901311624791
 30
0.0
 10
210.1557815144291
 20
885.0821251898421
 30
0.0
 10
212.4992256326773
 20
883.6248674477914
 30
0.0
 10
214.7684069868229
 20
882.0552692212049
 30
0.0
 10
216.9555795865702
 20
880.3784702694968
 30
0.0
 10
219.0563035445977
 20
878.599467105863
 30
0.0
 10
221.0652537536704
 20
876.7219162758023
 30
0.0
 10
222.978985442662
 20
874.7473050451396
 30
0.0
 10
224.7913611035968
 20
872.6833047359751
 30
0.0
 10
226.4987227042436
 20
870.5355943127755
 30
0.0
 10
228.0964514359475
 20
868.3089611950056
 30
0.0
 10
229.5813547384428
 20
866.0055689136831
 30
0.0
 10
230.9491579761766
 20
863.6336831906252
 30
0.0
 10
232.1973879062852
 20
861.1995253474485
 30
0.0
 10
233.3221699800206
 20
858.7084567099746
 30
0.0
 10
234.3218410008484
 20
856.1636833225236
 30
0.0
 10
235.6557912880911
 20
852.179860003551
 30
0.0
 10
237.026235217798
 20
846.6501192504202
 30
0.0
 10
237.385612766762
 20
841.898383127481
 30
0.0
 10
237.565301696307
 20
839.522513015747
 30
0.0
 11
197.245064108407
 21
890.641622478047
 31
0.0
 11
202.5948331714958
 21
888.783280741801
 31
0.0
 11
207.7336230444782
 21
886.4028716955578
 31
0.0
 11
210.1443440834492
 21
885.0622621632107
 31
0.0
 11
212.4869726335077
 21
883.6060627907352
 31
0.0
 11
214.75515247333
 21
882.0370859119754
 31
0.0
 11
216.9440227959933
 21
880.3591378693072
 31
0.0
 11
219.0414176701989
 21
878.5826954178207
 31
0.0
 11
221.0493281698774
 21
876.7057946121564
 31
0.0
 11
222.9624096260949
 21
874.7320442820878
 31
0.0
 11
224.7761784620469
 21
872.6665768422297
 31
0.0
 11
226.4807909931629
 21
870.5220108905853
 31
0.0
 11
228.0776637938639
 21
868.2961439718644
 31
0.0
 11
229.5620325630906
 21
865.9938149996441
 31
0.0
 11
230.9306211120856
 21
863.6207464355289
 31
0.0
 11
232.1770005572751
 21
861.1896784371805
 31
0.0
 11
233.3011656132824
 21
858.6998688383112
 31
0.0
 11
234.299797683896
 21
856.1560431692517
 31
0.0
 11
235.1704669536178
 21
853.5653466403413
 31
0.0
 11
236.8285194374547
 21
846.6224918148777
 31
0.0
 11
237.565301696307
 21
839.522513015747
 31
0.0
  0
SPLINE
  5
116
330
32
100
AcDbEntity
  8
0
  6
Continuous
 62
     7
100
AcDbSpline
210
0.0
220
0.0
230
1.0
 70
     8
 71
     3
 72
    11
 73
     7
 74
     5
 42
0.0000000001
 43
0.0000000001
 44
0.00000001
 40
0.0
 40
0.0
 40
0.0
 40
0.0
 40
0.6340194891261661
 40
1.268038978253077
 40
2.161832295202375
 40
3.055625612152086
 40
3.055625612152086
 40
3.055625612152086
 40
3.055625612152086
 10
259.874146676386
 20
836.47062295858
 30
0.0
 10
259.884092740488
 20
836.6817286766623
 30
0.0
 10
259.9039848686919
 20
837.1039401128269
 30
0.0
 10
259.9363698561842
 20
837.8238231573034
 30
0.0
 10
259.9712706215336
 20
838.6302714124257
 30
0.0
 10
259.9952507593019
 20
839.225651183262
 30
0.0
 10
260.007240828186
 20
839.52334106868
 30
0.0
 11
259.874146676386
 21
836.47062295858
 31
0.0
 11
259.9037607510851
 21
837.1039504561446
 31
0.0
 11
259.9323288824255
 21
837.7373259959821
 31
0.0
 11
259.9708248746841
 21
838.6302899101485
 31
0.0
 11
260.007240828186
 21
839.52334106868
 31
0.0
  0
SPLINE
  5
117
330
32
100
AcDbEntity
  8
0
  6
Continuous
 62
     7
100
AcDbSpline
210
0.0
220
0.0
230
1.0
 70
     8
 71
     3
 72
    43
 73
    39
 74
    37
 42
0.0000000001
 43
0.0000000001
 44
0.00000001
 40
0.0
 40
0.0
 40
0.0
 40
0.0
 40
5.371004933496049
 40
10.74200410756612
 40
12.59700589346628
 40
14.45189647154245
 40
16.30638753196535
 40
18.16091707079757
 40
20.02262961207396
 40
21.88432452511252
 40
23.74608357812394
 40
25.60785701010865
 40
27.47821457084055
 40
29.34856064766976
 40
31.21888236636023
 40
33.08921701353206
 40
34.96916996772517
 40
36.84911222274202
 40
38.72904413465896
 40
40.60898853146053
 40
42.49907294860186
 40
44.38914717489148
 40
46.2792066311118
 40
48.16927809228063
 40
50.06881298427614
 40
51.96833786852858
 40
53.86786165398308
 40
55.76739726729082
 40
57.67481333179001
 40
59.58221831667503
 40
61.48953839729072
 40
63.39687576109115
 40
65.31064123572366
 40
67.22437094550016
 40
69.13849069963939
 40
71.05272191791008
 40
76.65146685081389
 40
82.25021760643718
 40
82.25021760643718
 40
82.25021760643718
 40
82.25021760643718
 10
260.007256676386
 20
839.523340440679
 30
0.0
 10
260.1309673680874
 20
841.3109048655683
 30
0.0
 10
260.378388618833
 20
844.8860317985094
 30
0.0
 10
261.2165671556075
 20
849.013332329604
 30
0.0
 10
261.9998026564358
 20
851.937076666564
 30
0.0
 10
262.5447320672338
 20
853.7105671093805
 30
0.0
 10
263.15162036186
 20
855.4634649275025
 30
0.0
 10
263.8208841589232
 20
857.1959973622501
 30
0.0
 10
264.5515847903455
 20
858.9061257382505
 30
0.0
 10
265.3432262282552
 20
860.5915821426204
 30
0.0
 10
266.1940280471044
 20
862.2479826913154
 30
0.0
 10
267.1039837375196
 20
863.8759417162148
 30
0.0
 10
268.0719961119894
 20
865.4734146317256
 30
0.0
 10
269.0972533696442
 20
867.0381768721112
 30
0.0
 10
270.1771530091
 20
868.5657296327614
 30
0.0
 10
271.3119606226367
 20
870.0569649124852
 30
0.0
 10
272.5003391570529
 20
871.5100207131263
 30
0.0
 10
273.7411901450324
 20
872.9227965820381
 30
0.0
 10
275.0310712269971
 20
874.2909480710965
 30
0.0
 10
276.3704935247837
 20
875.6154418485403
 30
0.0
 10
277.7578825107634
 20
876.8946022798151
 30
0.0
 10
279.1918606185585
 20
878.1264927978373
 30
0.0
 10
280.6682752312314
 20
879.3071818573007
 30
0.0
 10
282.1875925867452
 20
880.4374094545901
 30
0.0
 10
283.7480088818986
 20
881.5157481276802
 30
0.0
 10
285.3478779844572
 20
882.5404948438784
 30
0.0
 10
286.9827253983912
 20
883.5084606286317
 30
0.0
 10
288.6526581661212
 20
884.4200473824378
 30
0.0
 10
290.3556599632608
 20
885.2741350760474
 30
0.0
 10
292.0898091186301
 20
886.0693147336782
 30
0.0
 10
293.8507047381881
 20
886.8032985955983
 30
0.0
 10
295.6380807097033
 20
887.4762277848176
 30
0.0
 10
297.4498049970974
 20
888.0873216497124
 30
0.0
 10
299.2838960028545
 20
888.6353644974542
 30
0.0
 10
301.1362311401919
 20
889.1194867963575
 30
0.0
 10
304.2028456553028
 20
889.8046977544313
 30
0.0
 10
308.5309491532104
 20
890.4987602363467
 30
0.0
 10
312.2649278787021
 20
890.607570751441
 30
0.0
 10
314.131918212286
 20
890.661976037279
 30
0.0
 11
260.007256676386
 21
839.523340440679
 31
0.0
 11
260.4952212094086
 21
844.8721332587036
 31
0.0
 11
261.5292126345768
 21
850.1426639587887
 31
0.0
 11
262.0106464616213
 21
851.9341027927627
 31
0.0
 11
262.5551079071183
 21
853.7072865934452
 31
0.0
 11
263.1618745702106
 21
855.4597052961954
 31
0.0
 11
263.8300709954559
 21
857.1896744715539
 31
0.0
 11
264.561586053903
 21
858.9016497358643
 31
0.0
 11
265.3530753404742
 21
860.5867172889543
 31
0.0
 11
266.2036500257225
 21
862.2428179731776
 31
0.0
 11
267.1119800946607
 21
863.867975441827
 31
0.0
 11
268.081292850676
 21
865.4675598209745
 31
0.0
 11
269.106365699243
 21
867.0319830700479
 31
0.0
 11
270.1859784874066
 21
868.559248455971
 31
0.0
 11
271.3185720527111
 21
870.047664899122
 31
0.0
 11
272.5087492780519
 21
871.5028972799669
 31
0.0
 11
273.7493644511661
 21
872.9153621023382
 31
0.0
 11
275.0389244534283
 21
874.2832725504339
 31
0.0
 11
276.3756358218732
 21
875.6051627321569
 31
0.0
 11
277.7652366984616
 21
876.8863451967985
 31
0.0
 11
279.1989377002681
 21
878.1179628396989
 31
0.0
 11
280.6750007194801
 21
879.2984554111972
 31
0.0
 11
282.1914515575274
 21
880.4266162969358
 31
0.0
 11
283.7541550360385
 21
881.5065193685851
 31
0.0
 11
285.3537079695888
 21
882.5310315445328
 31
0.0
 11
286.9881846578949
 21
883.4988520686442
 31
0.0
 11
288.6554544446378
 21
884.4090427104542
 31
0.0
 11
290.3604679388612
 21
885.2641245940337
 31
0.0
 11
292.0942967871085
 21
886.0591285571367
 31
0.0
 11
293.8547819546262
 21
886.7929963005823
 31
0.0
 11
295.6397851709205
 21
887.465082111449
 31
0.0
 11
297.4531868159555
 21
888.0766969949173
 31
0.0
 11
299.2867865248132
 21
888.6246691746471
 31
0.0
 11
301.1387871764338
 21
889.1083509084174
 31
0.0
 11
303.0066203040955
 21
889.5272549119932
 31
0.0
 11
308.5403851289312
 21
890.3777792720953
 31
0.0
 11
314.131918212286
 21
890.661976037279
 31
0.0
  0
SPLINE
  5
118
330
32
100
AcDbEntity
  8
0
  6
Continuous
 62
     7
100
AcDbSpline
210
0.0
220
0.0
230
1.0
 70
     8
 71
     3
 72
     9
 73
     5
 74
     3
 42
0.0000000001
 43
0.0000000001
 44
0.00000001
 40
0.0
 40
0.0
 40
0.0
 40
0.0
 40
3.171048157310945
 40
6.342093182988002
 40
6.342093182988002
 40
6.342093182988002
 40
6.342093182988002
 10
330.272367055686
 20
890.641622477879
 30
0.0
 10
331.2830856016129
 20
890.3304839643661
 30
0.0
 10
333.3045216953109
 20
889.7082072446115
 30
0.0
 10
335.267202156342
 20
888.9199702246499
 30
0.0
 10
336.248541902286
 20
888.525851909279
 30
0.0
 11
330.272367055686
 21
890.641622477879
 31
0.0
 11
333.2898337707937
 21
889.6667168213141
 31
0.0
 11
336.248541902286
 21
888.525851909279
 31
0.0
  0
SPLINE
  5
119
330
32
100
AcDbEntity
  8
0
  6
Continuous
 62
     7
100
AcDbSpline
210
0.0
220
0.0
230
1.0
 70
     8
 71
     3
 72
    23
 73
    19
 74
    17
 42
0.0000000001
 43
0.0000000001
 44
0.00000001
 40
0.0
 40
0.0
 40
0.0
 40
0.0
 40
8.003015867942414
 40
16.00600113314273
 40
18.75623297778581
 40
21.50612742774882
 40
24.25505655454393
 40
27.00411741255347
 40
29.74341756995015
 40
32.48263730483824
 40
35.22213098145444
 40
37.96168159847539
 40
40.6934464288483
 40
43.42518612062215
 40
46.15716356155937
 40
48.88902684045506
 40
52.89683150283539
 40
56.90463177510788
 40
56.90463177510788
 40
56.90463177510788
 40
56.90463177510788
 10
336.248541902286
 20
888.525851909279
 30
0.0
 10
338.6705688651524
 20
887.3975899858075
 30
0.0
 10
343.5146135292933
 20
885.1410704532266
 30
0.0
 10
348.6442431170047
 20
881.5051099402218
 30
0.0
 10
352.0824959053732
 20
878.6008527994377
 30
0.0
 10
354.0922504326148
 20
876.7220461677043
 30
0.0
 10
356.0066126736698
 20
874.7473614070915
 30
0.0
 10
357.819065763385
 20
872.6832720014127
 30
0.0
 10
359.5263004177188
 20
870.535535710736
 30
0.0
 10
361.1238160795215
 20
868.3088589170501
 30
0.0
 10
362.6085924758934
 20
866.005370576424
 30
0.0
 10
363.9763552400271
 20
863.6334322691611
 30
0.0
 10
365.2246345535608
 20
861.1993773161989
 30
0.0
 10
366.3494178152484
 20
858.708661434104
 30
0.0
 10
367.348704685506
 20
856.1647127878474
 30
0.0
 10
368.3522550884983
 20
853.1705160779912
 30
0.0
 10
369.301179620375
 20
849.7106565311653
 30
0.0
 10
369.7639576674694
 20
847.0779636640034
 30
0.0
 10
369.995346564286
 20
845.761617951379
 30
0.0
 11
336.248541902286
 21
888.525851909279
 31
0.0
 11
343.3979788097083
 21
884.9294905690734
 31
0.0
 11
349.9684665017219
 21
880.3604135677404
 31
0.0
 11
352.0674653389779
 21
878.5833432032114
 31
0.0
 11
354.0766282125422
 21
876.7057958580219
 31
0.0
 11
355.9899883557516
 21
874.7320521293377
 31
0.0
 11
357.8039615086731
 21
872.6664197802687
 31
0.0
 11
359.5083614575571
 21
870.5219417163665
 31
0.0
 11
361.1049671586191
 21
868.2961441084658
 31
0.0
 11
362.5892865815273
 21
865.9936190912298
 31
0.0
 11
363.9578880328153
 21
863.620421322237
 31
0.0
 11
365.2042481477817
 21
861.1895520225248
 31
0.0
 11
366.3284687008481
 21
858.6998673252839
 31
0.0
 11
367.3268939563196
 21
856.1568675716412
 31
0.0
 11
368.197509252406
 21
853.5674456321344
 31
0.0
 11
369.2399443141372
 21
849.6975842193871
 31
0.0
 11
369.995346564286
 21
845.761617951379
 31
0.0
  0
SPLINE
  5
11A
330
32
100
AcDbEntity
  8
0
  6
Continuous
 62
     7
100
AcDbSpline
210
0.0
220
0.0
230
1.0
 70
    24
 71
     3
 72
     9
 73
     5
 74
     3
 42
0.0000000001
 43
0.0000000001
 44
0.00000001
 40
0.0
 40
0.0
 40
0.0
 40
0.0
 40
3.133813476150507
 40
6.267626952301264
 40
6.267626952301264
 40
6.267626952301264
 40
6.267626952301264
 10
369.995346564286
 20
845.761617951379
 30
0.0
 10
370.0948895775026
 20
844.7217671287458
 30
0.0
 10
370.2939756039359
 20
842.6420654834792
 30
0.0
 10
370.4930616303693
 20
840.5623638382124
 30
0.0
 10
370.592604643586
 20
839.522513015579
 30
0.0
 11
369.995346564286
 21
845.761617951379
 31
0.0
 11
370.2939756039359
 21
842.6420654834791
 31
0.0
 11
370.592604643586
 21
839.522513015579
 31
0.0
  0
SPLINE
  5
11B
330
32
100
AcDbEntity
  8
0
  6
Continuous
 62
     2
100
AcDbSpline
210
0.0
220
0.0
230
1.0
 70
     8
 71
     3
 72
    27
 73
    23
 74
    21
 42
0.0000000001
 43
0.0000000001
 44
0.00000001
 40
0.0
 40
0.0
 40
0.0
 40
0.0
 40
0.857287720566704
 40
1.714575441133444
 40
2.051262500541827
 40
2.387949558734816
 40
2.72463660339249
 40
3.061323648153879
 40
3.429072925480727
 40
3.796822203485428
 40
4.164571480152831
 40
4.532320756707945
 40
4.926738345068495
 40
5.321155933909552
 40
5.715573519425776
 40
6.109991105162159
 40
6.546269734929679
 40
6.982548364864583
 40
7.418827011841701
 40
7.855105660546711
 40
9.159101190835905
 40
10.46309672117211
 40
10.46309672117211
 40
10.46309672117211
 40
10.46309672117211
 10
127.944302885207
 20
748.95837644458
 30
0.0
 10
127.9470845294004
 20
748.6726273838724
 30
0.0
 10
127.9526478177872
 20
748.1011292624569
 30
0.0
 10
127.9583892990385
 20
747.417399002317
 30
0.0
 10
127.9623746043464
 20
746.9071939576758
 30
0.0
 10
127.9648819516539
 20
746.5705162306698
 30
0.0
 10
127.9672798123557
 20
746.233837715221
 30
0.0
 10
127.9696391686927
 20
745.8868046069936
 30
0.0
 10
127.971950571384
 20
745.5294168744252
 30
0.0
 10
127.9742059331201
 20
745.1616745065082
 30
0.0
 10
127.9763425723862
 20
744.7939314302031
 30
0.0
 10
127.9784116027813
 20
744.4172983932965
 30
0.0
 10
127.9804054575455
 20
744.0317753908934
 30
0.0
 10
127.9823173807225
 20
743.6373624306616
 30
0.0
 10
127.9841048084938
 20
743.2429488876356
 30
0.0
 10
127.985828321162
 20
742.834581251318
 30
0.0
 10
127.987474271519
 20
742.4122595019267
 30
0.0
 10
127.9890286795141
 20
741.975983628311
 30
0.0
 10
127.9904409643393
 20
741.5397072619788
 30
0.0
 10
127.9925483573178
 20
740.8141927159966
 30
0.0
 10
127.9949165171686
 20
739.7994386552064
 30
0.0
 10
127.9959124043675
 20
738.9301088134065
 30
0.0
 10
127.996410347967
 20
738.495443892499
 30
0.0
 11
127.944302885207
 21
748.95837644458
 31
0.0
 11
127.9524567693356
 21
748.1011275017355
 31
0.0
 11
127.9597262132145
 21
747.2438706026555
 31
0.0
 11
127.9623541882055
 21
746.9071937995928
 31
0.0
 11
127.9648637039251
 21
746.5705160939373
 31
0.0
 11
127.9672616629476
 21
746.2338375887831
 31
0.0
 11
127.9695510144986
 21
745.8971583274978
 31
0.0
 11
127.971930070636
 21
745.5294167455869
 31
0.0
 11
127.9741861460446
 21
745.1616743879549
 31
0.0
 11
127.9763231653563
 21
744.7939313205317
 31
0.0
 11
127.9783437442683
 21
744.4261875950003
 31
0.0
 11
127.9803841399581
 21
744.0317752843487
 31
0.0
 11
127.9822966314941
 21
743.6373623322752
 31
0.0
 11
127.9840843408291
 21
743.2429487982024
 31
0.0
 11
127.9857492611962
 21
742.8485347264728
 31
0.0
 11
127.9874499507128
 21
742.4122594115088
 31
0.0
 11
127.9890049922962
 21
741.9759835529244
 31
0.0
 11
127.9904167914889
 21
741.5397071902468
 31
0.0
 11
127.9916873964714
 21
741.1034303917818
 31
0.0
 11
127.9946582950999
 21
739.7994382458025
 31
0.0
 11
127.996410347967
 21
738.495443892499
 31
0.0
  0
SPLINE
  5
11C
330
32
100
AcDbEntity
  8
0
  6
Continuous
 62
     2
100
AcDbSpline
210
0.0
220
0.0
230
1.0
 70
     8
 71
     3
 72
     9
 73
     5
 74
     3
 42
0.0000000001
 43
0.0000000001
 44
0.00000001
 40
0.0
 40
0.0
 40
0.0
 40
0.0
 40
0.3821676154702582
 40
0.7643352309404293
 40
0.7643352309404293
 40
0.7643352309404293
 40
0.7643352309404293
 10
128.163751666007
 20
749.690524287481
 30
0.0
 10
128.126415281194
 20
749.5687279199653
 30
0.0
 10
128.051742511568
 20
749.3251351849337
 30
0.0
 10
127.980116093994
 20
749.080629358031
 30
0.0
 10
127.944302885207
 20
748.95837644458
 30
0.0
 11
128.163751666007
 21
749.690524287481
 31
0.0
 11
128.052504099581
 21
749.324906911966
 31
0.0
 11
127.944302885207
 21
748.95837644458
 31
0.0
  0
SPLINE
  5
11D
330
32
100
AcDbEntity
  8
0
  6
Continuous
 62
     2
100
AcDbSpline
210
0.0
220
0.0
230
1.0
 70
     8
 71
     3
 72
    27
 73
    23
 74
    21
 42
0.0000000001
 43
0.0000000001
 44
0.00000001
 40
0.0
 40
0.0
 40
0.0
 40
0.0
 40
1.303360031561658
 40
2.606720063150548
 40
3.043000341825399
 40
3.479280618775216
 40
3.915560878713326
 40
4.351841138484202
 40
4.7463251737599
 40
5.140809208816272
 40
5.53529324720115
 40
5.929777285104514
 40
6.297605746797125
 40
6.66543420860249
 40
7.033262671749061
 40
7.401091134216967
 40
7.737857470279275
 40
8.074623806238218
 40
8.411390155742348
 40
8.748156506463104
 40
9.605626613858078
 40
10.4630967212531
 40
10.4630967212531
 40
10.4630967212531
 40
10.4630967212531
 10
234.212820187109
 20
738.49544389249
 30
0.0
 10
234.2133178329216
 20
738.9298969806317
 30
0.0
 10
234.214313124547
 20
739.7988031569248
 30
0.0
 10
234.2166795626178
 20
740.8131340977095
 30
0.0
 10
234.2187856649571
 20
741.538437900308
 30
0.0
 10
234.2201975421574
 20
741.9747158979479
 30
0.0
 10
234.2217515367283
 20
742.4109934030398
 30
0.0
 10
234.2233971656546
 20
742.8333383903747
 30
0.0
 10
234.2251204740203
 20
743.2417508709841
 30
0.0
 10
234.2269078369967
 20
743.6362308645291
 30
0.0
 10
234.2288197298525
 20
744.0307102752333
 30
0.0
 10
234.2308136194743
 20
744.4163039731457
 30
0.0
 10
234.2328827546256
 20
744.79301195055
 30
0.0
 10
234.2350195722451
 20
745.1608342122979
 30
0.0
 10
234.237275155777
 20
745.5286557654874
 30
0.0
 10
234.2395868328996
 20
745.886122718469
 30
0.0
 10
234.2419465163548
 20
746.2332350822222
 30
0.0
 10
234.2443447556346
 20
746.5699928882932
 30
0.0
 10
234.2468525264167
 20
746.9067499056579
 30
0.0
 10
234.2508385009878
 20
747.4170686050203
 30
0.0
 10
234.2565810032286
 20
748.1009468835766
 30
0.0
 10
234.2621454308808
 20
748.6725665909121
 30
0.0
 10
234.264927644707
 20
748.95837644458
 30
0.0
 11
234.212820187109
 21
738.49544389249
 31
0.0
 11
234.2145710910676
 21
739.798802747989
 31
0.0
 11
234.2175396362363
 21
741.1021593989802
 31
0.0
 11
234.2188098371008
 21
741.5384378285987
 31
0.0
 11
234.2202212284086
 21
741.9747158225773
 31
0.0
 11
234.2217758565669
 21
742.4109933126487
 31
0.0
 11
234.223476126889
 21
742.8472702592624
 31
0.0
 11
234.2251409475005
 21
743.2417507815442
 31
0.0
 11
234.2269285919708
 21
743.6362307661335
 31
0.0
 11
234.2288410533736
 21
744.030710168678
 31
0.0
 11
234.2308814545323
 21
744.4251889297332
 31
0.0
 11
234.2329021688284
 21
744.7930118408533
 31
0.0
 11
234.2350393665609
 21
745.1608340937146
 31
0.0
 11
234.2372956641109
 21
745.5286556366157
 31
0.0
 11
234.2396749878952
 21
745.896476403593
 31
0.0
 11
234.241964673247
 21
746.2332349557425
 31
0.0
 11
234.2443630108461
 21
746.5699927515127
 31
0.0
 11
234.2468729511706
 21
746.9067497475171
 31
0.0
 11
234.2495014006521
 21
747.2435058406039
 31
0.0
 11
234.2567721276257
 21
748.100945122189
 31
0.0
 11
234.264927644707
 21
748.95837644458
 31
0.0
  0
SPLINE
  5
11E
330
32
100
AcDbEntity
  8
0
  6
Continuous
 62
     2
100
AcDbSpline
210
0.0
220
0.0
230
1.0
 70
     8
 71
     3
 72
     9
 73
     5
 74
     3
 42
0.0000000001
 43
0.0000000001
 44
0.00000001
 40
0.0
 40
0.0
 40
0.0
 40
0.0
 40
0.3821676154701671
 40
0.7643352309404337
 40
0.7643352309404337
 40
0.7643352309404337
 40
0.7643352309404337
 10
234.264927644707
 20
748.95837644458
 30
0.0
 10
234.22911443592
 20
749.0806293580313
 30
0.0
 10
234.157488018346
 20
749.325135184934
 30
0.0
 10
234.08281524872
 20
749.5687279199652
 30
0.0
 10
234.045478863907
 20
749.690524287481
 30
0.0
 11
234.264927644707
 21
748.95837644458
 31
0.0
 11
234.156726430333
 21
749.324906911966
 31
0.0
 11
234.045478863907
 21
749.690524287481
 31
0.0
  0
SPLINE
  5
11F
330
32
100
AcDbEntity
  8
0
  6
Continuous
 62
     2
100
AcDbSpline
210
0.0
220
0.0
230
1.0
 70
     8
 71
     3
 72
    31
 73
    27
 74
    25
 42
0.0000000001
 43
0.0000000001
 44
0.00000001
 40
0.0
 40
0.0
 40
0.0
 40
0.0
 40
0.9641154379905305
 40
1.928230876033739
 40
2.320694778987365
 40
2.713158681434173
 40
3.105622578325641
 40
3.498086475098493
 40
3.874234528682342
 40
4.250382582299135
 40
4.626530637823621
 40
5.002678692989591
 40
5.35731987972771
 40
5.711961066538104
 40
6.066602254952754
 40
6.421243442927377
 40
6.749525926478589
 40
7.077808410076313
 40
7.406090893674255
 40
7.734373376788792
 40
8.031839570772428
 40
8.329305764579534
 40
8.626771967662085
 40
8.924238171720239
 40
9.693667484474311
 40
10.46309679722908
 40
10.46309679722908
 40
10.46309679722908
 40
10.46309679722908
 10
127.996408381773
 20
735.99544389247
 30
0.0
 10
127.9960622749907
 20
735.6740722543277
 30
0.0
 10
127.9953700614261
 20
735.0313289780261
 30
0.0
 10
127.9938616059505
 20
734.2577654194123
 30
0.0
 10
127.9924668829763
 20
733.674752672547
 30
0.0
 10
127.9914127626964
 20
733.2822901805398
 30
0.0
 10
127.9902462672673
 20
732.8898280103411
 30
0.0
 10
127.9889825684707
 20
732.5028047852477
 30
0.0
 10
127.9876259243112
 20
732.121220523771
 30
0.0
 10
127.9861806876919
 20
731.7450752407613
 30
0.0
 10
127.9846264891789
 20
731.3689303915527
 30
0.0
 10
127.982992831965
 20
730.9999549033896
 30
0.0
 10
127.98128492771
 20
730.6381487866392
 30
0.0
 10
127.9795085441588
 20
730.2835120432667
 30
0.0
 10
127.9776283513857
 20
729.928875834491
 30
0.0
 10
127.9756907350793
 20
729.5830263034295
 30
0.0
 10
127.9737021497923
 20
729.2459634464511
 30
0.0
 10
127.9716695919476
 20
728.9176872504477
 30
0.0
 10
127.9695392408209
 20
728.5894116744266
 30
0.0
 10
127.9673776098581
 20
728.2714086290644
 30
0.0
 10
127.9651926198936
 20
727.96367809128
 30
0.0
 10
127.9629930102409
 20
727.6662200232122
 30
0.0
 10
127.9607053024534
 20
727.3687626132389
 30
0.0
 10
127.9570578694566
 20
726.9139900023339
 30
0.0
 10
127.951821331986
 20
726.3019039768456
 30
0.0
 10
127.9468090341333
 20
725.7889755526021
 30
0.0
 10
127.944302885207
 20
725.53251134048
 30
0.0
 11
127.996408381773
 21
735.99544389247
 31
0.0
 11
127.9952297764962
 21
735.0313291748864
 31
0.0
 11
127.9933890211429
 21
734.067215494093
 31
0.0
 11
127.9924476756465
 21
733.6747527200746
 31
0.0
 11
127.9913940334987
 21
733.2822902319792
 31
0.0
 11
127.9902271070488
 21
732.8898280699229
 31
0.0
 11
127.9889454312195
 21
732.4973662659506
 31
0.0
 11
127.9876079362767
 21
732.1212205902847
 31
0.0
 11
127.9861625273792
 21
731.7450753137853
 31
0.0
 11
127.9846079559624
 21
731.3689304706961
 31
0.0
 11
127.9829421862792
 21
730.9927861039744
 31
0.0
 11
127.9812678743861
 21
730.6381488695915
 31
0.0
 11
127.9794912426249
 21
730.2835121329696
 31
0.0
 11
127.9776105768023
 21
729.928875931185
 31
0.0
 11
127.9756232636047
 21
729.5742403114366
 31
0.0
 11
127.9736861817572
 21
729.2459635429615
 31
0.0
 11
127.9716532930671
 21
728.9176873537539
 31
0.0
 11
127.9695223903248
 21
728.5894117861423
 31
0.0
 11
127.9672904037001
 21
728.2611368907336
 31
0.0
 11
127.9651780277005
 21
727.9636781970789
 31
0.0
 11
127.962978327246
 21
727.666220136546
 31
0.0
 11
127.9606889696449
 21
727.368762743264
 31
0.0
 11
127.958304811766
 21
727.0713060937368
 31
0.0
 11
127.9516653252535
 21
726.3019054279299
 31
0.0
 11
127.944302885207
 21
725.53251134048
 31
0.0
  0
SPLINE
  5
120
330
32
100
AcDbEntity
  8
0
  6
Continuous
 62
     2
100
AcDbSpline
210
0.0
220
0.0
230
1.0
 70
     8
 71
     3
 72
     9
 73
     5
 74
     3
 42
0.0000000001
 43
0.0000000001
 44
0.00000001
 40
0.0
 40
0.0
 40
0.0
 40
0.0
 40
0.3821676155184223
 40
0.7643352310359093
 40
0.7643352310359093
 40
0.7643352310359093
 40
0.7643352310359093
 10
234.045478863907
 20
724.80036349748
 30
0.0
 10
234.082815248756
 20
724.9221598650017
 30
0.0
 10
234.1574880184538
 20
725.1657526000447
 30
0.0
 10
234.229114435956
 20
725.4102584270017
 30
0.0
 10
234.264927644707
 20
725.53251134048
 30
0.0
 11
234.045478863907
 21
724.80036349748
 31
0.0
 11
234.156726430405
 21
725.1659808730235
 31
0.0
 11
234.264927644707
 21
725.53251134048
 31
0.0
  0
SPLINE
  5
121
330
32
100
AcDbEntity
  8
0
  6
Continuous
 62
     2
100
AcDbSpline
210
0.0
220
0.0
230
1.0
 70
     8
 71
     3
 72
    31
 73
    27
 74
    25
 42
0.0000000001
 43
0.0000000001
 44
0.00000001
 40
0.0
 40
0.0
 40
0.0
 40
0.0
 40
0.769431877608915
 40
1.538863755217322
 40
1.836331440924735
 40
2.133799125656694
 40
2.431266801113483
 40
2.728734476746742
 40
3.057018243313614
 40
3.385302010363894
 40
3.713585777413811
 40
4.041869544417049
 40
4.396511038259757
 40
4.751152532542608
 40
5.105794025220898
 40
5.460435517826843
 40
5.836582672331124
 40
6.212729827193284
 40
6.58887698014752
 40
6.965024133068715
 40
7.357486453900743
 40
7.749948774851587
 40
8.142411101356917
 40
8.534873428369217
 40
9.498985112796696
 40
10.46309679721089
 40
10.46309679721089
 40
10.46309679721089
 40
10.46309679721089
 10
234.264927644707
 20
725.53251134048
 30
0.0
 10
234.2624214877039
 20
725.7889764075155
 30
0.0
 10
234.2574091736975
 20
726.301906541586
 30
0.0
 10
234.252172620257
 20
726.9139947708055
 30
0.0
 10
234.2485251753794
 20
727.3687692243925
 30
0.0
 10
234.2462374584961
 20
727.6662281159888
 30
0.0
 10
234.2440378405292
 20
727.9636876656855
 30
0.0
 10
234.241852843606
 20
728.2714196190399
 30
0.0
 10
234.2396912070008
 20
728.5894240139132
 30
0.0
 10
234.237560851483
 20
728.9177008733852
 30
0.0
 10
234.2355282899066
 20
729.2459783528423
 30
0.0
 10
234.233539703582
 20
729.5830421674221
 30
0.0
 10
234.2316020886082
 20
729.9288923302303
 30
0.0
 10
234.2297218991829
 20
730.2835288448962
 30
0.0
 10
234.2279455190262
 20
730.6381658941577
 30
0.0
 10
234.2262376202361
 20
730.9999719146236
 30
0.0
 10
234.2246039701696
 20
731.3689469043287
 30
0.0
 10
234.2230497800768
 20
731.7450908529015
 30
0.0
 10
234.2216045512994
 20
732.1212352352725
 30
0.0
 10
234.2202479152735
 20
732.5028183710156
 30
0.0
 10
234.2189842246678
 20
732.8898402452805
 30
0.0
 10
234.2178177372489
 20
733.2823008395549
 30
0.0
 10
234.2167636240336
 20
733.6747617556341
 30
0.0
 10
234.2153689100423
 20
734.2577722006818
 30
0.0
 10
234.2138604636758
 20
735.0313327315947
 30
0.0
 10
234.2131682533133
 20
735.674073505501
 30
0.0
 10
234.212822148132
 20
735.995443892452
 30
0.0
 11
234.264927644707
 21
725.53251134048
 31
0.0
 11
234.2575651814154
 21
726.301907992679
 31
0.0
 11
234.2509256761913
 21
727.0713112232743
 31
0.0
 11
234.2485415083365
 21
727.3687693544184
 31
0.0
 11
234.2462521416213
 21
727.6662282293236
 31
0.0
 11
234.2440524328528
 21
727.9636877714852
 31
0.0
 11
234.2419400493205
 21
728.2611479467733
 31
0.0
 11
234.2397080576116
 21
728.5894241256294
 31
0.0
 11
234.2375771504734
 21
728.9177009766919
 31
0.0
 11
234.2355442580502
 21
729.2459784493532
 31
0.0
 11
234.233607173121
 21
729.5742565012845
 31
0.0
 11
234.2316198632026
 21
729.9288924269241
 31
0.0
 11
234.2297392007245
 21
730.283528934599
 31
0.0
 11
234.2279625723622
 21
730.6381659771097
 31
0.0
 11
234.2262882639405
 21
730.9928035173801
 31
0.0
 11
234.2246225032854
 21
731.3689469834713
 31
0.0
 11
234.2230679402932
 21
731.7450909259253
 31
0.0
 11
234.2216225392394
 21
732.1212353017856
 31
0.0
 11
234.2202850515726
 21
732.4973800768091
 31
0.0
 11
234.2190033847248
 21
732.8898403048615
 31
0.0
 11
234.217836466289
 21
733.2823008909941
 31
0.0
 11
234.2167828312043
 21
733.6747618031612
 31
0.0
 11
234.2158414918397
 21
734.0672230012485
 31
0.0
 11
234.2140007475206
 21
735.0313329284404
 31
0.0
 11
234.212822148132
 21
735.995443892452
 31
0.0
  0
SPLINE
  5
122
330
32
100
AcDbEntity
  8
0
  6
Continuous
 62
     2
100
AcDbSpline
210
0.0
220
0.0
230
1.0
 70
     8
 71
     3
 72
     9
 73
     5
 74
     3
 42
0.0000000001
 43
0.0000000001
 44
0.00000001
 40
0.0
 40
0.0
 40
0.0
 40
0.0
 40
0.382167615517592
 40
0.7643352310359055
 40
0.7643352310359055
 40
0.7643352310359055
 40
0.7643352310359055
 10
127.944302885207
 20
725.53251134048
 30
0.0
 10
127.980116093958
 20
725.4102584270016
 30
0.0
 10
128.0517425114601
 20
725.1657526000447
 30
0.0
 10
128.126415281158
 20
724.9221598650016
 30
0.0
 10
128.163751666007
 20
724.80036349748
 30
0.0
 11
127.944302885207
 21
725.53251134048
 31
0.0
 11
128.052504099509
 21
725.1659808730234
 31
0.0
 11
128.163751666007
 21
724.80036349748
 31
0.0
  0
LEADER
  5
123
330
32
100
AcDbEntity
  8
1
  6
Continuous
 62
     2
100
AcDbLeader
  3
Standard
 71
     0
 76
     2
 10
75.9062064920719
 20
815.666502276737
 30
0.0
 10
91.2293261653941
 20
789.126080472085
 30
0.0
  0
LEADER
  5
124
330
32
100
AcDbEntity
  8
1
  6
Continuous
 62
     2
100
AcDbLeader
  3
Standard
 71
     0
 76
     2
 10
133.552445838716
 20
815.666502276737
 30
0.0
 10
118.229326165394
 20
789.126080472085
 30
0.0
  0
LEADER
  5
125
330
32
100
AcDbEntity
  8
1
  6
Continuous
 62
     2
100
AcDbLeader
  3
Standard
 71
     0
 76
     3
 10
206.94855212512
 20
693.401507032372
 30
0.0
 10
199.504564335747
 20
700.845494821743
 30
0.0
 10
197.84296256401
 20
702.507096593481
 30
0.0
  0
MTEXT
  5
127
330
32
100
AcDbEntity
  8
1
 62
     3
100
AcDbMText
 10
93.2293261653941
 20
785.661978856947
 30
0.0
 40
4.0
 41
0.0
 71
     5
 72
     1
  1
2
  7
CONVERTER_11
 73
     1
 44
1.0
  0
MTEXT
  5
128
330
32
100
AcDbEntity
  8
1
 62
     3
100
AcDbMText
 10
116.229326165394
 20
785.661978856947
 30
0.0
 40
4.0
 41
0.0
 71
     5
 72
     1
  1
1
  7
CONVERTER_11
 73
     1
 44
1.0
  0
MTEXT
  5
12A
330
32
100
AcDbEntity
  8
1
 62
     7
100
AcDbMText
 10
194.735275656746
 20
705.614783500744
 30
0.0
 40
3.0
 41
0.0
 71
     5
 72
     1
  1
A
  7
CONVERTER_12
 11
0.707106781186548
 21
0.707106781186547
 31
0.0
 73
     1
 44
1.0
  0
MTEXT
  5
12C
330
32
100
AcDbEntity
  8
1
 62
     7
100
AcDbMText
 10
73.2979663282651
 20
771.058023017129
 30
0.0
 40
5.0
 41
0.0
 71
     5
 72
     1
  1
view on arrow A
  7
CONVERTER_13
 73
     1
 44
1.0
  0
MTEXT
  5
12D
330
32
100
AcDbEntity
  8
1
 62
     2
100
AcDbMText
 10
46.5806844100055
 20
796.020637405955
 30
0.0
 40
2.0
 41
0.0
 71
     7
 72
     1
  1
Model No.
  7
CONVERTER_13
 11
0.707106781186548
 21
0.707106781186547
 31
0.0
 73
     1
 44
1.0
  0
MTEXT
  5
12F
330
32
100
AcDbEntity
  8
1
 62
     2
100
AcDbMText
 10
54.1423476519378
 20
803.582300647888
 30
0.0
 40
2.0
 41
0.0
 71
     7
 72
     1
  1
WV-Q153E
  7
CONVERTER_14
 11
0.707106781186548
 21
0.707106781186547
 31
0.0
 73
     1
 44
1.0
  0
MTEXT
  5
130
330
32
100
AcDbEntity
  8
1
 62
     2
100
AcDbMText
 10
48.702004753565
 20
793.899317062396
 30
0.0
 40
1.8
 41
0.0
 71
     7
 72
     1
  1
Matsushita Electric Industrial Co.,Ltd.
  7
CONVERTER_13
 11
0.707106781186548
 21
0.707106781186547
 31
0.0
 73
     1
 44
1.0
  0
MTEXT
  5
131
330
32
100
AcDbEntity
  8
1
 62
     2
100
AcDbMText
 10
74.1578488762805
 20
817.940947622737
 30
0.0
 40
1.8
 41
0.0
 71
     3
 72
     1
  1
Made in Japan
  7
CONVERTER_13
 11
0.707106781186548
 21
0.707106781186547
 31
0.0
 73
     1
 44
1.0
  0
MTEXT
  5
133
330
32
100
AcDbEntity
  8
1
 62
     2
100
AcDbMText
 10
44.8642649548294
 20
798.546858637899
 30
0.0
 40
2.0
 41
0.0
 71
     7
 72
     1
  1
Inner Cover
  7
CONVERTER_15
 11
0.707106781186548
 21
0.707106781186547
 31
0.0
 73
     1
 44
1.0
  0
DIMENSION
  5
13E
330
32
100
AcDbEntity
  8
1
100
AcDbDimension
  2
*D2
 10
122.4777359887069
 20
900.661978856947
 30
0.0
 11
181.104615265032
 21
903.161978856947
 31
0.0
 70
    32
  1
{\Fgdt;n}117.3
 71
     5
 42
-1.0
 53
0.00013888888889
  3
ME10_DIM_10
100
AcDbAlignedDimension
 13
239.731494541307
 23
810.454668433748
 33
0.0
 14
122.477735988707
 24
810.454668433748
 34
0.0
100
AcDbRotatedDimension
  0
DIMENSION
  5
149
330
32
100
AcDbEntity
  8
1
100
AcDbDimension
  2
*D3
 10
112.477735988707
 20
890.6619788569479
 30
0.0
 11
110.258985988707
 21
850.558323645348
 31
0.0
 70
    32
  1
80.2
 71
     5
 42
-1.0
 53
90.0
  3
ME10_DIM_11
100
AcDbAlignedDimension
 13
122.477735988707
 23
810.454668433748
 33
0.0
 14
165.104615265007
 24
890.661978856947
 34
0.0
 50
90.0
100
AcDbRotatedDimension
  0
HATCH
  5
14A
330
32
100
AcDbEntity
  8
1
  6
Continuous
 62
     2
100
AcDbHatch
 10
0.0
 20
0.0
 30
0.0
210
0.0
220
0.0
230
1.0
  2
SOLID
 70
     1
 71
     1
 91
        1
 92
        1
 93
        1
 72
     2
 10
75.9062064920719
 20
815.666502276737
 40
0.75
 50
0.0
 51
360.0
 73
     1
 97
        1
330
110
 75
     0
 76
     1
 98
        1
 10
0.0
 20
0.0
  0
HATCH
  5
14B
330
32
100
AcDbEntity
  8
1
  6
Continuous
 62
     2
100
AcDbHatch
 10
0.0
 20
0.0
 30
0.0
210
0.0
220
0.0
230
1.0
  2
SOLID
 70
     1
 71
     1
 91
        1
 92
        1
 93
        1
 72
     2
 10
133.552445838716
 20
815.666502276737
 40
0.75
 50
0.0
 51
360.0
 73
     1
 97
        1
330
111
 75
     0
 76
     1
 98
        1
 10
0.0
 20
0.0
  0
HATCH
  5
14C
330
32
100
AcDbEntity
  8
1
  6
Continuous
 62
     2
100
AcDbHatch
 10
0.0
 20
0.0
 30
0.0
210
0.0
220
0.0
230
1.0
  2
SOLID
 70
     1
 71
     1
 91
        1
 92
        1
 93
        3
 72
     1
 10
205.106508902973
 20
695.802104497344
 11
204.547954660148
 21
695.243550254519
 72
     1
 10
204.547954660148
 20
695.243550254519
 11
206.94855212512
 21
693.401507032372
 72
     1
 10
206.94855212512
 20
693.401507032372
 11
205.106508902973
 21
695.802104497344
 97
        3
330
C1
330
C2
330
C3
 75
     0
 76
     1
 98
        1
 10
0.0
 20
0.0
  0
HATCH
  5
14D
330
32
100
AcDbEntity
  8
1
  6
Continuous
 62
     2
100
AcDbHatch
 10
0.0
 20
0.0
 30
0.0
210
0.0
220
0.0
230
1.0
  2
CUSTOM0
 70
     0
 71
     1
 91
        1
 92
        1
 93
       14
 72
     2
 10
46.3524676283462
 20
808.123540338164
 40
0.1811247124913649
 50
82.44723994382142
 51
199.2991511390022
 73
     0
 72
     2
 10
46.4265038530087
 20
808.105959532633
 40
0.2569317459374519
 50
197.5424977173253
 51
308.5875070688475
 73
     0
 72
     1
 10
46.586754540808
 20
808.306791898377
 11
46.9443330535951
 21
808.664370411165
 72
     2
 10
46.6934715009064
 20
808.218608878124
 40
0.5115025542032829
 50
60.63046355104856
 51
120.5315098262309
 73
     1
 72
     2
 10
47.2881767840583
 20
807.15294972041
 40
1.731770296198919
 50
119.5680779359749
 51
149.5731240903154
 73
     1
 72
     2
 10
46.0849204245327
 20
807.853057463334
 40
0.3397172329626133
 50
148.6136143302952
 51
292.3868736540334
 73
     1
 72
     1
 10
46.2143046389012
 20
807.538943593146
 11
46.9320748478677
 21
807.867206939527
 72
     2
 10
46.9781744729124
 20
807.73409416938
 40
0.1408693898806819
 50
250.8980031347793
 51
307.7396122881702
 73
     0
 72
     2
 10
46.9123705808941
 20
807.643491058601
 40
0.2528183329036009
 50
306.9649627166738
 51
480.2955132560652
 73
     0
 72
     1
 10
46.784833841872
 20
807.425198846986
 11
46.4044968773659
 21
807.044861882479
 72
     2
 10
46.6581562178381
 20
807.493426603038
 40
0.5153187067620311
 50
240.5122286777318
 51
300.5334206421524
 73
     1
 72
     2
 10
45.9794946477285
 20
808.64426841769
 40
1.851364516236317
 50
300.5296732401031
 51
328.6132630181015
 73
     1
 72
     2
 10
47.2667044633805
 20
807.858987915418
 40
0.3435268015134068
 50
328.609447924487
 51
456.0496001256644
 73
     1
 72
     1
 10
47.2305003911598
 20
808.200601627838
 11
46.3762744967397
 21
807.943987018806
 97
       14
330
E7
330
DF
330
102
330
92
330
100
330
108
330
BD
330
DB
330
E0
330
DC
330
8E
330
FF
330
F2
330
90
 75
     1
 76
     2
 52
0.0
 41
1.0
 77
     0
 78
     2
 53
44.99999999999998
 43
-52.2533356177462
 44
52.25333561774622
 45
-0.0883883476483184
 46
0.0
 79
     0
 53
134.9999999999997
 43
0.0300016218074412
 44
0.0300016218074409
 45
-0.0000000000000004
 46
-0.0883883476483184
 79
     0
 98
        1
 10
0.0
 20
0.0
  0
HATCH
  5
14E
330
32
100
AcDbEntity
  8
1
  6
Continuous
 62
     2
100
AcDbHatch
 10
0.0
 20
0.0
 30
0.0
210
0.0
220
0.0
230
1.0
  2
CUSTOM1
 70
     0
 71
     1
 91
        2
 92
        1
 93
       17
 72
     1
 10
42.8574092543692
 20
804.66705504605
 11
43.8368779018735
 21
803.883432615621
 72
     1
 10
43.8368779018735
 20
803.883432615621
 11
43.5109901767588
 21
803.557544890506
 72
     1
 10
43.5109901767588
 20
803.557544890506
 11
43.3004626202664
 21
803.725976438186
 72
     2
 10
42.5147783881806
 20
803.670540635914
 40
0.7876375059140409
 50
355.9640498492363
 51
410.2540851212468
 73
     0
 72
     1
 10
43.0183813512759
 20
803.064936065023
 11
42.9286778923151
 21
802.975232606063
 72
     2
 10
42.6540097876041
 20
803.249901062747
 40
0.3884396077169519
 50
45.0000367107716
 51
205.9695842715456
 73
     0
 72
     1
 10
42.3047922357362
 20
803.41999641927
 11
42.6427481168752
 21
804.113630316187
 72
     2
 10
42.4882837177541
 20
804.188851460283
 40
0.1718064932269641
 50
334.0348228178501
 51
404.9975288357314
 73
     1
 72
     1
 10
42.609774493719
 20
804.310331756917
 11
42.5865409177487
 21
804.333565332888
 72
     2
 10
42.4920365527685
 20
804.239063645732
 40
0.133647461164239
 50
44.9991882375093
 51
107.480798553452
 73
     1
 72
     2
 10
42.5608843911151
 20
804.020648704398
 40
0.3626564350929057
 50
107.4901923228239
 51
168.8579285622699
 73
     1
 72
     2
 10
42.4110778623028
 20
804.050152782635
 40
0.209972163783176
 50
168.8576486569388
 51
230.2141162130022
 73
     1
 72
     1
 10
42.2767123923846
 20
803.888801519679
 11
41.9781918242411
 21
803.590280951536
 72
     2
 10
42.37887314565
 20
803.972109380428
 40
0.5534785184956802
 50
136.3801518007658
 51
188.9217424854936
 73
     0
 72
     2
 10
42.1526446961111
 20
804.007605026572
 40
0.3244823357957482
 50
188.9250119701564
 51
225.0047224560971
 73
     0
 72
     1
 10
41.9232199481729
 20
804.237067597108
 11
42.3236071561536
 21
804.637454805089
 72
     2
 10
42.6070444780142
 20
804.354044613575
 40
0.400821721064989
 50
224.9972577204296
 51
308.654944929205
 73
     0
 97
       17
330
AA
330
B9
330
B6
330
E1
330
BF
330
DE
330
B7
330
E6
330
B8
330
E5
330
EA
330
E9
330
B4
330
EC
330
EB
330
A6
330
EE
 92
       16
 93
        4
 72
     1
 10
43.147187536258
 20
803.772918714378
 11
42.7916045453322
 21
804.128501705304
 72
     1
 10
42.7916045453322
 20
804.128501705304
 11
42.5912446478534
 21
803.545761809032
 72
     2
 10
42.8159470479134
 20
803.468447213643
 40
0.2376314694077515
 50
161.0129138542605
 51
306.2819549183909
 73
     1
 72
     2
 10
42.5108174652269
 20
803.732828500428
 40
0.6376316276331384
 50
314.352573079691
 51
363.604771209333
 73
     1
 97
        4
330
F0
330
93
330
BA
330
E4
 75
     1
 76
     2
 52
0.0
 41
1.0
 77
     0
 78
     2
 53
44.99999999999998
 43
-52.2533356177462
 44
52.25333561774622
 45
-0.0883883476483184
 46
0.0
 79
     0
 53
134.9999999999997
 43
0.0300016218074412
 44
0.0300016218074409
 45
-0.0000000000000004
 46
-0.0883883476483184
 79
     0
 98
        1
 10
0.0
 20
0.0
  0
HATCH
  5
14F
330
32
100
AcDbEntity
  8
1
  6
Continuous
 62
     2
100
AcDbHatch
 10
0.0
 20
0.0
 30
0.0
210
0.0
220
0.0
230
1.0
  2
CUSTOM2
 70
     0
 71
     1
 91
        2
 92
        1
 93
        7
 72
     1
 10
40.5621315006809
 20
803.739755041522
 11
39.71184913756
 21
802.889472678401
 72
     1
 10
39.71184913756
 20
802.889472678401
 11
41.2773835511066
 21
801.323938264854
 72
     1
 10
41.2773835511066
 20
801.323938264854
 11
41.68228443949
 21
801.728839153238
 72
     1
 10
41.68228443949
 20
801.728839153238
 11
41.1154612056937
 21
802.295662387035
 72
     1
 10
41.1154612056937
 20
802.295662387035
 11
41.5608426804306
 21
802.741043861772
 72
     2
 10
41.0614870905556
 20
803.240399451646
 40
0.7061954476473159
 50
315.0000000000591
 51
404.9999999999995
 73
     1
 72
     2
 10
41.0614870905556
 20
803.240399451646
 40
0.7061954476480394
 50
44.99999999999959
 51
134.9999999999246
 73
     1
 97
        7
330
101
330
A4
330
85
330
A2
330
8D
330
BC
330
F1
 92
       16
 93
        5
 72
     2
 10
40.9534913478545
 20
803.051442536239
 40
0.3817218209406101
 50
44.99999999999699
 51
134.9999999999721
 73
     1
 72
     1
 10
40.6835732597408
 20
803.321360624353
 11
40.386668114058
 21
803.02445547867
 72
     1
 10
40.386668114058
 20
803.02445547867
 11
40.9265042902858
 21
802.484619302442
 72
     1
 10
40.9265042902858
 20
802.484619302442
 11
41.2234094359686
 21
802.781524448125
 72
     2
 10
40.9534913478545
 20
803.051442536239
 40
0.3817218209407608
 50
315.0000000000015
 51
404.999999999997
 73
     1
 97
        5
330
BB
330
BE
330
C0
330
E8
330
E2
 75
     1
 76
     2
 52
0.0
 41
1.0
 77
     0
 78
     2
 53
44.99999999999998
 43
-52.2533356177462
 44
52.25333561774622
 45
-0.0883883476483184
 46
0.0
 79
     0
 53
134.9999999999997
 43
0.0300016218074412
 44
0.0300016218074409
 45
-0.0000000000000004
 46
-0.0883883476483184
 79
     0
 98
        1
 10
0.0
 20
0.0
  0
HATCH
  5
150
330
32
100
AcDbEntity
  8
1
  6
Continuous
 62
     2
100
AcDbHatch
 10
0.0
 20
0.0
 30
0.0
210
0.0
220
0.0
230
1.0
  2
CUSTOM3
 70
     0
 71
     1
 91
        2
 92
        1
 93
       17
 72
     1
 10
45.5565901355107
 20
807.366235927191
 11
46.5361062954401
 21
806.582661009188
 72
     1
 10
46.5361062954401
 20
806.582661009188
 11
46.2102185703253
 21
806.256773284073
 72
     1
 10
46.2102185703253
 20
806.256773284073
 11
45.9996435014075
 21
806.425157319327
 72
     2
 10
45.2192183850668
 20
806.367795342212
 40
0.7825303563657928
 50
355.7962657264014
 51
410.0863009982816
 73
     0
 72
     1
 10
45.7213157140166
 20
805.767585353212
 11
45.6278587734563
 21
805.674413487204
 72
     2
 10
45.3531906687454
 20
805.949081943889
 40
0.3884396077165933
 50
45.00003671088795
 51
205.9695842714035
 73
     0
 72
     1
 10
45.0039731168774
 20
806.119177300411
 11
45.3419289980162
 21
806.812811197328
 72
     2
 10
45.1875185596254
 20
806.888041387015
 40
0.1717619425961233
 50
334.0242291300756
 51
405.008122523695
 73
     1
 72
     1
 10
45.3089553748601
 20
807.009512638059
 11
45.2857217988899
 21
807.032746214029
 72
     2
 10
45.1912310986952
 20
806.938300328029
 40
0.1335983450706396
 50
44.98640991550954
 51
107.4935768754768
 73
     1
 72
     2
 10
45.260065272256
 20
806.719829585538
 40
0.3626564350938495
 50
107.4901923227592
 51
168.8579285622818
 73
     1
 72
     2
 10
45.1102367987446
 20
806.749395455885
 40
0.2099386991566969
 50
168.8730374975166
 51
230.2311766673686
 73
     1
 72
     1
 10
44.9759407859513
 20
806.588029913246
 11
44.6773727053831
 21
806.289461832677
 72
     2
 10
45.0780540267912
 20
806.67129026157
 40
0.5534785184951354
 50
136.3801518006408
 51
188.9217424853953
 73
     0
 72
     2
 10
44.8518255772526
 20
806.706785907714
 40
0.3244823357959642
 50
188.9250119699807
 51
225.0047224560873
 73
     0
 72
     1
 10
44.6224008293142
 20
806.93624847825
 11
45.02283554972
 21
807.336683198655
 72
     2
 10
45.3062228800628
 20
807.053270237068
 40
0.4007883304123547
 50
225.0025909692324
 51
308.6592169825693
 73
     0
 97
       17
330
84
330
88
330
89
330
F5
330
8A
330
F4
330
8B
330
F3
330
8C
330
FD
330
106
330
FE
330
8F
330
104
330
107
330
91
330
103
 92
       16
 93
        4
 72
     2
 10
45.2099486133245
 20
806.43202849354
 40
0.6376800610274834
 50
314.3545678523492
 51
363.6027764367898
 73
     1
 72
     1
 10
45.8463684173992
 20
806.47209959552
 11
45.4907854264734
 21
806.827682586445
 72
     1
 10
45.4907854264734
 20
806.827682586445
 11
45.2904255289952
 21
806.244942690174
 72
     2
 10
45.5151279290547
 20
806.167628094784
 40
0.2376314694075771
 50
161.0129138540142
 51
306.2819549186381
 73
     1
 97
        4
330
86
330
87
330
F7
330
F6
 75
     1
 76
     2
 52
0.0
 41
1.0
 77
     0
 78
     2
 53
44.99999999999998
 43
-52.2533356177462
 44
52.25333561774622
 45
-0.0883883476483184
 46
0.0
 79
     0
 53
134.9999999999997
 43
0.0300016218074412
 44
0.0300016218074409
 45
-0.0000000000000004
 46
-0.0883883476483184
 79
     0
 98
        1
 10
0.0
 20
0.0
  0
HATCH
  5
151
330
32
100
AcDbEntity
  8
1
  6
Continuous
 62
     2
100
AcDbHatch
 10
0.0
 20
0.0
 30
0.0
210
0.0
220
0.0
230
1.0
  2
CUSTOM4
 70
     0
 71
     1
 91
        1
 92
        1
 93
       11
 72
     1
 10
44.3949588494163
 20
805.980060919141
 11
45.1642325274047
 21
805.210787241152
 72
     1
 10
45.1642325274047
 20
805.210787241152
 11
44.8403403241526
 21
804.8868950379
 72
     1
 10
44.8403403241526
 20
804.8868950379
 11
44.246530032787
 21
805.480705329267
 72
     2
 10
44.0035990022409
 20
805.237774298721
 40
0.3435563581195413
 50
44.99999999999498
 51
225.0000000000142
 73
     1
 72
     1
 10
43.760667971697
 20
804.994843268177
 11
44.3544782630627
 21
804.40103297681
 72
     1
 10
44.3544782630627
 20
804.40103297681
 11
44.0305860598107
 21
804.077140773558
 72
     1
 10
44.0305860598107
 20
804.077140773558
 11
42.8969395922168
 21
805.210787241152
 72
     1
 10
42.8969395922168
 20
805.210787241152
 11
43.2208317954691
 21
805.534679444404
 72
     1
 10
43.2208317954691
 20
805.534679444404
 11
43.4312168146858
 21
805.324294425188
 72
     2
 10
44.0428494391143
 20
805.474590769551
 40
0.6298281181352606
 50
166.1942609000263
 51
232.9707382494429
 73
     0
 72
     2
 10
44.0305763809109
 20
805.615688094326
 40
0.5153078097776084
 50
224.5823846471932
 51
315.0007582006746
 73
     0
 97
       11
330
9F
330
9E
330
9D
330
FA
330
9C
330
9B
330
A3
330
A1
330
A0
330
F8
330
F9
 75
     1
 76
     2
 52
0.0
 41
1.0
 77
     0
 78
     2
 53
44.99999999999998
 43
-52.2533356177462
 44
52.25333561774622
 45
-0.0883883476483184
 46
0.0
 79
     0
 53
134.9999999999997
 43
0.0300016218074412
 44
0.0300016218074409
 45
-0.0000000000000004
 46
-0.0883883476483184
 79
     0
 98
        1
 10
0.0
 20
0.0
  0
HATCH
  5
152
330
32
100
AcDbEntity
  8
1
  6
Continuous
 62
     2
100
AcDbHatch
 10
0.0
 20
0.0
 30
0.0
210
0.0
220
0.0
230
1.0
  2
CUSTOM5
 70
     0
 71
     1
 91
        1
 92
        1
 93
       11
 72
     1
 10
49.631445778711
 20
811.216547848436
 11
50.4007194566997
 21
810.447274170447
 72
     1
 10
50.4007194566997
 20
810.447274170447
 11
50.0768272534474
 21
810.123381967195
 72
     1
 10
50.0768272534474
 20
810.123381967195
 11
49.4830169620817
 21
810.717192258561
 72
     2
 10
49.2400859315357
 20
810.474261228015
 40
0.3435563581193856
 50
44.99999999999414
 51
225.0000000000277
 73
     1
 72
     1
 10
48.9971549009909
 20
810.23133019747
 11
49.5909651923567
 21
809.637519906104
 72
     1
 10
49.5909651923567
 20
809.637519906104
 11
49.2670254766796
 21
809.313580190427
 72
     1
 10
49.2670254766796
 20
809.313580190427
 11
48.133379009086
 21
810.447226658021
 72
     1
 10
48.133379009086
 20
810.447226658021
 11
48.457318724763
 21
810.771166373698
 72
     1
 10
48.457318724763
 20
810.771166373698
 11
48.6677037439798
 21
810.560781354482
 72
     2
 10
49.2793335316045
 20
810.711069725332
 40
0.6298234606003509
 50
166.1949037216886
 51
232.9653275536604
 73
     0
 72
     2
 10
49.267063137361
 20
810.852127685843
 40
0.5153414054988148
 50
224.5786763796346
 51
314.9970502187267
 73
     0
 97
       11
330
96
330
97
330
98
330
FB
330
99
330
9A
330
95
330
94
330
A5
330
105
330
FC
 75
     1
 76
     2
 52
0.0
 41
1.0
 77
     0
 78
     2
 53
44.99999999999998
 43
-52.2533356177462
 44
52.25333561774622
 45
-0.0883883476483184
 46
0.0
 79
     0
 53
134.9999999999997
 43
0.0300016218074412
 44
0.0300016218074409
 45
-0.0000000000000004
 46
-0.0883883476483184
 79
     0
 98
        1
 10
0.0
 20
0.0
  0
HATCH
  5
153
330
32
100
AcDbEntity
  8
1
  6
Continuous
 62
     2
100
AcDbHatch
 10
0.0
 20
0.0
 30
0.0
210
0.0
220
0.0
230
1.0
  2
CUSTOM6
 70
     0
 71
     1
 91
        1
 92
        1
 93
        4
 72
     1
 10
49.0511290161289
 20
812.22875255697
 11
49.2400859315352
 21
812.039795641563
 72
     1
 10
49.2400859315352
 20
812.039795641563
 11
49.5639781347871
 21
812.363687844815
 72
     1
 10
49.5639781347871
 20
812.363687844815
 11
49.37502121938
 21
812.552644760221
 72
     1
 10
49.37502121938
 20
812.552644760221
 11
49.0511290161289
 21
812.22875255697
 97
        4
330
A7
330
B3
330
AD
330
AF
 75
     1
 76
     2
 52
0.0
 41
1.0
 77
     0
 78
     2
 53
44.99999999999998
 43
-52.2533356177462
 44
52.25333561774622
 45
-0.0883883476483184
 46
0.0
 79
     0
 53
134.9999999999997
 43
0.0300016218074412
 44
0.0300016218074409
 45
-0.0000000000000004
 46
-0.0883883476483184
 79
     0
 98
        1
 10
0.0
 20
0.0
  0
HATCH
  5
154
330
32
100
AcDbEntity
  8
1
  6
Continuous
 62
     2
100
AcDbHatch
 10
0.0
 20
0.0
 30
0.0
210
0.0
220
0.0
230
1.0
  2
CUSTOM7
 70
     0
 71
     1
 91
        1
 92
        1
 93
        4
 72
     1
 10
49.8608832804707
 20
812.066782699131
 11
50.9405556329266
 21
810.987110346674
 72
     1
 10
50.9405556329266
 20
810.987110346674
 11
50.6166634296753
 21
810.663218143423
 72
     1
 10
50.6166634296753
 20
810.663218143423
 11
49.5369910772188
 21
811.742890495879
 72
     1
 10
49.5369910772188
 20
811.742890495879
 11
49.8608832804707
 21
812.066782699131
 97
        4
330
AE
330
B0
330
B1
330
B2
 75
     1
 76
     2
 52
0.0
 41
1.0
 77
     0
 78
     2
 53
44.99999999999998
 43
-52.2533356177462
 44
52.25333561774622
 45
-0.0883883476483184
 46
0.0
 79
     0
 53
134.9999999999997
 43
0.0300016218074412
 44
0.0300016218074409
 45
-0.0000000000000004
 46
-0.0883883476483184
 79
     0
 98
        1
 10
0.0
 20
0.0
  0
ENDBLK
  5
34
330
32
100
AcDbEntity
  8
0
100
AcDbBlockEnd
  0
BLOCK
  5
13B
330
134
100
AcDbEntity
  8
0
100
AcDbBlockBegin
  2
*D2
 70
     1
 71
     0
 10
0.0
 20
0.0
 30
0.0
  3
*D2
  1

  0
LINE
  5
135
330
134
100
AcDbEntity
  8
1
  6
Continuous
 62
     2
100
AcDbLine
 10
239.7314945413571
 20
900.661978856947
 30
0.0
 11
122.4777359887069
 21
900.661978856947
 31
0.0
  0
LINE
  5
136
330
134
100
AcDbEntity
  8
1
  6
Continuous
 62
     2
100
AcDbLine
 10
122.4777359887069
 20
810.9546684337471
 30
0.0
 11
122.4777359887069
 21
901.461978856947
 31
0.0
  0
LINE
  5
137
330
134
100
AcDbEntity
  8
1
  6
Continuous
 62
     2
100
AcDbLine
 10
239.7314945413571
 20
810.9546684339821
 30
0.0
 11
239.7314945413571
 21
901.461978856947
 31
0.0
  0
SOLID
  5
138
330
134
100
AcDbEntity
  8
1
 62
     2
100
AcDbTrace
 10
124.9777359887069
 20
900.9911101009155
 30
0.0
 11
124.9777359887069
 21
900.3328476129785
 31
0.0
 12
122.4777359887069
 22
900.661978856947
 32
0.0
 13
122.4777359887069
 23
900.661978856947
 33
0.0
  0
SOLID
  5
139
330
134
100
AcDbEntity
  8
1
 62
     2
100
AcDbTrace
 10
237.2314945413571
 20
900.3328476129785
 30
0.0
 11
237.2314945413571
 21
900.9911101009155
 31
0.0
 12
239.7314945413571
 22
900.661978856947
 32
0.0
 13
239.7314945413571
 23
900.661978856947
 33
0.0
  0
MTEXT
  5
13A
330
134
100
AcDbEntity
  8
1
 62
     2
100
AcDbMText
 10
174.4134189011976
 20
901.6619507106084
 30
0.0
 40
3.0
 41
0.0
 71
     7
 72
     1
  1
\C2;{\Fgdt;n}\C2;117.3
  7
CONVERTER_11
 11
0.999999999988248
 21
4.848136811095759E-6
 31
0.0
 73
     1
 44
0.60024009603842
  0
ENDBLK
  5
13C
330
134
100
AcDbEntity
  8
0
100
AcDbBlockEnd
  0
BLOCK
  5
146
330
13F
100
AcDbEntity
  8
0
100
AcDbBlockBegin
  2
*D3
 70
     1
 71
     0
 10
0.0
 20
0.0
 30
0.0
  3
*D3
  1

  0
LINE
  5
140
330
13F
100
AcDbEntity
  8
1
  6
Continuous
 62
     2
100
AcDbLine
 10
112.477735988707
 20
810.454668433748
 30
0.0
 11
112.477735988707
 21
890.6619788569479
 31
0.0
  0
LINE
  5
141
330
13F
100
AcDbEntity
  8
1
  6
Continuous
 62
     2
100
AcDbLine
 10
164.604615265007
 20
890.6619788569479
 30
0.0
 11
111.677735988707
 21
890.6619788569479
 31
0.0
  0
LINE
  5
142
330
13F
100
AcDbEntity
  8
1
  6
Continuous
 62
     2
100
AcDbLine
 10
121.9777359887069
 20
810.454668433748
 30
0.0
 11
111.677735988707
 21
810.454668433748
 31
0.0
  0
SOLID
  5
143
330
13F
100
AcDbEntity
  8
1
 62
     2
100
AcDbTrace
 10
112.8068672326755
 20
888.1619788569479
 30
0.0
 11
112.1486047447385
 21
888.1619788569479
 31
0.0
 12
112.477735988707
 22
890.6619788569479
 32
0.0
 13
112.477735988707
 23
890.6619788569479
 33
0.0
  0
SOLID
  5
144
330
13F
100
AcDbEntity
  8
1
 62
     2
100
AcDbTrace
 10
112.1486047447385
 20
812.954668433748
 30
0.0
 11
112.8068672326755
 21
812.954668433748
 31
0.0
 12
112.477735988707
 22
810.454668433748
 32
0.0
 13
112.477735988707
 23
810.454668433748
 33
0.0
  0
MTEXT
  5
145
330
13F
100
AcDbEntity
  8
1
 62
     2
100
AcDbMText
 10
111.758985988707
 20
847.0159236453479
 30
0.0
 40
3.0
 41
0.0
 71
     7
 72
     1
  1
80.2
  7
CONVERTER_11
 11
0.0
 21
1.0
 31
0.0
 73
     1
 44
0.60024009603842
  0
ENDBLK
  5
147
330
13F
100
AcDbEntity
  8
0
100
AcDbBlockEnd
  0
ENDSEC
  0
SECTION
  2
ENTITIES
  0
INSERT
  5
35
330
1F
100
AcDbEntity
  8
0
100
AcDbBlockReference
  2
TOP
 10
-637.515037590528
 20
735.555058003278
 30
0.0
  0
ENDSEC
  0
SECTION
  2
OBJECTS
  0
DICTIONARY
  5
C
330
0
100
AcDbDictionary
281
     1
  3
ACAD_GROUP
350
D
  3
ACAD_LAYOUT
350
1A
  3
ACAD_MLINESTYLE
350
17
  3
ACAD_PLOTSETTINGS
350
19
  3
ACAD_PLOTSTYLENAME
350
E
  0
DICTIONARY
  5
D
102
{ACAD_REACTORS
330
C
102
}
330
C
100
AcDbDictionary
281
     1
  0
DICTIONARY
  5
1A
102
{ACAD_REACTORS
330
C
102
}
330
C
100
AcDbDictionary
281
     1
  3
Layout1
350
1E
  3
Layout2
350
26
  3
Model
350
22
  0
DICTIONARY
  5
17
102
{ACAD_REACTORS
330
C
102
}
330
C
100
AcDbDictionary
281
     1
  3
Standard
350
18
  0
DICTIONARY
  5
19
102
{ACAD_REACTORS
330
C
102
}
330
C
100
AcDbDictionary
281
     1
  0
ACDBDICTIONARYWDFLT
  5
E
102
{ACAD_REACTORS
330
C
102
}
330
C
100
AcDbDictionary
281
     1
  3
Normal
350
F
100
AcDbDictionaryWithDefault
340
F
  0
LAYOUT
  5
1E
102
{ACAD_REACTORS
330
1A
102
}
330
1A
100
AcDbPlotSettings
  1

  2

  4

  6

 40
0.0
 41
0.0
 42
0.0
 43
0.0
 44
0.0
 45
0.0
 46
0.0
 47
0.0
 48
0.0
 49
0.0
140
0.0
141
0.0
142
1.0
143
1.0
 70
   688
 72
     0
 73
     0
 74
     5
  7

 75
    16
147
1.0
148
0.0
149
0.0
100
AcDbLayout
  1
Layout1
 70
     1
 71
     1
 10
0.0
 20
0.0
 11
0.0
 21
0.0
 12
0.0
 22
0.0
 32
0.0
 14
0.0
 24
0.0
 34
0.0
 15
0.0
 25
0.0
 35
0.0
146
0.0
 13
0.0
 23
0.0
 33
0.0
 16
1.0
 26
0.0
 36
0.0
 17
0.0
 27
1.0
 37
0.0
 76
     0
330
1B
  0
LAYOUT
  5
26
102
{ACAD_REACTORS
330
1A
102
}
330
1A
100
AcDbPlotSettings
  1

  2

  4

  6

 40
0.0
 41
0.0
 42
0.0
 43
0.0
 44
0.0
 45
0.0
 46
0.0
 47
0.0
 48
0.0
 49
0.0
140
0.0
141
0.0
142
1.0
143
1.0
 70
   688
 72
     0
 73
     0
 74
     5
  7

 75
    16
147
1.0
148
0.0
149
0.0
100
AcDbLayout
  1
Layout2
 70
     1
 71
     2
 10
0.0
 20
0.0
 11
0.0
 21
0.0
 12
0.0
 22
0.0
 32
0.0
 14
0.0
 24
0.0
 34
0.0
 15
0.0
 25
0.0
 35
0.0
146
0.0
 13
0.0
 23
0.0
 33
0.0
 16
1.0
 26
0.0
 36
0.0
 17
0.0
 27
1.0
 37
0.0
 76
     0
330
23
  0
LAYOUT
  5
22
102
{ACAD_REACTORS
330
1A
102
}
330
1A
100
AcDbPlotSettings
  1

  2

  4

  6

 40
0.0
 41
0.0
 42
0.0
 43
0.0
 44
0.0
 45
0.0
 46
0.0
 47
0.0
 48
0.0
 49
0.0
140
0.0
141
0.0
142
1.0
143
1.0
 70
  1712
 72
     0
 73
     0
 74
     0
  7

 75
     0
147
1.0
148
0.0
149
0.0
100
AcDbLayout
  1
Model
 70
     1
 71
     0
 10
0.0
 20
0.0
 11
0.0
 21
0.0
 12
0.0
 22
0.0
 32
0.0
 14
37.00474235637446
 24
675.505486760829
 34
0.0
 15
372.758797488543
 25
904.6619960309824
 35
0.0
146
0.0
 13
0.0
 23
0.0
 33
0.0
 16
1.0
 26
0.0
 36
0.0
 17
0.0
 27
1.0
 37
0.0
 76
     0
330
1F
  0
MLINESTYLE
  5
18
102
{ACAD_REACTORS
330
17
102
}
330
17
100
AcDbMlineStyle
  2
Standard
 70
     0
  3

 62
   256
 51
90.0
 52
90.0
 71
     2
 49
0.5
 62
   256
  6
BYLAYER
 49
-0.5
 62
   256
  6
BYLAYER
  0
ACDBPLACEHOLDER
  5
F
102
{ACAD_REACTORS
330
E
102
}
330
E
  0
ENDSEC
  0
EOF
