  0
SECTION
  2
HEADER
  9
$ACADVER
  1
AC1015
  9
$ACADMAINTVER
 70
     6
  9
$DWGCODEPAGE
  3
ANSI_1252
  9
$INSBASE
 10
0.0
 20
0.0
 30
0.0
  9
$EXTMIN
 10
0.0
 20
0.0
 30
0.0
  9
$EXTMAX
 10
744.515198
 20
445.439789
 30
2.0
  9
$LIMMIN
 10
0.0
 20
0.0
  9
$LIMMAX
 10
420.0
 20
297.0
  9
$ORTHOMODE
 70
     0
  9
$REGENMODE
 70
     1
  9
$FILLMODE
 70
     1
  9
$QTEXTMODE
 70
     0
  9
$MIRRTEXT
 70
     1
  9
$LTSCALE
 40
1.0
  9
$ATTMODE
 70
     1
  9
$TEXTSIZE
 40
2.5
  9
$TRACEWID
 40
1.0
  9
$TEXTSTYLE
  7
STANDARD
  9
$CLAYER
  8
0
  9
$CELTYPE
  6
ByLayer
  9
$CECOLOR
 62
   256
  9
$CELTSCALE
 40
1.0
  9
$DISPSILH
 70
     0
  9
$DIMSCALE
 40
1.0
  9
$DIMASZ
 40
2.5
  9
$DIMEXO
 40
0.625
  9
$DIMDLI
 40
3.75
  9
$DIMRND
 40
0.0
  9
$DIMDLE
 40
0.0
  9
$DIMEXE
 40
1.25
  9
$DIMTP
 40
0.0
  9
$DIMTM
 40
0.0
  9
$DIMTXT
 40
2.5
  9
$DIMCEN
 40
2.5
  9
$DIMTSZ
 40
0.0
  9
$DIMTOL
 70
     0
  9
$DIMLIM
 70
     0
  9
$DIMTIH
 70
     0
  9
$DIMTOH
 70
     0
  9
$DIMSE1
 70
     0
  9
$DIMSE2
 70
     0
  9
$DIMTAD
 70
     1
  9
$DIMZIN
 70
     8
  9
$DIMBLK
  1

  9
$DIMASO
 70
     1
  9
$DIMSHO
 70
     1
  9
$DIMPOST
  1

  9
$DIMAPOST
  1

  9
$DIMALT
 70
     0
  9
$DIMALTD
 70
     3
  9
$DIMALTF
 40
0.03937
  9
$DIMLFAC
 40
1.0
  9
$DIMTOFL
 70
     1
  9
$DIMTVP
 40
0.0
  9
$DIMTIX
 70
     0
  9
$DIMSOXD
 70
     0
  9
$DIMSAH
 70
     0
  9
$DIMBLK1
  1

  9
$DIMBLK2
  1

  9
$DIMSTYLE
  2
STANDARD
  9
$DIMCLRD
 70
     0
  9
$DIMCLRE
 70
     0
  9
$DIMCLRT
 70
     0
  9
$DIMTFAC
 40
1.0
  9
$DIMGAP
 40
0.625
  9
$DIMJUST
 70
     0
  9
$DIMSD1
 70
     0
  9
$DIMSD2
 70
     0
  9
$DIMTOLJ
 70
     0
  9
$DIMTZIN
 70
     8
  9
$DIMALTZ
 70
     0
  9
$DIMALTTZ
 70
     0
  9
$DIMUPT
 70
     0
  9
$DIMDEC
 70
     2
  9
$DIMTDEC
 70
     2
  9
$DIMALTU
 70
     2
  9
$DIMALTTD
 70
     3
  9
$DIMTXSTY
  7
STANDARD
  9
$DIMAUNIT
 70
     0
  9
$DIMADEC
 70
     0
  9
$DIMALTRND
 40
0.0
  9
$DIMAZIN
 70
     0
  9
$DIMDSEP
 70
    44
  9
$DIMATFIT
 70
     0
  9
$DIMFRAC
 70
     0
  9
$DIMLDRBLK
  1

  9
$DIMLUNIT
 70
     2
  9
$DIMLWD
 70
    -2
  9
$DIMLWE
 70
    -2
  9
$DIMTMOVE
 70
     0
  9
$LUNITS
 70
     2
  9
$LUPREC
 70
     4
  9
$SKETCHINC
 40
1.0
  9
$FILLETRAD
 40
2.5
  9
$AUNITS
 70
     0
  9
$AUPREC
 70
     0
  9
$MENU
  1
.
  9
$ELEVATION
 40
0.0
  9
$PELEVATION
 40
0.0
  9
$THICKNESS
 40
0.0
  9
$LIMCHECK
 70
     0
  9
$CHAMFERA
 40
2.5
  9
$CHAMFERB
 40
2.5
  9
$CHAMFERC
 40
0.0
  9
$CHAMFERD
 40
0.0
  9
$SKPOLY
 70
     0
  9
$TDCREATE
 40
0.000000000
  9
$TDUCREATE
 40
0.000000000
  9
$TDUPDATE
 40
0.000000000
  9
$TDUUPDATE
 40
0.000000000
  9
$TDINDWG
 40
0.0000000000
  9
$TDUSRTIMER
 40
0.0000000000
  9
$USRTIMER
 70
     1
  9
$ANGBASE
 50
0.0
  9
$ANGDIR
 70
     0
  9
$PDMODE
 70
     0
  9
$PDSIZE
 40
0.0
  9
$PLINEWID
 40
0.0
  9
$SPLFRAME
 70
     0
  9
$SPLINETYPE
 70
     6
  9
$SPLINESEGS
 70
     8
  9
$HANDSEED
  5
293
  9
$SURFTAB1
 70
     6
  9
$SURFTAB2
 70
     6
  9
$SURFTYPE
 70
     6
  9
$SURFU
 70
     6
  9
$SURFV
 70
     6
  9
$UCSBASE
  2

  9
$UCSNAME
  2

  9
$UCSORG
 10
0.0
 20
0.0
 30
0.0
  9
$UCSXDIR
 10
1.0
 20
0.0
 30
0.0
  9
$UCSYDIR
 10
0.0
 20
1.0
 30
0.0
  9
$UCSORTHOREF
  2

  9
$UCSORTHOVIEW
 70
     1
  9
$UCSORGTOP
 10
0.0
 20
0.0
 30
0.0
  9
$UCSORGBOTTOM
 10
0.0
 20
0.0
 30
0.0
  9
$UCSORGLEFT
 10
0.0
 20
0.0
 30
0.0
  9
$UCSORGRIGHT
 10
0.0
 20
0.0
 30
0.0
  9
$UCSORGFRONT
 10
0.0
 20
0.0
 30
0.0
  9
$UCSORGBACK
 10
0.0
 20
0.0
 30
0.0
  9
$PUCSBASE
  2

  9
$PUCSNAME
  2

  9
$PUCSORG
 10
0.0
 20
0.0
 30
0.0
  9
$PUCSXDIR
 10
1.0
 20
0.0
 30
0.0
  9
$PUCSYDIR
 10
0.0
 20
1.0
 30
0.0
  9
$PUCSORTHOREF
  2

  9
$PUCSORTHOVIEW
 70
     0
  9
$PUCSORGTOP
 10
0.0
 20
0.0
 30
0.0
  9
$PUCSORGBOTTOM
 10
0.0
 20
0.0
 30
0.0
  9
$PUCSORGLEFT
 10
0.0
 20
0.0
 30
0.0
  9
$PUCSORGRIGHT
 10
0.0
 20
0.0
 30
0.0
  9
$PUCSORGFRONT
 10
0.0
 20
0.0
 30
0.0
  9
$PUCSORGBACK
 10
0.0
 20
0.0
 30
0.0
  9
$USERI1
 70
     0
  9
$USERI2
 70
     0
  9
$USERI3
 70
     0
  9
$USERI4
 70
     0
  9
$USERI5
 70
     0
  9
$USERR1
 40
0.0
  9
$USERR2
 40
0.0
  9
$USERR3
 40
0.0
  9
$USERR4
 40
0.0
  9
$USERR5
 40
0.0
  9
$WORLDVIEW
 70
     1
  9
$SHADEDGE
 70
     3
  9
$SHADEDIF
 70
    70
  9
$TILEMODE
 70
     1
  9
$MAXACTVP
 70
    48
  9
$PINSBASE
 10
0.0
 20
0.0
 30
0.0
  9
$PLIMCHECK
 70
     0
  9
$PEXTMIN
 10
0.0
 20
0.0
 30
0.0
  9
$PEXTMAX
 10
744.515198
 20
445.439789
 30
2.0
  9
$PLIMMIN
 10
0.0
 20
0.0
  9
$PLIMMAX
 10
420.0
 20
297.0
  9
$UNITMODE
 70
     0
  9
$VISRETAIN
 70
     0
  9
$PLINEGEN
 70
     0
  9
$PSLTSCALE
 70
     1
  9
$TREEDEPTH
 70
  3020
  9
$CMLSTYLE
  2
Standard
  9
$CMLJUST
 70
     0
  9
$CMLSCALE
 40
20.0
  9
$PROXYGRAPHICS
 70
     1
  9
$MEASUREMENT
 70
     1
  9
$CELWEIGHT
370
    -1
  9
$ENDCAPS
280
     0
  9
$JOINSTYLE
280
     0
  9
$LWDISPLAY
290
     0
  9
$INSUNITS
 70
     0
  9
$HYPERLINKBASE
  1

  9
$STYLESHEET
  1

  9
$XEDIT
290
     1
  9
$CEPSNTYPE
380
     0
  9
$PSTYLEMODE
290
     0
  9
$FINGERPRINTGUID
  2

  9
$VERSIONGUID
  2

  9
$EXTNAMES
290
     0
  9
$PSVPSCALE
 40
0.0
  0
ENDSEC
  0
SECTION
  2
CLASSES
  0
CLASS
  1
LWPOLYLINE
  2
AcDbPolyline
  3
AutoCAD 2000
 90
        0
280
     0
281
     1
  0
CLASS
  1
IMAGE
  2
AcDbRasterImage
  3
ISM
 90
      127
280
     0
281
     1
  0
CLASS
  1
OLE2FRAME
  2
AcDbOle2Frame
  3
AutoCAD 2000
 90
        0
280
     0
281
     1
  0
CLASS
  1
HATCH
  2
AcDbHatch
  3
AutoCAD 2000
 90
        0
280
     0
281
     1
  0
CLASS
  1
DICTIONARYVAR
  2
AcDbDictionaryVar
  3
AutoCAD 2000
 90
        0
280
     0
281
     0
  0
CLASS
  1
RASTERVARIABLES
  2
AcDbRasterVariables
  3
ISM
 90
        0
280
     0
281
     0
  0
CLASS
  1
IMAGEDEF
  2
AcDbRasterImageDef
  3
ISM
 90
        0
280
     0
281
     0
  0
CLASS
  1
IMAGEDEF_REACTOR
  2
AcDbRasterImageDefReactor
  3
ISM
 90
        1
280
     0
281
     0
  0
CLASS
  1
IDBUFFER
  2
AcDbIdBuffer
  3
AutoCAD 2000
 90
        0
280
     0
281
     0
  0
CLASS
  1
SPATIAL_FILTER
  2
AcDbSpatialFilter
  3
AutoCAD 2000
 90
        0
280
     0
281
     0
  0
CLASS
  1
XRECORD
  2
AcDbXrecord
  3
AutoCAD 2000
 90
        0
280
     0
281
     0
  0
CLASS
  1
SORTENTSTABLE
  2
AcDbSortentsTable
  3
AutoCAD 2000
 90
        0
280
     0
281
     0
  0
CLASS
  1
LAYER_INDEX
  2
AcDbLayerIndex
  3
AutoCAD 2000
 90
        0
280
     0
281
     0
  0
CLASS
  1
SPATIAL_INDEX
  2
AcDbSpatialIndex
  3
AutoCAD 2000
 90
        0
280
     0
281
     0
  0
CLASS
  1
OBJECT_PTR
  2
CAseDLPNTableRecord
  3
"ASE-LPNTableRecord"
 90
        1
280
     0
281
     0
  0
CLASS
  1
LAYOUT
  2
AcDbLayout
  3
AutoCAD 2000
 90
        0
280
     0
281
     0
  0
CLASS
  1
PLOTSETTINGS
  2
AcDbPlotSettings
  3
AutoCAD 2000
 90
        0
280
     0
281
     0
  0
CLASS
  1
ACDBDICTIONARYWDFLT
  2
AcDbDictionaryWithDefault
  3
AutoCAD 2000
 90
        0
280
     0
281
     0
  0
CLASS
  1
ACDBPLACEHOLDER
  2
AcDbPlaceHolder
  3
AutoCAD 2000
 90
        0
280
     0
281
     0
  0
CLASS
  1
VBA_PROJECT
  2
AcDbVbaProject
  3
acadvba
 90
        0
280
     0
281
     0
  0
CLASS
  1
WIPEOUT
  2
AcDbWipeout
  3
WipeOut|AutoCAD Express Tool|expresstools@autodesk.com
 90
      127
280
     0
281
     1
  0
CLASS
  1
WIPEOUTVARIABLES
  2
AcDbWipeoutVariables
  3
WipeOut|AutoCAD Express Tool|expresstools@autodesk.com
 90
        0
280
     0
281
     0
  0
CLASS
  1
RTEXT
  2
RText
  3
RText|AutoCAD Express Tool|expresstools@autodesk.com
 90
        0
280
     0
281
     1
  0
CLASS
  1
ARCALIGNEDTEXT
  2
AcDbArcAlignedText
  3
ATEXT|AutoCAD Express Tool|expresstools@autodesk.com
 90
        0
280
     0
281
     1
  0
ENDSEC
  0
SECTION
  2
TABLES
  0
TABLE
  2
VPORT
  5
7
100
AcDbSymbolTable
 70
     1
  0
VPORT
  5
15
100
AcDbSymbolTableRecord
100
AcDbViewportTableRecord
  2
*ACTIVE
 70
     0
 10
0.0
 20
0.0
 11
1.0
 21
1.0
 12
6.591288
 22
4.579184
 13
0.0
 23
0.0
 14
1.0
 24
1.0
 15
0.0
 25
0.0
 16
0.0
 26
0.0
 36
1.0
 17
0.0
 27
0.0
 37
0.0
 40
9.158369
 41
0.688564
 42
50.0
 43
0.0
 44
0.0
 50
0.0
 51
0.0
 71
     0
 72
   100
 73
     1
 74
     1
 75
     0
 76
     0
 77
     0
 78
     0
281
     0
 65
     0
110
0.0
120
0.0
130
0.0
111
1.0
121
0.0
131
0.0
112
0.0
122
1.0
132
0.0
345
0
346
0
 79
     0
146
0.0
  0
ENDTAB
  0
TABLE
  2
LTYPE
  5
4
100
AcDbSymbolTable
 70
     4
  0
LTYPE
  5
11
100
AcDbSymbolTableRecord
100
AcDbLinetypeTableRecord
  2
ByBlock
 70
    64
  3

 72
    65
 73
     0
 40
0.0
  0
LTYPE
  5
12
100
AcDbSymbolTableRecord
100
AcDbLinetypeTableRecord
  2
ByLayer
 70
    64
  3

 72
    65
 73
     0
 40
0.0
  0
LTYPE
  5
13
100
AcDbSymbolTableRecord
100
AcDbLinetypeTableRecord
  2
Continuous
 70
    64
  3
Solid line
 72
    65
 73
     0
 40
0.0
  0
LTYPE
  5
24
100
AcDbSymbolTableRecord
100
AcDbLinetypeTableRecord
  2
DASHDOT
 70
     0
  3
 __ . __ . __ . __ . __ . __ . __ . 
 72
    65
 73
     4
 40
18.5
 49
12.0
 74
     0
 49
-3.0
 74
     0
 49
0.5
 74
     0
 49
-3.0
 74
     0
  0
ENDTAB
  0
TABLE
  2
LAYER
  5
2
100
AcDbSymbolTable
 70
     1
  0
LAYER
  5
14
100
AcDbSymbolTableRecord
100
AcDbLayerTableRecord
  2
0
 70
     0
 62
     7
  6
Continuous
290
     1
370
    13
390
1D
  0
ENDTAB
  0
TABLE
  2
STYLE
  5
3
100
AcDbSymbolTable
 70
     2
  0
STYLE
  5
17
100
AcDbSymbolTableRecord
100
AcDbTextStyleTableRecord
  2
STANDARD
 70
     0
 40
0.0
 41
1.0
 50
0.0
 71
     0
 42
0.0
  3
isocp.shx
  4

  0
STYLE
  5
25
100
AcDbSymbolTableRecord
100
AcDbTextStyleTableRecord
  2
GDT
 70
     0
 40
0.0
 41
1.0
 50
0.0
 71
     0
 42
0.0
  3
gdt.shx
  4

  0
ENDTAB
  0
TABLE
  2
VIEW
  5
5
100
AcDbSymbolTable
 70
     0
  0
ENDTAB
  0
TABLE
  2
UCS
  5
6
100
AcDbSymbolTable
 70
     0
  0
ENDTAB
  0
TABLE
  2
APPID
  5
8
100
AcDbSymbolTable
 70
     1
  0
APPID
  5
16
100
AcDbSymbolTableRecord
100
AcDbRegAppTableRecord
  2
ACAD
 70
     0
  0
ENDTAB
  0
TABLE
  2
DIMSTYLE
  5
9
100
AcDbSymbolTable
 70
     1
100
AcDbDimStyleTable
 71
     0
  0
DIMSTYLE
105
18
100
AcDbSymbolTableRecord
100
AcDbDimStyleTableRecord
  2
STANDARD
 70
     0
  3

  4

 40
1.0
 41
2.5
 42
0.625
 43
3.75
 44
1.25
 45
0.0
 46
0.0
 47
0.0
 48
0.0
 71
     0
 72
     0
 73
     0
 74
     0
 75
     0
 76
     0
 77
     1
 78
     8
 79
     0
140
2.5
141
2.5
142
0.0
143
0.03937
144
1.0
145
0.0
146
1.0
147
0.625
148
0.0
170
     0
171
     3
172
     1
173
     0
174
     0
175
     0
176
     0
177
     0
178
     0
179
     0
271
     2
272
     2
273
     2
274
     3
275
     0
276
     0
277
     2
278
    44
279
     0
280
     0
281
     0
282
     0
283
     0
284
     8
285
     0
286
     0
288
     0
289
     0
340
0
341
0
342
0
343
0
344
0
371
    -2
372
    -2
  0
ENDTAB
  0
TABLE
  2
BLOCK_RECORD
  5
1
100
AcDbSymbolTable
 70
    10
  0
BLOCK_RECORD
  5
A
100
AcDbSymbolTableRecord
100
AcDbBlockTableRecord
  2
*MODEL_SPACE
340
20
  0
BLOCK_RECORD
  5
B
100
AcDbSymbolTableRecord
100
AcDbBlockTableRecord
  2
*PAPER_SPACE
340
21
  0
BLOCK_RECORD
  5
39
100
AcDbSymbolTableRecord
100
AcDbBlockTableRecord
  2
BLOCK1574
340
0
102
{BLKREFS
331
28C
102
}
  0
BLOCK_RECORD
  5
26
100
AcDbSymbolTableRecord
100
AcDbBlockTableRecord
  2
*D1
340
0
  0
BLOCK_RECORD
  5
3A
100
AcDbSymbolTableRecord
100
AcDbBlockTableRecord
  2
BLOCK1575
340
0
102
{BLKREFS
331
28D
102
}
  0
BLOCK_RECORD
  5
3B
100
AcDbSymbolTableRecord
100
AcDbBlockTableRecord
  2
BLOCK1576
340
0
102
{BLKREFS
331
28E
102
}
  0
BLOCK_RECORD
  5
3C
100
AcDbSymbolTableRecord
100
AcDbBlockTableRecord
  2
BLOCK1577
340
0
102
{BLKREFS
331
28F
102
}
  0
BLOCK_RECORD
  5
3D
100
AcDbSymbolTableRecord
100
AcDbBlockTableRecord
  2
BLOCK1578
340
0
102
{BLKREFS
331
290
102
}
  0
BLOCK_RECORD
  5
3E
100
AcDbSymbolTableRecord
100
AcDbBlockTableRecord
  2
BLOCK1579
340
0
102
{BLKREFS
331
291
102
}
  0
BLOCK_RECORD
  5
2C
100
AcDbSymbolTableRecord
100
AcDbBlockTableRecord
  2
*D7
340
0
  0
BLOCK_RECORD
  5
2E
100
AcDbSymbolTableRecord
100
AcDbBlockTableRecord
  2
*D8
340
0
  0
BLOCK_RECORD
  5
3F
100
AcDbSymbolTableRecord
100
AcDbBlockTableRecord
  2
BLOCK1580
340
0
102
{BLKREFS
331
292
102
}
  0
ENDTAB
  0
ENDSEC
  0
SECTION
  2
BLOCKS
  0
BLOCK
  5
D
100
AcDbEntity
  8
0
390
0
100
AcDbBlockBegin
  2
*MODEL_SPACE
 70
     0
 10
0.0
 20
0.0
 30
0.0
  3
*MODEL_SPACE
  1

  0
ENDBLK
  5
E
100
AcDbEntity
  8
0
390
0
100
AcDbBlockEnd
  0
BLOCK
  5
F
100
AcDbEntity
 67
     1
  8
0
390
0
100
AcDbBlockBegin
  2
*PAPER_SPACE
 70
     0
 10
0.0
 20
0.0
 30
0.0
  3
*PAPER_SPACE
  1

  0
ENDBLK
  5
10
100
AcDbEntity
 67
     1
  8
0
390
0
100
AcDbBlockEnd
  0
BLOCK
  5
40
100
AcDbEntity
  8
0
370
     0
390
0
100
AcDbBlockBegin
  2
BLOCK1574
 70
     0
 10
0.0
 20
0.0
 30
0.0
  3
BLOCK1574
  1

  0
TEXT
  5
41
100
AcDbEntity
  8
0
370
    13
390
0
 62
     7
100
AcDbText
 10
152.416107
 20
29.331741
 30
0.0
 40
3.5
  1
\U+5358\U+4F4D\U+FF1Amm
 72
     5
 11
172.151596
 21
29.331741
 31
0.0
100
AcDbText
  0
ENDBLK
  5
42
100
AcDbEntity
  8
0
390
0
100
AcDbBlockEnd
  0
BLOCK
  5
43
100
AcDbEntity
  8
0
370
     0
390
0
100
AcDbBlockBegin
  2
*D1
 70
    65
 10
0.0
 20
0.0
 30
0.0
  3
*D1
  1

  0
TEXT
  5
44
100
AcDbEntity
  8
0
370
    13
390
0
 62
    34
100
AcDbText
 10
64.443697
 20
144.011247
 30
0.0
 40
3.5
  1
72
 41
0.8
 72
     5
 11
70.213051
 21
144.011247
 31
0.0
100
AcDbText
  0
LINE
  5
45
100
AcDbEntity
  8
0
370
    13
390
0
 62
    34
100
AcDbLine
 10
23.389091
 20
110.361294
 30
0.0
 11
23.389091
 21
144.511247
 31
0.0
210
0.0
220
0.0
230
1.0
  0
LINE
  5
46
100
AcDbEntity
  8
0
370
    13
390
0
 62
    34
100
AcDbLine
 10
94.772926
 20
110.361294
 30
0.0
 11
94.772926
 21
144.511247
 31
0.0
210
0.0
220
0.0
230
1.0
  0
POLYLINE
  5
47
100
AcDbEntity
  8
0
370
    13
390
0
 62
    34
100
AcDb2dPolyline
 66
     1
 10
0.0
 20
0.0
 30
0.0
 71
     3
  0
VERTEX
  5
48
100
AcDbEntity
  8
0
370
     0
390
0
100
AcDbVertex
100
AcDb2dVertex
 10
25.803909
 20
144.158296
 30
0.0
  0
VERTEX
  5
49
100
AcDbEntity
  8
0
370
     0
390
0
100
AcDbVertex
100
AcDb2dVertex
 10
23.389091
 20
143.511247
 30
0.0
  0
VERTEX
  5
4A
100
AcDbEntity
  8
0
370
     0
390
0
100
AcDbVertex
100
AcDb2dVertex
 10
25.803909
 20
142.864198
 30
0.0
  0
SEQEND
  5
4B
100
AcDbEntity
  8
0
370
     0
390
0
  0
POLYLINE
  5
4C
100
AcDbEntity
  8
0
370
    13
390
0
 62
    34
100
AcDb2dPolyline
 66
     1
 10
0.0
 20
0.0
 30
0.0
 71
     3
  0
VERTEX
  5
4D
100
AcDbEntity
  8
0
370
     0
390
0
100
AcDbVertex
100
AcDb2dVertex
 10
92.358109
 20
142.864198
 30
0.0
  0
VERTEX
  5
4E
100
AcDbEntity
  8
0
370
     0
390
0
100
AcDbVertex
100
AcDb2dVertex
 10
94.772926
 20
143.511247
 30
0.0
  0
VERTEX
  5
4F
100
AcDbEntity
  8
0
370
     0
390
0
100
AcDbVertex
100
AcDb2dVertex
 10
92.358109
 20
144.158296
 30
0.0
  0
SEQEND
  5
50
100
AcDbEntity
  8
0
370
     0
390
0
  0
LINE
  5
51
100
AcDbEntity
  8
0
370
    13
390
0
 62
    34
100
AcDbLine
 10
23.389091
 20
143.511247
 30
0.0
 11
94.772926
 21
143.511247
 31
0.0
210
0.0
220
0.0
230
1.0
  0
ENDBLK
  5
52
100
AcDbEntity
  8
0
390
0
100
AcDbBlockEnd
  0
BLOCK
  5
53
100
AcDbEntity
  8
0
370
     0
390
0
100
AcDbBlockBegin
  2
BLOCK1575
 70
     0
 10
0.0
 20
0.0
 30
0.0
  3
BLOCK1575
  1

  0
LINE
  5
54
100
AcDbEntity
  8
0
370
    13
390
0
  6
DASHDOT
 62
     7
100
AcDbLine
 10
51.94516
 20
0.0
 30
0.0
 11
-51.94516
 21
0.0
 31
0.0
210
0.0
220
0.0
230
1.0
  0
LINE
  5
55
100
AcDbEntity
  8
0
370
    13
390
0
  6
DASHDOT
 62
     7
100
AcDbLine
 10
0.0
 20
51.94516
 30
0.0
 11
0.0
 21
-51.94516
 31
0.0
210
0.0
220
0.0
230
1.0
  0
ENDBLK
  5
56
100
AcDbEntity
  8
0
390
0
100
AcDbBlockEnd
  0
BLOCK
  5
57
100
AcDbEntity
  8
0
370
     0
390
0
100
AcDbBlockBegin
  2
BLOCK1576
 70
     0
 10
0.0
 20
0.0
 30
0.0
  3
BLOCK1576
  1

  0
LINE
  5
58
100
AcDbEntity
  8
0
370
    13
390
0
  6
DASHDOT
 62
     7
 48
0.069438
100
AcDbLine
 10
31.380106
 20
13.424304
 30
0.0
 11
28.602596
 21
13.424304
 31
0.0
210
0.0
220
0.0
230
1.0
  0
LINE
  5
59
100
AcDbEntity
  8
0
370
    13
390
0
  6
DASHDOT
 62
     7
 48
0.069438
100
AcDbLine
 10
29.991352
 20
14.813059
 30
0.0
 11
29.991352
 21
12.035548
 31
0.0
210
0.0
220
0.0
230
1.0
  0
ENDBLK
  5
5A
100
AcDbEntity
  8
0
390
0
100
AcDbBlockEnd
  0
BLOCK
  5
5B
100
AcDbEntity
  8
0
370
     0
390
0
100
AcDbBlockBegin
  2
BLOCK1577
 70
     0
 10
0.0
 20
0.0
 30
0.0
  3
BLOCK1577
  1

  0
LINE
  5
5C
100
AcDbEntity
  8
0
370
    13
390
0
  6
DASHDOT
 62
     7
 48
0.069466
100
AcDbLine
 10
-28.700829
 20
13.424913
 30
0.0
 11
-31.479485
 21
13.424913
 31
0.0
210
0.0
220
0.0
230
1.0
  0
LINE
  5
5D
100
AcDbEntity
  8
0
370
    13
390
0
  6
DASHDOT
 62
     7
 48
0.069466
100
AcDbLine
 10
-30.090157
 20
14.814241
 30
0.0
 11
-30.090157
 21
12.035586
 31
0.0
210
0.0
220
0.0
230
1.0
  0
ENDBLK
  5
5E
100
AcDbEntity
  8
0
390
0
100
AcDbBlockEnd
  0
BLOCK
  5
5F
100
AcDbEntity
  8
0
370
     0
390
0
100
AcDbBlockBegin
  2
BLOCK1578
 70
     0
 10
0.0
 20
0.0
 30
0.0
  3
BLOCK1578
  1

  0
ARC
  5
60
100
AcDbEntity
  8
0
370
    40
390
0
 62
     7
100
AcDbCircle
 10
-0.000741
 20
-580.175185
 30
0.0
 40
614.103018
210
0.0
220
0.0
230
1.0
100
AcDbArc
 50
89.999931
 51
90.436235
  0
ARC
  5
61
100
AcDbEntity
  8
0
370
    40
390
0
 62
     7
100
AcDbCircle
 10
-4.673568
 20
33.611766
 30
0.0
 40
0.298368
210
0.0
220
0.0
230
1.0
100
AcDbArc
 50
90.527732
 51
180.284923
  0
LINE
  5
62
100
AcDbEntity
  8
0
370
    40
390
0
 62
     7
 48
0.002152
100
AcDbLine
 10
-4.972113
 20
33.524202
 30
0.0
 11
-4.972107
 21
33.610281
 31
0.0
210
0.0
220
0.0
230
1.0
  0
ARC
  5
63
100
AcDbEntity
  8
0
370
    40
390
0
 62
     7
100
AcDbCircle
 10
-0.003178
 20
2.827088
 30
0.0
 40
31.096677
210
0.0
220
0.0
230
1.0
100
AcDbArc
 50
99.1947
 51
103.26248
  0
ARC
  5
64
100
AcDbEntity
  8
0
370
    13
390
0
 62
     7
100
AcDbCircle
 10
-0.128827
 20
108.283556
 30
0.0
 40
78.798155
210
0.0
220
0.0
230
1.0
100
AcDbArc
 50
266.356332
 51
270.093672
  0
ARC
  5
65
100
AcDbEntity
  8
0
370
    40
390
0
 62
     7
100
AcDbCircle
 10
-0.003231
 20
2.828308
 30
0.0
 40
31.123513
210
0.0
220
0.0
230
1.0
100
AcDbArc
 50
99.238614
 51
103.262901
  0
LINE
  5
66
100
AcDbEntity
  8
0
370
    40
390
0
 62
     7
 48
0.000918
100
AcDbLine
 10
-5.0
 20
33.548097
 30
0.0
 11
-4.972113
 21
33.524205
 31
0.0
210
0.0
220
0.0
230
1.0
  0
SPLINE
  5
67
100
AcDbEntity
  8
0
370
    13
390
0
 62
     7
100
AcDbSpline
210
0.0
220
0.0
230
1.0
 70
     8
 71
     5
 72
    15
 73
     9
 74
     0
 42
0.0
 43
0.0
 40
0.0
 40
0.0
 40
0.0
 40
0.0
 40
0.0
 40
0.0
 40
43.705003049173342
 40
43.705003049173342
 40
43.705003049173342
 40
73.061555184225256
 40
73.061555184225256
 40
73.061555184225256
 40
73.061555184225256
 40
73.061555184225256
 40
73.061555184225256
 10
-5.1365351268022854
 20
29.644760875835953
 30
0.0
 10
-5.8060835623119909
 20
29.68722588996415
 30
0.0
 10
-6.5361706176489207
 20
29.740138498959944
 30
0.0
 10
-7.3481872867836628
 20
29.80651953687288
 30
0.0
 10
-8.8908996879163507
 20
29.948312448567524
 30
0.0
 10
-10.931609894301193
 20
30.166015955047897
 30
0.0
 10
-11.861216578188381
 20
30.268929707992328
 30
0.0
 10
-12.91626908760591
 20
30.390052394320289
 30
0.0
 10
-14.134694380624108
 20
30.525950368871243
 30
0.0
  0
ARC
  5
68
100
AcDbEntity
  8
0
370
    40
390
0
 62
     7
100
AcDbCircle
 10
-0.018744
 20
2.883487
 30
0.0
 40
31.038174
210
0.0
220
0.0
230
1.0
100
AcDbArc
 50
103.258399
 51
117.051664
  0
ARC
  5
69
100
AcDbEntity
  8
0
370
    13
390
0
 62
     7
100
AcDbCircle
 10
0.066272
 20
-12.175716
 30
0.0
 40
38.13892
210
0.0
220
0.0
230
1.0
100
AcDbArc
 50
90.099561
 51
98.197044
  0
ARC
  5
6A
100
AcDbEntity
  8
0
370
    13
390
0
 62
     7
100
AcDbCircle
 10
0.128827
 20
108.283556
 30
0.0
 40
78.798155
210
0.0
220
0.0
230
1.0
100
AcDbArc
 50
269.906328
 51
273.643668
  0
ARC
  5
6B
100
AcDbEntity
  8
0
370
    40
390
0
 62
     7
100
AcDbCircle
 10
0.003178
 20
2.827088
 30
0.0
 40
31.096677
210
0.0
220
0.0
230
1.0
100
AcDbArc
 50
76.73752
 51
80.8053
  0
LINE
  5
6C
100
AcDbEntity
  8
0
370
    40
390
0
 62
     7
 48
0.002152
100
AcDbLine
 10
4.972113
 20
33.524202
 30
0.0
 11
4.972107
 21
33.610281
 31
0.0
210
0.0
220
0.0
230
1.0
  0
ARC
  5
6D
100
AcDbEntity
  8
0
370
    40
390
0
 62
     7
100
AcDbCircle
 10
4.673568
 20
33.611766
 30
0.0
 40
0.298368
210
0.0
220
0.0
230
1.0
100
AcDbArc
 50
359.715077
 51
89.472268
  0
ARC
  5
6E
100
AcDbEntity
  8
0
370
    40
390
0
 62
     7
100
AcDbCircle
 10
0.000741
 20
-580.175185
 30
0.0
 40
614.103018
210
0.0
220
0.0
230
1.0
100
AcDbArc
 50
89.563765
 51
90.000069
  0
LINE
  5
6F
100
AcDbEntity
  8
0
370
    40
390
0
 62
     7
 48
0.005373
100
AcDbLine
 10
-7.143574
 20
33.121683
 30
0.0
 11
-7.352578
 21
33.071655
 31
0.0
210
0.0
220
0.0
230
1.0
  0
ARC
  5
70
100
AcDbEntity
  8
0
370
    40
390
0
 62
     7
100
AcDbCircle
 10
-0.019064
 20
2.885213
 30
0.0
 40
31.064443
210
0.0
220
0.0
230
1.0
100
AcDbArc
 50
103.654938
 51
117.05259
  0
LINE
  5
71
100
AcDbEntity
  8
0
370
    13
390
0
 62
     7
 48
0.000699
100
AcDbLine
 10
-14.147409
 20
30.550846
 30
0.0
 11
-14.134694
 21
30.525952
 31
0.0
210
0.0
220
0.0
230
1.0
  0
ARC
  5
72
100
AcDbEntity
  8
0
370
    40
390
0
 62
     7
100
AcDbCircle
 10
-4.86398
 20
12.373196
 30
0.0
 40
20.410999
210
0.0
220
0.0
230
1.0
100
AcDbArc
 50
117.053659
 51
119.468552
  0
ARC
  5
73
100
AcDbEntity
  8
0
370
    13
390
0
 62
     7
100
AcDbCircle
 10
0.797
 20
-17.740787
 30
0.0
 40
43.752111
210
0.0
220
0.0
230
1.0
100
AcDbArc
 50
98.105122
 51
100.874745
  0
ARC
  5
74
100
AcDbEntity
  8
0
370
    40
390
0
 62
     7
100
AcDbCircle
 10
-4.679422
 20
12.005419
 30
0.0
 40
20.794511
210
0.0
220
0.0
230
1.0
100
AcDbArc
 50
117.045721
 51
121.303982
  0
LINE
  5
75
100
AcDbEntity
  8
0
370
    40
390
0
 62
     7
 48
0.001936
100
AcDbLine
 10
-15.549869
 20
29.73234
 30
0.0
 11
-15.483798
 21
29.772708
 31
0.0
210
0.0
220
0.0
230
1.0
  0
ARC
  5
76
100
AcDbEntity
  8
0
370
    40
390
0
 62
     7
100
AcDbCircle
 10
-5.000471
 20
12.534431
 30
0.0
 40
20.175669
210
0.0
220
0.0
230
1.0
100
AcDbArc
 50
121.525433
 51
124.485177
  0
SPLINE
  5
77
100
AcDbEntity
  8
0
370
    40
390
0
 62
     7
100
AcDbSpline
210
0.0
220
0.0
230
1.0
 70
     8
 71
     5
 72
    21
 73
    15
 74
     0
 42
0.0
 43
0.0
 40
0.0
 40
0.0
 40
0.0
 40
0.0
 40
0.0
 40
0.0
 40
3.9142576956995594
 40
3.9142576956995594
 40
3.9142576956995594
 40
7.8870109250075799
 40
7.8870109250075799
 40
7.8870109250075799
 40
9.9618480517846386
 40
9.9618480517846386
 40
9.9618480517846386
 40
10.01422595784816
 40
10.01422595784816
 40
10.01422595784816
 40
10.01422595784816
 40
10.01422595784816
 40
10.01422595784816
 10
-18.78956264280324
 20
27.056742998149449
 30
0.0
 10
-18.584220325646051
 20
27.100289128996724
 30
0.0
 10
-18.382727666374873
 20
27.160332345703715
 30
0.0
 10
-18.184165734174851
 20
27.236957231151976
 30
0.0
 10
-17.787419409853992
 20
27.429040870234591
 30
0.0
 10
-17.404061626961838
 20
27.707733580800515
 30
0.0
 10
-17.217286059883072
 20
27.871978262218409
 30
0.0
 10
-16.933842568765737
 20
28.170949041632991
 30
0.0
 10
-16.670744016395702
 20
28.588707361860383
 30
0.0
 10
-16.584247821785819
 20
28.747635060427132
 30
0.0
 10
-16.500144254796869
 20
28.935844255105614
 30
0.0
 10
-16.428996662560564
 20
29.148852846529046
 30
0.0
 10
-16.427252755328677
 20
29.154112805765291
 30
0.0
 10
-16.425516936229396
 20
29.159387768916559
 30
0.0
 10
-16.42378930204282
 20
29.164677775659637
 30
0.0
  0
SPLINE
  5
78
100
AcDbEntity
  8
0
370
    13
390
0
 62
     7
100
AcDbSpline
210
0.0
220
0.0
230
1.0
 70
     8
 71
     5
 72
    24
 73
    18
 74
     0
 42
0.0
 43
0.0
 40
0.0
 40
0.0
 40
0.0
 40
0.0
 40
0.0
 40
0.0
 40
33.554386122665193
 40
33.554386122665193
 40
33.554386122665193
 40
60.729586484094469
 40
60.729586484094469
 40
60.729586484094469
 40
64.167930884912778
 40
64.167930884912778
 40
64.167930884912778
 40
67.691078698549646
 40
67.691078698549646
 40
67.691078698549646
 40
67.793642510958037
 40
67.793642510958037
 40
67.793642510958037
 40
67.793642510958037
 40
67.793642510958037
 40
67.793642510958037
 10
-7.4573979292610177
 20
25.225675650878099
 30
0.0
 10
-8.1263367282245902
 20
25.272473319401772
 30
0.0
 10
-8.8566371613630412
 20
25.328210301143908
 30
0.0
 10
-9.6648789973381497
 20
25.395225083956529
 30
0.0
 10
-11.31172083622099
 20
25.544339465288498
 30
0.0
 10
-13.413868412104241
 20
25.758902906694644
 30
0.0
 10
-14.461086463391469
 20
25.869676536207187
 30
0.0
 10
-15.799680886751895
 20
26.015658092028708
 30
0.0
 10
-17.319363744132815
 20
26.174378668090977
 30
0.0
 10
-17.492349367837654
 20
26.192349844888138
 30
0.0
 10
-17.847278359819029
 20
26.228990370668928
 30
0.0
 10
-18.211704123400025
 20
26.266051078214733
 30
0.0
 10
-18.37679325273384
 20
26.282699637734339
 30
0.0
 10
-18.569798090748868
 20
26.301982482664407
 30
0.0
 10
-18.766145430264103
 20
26.321372841584399
 30
0.0
 10
-18.771702410720273
 20
26.321921444364907
 30
0.0
 10
-18.777262162204977
 20
26.322470140818769
 30
0.0
 10
-18.782824729064917
 20
26.323018934328701
 30
0.0
  0
ARC
  5
79
100
AcDbEntity
  8
0
370
    13
390
0
 62
     7
100
AcDbCircle
 10
-0.066468
 20
-12.172271
 30
0.0
 40
38.135502
210
0.0
220
0.0
230
1.0
100
AcDbArc
 50
81.801926
 51
89.900135
  0
ARC
  5
7A
100
AcDbEntity
  8
0
370
    13
390
0
 62
     7
100
AcDbCircle
 10
0.065161
 20
-9.559598
 30
0.0
 40
35.121956
210
0.0
220
0.0
230
1.0
100
AcDbArc
 50
90.106302
 51
98.845864
  0
LINE
  5
7B
100
AcDbEntity
  8
0
370
    40
390
0
 62
     7
 48
0.000918
100
AcDbLine
 10
5.0
 20
33.548097
 30
0.0
 11
4.972113
 21
33.524205
 31
0.0
210
0.0
220
0.0
230
1.0
  0
ARC
  5
7C
100
AcDbEntity
  8
0
370
    40
390
0
 62
     7
100
AcDbCircle
 10
0.003231
 20
2.828308
 30
0.0
 40
31.123513
210
0.0
220
0.0
230
1.0
100
AcDbArc
 50
76.737099
 51
80.761386
  0
ARC
  5
7D
100
AcDbEntity
  8
0
370
    40
390
0
 62
     7
100
AcDbCircle
 10
0.018744
 20
2.883487
 30
0.0
 40
31.038174
210
0.0
220
0.0
230
1.0
100
AcDbArc
 50
62.948336
 51
76.741601
  0
SPLINE
  5
7E
100
AcDbEntity
  8
0
370
    13
390
0
 62
     7
100
AcDbSpline
210
0.0
220
0.0
230
1.0
 70
     8
 71
     5
 72
    15
 73
     9
 74
     0
 42
0.0
 43
0.0
 40
0.0
 40
0.0
 40
0.0
 40
0.0
 40
0.0
 40
0.0
 40
43.705003049173342
 40
43.705003049173342
 40
43.705003049173342
 40
73.061555184225256
 40
73.061555184225256
 40
73.061555184225256
 40
73.061555184225256
 40
73.061555184225256
 40
73.061555184225256
 10
5.1365351268022854
 20
29.644760875835953
 30
0.0
 10
5.8060835623119909
 20
29.68722588996415
 30
0.0
 10
6.5361706176489207
 20
29.740138498959944
 30
0.0
 10
7.3481872867836628
 20
29.80651953687288
 30
0.0
 10
8.8908996879163507
 20
29.948312448567524
 30
0.0
 10
10.931609894301193
 20
30.166015955047897
 30
0.0
 10
11.861216578188381
 20
30.268929707992328
 30
0.0
 10
12.91626908760591
 20
30.390052394320289
 30
0.0
 10
14.134694380624108
 20
30.525950368871243
 30
0.0
  0
LINE
  5
7F
100
AcDbEntity
  8
0
370
    40
390
0
 62
     7
 48
0.00446
100
AcDbLine
 10
-14.905102
 20
30.143528
 30
0.0
 11
-15.060029
 21
30.055105
 31
0.0
210
0.0
220
0.0
230
1.0
  0
SPLINE
  5
80
100
AcDbEntity
  8
0
370
    40
390
0
 62
     7
100
AcDbSpline
210
0.0
220
0.0
230
1.0
 70
     8
 71
     5
 72
    18
 73
    12
 74
     0
 42
0.0
 43
0.0
 40
0.0
 40
0.0
 40
0.0
 40
0.0
 40
0.0
 40
0.0
 40
0.746974557951106
 40
0.746974557951106
 40
0.746974557951106
 40
1.2493280223369272
 40
1.2493280223369272
 40
1.2493280223369272
 40
1.3492170917529258
 40
1.3492170917529258
 40
1.3492170917529258
 40
1.3492170917529258
 40
1.3492170917529258
 40
1.3492170917529258
 10
-15.060030859707478
 20
30.055104841438887
 30
0.0
 10
-15.146078570708324
 20
30.005509079873313
 30
0.0
 10
-15.230914148675033
 20
29.956429165843325
 30
0.0
 10
-15.307262275342481
 20
29.912023024773141
 30
0.0
 10
-15.417243456477031
 20
29.848181108225148
 30
0.0
 10
-15.488383831722297
 20
29.807750972194761
 30
0.0
 10
-15.510011112971073
 20
29.795751810045516
 30
0.0
 10
-15.527383556462782
 20
29.786626450734136
 30
0.0
 10
-15.534408630975625
 20
29.783847665848761
 30
0.0
 10
-15.535289514327792
 20
29.783561324638701
 30
0.0
 10
-15.53588414540763
 20
29.783450083310527
 30
0.0
 10
-15.536193141498664
 20
29.783513648133106
 30
0.0
  0
LINE
  5
81
100
AcDbEntity
  8
0
370
    13
390
0
 62
     7
 48
0.000699
100
AcDbLine
 10
14.147409
 20
30.550846
 30
0.0
 11
14.134694
 21
30.525952
 31
0.0
210
0.0
220
0.0
230
1.0
  0
ARC
  5
82
100
AcDbEntity
  8
0
370
    40
390
0
 62
     7
100
AcDbCircle
 10
0.019064
 20
2.885213
 30
0.0
 40
31.064443
210
0.0
220
0.0
230
1.0
100
AcDbArc
 50
62.94741
 51
76.345062
  0
LINE
  5
83
100
AcDbEntity
  8
0
370
    40
390
0
 62
     7
 48
0.005373
100
AcDbLine
 10
7.143574
 20
33.121683
 30
0.0
 11
7.352578
 21
33.071655
 31
0.0
210
0.0
220
0.0
230
1.0
  0
ARC
  5
84
100
AcDbEntity
  8
0
370
    40
390
0
 62
     7
100
AcDbCircle
 10
4.86398
 20
12.373196
 30
0.0
 40
20.410999
210
0.0
220
0.0
230
1.0
100
AcDbArc
 50
60.531448
 51
62.946341
  0
SPLINE
  5
85
100
AcDbEntity
  8
0
370
    13
390
0
 62
     7
100
AcDbSpline
210
0.0
220
0.0
230
1.0
 70
     8
 71
     5
 72
    18
 73
    12
 74
     0
 42
0.0
 43
0.0
 40
0.0
 40
0.0
 40
0.0
 40
0.0
 40
0.0
 40
0.0
 40
14.842914032166973
 40
14.842914032166973
 40
14.842914032166973
 40
22.214077951145629
 40
22.214077951145629
 40
22.214077951145629
 40
24.640049773716527
 40
24.640049773716527
 40
24.640049773716527
 40
24.640049773716527
 40
24.640049773716527
 40
24.640049773716527
 10
-7.457385430679075
 20
25.225644665620585
 30
0.0
 10
-9.0163547372302357
 20
24.900738981878824
 30
0.0
 10
-10.527463181277776
 20
24.486892872309198
 30
0.0
 10
-11.986235805340424
 20
23.978196707670122
 30
0.0
 10
-14.076546755019699
 20
23.060937360628849
 30
0.0
 10
-16.02378309744476
 20
21.892447691447316
 30
0.0
 10
-16.653121785986507
 20
21.476505715665848
 30
0.0
 10
-17.467192782846432
 20
20.885317828209036
 30
0.0
 10
-18.251903334021648
 20
20.241166356840409
 30
0.0
 10
-18.452230328741809
 20
20.07198120741544
 30
0.0
 10
-18.642606388740738
 20
19.905709513937655
 30
0.0
 10
-18.831324743135546
 20
19.736268813604635
 30
0.0
  0
ARC
  5
86
100
AcDbEntity
  8
0
370
    40
390
0
 62
     7
100
AcDbCircle
 10
-9.528066
 20
17.61426
 30
0.0
 40
13.357046
210
0.0
220
0.0
230
1.0
100
AcDbArc
 50
135.253494
 51
138.865579
  0
LINE
  5
87
100
AcDbEntity
  8
0
370
    13
390
0
 62
     7
 48
0.020227
100
AcDbLine
 10
-19.588149
 20
26.400845
 30
0.0
 11
-18.782825
 21
26.323019
 31
0.0
210
0.0
220
0.0
230
1.0
  0
ARC
  5
88
100
AcDbEntity
  8
0
370
    40
390
0
 62
     7
100
AcDbCircle
 10
-19.465041
 20
30.242237
 30
0.0
 40
3.256324
210
0.0
220
0.0
230
1.0
100
AcDbArc
 50
277.949224
 51
281.972531
  0
LINE
  5
89
100
AcDbEntity
  8
0
370
    40
390
0
 62
     7
 48
0.004535
100
AcDbLine
 10
-18.925014
 20
27.174961
 30
0.0
 11
-19.014605
 21
27.017216
 31
0.0
210
0.0
220
0.0
230
1.0
  0
ARC
  5
8A
100
AcDbEntity
  8
0
370
    40
390
0
 62
     7
100
AcDbCircle
 10
-13.737648
 20
21.448204
 30
0.0
 40
8.170588
210
0.0
220
0.0
230
1.0
100
AcDbArc
 50
109.193468
 51
111.187687
  0
ARC
  5
8B
100
AcDbEntity
  8
0
370
    40
390
0
 62
     7
100
AcDbCircle
 10
-19.500155
 20
30.119707
 30
0.0
 40
3.000392
210
0.0
220
0.0
230
1.0
100
AcDbArc
 50
281.051358
 51
339.449405
  0
ARC
  5
8C
100
AcDbEntity
  8
0
370
    40
390
0
 62
     7
100
AcDbCircle
 10
-5.31998
 20
13.165322
 30
0.0
 40
19.548405
210
0.0
220
0.0
230
1.0
100
AcDbArc
 50
121.709886
 51
125.568101
  0
LINE
  5
8D
100
AcDbEntity
  8
0
370
    40
390
0
 62
     7
 48
0.001501
100
AcDbLine
 10
-15.594991
 20
29.795564
 30
0.0
 11
-15.536185
 21
29.783502
 31
0.0
210
0.0
220
0.0
230
1.0
  0
ARC
  5
8E
100
AcDbEntity
  8
0
370
    13
390
0
 62
     7
100
AcDbCircle
 10
0.810096
 20
-14.827265
 30
0.0
 40
40.44242
210
0.0
220
0.0
230
1.0
100
AcDbArc
 50
98.741068
 51
101.724438
  0
ELLIPSE
  5
8F
100
AcDbEntity
  8
0
370
    13
390
0
 62
     7
100
AcDbEllipse
 10
-7.490328
 20
25.046675
 30
0.0
 11
0.0607910454273224
 21
-0.2937761843204498
 31
0.0
210
0.0
220
0.0
230
1.0
 40
0.276142
 41
0.3044078845273031
 42
2.167660009041013
  0
SPLINE
  5
90
100
AcDbEntity
  8
0
370
    13
390
0
 62
     7
100
AcDbSpline
210
0.0
220
0.0
230
1.0
 70
     8
 71
     5
 72
    24
 73
    18
 74
     0
 42
0.0
 43
0.0
 40
0.0
 40
0.0
 40
0.0
 40
0.0
 40
0.0
 40
0.0
 40
33.554371315277919
 40
33.554371315277919
 40
33.554371315277919
 40
60.729559634483735
 40
60.729559634483735
 40
60.729559634483735
 40
64.167902512961717
 40
64.167902512961717
 40
64.167902512961717
 40
67.691048387982264
 40
67.691048387982264
 40
67.691048387982264
 40
67.793612149519888
 40
67.793612149519888
 40
67.793612149519888
 40
67.793612149519888
 40
67.793612149519888
 40
67.793612149519888
 10
7.4574009039905276
 20
25.225675858984477
 30
0.0
 10
8.12633962605147
 20
25.272473538658584
 30
0.0
 10
8.856639970934653
 20
25.328210530085688
 30
0.0
 10
9.6648817011370856
 20
25.395225320227983
 30
0.0
 10
11.311723284975519
 20
25.544339705836663
 30
0.0
 10
13.413870363981083
 20
25.758903112770199
 30
0.0
 10
14.461088147216902
 20
25.869676718660866
 30
0.0
 10
15.799682118902227
 20
26.015658223084667
 30
0.0
 10
17.319364367551621
 20
26.174378732943616
 30
0.0
 10
17.492349920932437
 20
26.192349902141757
 30
0.0
 10
17.847278747146383
 20
26.228990410245345
 30
0.0
 10
18.211704335463381
 20
26.266051099560134
 30
0.0
 10
18.376793472617308
 20
26.282699659710122
 30
0.0
 10
18.569798206613214
 20
26.301982494115791
 30
0.0
 10
18.766145438532742
 20
26.321372842400702
 30
0.0
 10
18.771702416235446
 20
26.321921444909204
 30
0.0
 10
18.777262164963958
 20
26.322470141090967
 30
0.0
 10
18.78282472906491
 20
26.323018934328701
 30
0.0
  0
SPLINE
  5
91
100
AcDbEntity
  8
0
370
    40
390
0
 62
     7
100
AcDbSpline
210
0.0
220
0.0
230
1.0
 70
     8
 71
     5
 72
    21
 73
    15
 74
     0
 42
0.0
 43
0.0
 40
0.0
 40
0.0
 40
0.0
 40
0.0
 40
0.0
 40
0.0
 40
3.9142576956888218
 40
3.9142576956888218
 40
3.9142576956888218
 40
7.8870109249892852
 40
7.8870109249892852
 40
7.8870109249892852
 40
9.9618480516881576
 40
9.9618480516881576
 40
9.9618480516881576
 40
10.014225957751682
 40
10.014225957751682
 40
10.014225957751682
 40
10.014225957751682
 40
10.014225957751682
 40
10.014225957751682
 10
18.78956264280324
 20
27.056742998149453
 30
0.0
 10
18.584220325646612
 20
27.100289128996611
 30
0.0
 10
18.382727666375974
 20
27.160332345703388
 30
0.0
 10
18.18416573417462
 20
27.236957231152505
 30
0.0
 10
17.787419409852987
 20
27.429040870234793
 30
0.0
 10
17.404061626963447
 20
27.707733580799982
 30
0.0
 10
17.217286059882582
 20
27.871978262219155
 30
0.0
 10
16.933842568768956
 20
28.170949041629648
 30
0.0
 10
16.670744016402562
 20
28.588707361849576
 30
0.0
 10
16.584247821779993
 20
28.747635060441318
 30
0.0
 10
16.500144254794243
 20
28.93584425511343
 30
0.0
 10
16.428996662560564
 20
29.148852846529042
 30
0.0
 10
16.427252755328677
 20
29.154112805765287
 30
0.0
 10
16.425516936229396
 20
29.159387768916559
 30
0.0
 10
16.42378930204282
 20
29.164677775659637
 30
0.0
  0
ARC
  5
92
100
AcDbEntity
  8
0
370
    40
390
0
 62
     7
100
AcDbCircle
 10
5.000471
 20
12.534431
 30
0.0
 40
20.175669
210
0.0
220
0.0
230
1.0
100
AcDbArc
 50
55.514823
 51
58.474567
  0
LINE
  5
93
100
AcDbEntity
  8
0
370
    40
390
0
 62
     7
 48
0.001936
100
AcDbLine
 10
15.549869
 20
29.73234
 30
0.0
 11
15.483798
 21
29.772708
 31
0.0
210
0.0
220
0.0
230
1.0
  0
ARC
  5
94
100
AcDbEntity
  8
0
370
    40
390
0
 62
     7
100
AcDbCircle
 10
4.679422
 20
12.005419
 30
0.0
 40
20.794511
210
0.0
220
0.0
230
1.0
100
AcDbArc
 50
58.696018
 51
62.954279
  0
ARC
  5
95
100
AcDbEntity
  8
0
370
    13
390
0
 62
     7
100
AcDbCircle
 10
-0.796986
 20
-17.740708
 30
0.0
 40
43.752031
210
0.0
220
0.0
230
1.0
100
AcDbArc
 50
79.125252
 51
81.894881
  0
ARC
  5
96
100
AcDbEntity
  8
0
370
    13
390
0
 62
     7
100
AcDbCircle
 10
-0.065161
 20
-9.560408
 30
0.0
 40
35.122762
210
0.0
220
0.0
230
1.0
100
AcDbArc
 50
81.15434
 51
89.893688
  0
ARC
  5
97
100
AcDbEntity
  8
0
370
    13
390
0
 62
     7
100
AcDbCircle
 10
0.0
 20
0.0
 30
0.0
 40
26.962997
210
0.0
220
0.0
230
1.0
100
AcDbArc
 50
137.387683
 51
402.612309
  0
ELLIPSE
  5
98
100
AcDbEntity
  8
0
370
    13
390
0
 62
     7
100
AcDbEllipse
 10
-38.302132
 20
-23.617582
 30
0.0
 11
59.229305267333984
 21
40.252655029296875
 31
0.0
210
0.0
220
0.0
230
1.0
 40
0.476878
 41
0.2987174111523577
 42
0.4329655972066309
  0
ARC
  5
99
100
AcDbEntity
  8
0
370
    13
390
0
 62
     7
100
AcDbCircle
 10
-0.8101
 20
-14.827289
 30
0.0
 40
40.442445
210
0.0
220
0.0
230
1.0
100
AcDbArc
 50
78.275563
 51
81.258932
  0
SPLINE
  5
9A
100
AcDbEntity
  8
0
370
    13
390
0
 62
     7
100
AcDbSpline
210
0.0
220
0.0
230
1.0
 70
     8
 71
     5
 72
    21
 73
    15
 74
     0
 42
0.0
 43
0.0
 40
0.0
 40
0.0
 40
0.0
 40
0.0
 40
0.0
 40
0.0
 40
9.914105963455123
 40
9.914105963455123
 40
9.914105963455123
 40
14.822941699810952
 40
14.822941699810952
 40
14.822941699810952
 40
22.168222878911664
 40
22.168222878911664
 40
22.168222878911664
 40
24.600273629179462
 40
24.600273629179462
 40
24.600273629179462
 40
24.600273629179462
 40
24.600273629179462
 40
24.600273629179462
 10
-7.4080175846862968
 20
24.771436232952102
 30
0.0
 10
-8.4442607024586636
 20
24.557007663422311
 30
0.0
 10
-9.4587023990334114
 20
24.303431255192759
 30
0.0
 10
-10.449791802244775
 20
24.009306620708664
 30
0.0
 10
-11.890321718727019
 20
23.506788441531331
 30
0.0
 10
-13.272426107569739
 20
22.901895618641596
 30
0.0
 10
-13.723390779590218
 20
22.690093483302782
 30
0.0
 10
-14.833171766864105
 20
22.131180060950769
 30
0.0
 10
-15.898834591605894
 20
21.49692407759926
 30
0.0
 10
-16.520506304598293
 20
21.089235503465648
 30
0.0
 10
-17.325875518976542
 20
20.508709118824985
 30
0.0
 10
-18.101859195550578
 20
19.875987154905093
 30
0.0
 10
-18.293028916446211
 20
19.71536756177386
 30
0.0
 10
-18.482417869058828
 20
19.551410563370069
 30
0.0
 10
-18.669858372899622
 20
19.384235847678848
 30
0.0
  0
ARC
  5
9B
100
AcDbEntity
  8
0
370
    13
390
0
 62
     7
100
AcDbCircle
 10
-4.288111
 20
3.265381
 30
0.0
 40
21.60215
210
0.0
220
0.0
230
1.0
100
AcDbArc
 50
131.740343
 51
136.061314
  0
LINE
  5
9C
100
AcDbEntity
  8
0
370
    40
390
0
 62
     7
 48
0.00446
100
AcDbLine
 10
14.905102
 20
30.143528
 30
0.0
 11
15.060029
 21
30.055105
 31
0.0
210
0.0
220
0.0
230
1.0
  0
ARC
  5
9D
100
AcDbEntity
  8
0
370
    40
390
0
 62
     7
100
AcDbCircle
 10
21.873299
 20
-9.641356
 30
0.0
 40
54.970431
210
0.0
220
0.0
230
1.0
100
AcDbArc
 50
139.741116
 51
142.322866
  0
SPLINE
  5
9E
100
AcDbEntity
  8
0
370
    40
390
0
 62
     7
100
AcDbSpline
210
0.0
220
0.0
230
1.0
 70
     8
 71
     5
 72
    18
 73
    12
 74
     0
 42
0.0
 43
0.0
 40
0.0
 40
0.0
 40
0.0
 40
0.0
 40
0.0
 40
0.0
 40
0.746974557951106
 40
0.746974557951106
 40
0.746974557951106
 40
1.2493280223369272
 40
1.2493280223369272
 40
1.2493280223369272
 40
1.3492170917529258
 40
1.3492170917529258
 40
1.3492170917529258
 40
1.3492170917529258
 40
1.3492170917529258
 40
1.3492170917529258
 10
15.060030859707478
 20
30.055104841438887
 30
0.0
 10
15.146078570708324
 20
30.005509079873313
 30
0.0
 10
15.230914148675033
 20
29.956429165843325
 30
0.0
 10
15.307262275342481
 20
29.912023024773141
 30
0.0
 10
15.417243456477031
 20
29.848181108225148
 30
0.0
 10
15.488383831722297
 20
29.807750972194761
 30
0.0
 10
15.510011112971073
 20
29.795751810045516
 30
0.0
 10
15.527383556462782
 20
29.786626450734136
 30
0.0
 10
15.534408630975625
 20
29.783847665848761
 30
0.0
 10
15.535289514327792
 20
29.783561324638701
 30
0.0
 10
15.53588414540763
 20
29.783450083310527
 30
0.0
 10
15.536193141498664
 20
29.783513648133106
 30
0.0
  0
ARC
  5
9F
100
AcDbEntity
  8
0
370
    40
390
0
 62
     7
100
AcDbCircle
 10
21.72293
 20
-9.559217
 30
0.0
 40
54.769826
210
0.0
220
0.0
230
1.0
100
AcDbArc
 50
138.961391
 51
142.691584
  0
ARC
  5
A0
100
AcDbEntity
  8
0
370
    13
390
0
 62
     7
100
AcDbCircle
 10
-4.123014
 20
3.36166
 30
0.0
 40
22.01052
210
0.0
220
0.0
230
1.0
100
AcDbArc
 50
131.931416
 51
136.24582
  0
ARC
  5
A1
100
AcDbEntity
  8
0
370
    13
390
0
 62
     7
100
AcDbCircle
 10
-0.82915
 20
0.198477
 30
0.0
 40
26.577283
210
0.0
220
0.0
230
1.0
100
AcDbArc
 50
136.230971
 51
142.495318
  0
LINE
  5
A2
100
AcDbEntity
  8
0
370
    13
390
0
 62
     7
 48
0.000829
100
AcDbLine
 10
-19.613136
 20
26.422617
 30
0.0
 11
-19.588142
 21
26.400852
 31
0.0
210
0.0
220
0.0
230
1.0
  0
ARC
  5
A3
100
AcDbEntity
  8
0
370
    40
390
0
 62
     7
100
AcDbCircle
 10
-9.735152
 20
18.06022
 30
0.0
 40
12.943316
210
0.0
220
0.0
230
1.0
100
AcDbArc
 50
135.235137
 51
139.749767
  0
ELLIPSE
  5
A4
100
AcDbEntity
  8
0
370
    40
390
0
 62
     7
100
AcDbEllipse
 10
-19.5
 20
30.162374
 30
0.0
 11
3.0
 21
0.0
 31
0.0
210
0.0
220
0.0
230
1.0
 40
0.965473
 41
0.6033363491969136
 42
3.744929002786705
  0
LINE
  5
A5
100
AcDbEntity
  8
0
370
    40
390
0
 62
     7
 48
0.059819
100
AcDbLine
 10
-21.970342
 20
28.518968
 30
0.0
 11
-20.580356
 21
26.571357
 31
0.0
210
0.0
220
0.0
230
1.0
  0
LINE
  5
A6
100
AcDbEntity
  8
0
370
    40
390
0
 62
     7
 48
0.023761
100
AcDbLine
 10
-20.580357
 20
26.571358
 30
0.0
 11
-19.649124
 21
26.381201
 31
0.0
210
0.0
220
0.0
230
1.0
  0
LINE
  5
A7
100
AcDbEntity
  8
0
370
    40
390
0
 62
     7
 48
0.001372
100
AcDbLine
 10
-19.613794
 20
26.423177
 30
0.0
 11
-19.649124
 21
26.381201
 31
0.0
210
0.0
220
0.0
230
1.0
  0
LINE
  5
A8
100
AcDbEntity
  8
0
370
    40
390
0
 62
     7
 48
0.061742
100
AcDbLine
 10
-15.594991
 20
29.795564
 30
0.0
 11
-17.029658
 21
31.805782
 31
0.0
210
0.0
220
0.0
230
1.0
  0
ELLIPSE
  5
A9
100
AcDbEntity
  8
0
370
    40
390
0
 62
     7
100
AcDbEllipse
 10
-19.5
 20
30.162374
 30
0.0
 11
1.2000000476837158
 21
0.0
 31
0.0
210
0.0
220
0.0
230
1.0
 40
0.965473
 41
3.1415926535897936
 42
6.2831853071795871
  0
ARC
  5
AA
100
AcDbEntity
  8
0
370
    40
390
0
 62
     7
100
AcDbCircle
 10
-19.5
 20
30.16804
 30
0.0
 40
1.20001
210
0.0
220
0.0
230
1.0
100
AcDbArc
 50
359.72952
 51
180.27048
  0
SPLINE
  5
AB
100
AcDbEntity
  8
0
370
    13
390
0
 62
     7
100
AcDbSpline
210
0.0
220
0.0
230
1.0
 70
     8
 71
     5
 72
    18
 73
    12
 74
     0
 42
0.0
 43
0.0
 40
0.0
 40
0.0
 40
0.0
 40
0.0
 40
0.0
 40
0.0
 40
8.4514126310207676
 40
8.4514126310207676
 40
8.4514126310207676
 40
12.680035677974519
 40
12.680035677974519
 40
12.680035677974519
 40
14.077225086298697
 40
14.077225086298697
 40
14.077225086298697
 40
14.077225086298697
 40
14.077225086298697
 40
14.077225086298697
 10
12.746204174995075
 20
23.59238469041102
 30
0.0
 10
13.544662799569195
 20
23.251336170964287
 30
0.0
 10
14.324481292203783
 20
22.875912963035674
 30
0.0
 10
15.083310574284821
 20
22.465015865438975
 30
0.0
 10
16.189974161986601
 20
21.793270995843866
 30
0.0
 10
17.247544671704166
 20
21.036437429278198
 30
0.0
 10
17.595132711825357
 20
20.774147440165695
 30
0.0
 10
18.050178649394159
 20
20.412194994537952
 30
0.0
 10
18.495407793998798
 20
20.032652597988488
 30
0.0
 10
18.613458241210775
 20
19.930419085661711
 30
0.0
 10
18.722638628258082
 20
19.833856045972258
 30
0.0
 10
18.831324742337557
 20
19.736268931443469
 30
0.0
  0
ELLIPSE
  5
AC
100
AcDbEntity
  8
0
370
    13
390
0
 62
     7
100
AcDbEllipse
 10
-47.542263
 20
-33.811481
 30
0.0
 11
68.258781433105469
 21
51.344062805175781
 31
0.0
210
0.0
220
0.0
230
1.0
 40
0.449973
 41
0.253363412935428
 42
0.3761495629410964
  0
ARC
  5
AD
100
AcDbEntity
  8
0
370
    40
390
0
 62
     7
100
AcDbCircle
 10
19.465041
 20
30.242237
 30
0.0
 40
3.256324
210
0.0
220
0.0
230
1.0
100
AcDbArc
 50
258.027469
 51
262.050776
  0
LINE
  5
AE
100
AcDbEntity
  8
0
370
    13
390
0
 62
     7
 48
0.020227
100
AcDbLine
 10
19.588149
 20
26.400845
 30
0.0
 11
18.782825
 21
26.323019
 31
0.0
210
0.0
220
0.0
230
1.0
  0
ARC
  5
AF
100
AcDbEntity
  8
0
370
    40
390
0
 62
     7
100
AcDbCircle
 10
9.528066
 20
17.61426
 30
0.0
 40
13.357046
210
0.0
220
0.0
230
1.0
100
AcDbArc
 50
41.134421
 51
44.746506
  0
ARC
  5
B0
100
AcDbEntity
  8
0
370
    40
390
0
 62
     7
100
AcDbCircle
 10
19.500155
 20
30.119707
 30
0.0
 40
3.000392
210
0.0
220
0.0
230
1.0
100
AcDbArc
 50
200.550595
 51
258.948642
  0
ARC
  5
B1
100
AcDbEntity
  8
0
370
    40
390
0
 62
     7
100
AcDbCircle
 10
13.737648
 20
21.448204
 30
0.0
 40
8.170588
210
0.0
220
0.0
230
1.0
100
AcDbArc
 50
68.812313
 51
70.806532
  0
LINE
  5
B2
100
AcDbEntity
  8
0
370
    40
390
0
 62
     7
 48
0.004535
100
AcDbLine
 10
18.925014
 20
27.174961
 30
0.0
 11
19.014605
 21
27.017216
 31
0.0
210
0.0
220
0.0
230
1.0
  0
LINE
  5
B3
100
AcDbEntity
  8
0
370
    40
390
0
 62
     7
 48
0.001501
100
AcDbLine
 10
15.594991
 20
29.795564
 30
0.0
 11
15.536185
 21
29.783502
 31
0.0
210
0.0
220
0.0
230
1.0
  0
ARC
  5
B4
100
AcDbEntity
  8
0
370
    40
390
0
 62
     7
100
AcDbCircle
 10
5.31998
 20
13.165322
 30
0.0
 40
19.548405
210
0.0
220
0.0
230
1.0
100
AcDbArc
 50
54.431899
 51
58.290114
  0
ELLIPSE
  5
B5
100
AcDbEntity
  8
0
370
    13
390
0
 62
     7
100
AcDbEllipse
 10
7.490329
 20
25.046675
 30
0.0
 11
-0.0607907548546791
 21
-0.2937762439250946
 31
0.0
210
0.0
220
0.0
230
1.0
 40
0.276145
 41
4.1155258082557955
 42
5.9787771058580237
  0
ARC
  5
B6
100
AcDbEntity
  8
0
370
    13
390
0
 62
     7
100
AcDbCircle
 10
-1.076024
 20
0.151783
 30
0.0
 40
26.075624
210
0.0
220
0.0
230
1.0
100
AcDbArc
 50
136.032271
 51
142.302912
  0
SPLINE
  5
B7
100
AcDbEntity
  8
0
370
    13
390
0
 62
     7
100
AcDbSpline
210
0.0
220
0.0
230
1.0
 70
     8
 71
     5
 72
    24
 73
    18
 74
     0
 42
0.0
 43
0.0
 40
0.0
 40
0.0
 40
0.0
 40
0.0
 40
0.0
 40
0.0
 40
9.4750239524582476
 40
9.4750239524582476
 40
9.4750239524582476
 40
15.832392782950489
 40
15.832392782950489
 40
15.832392782950489
 40
25.365096848905374
 40
25.365096848905374
 40
25.365096848905374
 40
30.095802281225886
 40
30.095802281225886
 40
30.095802281225886
 40
31.654955819715834
 40
31.654955819715834
 40
31.654955819715834
 40
31.654955819715834
 40
31.654955819715834
 40
31.654955819715834
 10
-21.708471781095774
 20
16.096689212051846
 30
0.0
 10
-22.3344338166565
 20
15.286656259119576
 30
0.0
 10
-22.923489050671556
 20
14.442811349901115
 30
0.0
 10
-23.474859343817062
 20
13.564659322317109
 30
0.0
 10
-24.32771281685033
 20
12.040321142298938
 30
0.0
 10
-25.052565940455388
 20
10.44275266064893
 30
0.0
 10
-25.321988977029388
 20
9.7909118808458562
 30
0.0
 10
-25.939206729916727
 20
8.1408891678536683
 30
0.0
 10
-26.414206783640022
 20
6.4458691930038352
 30
0.0
 10
-26.646552653391705
 20
5.4178432487313231
 30
0.0
 10
-26.915041199890105
 20
3.8701730772528338
 30
0.0
 10
-27.06700695299126
 20
2.3208451890341313
 30
0.0
 10
-27.104727311371747
 20
1.8071119597848753
 30
0.0
 10
-27.138210018462701
 20
1.1258225065456853
 30
0.0
 10
-27.1500307263201
 20
0.4473667332225402
 30
0.0
 10
-27.151665722872249
 20
0.2749173162005597
 30
0.0
 10
-27.151936451921859
 20
0.1072889635227437
 30
0.0
 10
-27.150905407550642
 20
-0.0602493476817036
 30
0.0
  0
ARC
  5
B8
100
AcDbEntity
  8
0
370
    13
390
0
 62
     7
100
AcDbCircle
 10
0.029537
 20
0.106633
 30
0.0
 40
27.180797
210
0.0
220
0.0
230
1.0
100
AcDbArc
 50
180.35178
 51
241.405234
  0
ELLIPSE
  5
B9
100
AcDbEntity
  8
0
370
    13
390
0
 62
     7
100
AcDbEllipse
 10
-20.063942
 20
18.457703
 30
0.0
 11
0.2159806787967682
 21
-0.2082122564315796
 31
0.0
210
0.0
220
0.0
230
1.0
 40
0.407114
 41
0.0573308765829896
 42
1.7609284223164738
  0
ARC
  5
BA
100
AcDbEntity
  8
0
370
    40
390
0
 62
     7
100
AcDbCircle
 10
-21.873299
 20
-9.641356
 30
0.0
 40
54.970431
210
0.0
220
0.0
230
1.0
100
AcDbArc
 50
37.677134
 51
40.258884
  0
LINE
  5
BB
100
AcDbEntity
  8
0
370
    40
390
0
 62
     7
 48
0.002377
100
AcDbLine
 10
-30.922478
 20
-0.290271
 30
0.0
 11
-30.920801
 21
-0.195218
 31
0.0
210
0.0
220
0.0
230
1.0
  0
ARC
  5
BC
100
AcDbEntity
  8
0
370
    40
390
0
 62
     7
100
AcDbCircle
 10
1.550402
 20
-0.819442
 30
0.0
 40
32.477214
210
0.0
220
0.0
230
1.0
100
AcDbArc
 50
175.261203
 51
178.898686
  0
LINE
  5
BD
100
AcDbEntity
  8
0
370
    40
390
0
 62
     7
 48
0.005918
100
AcDbLine
 10
-29.580593
 20
8.573284
 30
0.0
 11
-29.515273
 21
8.800827
 31
0.0
210
0.0
220
0.0
230
1.0
  0
ARC
  5
BE
100
AcDbEntity
  8
0
370
    40
390
0
 62
     7
100
AcDbCircle
 10
260.576213
 20
292.006311
 30
0.0
 40
405.411471
210
0.0
220
0.0
230
1.0
100
AcDbArc
 50
223.623503
 51
224.31184
  0
SPLINE
  5
BF
100
AcDbEntity
  8
0
370
    40
390
0
 62
     7
100
AcDbSpline
210
0.0
220
0.0
230
1.0
 70
     8
 71
     5
 72
    21
 73
    15
 74
     0
 42
0.0
 43
0.0
 40
0.0
 40
0.0
 40
0.0
 40
0.0
 40
0.0
 40
0.0
 40
2.167414242653475
 40
2.167414242653475
 40
2.167414242653475
 40
5.0912340602079773
 40
5.0912340602079773
 40
5.0912340602079773
 40
7.9679013174796074
 40
7.9679013174796074
 40
7.9679013174796074
 40
9.8776749423313728
 40
9.8776749423313728
 40
9.8776749423313728
 40
9.8776749423313728
 40
9.8776749423313728
 40
9.8776749423313728
 10
-30.831412794002279
 20
17.345948781069485
 30
0.0
 10
-31.165343214887272
 20
17.328101385042515
 30
0.0
 10
-31.489545987312184
 20
17.26513282843754
 30
0.0
 10
-31.793877148136318
 20
17.161841968372755
 30
0.0
 10
-32.450808306686689
 20
16.843688649640825
 30
0.0
 10
-32.964471109807882
 20
16.374249867824993
 30
0.0
 10
-33.208576635406317
 20
16.066503126298549
 30
0.0
 10
-33.586061694891207
 20
15.397084988390667
 30
0.0
 10
-33.736829677908872
 20
14.641280331882689
 30
0.0
 10
-33.752053240023947
 20
14.252545732071033
 30
0.0
 10
-33.668899491149894
 20
13.600004757179434
 30
0.0
 10
-33.39905800943756
 20
12.976995544245124
 30
0.0
 10
-33.26105702779968
 20
12.737357496198817
 30
0.0
 10
-33.092840184029235
 20
12.511889708668958
 30
0.0
 10
-32.896699249770954
 20
12.306190178233324
 30
0.0
  0
ARC
  5
C0
100
AcDbEntity
  8
0
370
    40
390
0
 62
     7
100
AcDbCircle
 10
14.90903
 20
-834.77297
 30
0.0
 40
853.345614
210
0.0
220
0.0
230
1.0
100
AcDbArc
 50
92.735706
 51
93.072601
  0
ARC
  5
C1
100
AcDbEntity
  8
0
370
    40
390
0
 62
     7
100
AcDbCircle
 10
17.658275
 20
-6.484101
 30
0.0
 40
49.703841
210
0.0
220
0.0
230
1.0
100
AcDbArc
 50
142.671169
 51
151.016514
  0
LINE
  5
C2
100
AcDbEntity
  8
0
370
    40
390
0
 62
     7
 48
0.009489
100
AcDbLine
 10
-21.634011
 20
23.957192
 30
0.0
 11
-21.864967
 21
23.655981
 31
0.0
210
0.0
220
0.0
230
1.0
  0
LINE
  5
C3
100
AcDbEntity
  8
0
370
    40
390
0
 62
     7
 48
0.005
100
AcDbLine
 10
-29.9
 20
12.355165
 30
0.0
 11
-30.1
 21
12.356758
 31
0.0
210
0.0
220
0.0
230
1.0
  0
ARC
  5
C4
100
AcDbEntity
  8
0
370
    40
390
0
 62
     7
100
AcDbCircle
 10
-29.892155
 20
13.425164
 30
0.0
 40
1.070112
210
0.0
220
0.0
230
1.0
100
AcDbArc
 50
269.579909
 51
359.317443
  0
LINE
  5
C5
100
AcDbEntity
  8
0
370
    40
390
0
 62
     7
 48
0.003849
100
AcDbLine
 10
-28.822043
 20
13.412415
 30
0.0
 11
-28.819031
 21
13.566356
 31
0.0
210
0.0
220
0.0
230
1.0
  0
SPLINE
  5
C6
100
AcDbEntity
  8
0
370
    40
390
0
 62
     7
100
AcDbSpline
210
0.0
220
0.0
230
1.0
 70
     8
 71
     5
 72
    18
 73
    12
 74
     0
 42
0.0
 43
0.0
 40
0.0
 40
0.0
 40
0.0
 40
0.0
 40
0.0
 40
0.0
 40
0.9148459557568794
 40
0.9148459557568794
 40
0.9148459557568794
 40
1.7984018921345133
 40
1.7984018921345133
 40
1.7984018921345133
 40
2.9048254300811984
 40
2.9048254300811984
 40
2.9048254300811984
 40
2.9048254300811984
 40
2.9048254300811984
 40
2.9048254300811984
 10
-29.900000000015602
 20
14.745626475382444
 30
0.0
 10
-29.779901904352975
 20
14.752552066593671
 30
0.0
 10
-29.657470659787499
 20
14.740751357229199
 30
0.0
 10
-29.538492437216213
 20
14.708491412613441
 30
0.0
 10
-29.321392226171653
 20
14.610045611574275
 30
0.0
 10
-29.147552064806383
 20
14.459019009591524
 30
0.0
 10
-29.074136222433541
 20
14.375290500351205
 30
0.0
 10
-28.936075235386809
 20
14.173507839533134
 30
0.0
 10
-28.855742092561361
 20
13.950081237276754
 30
0.0
 10
-28.827805937710266
 20
13.822655914372
 30
0.0
 10
-28.815707255876404
 20
13.694126472601386
 30
0.0
 10
-28.819030513316029
 20
13.566355732915296
 30
0.0
  0
LINE
  5
C7
100
AcDbEntity
  8
0
370
    40
390
0
 62
     7
 48
0.005008
100
AcDbLine
 10
-29.9
 20
14.745626
 30
0.0
 11
-30.1
 21
14.734072
 31
0.0
210
0.0
220
0.0
230
1.0
  0
SPLINE
  5
C8
100
AcDbEntity
  8
0
370
    40
390
0
 62
     7
100
AcDbSpline
210
0.0
220
0.0
230
1.0
 70
     8
 71
     5
 72
    18
 73
    12
 74
     0
 42
0.0
 43
0.0
 40
0.0
 40
0.0
 40
0.0
 40
0.0
 40
0.0
 40
0.0
 40
0.9523548797246241
 40
0.9523548797246241
 40
0.9523548797246241
 40
2.1619851734506774
 40
2.1619851734506774
 40
2.1619851734506774
 40
3.0294824567925245
 40
3.0294824567925245
 40
3.0294824567925245
 40
3.0294824567925245
 40
3.0294824567925245
 40
3.0294824567925245
 10
-30.099999999984423
 20
14.73407249497548
 30
0.0
 10
-30.224928536198998
 20
14.726842498894833
 30
0.0
 10
-30.347328530879103
 20
14.69932367471008
 30
0.0
 10
-30.461540396542176
 20
14.653566654844004
 30
0.0
 10
-30.69796864468233
 20
14.518996659992007
 30
0.0
 10
-30.879991183288514
 20
14.328526177943376
 30
0.0
 10
-30.963667332191779
 20
14.210307025365482
 30
0.0
 10
-31.077131023934854
 20
13.993821279747861
 30
0.0
 10
-31.13855950792178
 20
13.760746458867306
 30
0.0
 10
-31.15507187272463
 20
13.66147547876885
 30
0.0
 10
-31.162235746941214
 20
13.56113597356714
 30
0.0
 10
-31.159717513567841
 20
13.460718088655659
 30
0.0
  0
LINE
  5
C9
100
AcDbEntity
  8
0
370
    40
390
0
 62
     7
 48
0.001208
100
AcDbLine
 10
-31.159718
 20
13.460718
 30
0.0
 11
-31.15881
 21
13.412415
 31
0.0
210
0.0
220
0.0
230
1.0
  0
ARC
  5
CA
100
AcDbEntity
  8
0
370
    40
390
0
 62
     7
100
AcDbCircle
 10
-30.090157
 20
13.424914
 30
0.0
 40
1.068713
210
0.0
220
0.0
230
1.0
100
AcDbArc
 50
180.670086
 51
231.426695
  0
ARC
  5
CB
100
AcDbEntity
  8
0
370
    40
390
0
 62
     7
100
AcDbCircle
 10
-30.091489
 20
13.423345
 30
0.0
 40
1.066621
210
0.0
220
0.0
230
1.0
100
AcDbArc
 50
258.817115
 51
269.542788
  0
LINE
  5
CC
100
AcDbEntity
  8
0
370
    40
390
0
 62
     7
 48
0.016411
100
AcDbLine
 10
-19.649124
 20
26.381201
 30
0.0
 11
-20.076407
 21
25.88286
 31
0.0
210
0.0
220
0.0
230
1.0
  0
LINE
  5
CD
100
AcDbEntity
  8
0
370
    40
390
0
 62
     7
 48
0.021331
100
AcDbLine
 10
-20.580356
 20
26.571357
 30
0.0
 11
-20.076406
 21
25.882859
 31
0.0
210
0.0
220
0.0
230
1.0
  0
ARC
  5
CE
100
AcDbEntity
  8
0
370
    13
390
0
 62
     7
100
AcDbCircle
 10
10.398598
 20
-1210.996792
 30
0.0
 40
1211.503382
210
0.0
220
0.0
230
1.0
100
AcDbArc
 50
91.787924
 51
91.953238
  0
ARC
  5
CF
100
AcDbEntity
  8
0
370
    40
390
0
 62
     7
100
AcDbCircle
 10
1.948392
 20
-0.840199
 30
0.0
 40
32.848957
210
0.0
220
0.0
230
1.0
100
AcDbArc
 50
172.027314
 51
178.875763
  0
ARC
  5
D0
100
AcDbEntity
  8
0
370
    40
390
0
 62
     7
100
AcDbCircle
 10
-32.982533
 20
5.855357
 30
0.0
 40
3.214659
210
0.0
220
0.0
230
1.0
100
AcDbArc
 50
318.278094
 51
359.952936
  0
ARC
  5
D1
100
AcDbEntity
  8
0
370
    40
390
0
 62
     7
100
AcDbCircle
 10
48.780511
 20
5.755867
 30
0.0
 40
78.548415
210
0.0
220
0.0
230
1.0
100
AcDbArc
 50
179.048568
 51
179.929355
  0
ARC
  5
D2
100
AcDbEntity
  8
0
370
    40
390
0
 62
     7
100
AcDbCircle
 10
-33.315759
 20
7.11905
 30
0.0
 40
3.559154
210
0.0
220
0.0
230
1.0
100
AcDbArc
 50
359.051814
 51
8.824568
  0
ARC
  5
D3
100
AcDbEntity
  8
0
370
    40
390
0
 62
     7
100
AcDbCircle
 10
6.955513
 20
-1.795945
 30
0.0
 40
37.95242
210
0.0
220
0.0
230
1.0
100
AcDbArc
 50
163.774989
 51
165.56474
  0
ARC
  5
D4
100
AcDbEntity
  8
0
370
    40
390
0
 62
     7
100
AcDbCircle
 10
258.936286
 20
290.371048
 30
0.0
 40
403.069011
210
0.0
220
0.0
230
1.0
100
AcDbArc
 50
223.624449
 51
224.310563
  0
SPLINE
  5
D5
100
AcDbEntity
  8
0
370
    40
390
0
 62
     7
100
AcDbSpline
210
0.0
220
0.0
230
1.0
 70
     8
 71
     5
 72
    24
 73
    18
 74
     0
 42
0.0
 43
0.0
 40
0.0
 40
0.0
 40
0.0
 40
0.0
 40
0.0
 40
0.0
 40
2.143631194174882
 40
2.143631194174882
 40
2.143631194174882
 40
5.0991512470251941
 40
5.0991512470251941
 40
5.0991512470251941
 40
8.0187678897996832
 40
8.0187678897996832
 40
8.0187678897996832
 40
9.0439983500853316
 40
9.0439983500853316
 40
9.0439983500853316
 40
10.04470641069736
 40
10.04470641069736
 40
10.04470641069736
 40
10.04470641069736
 40
10.04470641069736
 40
10.04470641069736
 10
-32.836353742696346
 20
12.282214074770877
 30
0.0
 10
-33.054487772326048
 20
12.510972815257839
 30
0.0
 10
-33.237431681463534
 20
12.763530902911302
 30
0.0
 10
-33.382407067521271
 20
13.031796223396688
 30
0.0
 10
-33.638832294815387
 20
13.691120554385519
 30
0.0
 10
-33.692095921561794
 20
14.370750092130484
 30
0.0
 10
-33.658332583169958
 20
14.757929110828909
 30
0.0
 10
-33.474332816382351
 20
15.496026613545524
 30
0.0
 10
-33.071149785256381
 20
16.14327809953129
 30
0.0
 10
-32.819653571888857
 20
16.435809368890489
 30
0.0
 10
-32.41319310325791
 20
16.780604744680293
 30
0.0
 10
-31.922205948324159
 20
17.034766645021527
 30
0.0
 10
-31.788166355940767
 20
17.09451579868977
 30
0.0
 10
-31.514562515491601
 20
17.197251883705036
 30
0.0
 10
-31.222326460961909
 20
17.26848404948284
 30
0.0
 10
-31.07449551572283
 20
17.29523223925079
 30
0.0
 10
-30.922699408053525
 20
17.313039403517767
 30
0.0
 10
-30.768636995743915
 20
17.321257388854523
 30
0.0
  0
ARC
  5
D6
100
AcDbEntity
  8
0
370
    40
390
0
 62
     7
100
AcDbCircle
 10
14.770734
 20
-832.787583
 30
0.0
 40
851.327661
210
0.0
220
0.0
230
1.0
100
AcDbArc
 50
92.731713
 51
93.066339
  0
ARC
  5
D7
100
AcDbEntity
  8
0
370
    40
390
0
 62
     7
100
AcDbCircle
 10
17.596288
 20
-6.466915
 30
0.0
 40
49.612913
210
0.0
220
0.0
230
1.0
100
AcDbArc
 50
142.643537
 51
151.017124
  0
SPLINE
  5
D8
100
AcDbEntity
  8
0
370
    13
390
0
 62
     7
100
AcDbSpline
210
0.0
220
0.0
230
1.0
 70
     8
 71
     5
 72
    24
 73
    18
 74
     0
 42
0.0
 43
0.0
 40
0.0
 40
0.0
 40
0.0
 40
0.0
 40
0.0
 40
0.0
 40
6.3270386572779662
 40
6.3270386572779662
 40
6.3270386572779662
 40
12.709197958964477
 40
12.709197958964477
 40
12.709197958964477
 40
19.109025565664865
 40
19.109025565664865
 40
19.109025565664865
 40
31.034566384638794
 40
31.034566384638794
 40
31.034566384638794
 40
31.794678369419351
 40
31.794678369419351
 40
31.794678369419351
 40
31.794678369419351
 40
31.794678369419351
 40
31.794678369419351
 10
-21.912998530033061
 20
16.379429600371832
 30
0.0
 10
-22.332888471149378
 20
15.829681884892929
 30
0.0
 10
-22.736611230396935
 20
15.264823080899726
 30
0.0
 10
-23.125887273075485
 20
14.680114932124674
 30
0.0
 10
-23.86776447721995
 20
13.483010703806304
 30
0.0
 10
-24.534572026629277
 20
12.228908928435786
 30
0.0
 10
-24.84966074179896
 20
11.585203839684384
 30
0.0
 10
-25.436500503670729
 20
10.27617529023002
 30
0.0
 10
-25.934555798909354
 20
8.9299595625653883
 30
0.0
 10
-26.161126212465781
 20
8.2476481432363933
 30
0.0
 10
-26.743087459649519
 20
6.2755110226147979
 30
0.0
 10
-27.131966130446504
 20
4.2636996994690612
 30
0.0
 10
-27.301666545575397
 20
2.949252432732846
 30
0.0
 10
-27.395264476725913
 20
1.5554556114497153
 30
0.0
 10
-27.401324362359166
 20
0.1786083279623323
 30
0.0
 10
-27.401353735883262
 20
0.0819514077135892
 30
0.0
 10
-27.401052901087361
 20
-0.0002950987387129
 30
0.0
 10
-27.400438227898082
 20
-0.0825810451491856
 30
0.0
  0
LINE
  5
D9
100
AcDbEntity
  8
0
370
    40
390
0
 62
     7
 48
0.005
100
AcDbLine
 10
-29.9
 20
12.274894
 30
0.0
 11
-30.1
 21
12.276486
 31
0.0
210
0.0
220
0.0
230
1.0
  0
ARC
  5
DA
100
AcDbEntity
  8
0
370
    40
390
0
 62
     7
100
AcDbCircle
 10
-29.891662
 20
13.426789
 30
0.0
 40
1.15203
210
0.0
220
0.0
230
1.0
100
AcDbArc
 50
269.585265
 51
359.28513
  0
ARC
  5
DB
100
AcDbEntity
  8
0
370
    40
390
0
 62
     7
100
AcDbCircle
 10
13.818036
 20
12.839349
 30
0.0
 40
42.561538
210
0.0
220
0.0
230
1.0
100
AcDbArc
 50
178.405529
 51
179.228523
  0
SPLINE
  5
DC
100
AcDbEntity
  8
0
370
    40
390
0
 62
     7
100
AcDbSpline
210
0.0
220
0.0
230
1.0
 70
     8
 71
     5
 72
    18
 73
    12
 74
     0
 42
0.0
 43
0.0
 40
0.0
 40
0.0
 40
0.0
 40
0.0
 40
0.0
 40
0.0
 40
1.003038490417463
 40
1.003038490417463
 40
1.003038490417463
 40
1.9550263853174226
 40
1.9550263853174226
 40
1.9550263853174226
 40
3.1305238565282529
 40
3.1305238565282529
 40
3.1305238565282529
 40
3.1305238565282529
 40
3.1305238565282529
 40
3.1305238565282529
 10
-29.900000000016963
 20
15.315885704550018
 30
0.0
 10
-29.764308389347981
 20
15.323965366809992
 30
0.0
 10
-29.625285298122176
 20
15.309836483474491
 30
0.0
 10
-29.491003874844878
 20
15.270903431584596
 30
0.0
 10
-29.251183307199739
 20
15.155020518895565
 30
0.0
 10
-29.064585759237353
 20
14.983013897665966
 30
0.0
 10
-28.987397332473289
 20
14.88982292294406
 30
0.0
 10
-28.844791413888014
 20
14.669668730285787
 30
0.0
 10
-28.763292446406027
 20
14.429972452637635
 30
0.0
 10
-28.735290097984276
 20
14.294912219245337
 30
0.0
 10
-28.723330751594581
 20
14.15887455057444
 30
0.0
 10
-28.72703660847835
 20
14.023631871413883
 30
0.0
  0
LINE
  5
DD
100
AcDbEntity
  8
0
370
    40
390
0
 62
     7
 48
0.005009
100
AcDbLine
 10
-29.9
 20
15.315886
 30
0.0
 11
-30.1
 21
15.303955
 31
0.0
210
0.0
220
0.0
230
1.0
  0
SPLINE
  5
DE
100
AcDbEntity
  8
0
370
    40
390
0
 62
     7
100
AcDbSpline
210
0.0
220
0.0
230
1.0
 70
     8
 71
     5
 72
    18
 73
    12
 74
     0
 42
0.0
 43
0.0
 40
0.0
 40
0.0
 40
0.0
 40
0.0
 40
0.0
 40
0.0
 40
0.7065782369504839
 40
0.7065782369504839
 40
0.7065782369504839
 40
2.0326472959674637
 40
2.0326472959674637
 40
2.0326472959674637
 40
3.2864845377174121
 40
3.2864845377174121
 40
3.2864845377174121
 40
3.2864845377174121
 40
3.2864845377174121
 40
3.2864845377174121
 10
-30.099999999983062
 20
15.303955078430151
 30
0.0
 10
-30.195521988758561
 20
15.298246562620459
 30
0.0
 10
-30.28939095343414
 20
15.281520170300222
 30
0.0
 10
-30.379203606055526
 20
15.2547108920034
 30
0.0
 10
-30.623357414549567
 20
15.153742632502823
 30
0.0
 10
-30.823006198086976
 20
14.995005549237964
 30
0.0
 10
-30.932201531348483
 20
14.875473637130494
 30
0.0
 10
-31.10605310921958
 20
14.622575020604913
 30
0.0
 10
-31.206858795717768
 20
14.339565808703242
 30
0.0
 10
-31.238834165816833
 20
14.197488333536196
 30
0.0
 10
-31.253415063930127
 20
14.05267993641044
 30
0.0
 10
-31.249594637850549
 20
13.907472299953245
 30
0.0
  0
LINE
  5
DF
100
AcDbEntity
  8
0
370
    40
390
0
 62
     7
 48
0.012379
100
AcDbLine
 10
-31.249595
 20
13.907472
 30
0.0
 11
-31.239836
 21
13.412415
 31
0.0
210
0.0
220
0.0
230
1.0
  0
ARC
  5
E0
100
AcDbEntity
  8
0
370
    40
390
0
 62
     7
100
AcDbCircle
 10
-30.090217
 20
13.425969
 30
0.0
 40
1.14961
210
0.0
220
0.0
230
1.0
100
AcDbArc
 50
180.675492
 51
269.512386
  0
ELLIPSE
  5
E1
100
AcDbEntity
  8
0
370
    13
390
0
 62
     7
100
AcDbEllipse
 10
-21.949121
 20
16.275129
 30
0.0
 11
0.2374215573072434
 21
-0.1833875775337219
 31
0.0
210
0.0
220
0.0
230
1.0
 40
0.351173
 41
0.0559251064393427
 42
1.6882980634399865
  0
ARC
  5
E2
100
AcDbEntity
  8
0
370
    13
390
0
 62
     7
100
AcDbCircle
 10
0.829511
 20
0.198713
 30
0.0
 40
26.576859
210
0.0
220
0.0
230
1.0
100
AcDbArc
 50
37.504765
 51
43.769194
  0
ARC
  5
E3
100
AcDbEntity
  8
0
370
    13
390
0
 62
     7
100
AcDbCircle
 10
4.122005
 20
3.360579
 30
0.0
 40
22.011999
210
0.0
220
0.0
230
1.0
100
AcDbArc
 50
43.7544
 51
48.068515
  0
ARC
  5
E4
100
AcDbEntity
  8
0
370
    40
390
0
 62
     7
100
AcDbCircle
 10
-21.72293
 20
-9.559217
 30
0.0
 40
54.769826
210
0.0
220
0.0
230
1.0
100
AcDbArc
 50
37.308416
 51
41.038609
  0
SPLINE
  5
E5
100
AcDbEntity
  8
0
370
    13
390
0
 62
     7
100
AcDbSpline
210
0.0
220
0.0
230
1.0
 70
     8
 71
     5
 72
    18
 73
    12
 74
     0
 42
0.0
 43
0.0
 40
0.0
 40
0.0
 40
0.0
 40
0.0
 40
0.0
 40
0.0
 40
8.4237089372210932
 40
8.4237089372210932
 40
8.4237089372210932
 40
12.635563394409132
 40
12.635563394409132
 40
12.635563394409132
 40
14.045691921306476
 40
14.045691921306476
 40
14.045691921306476
 40
14.045691921306476
 40
14.045691921306476
 40
14.045691921306476
 10
12.655026576464854
 20
23.16487076610704
 30
0.0
 10
13.44566891083236
 20
22.830161613219218
 30
0.0
 10
14.217507449964536
 20
22.461879067660959
 30
0.0
 10
14.968450652436447
 20
22.058748639706366
 30
0.0
 10
16.062441687906119
 20
21.400127954749724
 30
0.0
 10
17.107242070632346
 20
20.658048817725405
 30
0.0
 10
17.450408030361316
 20
20.400986074927694
 30
0.0
 10
17.901075637770127
 20
20.045057337899511
 30
0.0
 10
18.341906772159479
 20
19.671737847355001
 30
0.0
 10
18.451829538844049
 20
19.577025714684815
 30
0.0
 10
18.561177742659339
 20
19.481166086602723
 30
0.0
 10
18.669858253320282
 20
19.384235954267229
 30
0.0
  0
ARC
  5
E6
100
AcDbEntity
  8
0
370
    40
390
0
 62
     7
100
AcDbCircle
 10
9.735152
 20
18.06022
 30
0.0
 40
12.943316
210
0.0
220
0.0
230
1.0
100
AcDbArc
 50
40.250233
 51
44.764863
  0
LINE
  5
E7
100
AcDbEntity
  8
0
370
    13
390
0
 62
     7
 48
0.000829
100
AcDbLine
 10
19.613136
 20
26.422617
 30
0.0
 11
19.588142
 21
26.400852
 31
0.0
210
0.0
220
0.0
230
1.0
  0
LINE
  5
E8
100
AcDbEntity
  8
0
370
    40
390
0
 62
     7
 48
0.061742
100
AcDbLine
 10
15.594991
 20
29.795564
 30
0.0
 11
17.029658
 21
31.805782
 31
0.0
210
0.0
220
0.0
230
1.0
  0
LINE
  5
E9
100
AcDbEntity
  8
0
370
    40
390
0
 62
     7
 48
0.001372
100
AcDbLine
 10
19.613794
 20
26.423177
 30
0.0
 11
19.649124
 21
26.381201
 31
0.0
210
0.0
220
0.0
230
1.0
  0
LINE
  5
EA
100
AcDbEntity
  8
0
370
    40
390
0
 62
     7
 48
0.023761
100
AcDbLine
 10
20.580357
 20
26.571358
 30
0.0
 11
19.649124
 21
26.381201
 31
0.0
210
0.0
220
0.0
230
1.0
  0
LINE
  5
EB
100
AcDbEntity
  8
0
370
    40
390
0
 62
     7
 48
0.059819
100
AcDbLine
 10
21.970342
 20
28.518968
 30
0.0
 11
20.580356
 21
26.571357
 31
0.0
210
0.0
220
0.0
230
1.0
  0
ELLIPSE
  5
EC
100
AcDbEntity
  8
0
370
    40
390
0
 62
     7
100
AcDbEllipse
 10
19.5
 20
30.162374
 30
0.0
 11
3.0
 21
0.0
 31
0.0
210
0.0
220
0.0
230
1.0
 40
0.965473
 41
5.6798489579826743
 42
8.8214416115724639
  0
ARC
  5
ED
100
AcDbEntity
  8
0
370
    40
390
0
 62
     7
100
AcDbCircle
 10
19.5
 20
30.16804
 30
0.0
 40
1.20001
210
0.0
220
0.0
230
1.0
100
AcDbArc
 50
359.72952
 51
180.27048
  0
ELLIPSE
  5
EE
100
AcDbEntity
  8
0
370
    40
390
0
 62
     7
100
AcDbEllipse
 10
19.5
 20
30.162374
 30
0.0
 11
1.2000000476837158
 21
0.0
 31
0.0
210
0.0
220
0.0
230
1.0
 40
0.965473
 41
3.1415926535897936
 42
6.2831853071795871
  0
SPLINE
  5
EF
100
AcDbEntity
  8
0
370
    13
390
0
 62
     7
100
AcDbSpline
210
0.0
220
0.0
230
1.0
 70
     8
 71
     5
 72
    18
 73
    12
 74
     0
 42
0.0
 43
0.0
 40
0.0
 40
0.0
 40
0.0
 40
0.0
 40
0.0
 40
0.0
 40
0.0756970354719147
 40
0.0756970354719147
 40
0.0756970354719147
 40
0.2252436779478791
 40
0.2252436779478791
 40
0.2252436779478791
 40
0.4005559652474175
 40
0.4005559652474175
 40
0.4005559652474175
 40
0.4005559652474175
 40
0.4005559652474175
 40
0.4005559652474175
 10
-27.150905406602615
 20
-0.0602493476758941
 30
0.0
 10
-27.151961679102225
 20
-0.0617605572487995
 30
0.0
 10
-27.154724591161479
 20
-0.0632635123911315
 30
0.0
 10
-27.159269538032994
 20
-0.064763323453738
 30
0.0
 10
-27.176231863011335
 20
-0.0688633895639734
 30
0.0
 10
-27.202346081229329
 20
-0.0722639330990066
 30
0.0
 10
-27.222267181960241
 20
-0.0742252765429307
 30
0.0
 10
-27.267463718809374
 20
-0.0778016902332283
 30
0.0
 10
-27.317083889615294
 20
-0.080241573499735
 30
0.0
 10
-27.344568402374698
 20
-0.0812789731838856
 30
0.0
 10
-27.372400387276095
 20
-0.0820546658872968
 30
0.0
 10
-27.400438157138556
 20
-0.082581043257258
 30
0.0
  0
ARC
  5
F0
100
AcDbEntity
  8
0
370
    13
390
0
 62
     7
100
AcDbCircle
 10
0.009425
 20
0.121913
 30
0.0
 40
27.410619
210
0.0
220
0.0
230
1.0
100
AcDbArc
 50
180.427452
 51
241.469749
  0
ELLIPSE
  5
F1
100
AcDbEntity
  8
0
370
    13
390
0
 62
     7
100
AcDbEllipse
 10
20.063944
 20
18.457699
 30
0.0
 11
0.2159807085990906
 21
0.2082121968269348
 31
0.0
210
0.0
220
0.0
230
1.0
 40
0.407114
 41
1.3806644960844996
 42
3.0842619113296217
  0
ARC
  5
F2
100
AcDbEntity
  8
0
370
    13
390
0
 62
     7
100
AcDbCircle
 10
4.288108
 20
3.265379
 30
0.0
 40
21.602155
210
0.0
220
0.0
230
1.0
100
AcDbArc
 50
43.938683
 51
48.259664
  0
LINE
  5
F3
100
AcDbEntity
  8
0
370
    40
390
0
 62
     7
 48
0.009489
100
AcDbLine
 10
21.634011
 20
23.957192
 30
0.0
 11
21.864967
 21
23.655981
 31
0.0
210
0.0
220
0.0
230
1.0
  0
ARC
  5
F4
100
AcDbEntity
  8
0
370
    40
390
0
 62
     7
100
AcDbCircle
 10
-17.658275
 20
-6.484101
 30
0.0
 40
49.703841
210
0.0
220
0.0
230
1.0
100
AcDbArc
 50
28.983486
 51
37.328831
  0
ARC
  5
F5
100
AcDbEntity
  8
0
370
    40
390
0
 62
     7
100
AcDbCircle
 10
-14.90903
 20
-834.77297
 30
0.0
 40
853.345614
210
0.0
220
0.0
230
1.0
100
AcDbArc
 50
86.927399
 51
87.264294
  0
SPLINE
  5
F6
100
AcDbEntity
  8
0
370
    40
390
0
 62
     7
100
AcDbSpline
210
0.0
220
0.0
230
1.0
 70
     8
 71
     5
 72
    21
 73
    15
 74
     0
 42
0.0
 43
0.0
 40
0.0
 40
0.0
 40
0.0
 40
0.0
 40
0.0
 40
0.0
 40
2.167414242653475
 40
2.167414242653475
 40
2.167414242653475
 40
5.0912340602079773
 40
5.0912340602079773
 40
5.0912340602079773
 40
7.9679013174796074
 40
7.9679013174796074
 40
7.9679013174796074
 40
9.8776749423313728
 40
9.8776749423313728
 40
9.8776749423313728
 40
9.8776749423313728
 40
9.8776749423313728
 40
9.8776749423313728
 10
30.831412794002279
 20
17.345948781069485
 30
0.0
 10
31.165343214887272
 20
17.328101385042515
 30
0.0
 10
31.489545987312184
 20
17.26513282843754
 30
0.0
 10
31.793877148136318
 20
17.161841968372755
 30
0.0
 10
32.450808306686689
 20
16.843688649640825
 30
0.0
 10
32.964471109807882
 20
16.374249867824993
 30
0.0
 10
33.208576635406317
 20
16.066503126298549
 30
0.0
 10
33.586061694891207
 20
15.397084988390667
 30
0.0
 10
33.736829677908872
 20
14.641280331882689
 30
0.0
 10
33.752053240023947
 20
14.252545732071033
 30
0.0
 10
33.668899491149894
 20
13.600004757179434
 30
0.0
 10
33.39905800943756
 20
12.976995544245124
 30
0.0
 10
33.26105702779968
 20
12.737357496198817
 30
0.0
 10
33.092840184029235
 20
12.511889708668958
 30
0.0
 10
32.896699249770954
 20
12.306190178233324
 30
0.0
  0
ARC
  5
F7
100
AcDbEntity
  8
0
370
    40
390
0
 62
     7
100
AcDbCircle
 10
-260.576213
 20
292.006311
 30
0.0
 40
405.411471
210
0.0
220
0.0
230
1.0
100
AcDbArc
 50
315.68816
 51
316.376497
  0
LINE
  5
F8
100
AcDbEntity
  8
0
370
    40
390
0
 62
     7
 48
0.005918
100
AcDbLine
 10
29.580593
 20
8.573284
 30
0.0
 11
29.515273
 21
8.800827
 31
0.0
210
0.0
220
0.0
230
1.0
  0
ARC
  5
F9
100
AcDbEntity
  8
0
370
    40
390
0
 62
     7
100
AcDbCircle
 10
-1.550402
 20
-0.819442
 30
0.0
 40
32.477214
210
0.0
220
0.0
230
1.0
100
AcDbArc
 50
1.101314
 51
4.738797
  0
LINE
  5
FA
100
AcDbEntity
  8
0
370
    40
390
0
 62
     7
 48
0.002377
100
AcDbLine
 10
30.922478
 20
-0.290271
 30
0.0
 11
30.920801
 21
-0.195218
 31
0.0
210
0.0
220
0.0
230
1.0
  0
SPLINE
  5
FB
100
AcDbEntity
  8
0
370
    40
390
0
 62
     7
100
AcDbSpline
210
0.0
220
0.0
230
1.0
 70
     8
 71
     5
 72
    27
 73
    21
 74
     0
 42
0.0
 43
0.0
 40
0.0
 40
0.0
 40
0.0
 40
0.0
 40
0.0
 40
0.0
 40
1.1618828749655863
 40
1.1618828749655863
 40
1.1618828749655863
 40
2.1675521065934151
 40
2.1675521065934151
 40
2.1675521065934151
 40
3.0085874028152793
 40
3.0085874028152793
 40
3.0085874028152793
 40
4.0424029321259187
 40
4.0424029321259187
 40
4.0424029321259187
 40
5.2280628806182889
 40
5.2280628806182889
 40
5.2280628806182889
 40
5.932538189624494
 40
5.932538189624494
 40
5.932538189624494
 40
5.932538189624494
 40
5.932538189624494
 40
5.932538189624494
 10
28.919927543632575
 20
13.561896853433757
 30
0.0
 10
28.916440402655596
 20
13.696078657956352
 30
0.0
 10
28.929980339966985
 20
13.831098632773337
 30
0.0
 10
28.961042786142183
 20
13.964948666393191
 30
0.0
 10
29.053812801139461
 20
14.207505430772365
 30
0.0
 10
29.215444091878261
 20
14.421667051556662
 30
0.0
 10
29.306254051568988
 20
14.512543046131926
 30
0.0
 10
29.501906902296927
 20
14.652775507456502
 30
0.0
 10
29.73641966786672
 20
14.728488277850886
 30
0.0
 10
29.84812314873022
 20
14.746565909269043
 30
0.0
 10
30.098487598967615
 20
14.748778675104194
 30
0.0
 10
30.332430203774393
 20
14.675279675237551
 30
0.0
 10
30.450485404150609
 20
14.615061512817745
 30
0.0
 10
30.676271134654158
 20
14.456488976033175
 30
0.0
 10
30.84314437589379
 20
14.248009304676117
 30
0.0
 10
30.915176635613776
 20
14.127046582015357
 30
0.0
 10
31.003101266425187
 20
13.923981745503388
 30
0.0
 10
31.047737120233947
 20
13.709746124369673
 30
0.0
 10
31.058350901148948
 20
13.628315473689543
 30
0.0
 10
31.062681638998779
 20
13.546822736359488
 30
0.0
 10
31.06063476665301
 20
13.465277498871515
 30
0.0
  0
LINE
  5
FC
100
AcDbEntity
  8
0
370
    40
390
0
 62
     7
 48
0.003738
100
AcDbLine
 10
28.92285
 20
13.412415
 30
0.0
 11
28.919928
 21
13.561897
 31
0.0
210
0.0
220
0.0
230
1.0
  0
ARC
  5
FD
100
AcDbEntity
  8
0
370
    40
390
0
 62
     7
100
AcDbCircle
 10
29.991352
 20
13.424304
 30
0.0
 40
1.068273
210
0.0
220
0.0
230
1.0
100
AcDbArc
 50
180.637466
 51
359.362407
  0
LINE
  5
FE
100
AcDbEntity
  8
0
370
    40
390
0
 62
     7
 48
0.001322
100
AcDbLine
 10
31.060635
 20
13.465277
 30
0.0
 11
31.05964
 21
13.412415
 31
0.0
210
0.0
220
0.0
230
1.0
  0
LINE
  5
FF
100
AcDbEntity
  8
0
370
    40
390
0
 62
     7
 48
0.016411
100
AcDbLine
 10
19.649124
 20
26.381201
 30
0.0
 11
20.076407
 21
25.88286
 31
0.0
210
0.0
220
0.0
230
1.0
  0
LINE
  5
100
100
AcDbEntity
  8
0
370
    40
390
0
 62
     7
 48
0.021331
100
AcDbLine
 10
20.580356
 20
26.571357
 30
0.0
 11
20.076406
 21
25.882859
 31
0.0
210
0.0
220
0.0
230
1.0
  0
ARC
  5
101
100
AcDbEntity
  8
0
370
    40
390
0
 62
     7
100
AcDbCircle
 10
1.274792
 20
-0.810252
 30
0.0
 40
32.174791
210
0.0
220
0.0
230
1.0
100
AcDbArc
 50
178.908439
 51
179.99723
  0
ARC
  5
102
100
AcDbEntity
  8
0
370
    40
390
0
 62
     7
100
AcDbCircle
 10
1.276609
 20
-0.810464
 30
0.0
 40
32.203289
210
0.0
220
0.0
230
1.0
100
AcDbArc
 50
179.078583
 51
179.996854
  0
SPLINE
  5
103
100
AcDbEntity
  8
0
370
    40
390
0
 62
     7
100
AcDbSpline
210
0.0
220
0.0
230
1.0
 70
     8
 71
     5
 72
    15
 73
     9
 74
     0
 42
0.0
 43
0.0
 40
0.0
 40
0.0
 40
0.0
 40
0.0
 40
0.0
 40
0.0
 40
0.7968644266811867
 40
0.7968644266811867
 40
0.7968644266811867
 40
1.0703241914705741
 40
1.0703241914705741
 40
1.0703241914705741
 40
1.0703241914705741
 40
1.0703241914705741
 40
1.0703241914705741
 10
-30.815806280624404
 20
1.8636093400461333
 30
0.0
 10
-30.80719602465361
 20
1.9676438419845137
 30
0.0
 10
-30.798682495641611
 20
2.0712649760512543
 30
0.0
 10
-30.790478106926965
 20
2.1717130598116365
 30
0.0
 10
-30.781723405520392
 20
2.2853919773028557
 30
0.0
 10
-30.778809857616245
 20
2.3443636060702837
 30
0.0
 10
-30.778512298341408
 20
2.3552041436421671
 30
0.0
 10
-30.778719737319289
 20
2.3611512370550809
 30
0.0
 10
-30.779420224958667
 20
2.3621171772292886
 30
0.0
  0
LINE
  5
104
100
AcDbEntity
  8
0
370
    40
390
0
 62
     7
 48
0.002734
100
AcDbLine
 10
-30.594684
 20
3.824772
 30
0.0
 11
-30.583177
 21
3.716002
 31
0.0
210
0.0
220
0.0
230
1.0
  0
SPLINE
  5
105
100
AcDbEntity
  8
0
370
    40
390
0
 62
     7
100
AcDbSpline
210
0.0
220
0.0
230
1.0
 70
     8
 71
     5
 72
    18
 73
    12
 74
     0
 42
0.0
 43
0.0
 40
0.0
 40
0.0
 40
0.0
 40
0.0
 40
0.0
 40
0.0
 40
0.111089614363889
 40
0.111089614363889
 40
0.111089614363889
 40
0.6224238875899013
 40
0.6224238875899013
 40
0.6224238875899013
 40
0.9708182779261949
 40
0.9708182779261949
 40
0.9708182779261949
 40
0.9708182779261949
 40
0.9708182779261949
 40
0.9708182779261949
 10
-29.580593025892476
 20
8.5732837189703339
 30
0.0
 10
-29.584448006728426
 20
8.5596962315736249
 30
0.0
 10
-29.588145552081581
 20
8.5460724883533619
 30
0.0
 10
-29.592125741344564
 20
8.5325495932570714
 30
0.0
 10
-29.613696293092765
 20
8.4566965085425601
 30
0.0
 10
-29.634822051682015
 20
8.3827431081634209
 30
0.0
 10
-29.653648972827472
 20
8.3173425651944939
 30
0.0
 10
-29.678725544004738
 20
8.2314615732157392
 30
0.0
 10
-29.696175789904402
 20
8.1752181143728464
 30
0.0
 10
-29.701565682951788
 20
8.1588888204916454
 30
0.0
 10
-29.704862320392579
 20
8.1504811368491517
 30
0.0
 10
-29.706090007993094
 20
8.1497384527821222
 30
0.0
  0
LINE
  5
106
100
AcDbEntity
  8
0
370
    40
390
0
 62
     7
 48
0.000772
100
AcDbLine
 10
-29.515274
 20
8.800824
 30
0.0
 11
-29.485337
 21
8.808349
 31
0.0
210
0.0
220
0.0
230
1.0
  0
LINE
  5
107
100
AcDbEntity
  8
0
370
    40
390
0
 62
     7
 48
0.008185
100
AcDbLine
 10
-29.798742
 20
7.665056
 30
0.0
 11
-29.904443
 21
7.355196
 31
0.0
210
0.0
220
0.0
230
1.0
  0
LINE
  5
108
100
AcDbEntity
  8
0
370
    13
390
0
 62
     7
 48
0.001623
100
AcDbLine
 10
-32.836354
 20
12.282214
 30
0.0
 11
-32.896699
 21
12.30619
 31
0.0
210
0.0
220
0.0
230
1.0
  0
LINE
  5
109
100
AcDbEntity
  8
0
370
    13
390
0
 62
     7
 48
0.001686
100
AcDbLine
 10
-30.768637
 20
17.321257
 30
0.0
 11
-30.831413
 21
17.345949
 31
0.0
210
0.0
220
0.0
230
1.0
  0
LINE
  5
10A
100
AcDbEntity
  8
0
370
    40
390
0
 62
     7
 48
0.00081
100
AcDbLine
 10
-25.820239
 20
17.600051
 30
0.0
 11
-25.802968
 21
17.572621
 31
0.0
210
0.0
220
0.0
230
1.0
  0
LINE
  5
10B
100
AcDbEntity
  8
0
370
    13
390
0
 62
     7
 48
0.002007
100
AcDbLine
 10
-30.1
 20
12.356758
 30
0.0
 11
-30.1
 21
12.276486
 31
0.0
210
0.0
220
0.0
230
1.0
  0
LINE
  5
10C
100
AcDbEntity
  8
0
370
    13
390
0
 62
     7
 48
0.002007
100
AcDbLine
 10
-29.9
 20
12.355165
 30
0.0
 11
-29.9
 21
12.274894
 31
0.0
210
0.0
220
0.0
230
1.0
  0
LINE
  5
10D
100
AcDbEntity
  8
0
370
    13
390
0
 62
     7
 48
0.00206
100
AcDbLine
 10
-28.822043
 20
13.412415
 30
0.0
 11
-28.73963
 21
13.412415
 31
0.0
210
0.0
220
0.0
230
1.0
  0
LINE
  5
10E
100
AcDbEntity
  8
0
370
    13
390
0
 62
     7
 48
0.011661
100
AcDbLine
 10
-28.819031
 20
13.566356
 30
0.0
 11
-28.727037
 21
14.023632
 31
0.0
210
0.0
220
0.0
230
1.0
  0
LINE
  5
10F
100
AcDbEntity
  8
0
370
    13
390
0
 62
     7
 48
0.014256
100
AcDbLine
 10
-29.9
 20
14.745626
 30
0.0
 11
-29.9
 21
15.315886
 31
0.0
210
0.0
220
0.0
230
1.0
  0
LINE
  5
110
100
AcDbEntity
  8
0
370
    13
390
0
 62
     7
 48
0.014247
100
AcDbLine
 10
-30.1
 20
14.734072
 30
0.0
 11
-30.1
 21
15.303955
 31
0.0
210
0.0
220
0.0
230
1.0
  0
LINE
  5
111
100
AcDbEntity
  8
0
370
    13
390
0
 62
     7
 48
0.011393
100
AcDbLine
 10
-31.159718
 20
13.460718
 30
0.0
 11
-31.249595
 21
13.907472
 31
0.0
210
0.0
220
0.0
230
1.0
  0
LINE
  5
112
100
AcDbEntity
  8
0
370
    13
390
0
 62
     7
 48
0.002026
100
AcDbLine
 10
-31.15881
 20
13.412415
 30
0.0
 11
-31.239836
 21
13.412415
 31
0.0
210
0.0
220
0.0
230
1.0
  0
ARC
  5
113
100
AcDbEntity
  8
0
370
    40
390
0
 62
     7
100
AcDbCircle
 10
-30.099996
 20
13.405104
 30
0.0
 40
1.047087
210
0.0
220
0.0
230
1.0
100
AcDbArc
 50
231.171776
 51
259.080243
  0
LINE
  5
114
100
AcDbEntity
  8
0
370
    40
390
0
 62
     7
 48
0.004301
100
AcDbLine
 10
-30.610113
 20
3.996199
 30
0.0
 11
-30.594624
 21
3.824843
 31
0.0
210
0.0
220
0.0
230
1.0
  0
LINE
  5
115
100
AcDbEntity
  8
0
370
    13
390
0
 62
     7
 48
0.005804
100
AcDbLine
 10
-29.999997
 20
5.852716
 30
0.0
 11
-29.767834
 21
5.852716
 31
0.0
210
0.0
220
0.0
230
1.0
  0
ARC
  5
116
100
AcDbEntity
  8
0
370
    40
390
0
 62
     7
100
AcDbCircle
 10
-33.000477
 20
5.810266
 30
0.0
 40
3.000778
210
0.0
220
0.0
230
1.0
100
AcDbArc
 50
322.804855
 51
0.810559
  0
LINE
  5
117
100
AcDbEntity
  8
0
370
    13
390
0
 62
     7
 48
0.030791
100
AcDbLine
 10
-29.999997
 20
5.852716
 30
0.0
 11
-29.757088
 21
7.060152
 31
0.0
210
0.0
220
0.0
230
1.0
  0
ARC
  5
118
100
AcDbEntity
  8
0
370
    40
390
0
 62
     7
100
AcDbCircle
 10
-3.31489
 20
-1.515059
 30
0.0
 40
28.030032
210
0.0
220
0.0
230
1.0
100
AcDbArc
 50
161.551576
 51
163.016956
  0
ELLIPSE
  5
119
100
AcDbEntity
  8
0
370
    40
390
0
 62
     7
100
AcDbEllipse
 10
-32.999996
 20
5.852716
 30
0.0
 11
3.0
 21
0.0
 31
0.0
210
0.0
220
0.0
230
1.0
 40
0.965473
 41
0.0
 42
0.2868471840754961
  0
SPLINE
  5
11A
100
AcDbEntity
  8
0
370
    13
390
0
 62
     7
100
AcDbSpline
210
0.0
220
0.0
230
1.0
 70
     8
 71
     5
 72
    27
 73
    21
 74
     0
 42
0.0
 43
0.0
 40
0.0
 40
0.0
 40
0.0
 40
0.0
 40
0.0
 40
0.0
 40
6.3322260578775884
 40
6.3322260578775884
 40
6.3322260578775884
 40
9.5189168833744269
 40
9.5189168833744269
 40
9.5189168833744269
 40
15.914172139135228
 40
15.914172139135228
 40
15.914172139135228
 40
25.500904955575095
 40
25.500904955575095
 40
25.500904955575095
 40
31.037847598501401
 40
31.037847598501401
 40
31.037847598501401
 40
31.807555802110784
 40
31.807555802110784
 40
31.807555802110784
 40
31.807555802110784
 40
31.807555802110784
 40
31.807555802110784
 10
21.912998577294523
 20
16.379418638078107
 30
0.0
 10
22.333179899802683
 20
15.829250483189828
 30
0.0
 10
22.737035852035135
 20
15.264112724327964
 30
0.0
 10
23.125285123799845
 20
14.681070504212872
 30
0.0
 10
23.68082432782505
 20
13.784751899240602
 30
0.0
 10
24.194340694498624
 20
12.856279533724503
 30
0.0
 10
24.36147018798075
 20
12.541854700568521
 30
0.0
 10
24.848719912379103
 20
11.587020056852126
 30
0.0
 10
25.288965743361352
 20
10.60554874757209
 30
0.0
 10
25.560890226086013
 20
9.9401037713884701
 30
0.0
 10
26.183699630814154
 20
8.2560683778783233
 30
0.0
 10
26.662678411359465
 20
6.5273135427149427
 30
0.0
 10
26.896820099792066
 20
5.4791986741321441
 30
0.0
 10
27.181547372984223
 20
3.8176016210213097
 30
0.0
 10
27.334969769104116
 20
2.1569761608736004
 30
0.0
 10
27.373739456696192
 20
1.5496821242098628
 30
0.0
 10
27.398354073948536
 20
0.8610049001573767
 30
0.0
 10
27.401333503443951
 20
0.1765137064741218
 30
0.0
 10
27.401364663309355
 20
0.0840682505651391
 30
0.0
 10
27.401061050105074
 20
0.0007489810283333
 30
0.0
 10
27.400438159231506
 20
-0.0825814100151087
 30
0.0
  0
ARC
  5
11B
100
AcDbEntity
  8
0
370
    40
390
0
 62
     7
100
AcDbCircle
 10
-17.596288
 20
-6.466915
 30
0.0
 40
49.612913
210
0.0
220
0.0
230
1.0
100
AcDbArc
 50
28.982876
 51
37.356463
  0
ARC
  5
11C
100
AcDbEntity
  8
0
370
    40
390
0
 62
     7
100
AcDbCircle
 10
-14.770734
 20
-832.787583
 30
0.0
 40
851.327661
210
0.0
220
0.0
230
1.0
100
AcDbArc
 50
86.933661
 51
87.268287
  0
SPLINE
  5
11D
100
AcDbEntity
  8
0
370
    40
390
0
 62
     7
100
AcDbSpline
210
0.0
220
0.0
230
1.0
 70
     8
 71
     5
 72
    24
 73
    18
 74
     0
 42
0.0
 43
0.0
 40
0.0
 40
0.0
 40
0.0
 40
0.0
 40
0.0
 40
0.0
 40
2.143631194174882
 40
2.143631194174882
 40
2.143631194174882
 40
5.0991512470251941
 40
5.0991512470251941
 40
5.0991512470251941
 40
8.0187678897996832
 40
8.0187678897996832
 40
8.0187678897996832
 40
9.0439983500853316
 40
9.0439983500853316
 40
9.0439983500853316
 40
10.04470641069736
 40
10.04470641069736
 40
10.04470641069736
 40
10.04470641069736
 40
10.04470641069736
 40
10.04470641069736
 10
32.836353742696346
 20
12.282214074770877
 30
0.0
 10
33.054487772326048
 20
12.510972815257839
 30
0.0
 10
33.237431681463534
 20
12.763530902911302
 30
0.0
 10
33.382407067521271
 20
13.031796223396688
 30
0.0
 10
33.638832294815387
 20
13.691120554385519
 30
0.0
 10
33.692095921561794
 20
14.370750092130484
 30
0.0
 10
33.658332583169958
 20
14.757929110828909
 30
0.0
 10
33.474332816382351
 20
15.496026613545524
 30
0.0
 10
33.071149785256381
 20
16.14327809953129
 30
0.0
 10
32.819653571888857
 20
16.435809368890489
 30
0.0
 10
32.41319310325791
 20
16.780604744680293
 30
0.0
 10
31.922205948324159
 20
17.034766645021527
 30
0.0
 10
31.788166355940767
 20
17.09451579868977
 30
0.0
 10
31.514562515491601
 20
17.197251883705036
 30
0.0
 10
31.222326460961909
 20
17.26848404948284
 30
0.0
 10
31.07449551572283
 20
17.29523223925079
 30
0.0
 10
30.922699408053525
 20
17.313039403517767
 30
0.0
 10
30.768636995743915
 20
17.321257388854523
 30
0.0
  0
ARC
  5
11E
100
AcDbEntity
  8
0
370
    40
390
0
 62
     7
100
AcDbCircle
 10
-258.936286
 20
290.371048
 30
0.0
 40
403.069011
210
0.0
220
0.0
230
1.0
100
AcDbArc
 50
315.689437
 51
316.375551
  0
ARC
  5
11F
100
AcDbEntity
  8
0
370
    40
390
0
 62
     7
100
AcDbCircle
 10
-6.955513
 20
-1.795945
 30
0.0
 40
37.95242
210
0.0
220
0.0
230
1.0
100
AcDbArc
 50
14.43526
 51
16.225011
  0
ARC
  5
120
100
AcDbEntity
  8
0
370
    40
390
0
 62
     7
100
AcDbCircle
 10
33.315759
 20
7.11905
 30
0.0
 40
3.559154
210
0.0
220
0.0
230
1.0
100
AcDbArc
 50
171.175432
 51
180.948186
  0
ARC
  5
121
100
AcDbEntity
  8
0
370
    40
390
0
 62
     7
100
AcDbCircle
 10
-48.780511
 20
5.755867
 30
0.0
 40
78.548415
210
0.0
220
0.0
230
1.0
100
AcDbArc
 50
0.070645
 51
0.951432
  0
ARC
  5
122
100
AcDbEntity
  8
0
370
    40
390
0
 62
     7
100
AcDbCircle
 10
32.982533
 20
5.855357
 30
0.0
 40
3.214659
210
0.0
220
0.0
230
1.0
100
AcDbArc
 50
180.047064
 51
221.721906
  0
ARC
  5
123
100
AcDbEntity
  8
0
370
    40
390
0
 62
     7
100
AcDbCircle
 10
-1.948392
 20
-0.840199
 30
0.0
 40
32.848957
210
0.0
220
0.0
230
1.0
100
AcDbArc
 50
1.124237
 51
7.972686
  0
ARC
  5
124
100
AcDbEntity
  8
0
370
    13
390
0
 62
     7
100
AcDbCircle
 10
-10.398604
 20
-1210.996988
 30
0.0
 40
1211.503578
210
0.0
220
0.0
230
1.0
100
AcDbArc
 50
88.046762
 51
88.212076
  0
ARC
  5
125
100
AcDbEntity
  8
0
370
    40
390
0
 62
     7
100
AcDbCircle
 10
-13.427619
 20
12.843944
 30
0.0
 40
42.271892
210
0.0
220
0.0
230
1.0
100
AcDbArc
 50
0.770536
 51
1.593015
  0
ARC
  5
126
100
AcDbEntity
  8
0
370
    40
390
0
 62
     7
100
AcDbCircle
 10
29.990683
 20
13.425747
 30
0.0
 40
1.149966
210
0.0
220
0.0
230
1.0
100
AcDbArc
 50
180.66404
 51
359.335811
  0
LINE
  5
127
100
AcDbEntity
  8
0
370
    40
390
0
 62
     7
 48
0.012495
100
AcDbLine
 10
31.150532
 20
13.912133
 30
0.0
 11
31.14067
 21
13.412415
 31
0.0
210
0.0
220
0.0
230
1.0
  0
SPLINE
  5
128
100
AcDbEntity
  8
0
370
    40
390
0
 62
     7
100
AcDbSpline
210
0.0
220
0.0
230
1.0
 70
     8
 71
     5
 72
    30
 73
    24
 74
     0
 42
0.0
 43
0.0
 40
0.0
 40
0.0
 40
0.0
 40
0.0
 40
0.0
 40
0.0
 40
0.6179348028465593
 40
0.6179348028465593
 40
0.6179348028465593
 40
1.2442718593586188
 40
1.2442718593586188
 40
1.2442718593586188
 40
1.8866807101040104
 40
1.8866807101040104
 40
1.8866807101040104
 40
2.7896416674080577
 40
2.7896416674080577
 40
2.7896416674080577
 40
3.7167123136977906
 40
3.7167123136977906
 40
3.7167123136977906
 40
5.0299546146395455
 40
5.0299546146395455
 40
5.0299546146395455
 40
6.4120274013441341
 40
6.4120274013441341
 40
6.4120274013441341
 40
6.4120274013441341
 40
6.4120274013441341
 40
6.4120274013441341
 10
28.827949687199627
 20
14.019093220535069
 30
0.0
 10
28.826002994237726
 20
14.090201148194277
 30
0.0
 10
28.828391591225074
 20
14.161529434980013
 30
0.0
 10
28.835210520966314
 20
14.233138974030799
 30
0.0
 10
28.85794547770497
 20
14.376136938719393
 30
0.0
 10
28.899511175857324
 20
14.516709962900086
 30
0.0
 10
28.92551822033127
 20
14.586956331427089
 30
0.0
 10
28.988507215717402
 20
14.726009719787486
 30
0.0
 10
29.073785477312331
 20
14.857366964845324
 30
0.0
 10
29.123396674513948
 20
14.921802998876302
 30
0.0
 10
29.256323565493393
 20
15.066572749875164
 30
0.0
 10
29.423870628939394
 20
15.183729711201545
 30
0.0
 10
29.533371204001828
 20
15.239743996060792
 30
0.0
 10
29.774123301069952
 20
15.317930911777944
 30
0.0
 10
30.027623812777808
 20
15.319868313688531
 30
0.0
 10
30.152798366948463
 20
15.300249442599004
 30
0.0
 10
30.437100498689169
 20
15.213288862226594
 30
0.0
 10
30.669326888527667
 20
15.049713149592428
 30
0.0
 10
30.784799132128743
 20
14.936252900369116
 30
0.0
 10
30.981183348104683
 20
14.680283339167143
 30
0.0
 10
31.097544012385033
 20
14.387675173966123
 30
0.0
 10
31.136636606035186
 20
14.231709945595444
 30
0.0
 10
31.15474717821494
 20
14.072165420777287
 30
0.0
 10
31.150532366857018
 20
13.912133490284399
 30
0.0
  0
ELLIPSE
  5
129
100
AcDbEntity
  8
0
370
    13
390
0
 62
     7
100
AcDbEllipse
 10
21.949131
 20
16.27512
 30
0.0
 11
0.2374216765165329
 21
0.18338742852211
 31
0.0
210
0.0
220
0.0
230
1.0
 40
0.351171
 41
1.4532924759379009
 42
3.0856676132648517
  0
ARC
  5
12A
100
AcDbEntity
  8
0
370
    13
390
0
 62
     7
100
AcDbCircle
 10
1.076022
 20
0.151781
 30
0.0
 40
26.075627
210
0.0
220
0.0
230
1.0
100
AcDbArc
 50
37.697108
 51
43.967725
  0
SPLINE
  5
12B
100
AcDbEntity
  8
0
370
    13
390
0
 62
     7
100
AcDbSpline
210
0.0
220
0.0
230
1.0
 70
     8
 71
     5
 72
    18
 73
    12
 74
     0
 42
0.0
 43
0.0
 40
0.0
 40
0.0
 40
0.0
 40
0.0
 40
0.0
 40
0.0
 40
0.0756985246826998
 40
0.0756985246826998
 40
0.0756985246826998
 40
0.2252459337828945
 40
0.2252459337828945
 40
0.2252459337828945
 40
0.4005567082837843
 40
0.4005567082837843
 40
0.4005567082837843
 40
0.4005567082837843
 40
0.4005567082837843
 40
0.4005567082837843
 10
27.150905869524088
 20
-0.0602585246202791
 30
0.0
 10
27.151962115340872
 20
-0.0617730497740914
 30
0.0
 10
27.15472497950794
 20
-0.0632792939680361
 30
0.0
 10
27.159269858763174
 20
-0.0647823160602621
 30
0.0
 10
27.17623190023323
 20
-0.0688907873858042
 30
0.0
 10
27.202345910444816
 20
-0.0722970859121748
 30
0.0
 10
27.222266978619576
 20
-0.0742609139160434
 30
0.0
 10
27.267463163657453
 20
-0.0778399921411052
 30
0.0
 10
27.317083189455005
 20
-0.0802772289230752
 30
0.0
 10
27.344567550761202
 20
-0.0813117435203621
 30
0.0
 10
27.372399332610161
 20
-0.082083142613342
 30
0.0
 10
27.40043689218021
 20
-0.0826037693970098
 30
0.0
  0
SPLINE
  5
12C
100
AcDbEntity
  8
0
370
    13
390
0
 62
     7
100
AcDbSpline
210
0.0
220
0.0
230
1.0
 70
     8
 71
     5
 72
    27
 73
    21
 74
     0
 42
0.0
 43
0.0
 40
0.0
 40
0.0
 40
0.0
 40
0.0
 40
0.0
 40
0.0
 40
6.3060246031513412
 40
6.3060246031513412
 40
6.3060246031513412
 40
9.4749429615537455
 40
9.4749429615537455
 40
9.4749429615537455
 40
15.832663396738866
 40
15.832663396738866
 40
15.832663396738866
 40
25.365072359499226
 40
25.365072359499226
 40
25.365072359499226
 40
30.87900742100058
 40
30.87900742100058
 40
30.87900742100058
 40
31.662589107898043
 40
31.662589107898043
 40
31.662589107898043
 40
31.662589107898043
 40
31.662589107898043
 40
31.662589107898043
 10
21.708479912600566
 20
16.096678670918646
 30
0.0
 10
22.125056662308939
 20
15.557602409797104
 30
0.0
 10
22.525161834855748
 20
15.003714248244513
 30
0.0
 10
22.908434011893561
 20
14.435131640622885
 30
0.0
 10
23.459107213503177
 20
13.556933364022758
 30
0.0
 10
23.968216808486744
 20
12.646964587024456
 30
0.0
 10
24.13376679511628
 20
12.339075881004725
 30
0.0
 10
24.616346090074956
 20
11.404177009508008
 30
0.0
 10
25.052487142335131
 20
10.442934311256449
 30
0.0
 10
25.321898050745904
 20
9.7911485576710415
 30
0.0
 10
25.939160409384233
 20
8.1410473581259524
 30
0.0
 10
26.414212539785254
 20
6.4458671246255701
 30
0.0
 10
26.646603997311644
 20
5.4175694503554821
 30
0.0
 10
26.929804556604342
 20
3.7850134867690821
 30
0.0
 10
27.083349970958086
 20
2.1506124366523309
 30
0.0
 10
27.122418926837888
 20
1.5519024463085551
 30
0.0
 10
27.147684178621041
 20
0.8705241111955572
 30
0.0
 10
27.15147296945127
 20
0.1924986556136737
 30
0.0
 10
27.151612745960289
 20
0.1081176487742707
 30
0.0
 10
27.151423508815252
 20
0.0239347603744708
 30
0.0
 10
27.150905351642546
 20
-0.0602584877165343
 30
0.0
  0
ARC
  5
12D
100
AcDbEntity
  8
0
370
    40
390
0
 62
     7
100
AcDbCircle
 10
-1.276609
 20
-0.810464
 30
0.0
 40
32.203289
210
0.0
220
0.0
230
1.0
100
AcDbArc
 50
0.003146
 51
0.921417
  0
ARC
  5
12E
100
AcDbEntity
  8
0
370
    40
390
0
 62
     7
100
AcDbCircle
 10
-1.274792
 20
-0.810252
 30
0.0
 40
32.174791
210
0.0
220
0.0
230
1.0
100
AcDbArc
 50
0.00277
 51
1.091561
  0
LINE
  5
12F
100
AcDbEntity
  8
0
370
    40
390
0
 62
     7
 48
0.002734
100
AcDbLine
 10
30.594684
 20
3.824772
 30
0.0
 11
30.583177
 21
3.716002
 31
0.0
210
0.0
220
0.0
230
1.0
  0
SPLINE
  5
130
100
AcDbEntity
  8
0
370
    40
390
0
 62
     7
100
AcDbSpline
210
0.0
220
0.0
230
1.0
 70
     8
 71
     5
 72
    15
 73
     9
 74
     0
 42
0.0
 43
0.0
 40
0.0
 40
0.0
 40
0.0
 40
0.0
 40
0.0
 40
0.0
 40
0.7968644266811867
 40
0.7968644266811867
 40
0.7968644266811867
 40
1.0703241914705741
 40
1.0703241914705741
 40
1.0703241914705741
 40
1.0703241914705741
 40
1.0703241914705741
 40
1.0703241914705741
 10
30.815806280624404
 20
1.8636093400461333
 30
0.0
 10
30.80719602465361
 20
1.9676438419845137
 30
0.0
 10
30.798682495641611
 20
2.0712649760512543
 30
0.0
 10
30.790478106926965
 20
2.1717130598116365
 30
0.0
 10
30.781723405520392
 20
2.2853919773028557
 30
0.0
 10
30.778809857616245
 20
2.3443636060702837
 30
0.0
 10
30.778512298341408
 20
2.3552041436421671
 30
0.0
 10
30.778719737319289
 20
2.3611512370550809
 30
0.0
 10
30.779420224958667
 20
2.3621171772292886
 30
0.0
  0
SPLINE
  5
131
100
AcDbEntity
  8
0
370
    40
390
0
 62
     7
100
AcDbSpline
210
0.0
220
0.0
230
1.0
 70
     8
 71
     5
 72
    18
 73
    12
 74
     0
 42
0.0
 43
0.0
 40
0.0
 40
0.0
 40
0.0
 40
0.0
 40
0.0
 40
0.0
 40
0.111089614363889
 40
0.111089614363889
 40
0.111089614363889
 40
0.6224238875899013
 40
0.6224238875899013
 40
0.6224238875899013
 40
0.9708182779261949
 40
0.9708182779261949
 40
0.9708182779261949
 40
0.9708182779261949
 40
0.9708182779261949
 40
0.9708182779261949
 10
29.580593025892476
 20
8.5732837189703339
 30
0.0
 10
29.584448006728426
 20
8.5596962315736249
 30
0.0
 10
29.588145552081581
 20
8.5460724883533619
 30
0.0
 10
29.592125741344564
 20
8.5325495932570714
 30
0.0
 10
29.613696293092765
 20
8.4566965085425601
 30
0.0
 10
29.634822051682015
 20
8.3827431081634209
 30
0.0
 10
29.653648972827472
 20
8.3173425651944939
 30
0.0
 10
29.678725544004738
 20
8.2314615732157392
 30
0.0
 10
29.696175789904402
 20
8.1752181143728464
 30
0.0
 10
29.701565682951788
 20
8.1588888204916454
 30
0.0
 10
29.704862320392579
 20
8.1504811368491517
 30
0.0
 10
29.706090007993094
 20
8.1497384527821222
 30
0.0
  0
LINE
  5
132
100
AcDbEntity
  8
0
370
    40
390
0
 62
     7
 48
0.008185
100
AcDbLine
 10
29.798742
 20
7.665056
 30
0.0
 11
29.904443
 21
7.355196
 31
0.0
210
0.0
220
0.0
230
1.0
  0
LINE
  5
133
100
AcDbEntity
  8
0
370
    40
390
0
 62
     7
 48
0.000772
100
AcDbLine
 10
29.515274
 20
8.800824
 30
0.0
 11
29.485337
 21
8.808349
 31
0.0
210
0.0
220
0.0
230
1.0
  0
LINE
  5
134
100
AcDbEntity
  8
0
370
    13
390
0
 62
     7
 48
0.001623
100
AcDbLine
 10
32.836354
 20
12.282214
 30
0.0
 11
32.896699
 21
12.30619
 31
0.0
210
0.0
220
0.0
230
1.0
  0
LINE
  5
135
100
AcDbEntity
  8
0
370
    13
390
0
 62
     7
 48
0.001686
100
AcDbLine
 10
30.768637
 20
17.321257
 30
0.0
 11
30.831413
 21
17.345949
 31
0.0
210
0.0
220
0.0
230
1.0
  0
LINE
  5
136
100
AcDbEntity
  8
0
370
    40
390
0
 62
     7
 48
0.00081
100
AcDbLine
 10
25.820239
 20
17.600051
 30
0.0
 11
25.802968
 21
17.572621
 31
0.0
210
0.0
220
0.0
230
1.0
  0
LINE
  5
137
100
AcDbEntity
  8
0
370
    13
390
0
 62
     7
 48
0.002026
100
AcDbLine
 10
31.05964
 20
13.412415
 30
0.0
 11
31.14067
 21
13.412415
 31
0.0
210
0.0
220
0.0
230
1.0
  0
LINE
  5
138
100
AcDbEntity
  8
0
370
    13
390
0
 62
     7
 48
0.011395
100
AcDbLine
 10
31.060635
 20
13.465277
 30
0.0
 11
31.150532
 21
13.912133
 31
0.0
210
0.0
220
0.0
230
1.0
  0
LINE
  5
139
100
AcDbEntity
  8
0
370
    13
390
0
 62
     7
 48
0.00206
100
AcDbLine
 10
28.92285
 20
13.412415
 30
0.0
 11
28.840437
 21
13.412415
 31
0.0
210
0.0
220
0.0
230
1.0
  0
LINE
  5
13A
100
AcDbEntity
  8
0
370
    13
390
0
 62
     7
 48
0.011659
100
AcDbLine
 10
28.919928
 20
13.561897
 30
0.0
 11
28.82795
 21
14.019093
 31
0.0
210
0.0
220
0.0
230
1.0
  0
LINE
  5
13B
100
AcDbEntity
  8
0
370
    40
390
0
 62
     7
 48
0.00004
100
AcDbLine
 10
-30.899999
 20
-0.810286
 30
0.0
 11
-30.899999
 21
-0.808702
 31
0.0
210
0.0
220
0.0
230
1.0
  0
ARC
  5
13C
100
AcDbEntity
  8
0
370
    40
390
0
 62
     7
100
AcDbCircle
 10
1.31691
 20
-0.809901
 30
0.0
 40
32.216911
210
0.0
220
0.0
230
1.0
100
AcDbArc
 50
180.000692
 51
183.759224
  0
ARC
  5
13D
100
AcDbEntity
  8
0
370
    40
390
0
 62
     7
100
AcDbCircle
 10
1.321086
 20
-0.809976
 30
0.0
 40
32.247768
210
0.0
220
0.0
230
1.0
100
AcDbArc
 50
179.997734
 51
183.758605
  0
ARC
  5
13E
100
AcDbEntity
  8
0
370
    40
390
0
 62
     7
100
AcDbCircle
 10
1.449606
 20
-0.795744
 30
0.0
 40
32.377098
210
0.0
220
0.0
230
1.0
100
AcDbArc
 50
184.131258
 51
207.785687
  0
LINE
  5
13F
100
AcDbEntity
  8
0
370
    40
390
0
 62
     7
 48
0.00512
100
AcDbLine
 10
-30.843248
 20
-3.128234
 30
0.0
 11
-30.857321
 21
-2.923914
 31
0.0
210
0.0
220
0.0
230
1.0
  0
LINE
  5
140
100
AcDbEntity
  8
0
370
    40
390
0
 62
     7
 48
0.00004
100
AcDbLine
 10
-30.830579
 20
-2.923756
 30
0.0
 11
-30.830684
 21
-2.922163
 31
0.0
210
0.0
220
0.0
230
1.0
  0
ARC
  5
141
100
AcDbEntity
  8
0
370
    40
390
0
 62
     7
100
AcDbCircle
 10
1.447116
 20
-0.796169
 30
0.0
 40
32.347854
210
0.0
220
0.0
230
1.0
100
AcDbArc
 50
183.771189
 51
208.761929
  0
ARC
  5
142
100
AcDbEntity
  8
0
370
    40
390
0
 62
     7
100
AcDbCircle
 10
-4.169916
 20
-4.950372
 30
0.0
 40
25.442235
210
0.0
220
0.0
230
1.0
100
AcDbArc
 50
206.64699
 51
208.444031
  0
SPLINE
  5
143
100
AcDbEntity
  8
0
370
    40
390
0
 62
     7
100
AcDbSpline
210
0.0
220
0.0
230
1.0
 70
     8
 71
     5
 72
    18
 73
    12
 74
     0
 42
0.0
 43
0.0
 40
0.0
 40
0.0
 40
0.0
 40
0.0
 40
0.0
 40
0.0
 40
0.1276820936500231
 40
0.1276820936500231
 40
0.1276820936500231
 40
0.833707691142888
 40
0.833707691142888
 40
0.833707691142888
 40
1.1197224238464081
 40
1.1197224238464081
 40
1.1197224238464081
 40
1.1197224238464081
 40
1.1197224238464081
 40
1.1197224238464081
 10
-27.194317007537151
 20
-15.888862567133435
 30
0.0
 10
-27.186547712570377
 20
-15.903605338989093
 30
0.0
 10
-27.178826936037584
 20
-15.918296905226386
 30
0.0
 10
-27.171020082669816
 20
-15.933087274726896
 30
0.0
 10
-27.120572560660939
 20
-16.028877629641144
 30
0.0
 10
-27.071593200873139
 20
-16.122054698622577
 30
0.0
 10
-27.032408267074796
 20
-16.196766656037667
 30
0.0
 10
-26.986330847055957
 20
-16.285653034678706
 30
0.0
 10
-26.962145965484094
 20
-16.335336036272643
 30
0.0
 10
-26.957335922553074
 20
-16.345780765137722
 30
0.0
 10
-26.955057295252097
 20
-16.351657845933399
 30
0.0
 10
-26.955361999174812
 20
-16.352825962742489
 30
0.0
  0
LINE
  5
144
100
AcDbEntity
  8
0
370
    40
390
0
 62
     7
 48
0.006198
100
AcDbLine
 10
-23.286535
 20
-21.679336
 30
0.0
 11
-23.44689
 21
-21.49027
 31
0.0
210
0.0
220
0.0
230
1.0
  0
SPLINE
  5
145
100
AcDbEntity
  8
0
370
    40
390
0
 62
     7
100
AcDbSpline
210
0.0
220
0.0
230
1.0
 70
     8
 71
     5
 72
    27
 73
    21
 74
     0
 42
0.0
 43
0.0
 40
0.0
 40
0.0
 40
0.0
 40
0.0
 40
0.0
 40
0.0
 40
28.26670347046305
 40
28.26670347046305
 40
28.26670347046305
 40
33.362918688662468
 40
33.362918688662468
 40
33.362918688662468
 40
38.494505701396527
 40
38.494505701396527
 40
38.494505701396527
 40
41.085754906937673
 40
41.085754906937673
 40
41.085754906937673
 40
43.677004112478819
 40
43.677004112478819
 40
43.677004112478819
 40
55.259933329919576
 40
55.259933329919576
 40
55.259933329919576
 40
55.259933329919576
 40
55.259933329919576
 40
55.259933329919576
 10
-0.0016079410784666
 20
-32.618105836365288
 30
0.0
 10
-3.048559853703396
 20
-32.617938892541019
 30
0.0
 10
-6.0956301191352944
 20
-32.226093719206261
 30
0.0
 10
-9.0602942060280682
 20
-31.442185314309899
 30
0.0
 10
-12.386509006938279
 20
-30.10065540665147
 30
0.0
 10
-15.452946072742144
 20
-28.317475264329751
 30
0.0
 10
-15.913091044161328
 20
-28.03616258626333
 30
0.0
 10
-16.825580188562078
 20
-27.450693333470419
 30
0.0
 10
-17.708554008845905
 20
-26.828328320870256
 30
0.0
 10
-18.144240328543596
 20
-26.506787889531019
 30
0.0
 10
-18.789625385582067
 20
-26.008527823033994
 30
0.0
 10
-19.418702234876029
 20
-25.489383342740616
 30
0.0
 10
-19.627923457983638
 20
-25.312860010855694
 30
0.0
 10
-20.041992579441107
 20
-24.955716419789255
 30
0.0
 10
-20.447415235543993
 20
-24.590402890471449
 30
0.0
 10
-20.647943461297867
 20
-24.405742961134287
 30
0.0
 10
-21.732481558589807
 20
-23.385207056214721
 30
0.0
 10
-22.749378338777561
 20
-22.308391425165041
 30
0.0
 10
-23.53468646260249
 20
-21.39333865255864
 30
0.0
 10
-24.271753564815143
 20
-20.448713916899596
 30
0.0
 10
-24.961838835584
 20
-19.474351342351547
 30
0.0
  0
SPLINE
  5
146
100
AcDbEntity
  8
0
370
    40
390
0
 62
     7
100
AcDbSpline
210
0.0
220
0.0
230
1.0
 70
     8
 71
     5
 72
    33
 73
    27
 74
     0
 42
0.0
 43
0.0
 40
0.0
 40
0.0
 40
0.0
 40
0.0
 40
0.0
 40
0.0
 40
3.299091369684549
 40
3.299091369684549
 40
3.299091369684549
 40
13.214049035195501
 40
13.214049035195501
 40
13.214049035195501
 40
28.20557633999082
 40
28.20557633999082
 40
28.20557633999082
 40
30.70281446609193
 40
30.70281446609193
 40
30.70281446609193
 40
31.951409575193733
 40
31.951409575193733
 40
31.951409575193733
 40
33.200004684295536
 40
33.200004684295536
 40
33.200004684295536
 40
43.175532734367735
 40
43.175532734367735
 40
43.175532734367735
 40
49.91709474889349
 40
49.91709474889349
 40
49.91709474889349
 40
49.91709474889349
 40
49.91709474889349
 40
49.91709474889349
 10
-0.0016092458634839
 20
-32.645375629105366
 30
0.0
 10
-0.3574142820588675
 20
-32.645356135898155
 30
0.0
 10
-0.7132252233971862
 20
-32.640000349830395
 30
0.0
 10
-1.0688896264874421
 20
-32.629307680962299
 30
0.0
 10
-2.4922295559789438
 20
-32.56514450908282
 30
0.0
 10
-3.9100152838669482
 20
-32.415664137073449
 30
0.0
 10
-4.9670373354916162
 20
-32.255780672031399
 30
0.0
 10
-7.5967809193466076
 20
-31.736739562646395
 30
0.0
 10
-10.146242664896416
 20
-30.929998904795891
 30
0.0
 10
-11.641825545323917
 20
-30.344373357004368
 30
0.0
 10
-13.332233598588839
 20
-29.551110728538024
 30
0.0
 10
-14.951250525431808
 20
-28.636651824535647
 30
0.0
 10
-15.180863106464548
 20
-28.503681122214388
 30
0.0
 10
-15.523251722001785
 20
-28.300448523355705
 30
0.0
 10
-15.862022941778863
 20
-28.091922442692734
 30
0.0
 10
-15.97436943965616
 20
-28.021936093700198
 30
0.0
 10
-16.198157650093389
 20
-27.880865110169768
 30
0.0
 10
-16.420507793427738
 20
-27.73735847908668
 30
0.0
 10
-16.53147586818843
 20
-27.66489813794691
 30
0.0
 10
-17.525647809548538
 20
-27.008117223782726
 30
0.0
 10
-18.487219324444755
 20
-26.304411145709324
 30
0.0
 10
-19.313025270486044
 20
-25.644454150403277
 30
0.0
 10
-20.64412353936055
 20
-24.486071724485615
 30
0.0
 10
-21.882181336363089
 20
-23.248016979338217
 30
0.0
 10
-22.366369330770276
 20
-22.736114483663307
 30
0.0
 10
-22.834410731970035
 20
-22.213149631396504
 30
0.0
 10
-23.286535389789844
 20
-21.679336118075486
 30
0.0
  0
ARC
  5
147
100
AcDbEntity
  8
0
370
    40
390
0
 62
     7
100
AcDbCircle
 10
-24.288679
 20
-18.702531
 30
0.0
 40
1.024479
210
0.0
220
0.0
230
1.0
100
AcDbArc
 50
219.55558
 51
228.748992
  0
LINE
  5
148
100
AcDbEntity
  8
0
370
    40
390
0
 62
     7
 48
0.00007
100
AcDbLine
 10
-24.961838
 20
-19.474353
 30
0.0
 11
-24.964022
 21
-19.472585
 31
0.0
210
0.0
220
0.0
230
1.0
  0
LINE
  5
149
100
AcDbEntity
  8
0
370
    40
390
0
 62
     7
 48
0.00004
100
AcDbLine
 10
-0.000005
 20
-32.618106
 30
0.0
 11
-0.001608
 21
-32.618106
 31
0.0
210
0.0
220
0.0
230
1.0
  0
LINE
  5
14A
100
AcDbEntity
  8
0
370
    40
390
0
 62
     7
 48
0.00004
100
AcDbLine
 10
-0.000007
 20
-32.645376
 30
0.0
 11
-0.001609
 21
-32.645376
 31
0.0
210
0.0
220
0.0
230
1.0
  0
ARC
  5
14B
100
AcDbEntity
  8
0
370
    40
390
0
 62
     7
100
AcDbCircle
 10
3.082525
 20
-0.818825
 30
0.0
 40
34.034946
210
0.0
220
0.0
230
1.0
100
AcDbArc
 50
171.866905
 51
174.58764
  0
LINE
  5
14C
100
AcDbEntity
  8
0
370
    40
390
0
 62
     7
 48
0.000906
100
AcDbLine
 10
-30.779385
 20
2.36211
 30
0.0
 11
-30.800669
 21
2.391455
 31
0.0
210
0.0
220
0.0
230
1.0
  0
LINE
  5
14D
100
AcDbEntity
  8
0
370
    40
390
0
 62
     7
 48
0.002019
100
AcDbLine
 10
-29.775174
 20
8.107911
 30
0.0
 11
-29.70609
 21
8.149738
 31
0.0
210
0.0
220
0.0
230
1.0
  0
LINE
  5
14E
100
AcDbEntity
  8
0
370
    40
390
0
 62
     7
 48
0.065346
100
AcDbLine
 10
-29.775174
 20
8.107911
 30
0.0
 11
-32.326713
 21
8.675248
 31
0.0
210
0.0
220
0.0
230
1.0
  0
ARC
  5
14F
100
AcDbEntity
  8
0
370
    40
390
0
 62
     7
100
AcDbCircle
 10
6.820871
 20
-1.50776
 30
0.0
 40
37.838219
210
0.0
220
0.0
230
1.0
100
AcDbArc
 50
165.27821
 51
167.515088
  0
SPLINE
  5
150
100
AcDbEntity
  8
0
370
    40
390
0
 62
     7
100
AcDbSpline
210
0.0
220
0.0
230
1.0
 70
     8
 71
     5
 72
    15
 73
     9
 74
     0
 42
0.0
 43
0.0
 40
0.0
 40
0.0
 40
0.0
 40
0.0
 40
0.0
 40
0.0
 40
4.1727757406086372
 40
4.1727757406086372
 40
4.1727757406086372
 40
6.953490986924951
 40
6.953490986924951
 40
6.953490986924951
 40
6.953490986924951
 40
6.953490986924951
 40
6.953490986924951
 10
-24.961562303175111
 20
-19.460357427045835
 30
0.0
 10
-24.952276169030828
 20
-18.983811119984164
 30
0.0
 10
-25.020684691808533
 20
-18.514272925153758
 30
0.0
 10
-25.164517441135956
 20
-18.066835117654247
 30
0.0
 10
-25.524831928377068
 20
-17.379801012797675
 30
0.0
 10
-26.077570622200941
 20
-16.832306450177846
 30
0.0
 10
-26.328685661394534
 20
-16.639982527839724
 30
0.0
 10
-26.607738374826013
 20
-16.480870159528433
 30
0.0
 10
-26.909883576571765
 20
-16.360974074657438
 30
0.0
  0
SPLINE
  5
151
100
AcDbEntity
  8
0
370
    40
390
0
 62
     7
100
AcDbSpline
210
0.0
220
0.0
230
1.0
 70
     8
 71
     5
 72
    30
 73
    24
 74
     0
 42
0.0
 43
0.0
 40
0.0
 40
0.0
 40
0.0
 40
0.0
 40
0.0
 40
0.0
 40
2.0513961593966963
 40
2.0513961593966963
 40
2.0513961593966963
 40
2.7593045479012464
 40
2.7593045479012464
 40
2.7593045479012464
 40
3.1447048519631249
 40
3.1447048519631249
 40
3.1447048519631249
 40
3.5065162997799475
 40
3.5065162997799475
 40
3.5065162997799475
 40
4.3112382703702306
 40
4.3112382703702306
 40
4.3112382703702306
 40
5.7930094126489173
 40
5.7930094126489173
 40
5.7930094126489173
 40
7.2126010877413593
 40
7.2126010877413593
 40
7.2126010877413593
 40
7.2126010877413593
 40
7.2126010877413593
 40
7.2126010877413593
 10
-25.07873499494378
 20
-19.355092112470309
 30
0.0
 10
-25.110620031141664
 20
-19.318240967992491
 30
0.0
 10
-25.148722968368563
 20
-19.272267377246813
 30
0.0
 10
-25.190747883994227
 20
-19.219232069931273
 30
0.0
 10
-25.264911291763323
 20
-19.123625331933159
 30
0.0
 10
-25.384689249256365
 20
-18.957077902382558
 30
0.0
 10
-25.419215586165432
 20
-18.908389881546384
 30
0.0
 10
-25.477494090398945
 20
-18.824863028568863
 30
0.0
 10
-25.543362639600062
 20
-18.728068504484945
 30
0.0
 10
-25.568922092945197
 20
-18.690192287981279
 30
0.0
 10
-25.616597745916543
 20
-18.618870027563819
 30
0.0
 10
-25.665350426925475
 20
-18.544784218810555
 30
0.0
 10
-25.697624887076007
 20
-18.495308610096565
 30
0.0
 10
-25.771592363358884
 20
-18.380965115949092
 30
0.0
 10
-25.841162591692875
 20
-18.270996063444617
 30
0.0
 10
-25.888596977215176
 20
-18.194956797818897
 30
0.0
 10
-26.01040854745068
 20
-17.997350062340104
 30
0.0
 10
-26.115384076623982
 20
-17.821368933187813
 30
0.0
 10
-26.181063744435363
 20
-17.709409933489681
 30
0.0
 10
-26.296461309413488
 20
-17.509647367134253
 30
0.0
 10
-26.399645394263246
 20
-17.32595483321532
 30
0.0
 10
-26.448122465279262
 20
-17.238588707107159
 30
0.0
 10
-26.495380520380397
 20
-17.152372983231722
 30
0.0
 10
-26.541021464794081
 20
-17.068157258785615
 30
0.0
  0
LINE
  5
152
100
AcDbEntity
  8
0
370
    13
390
0
 62
     7
 48
0.000312
100
AcDbLine
 10
-24.964022
 20
-19.472585
 30
0.0
 11
-24.961562
 21
-19.460357
 31
0.0
210
0.0
220
0.0
230
1.0
  0
LINE
  5
153
100
AcDbEntity
  8
0
370
    40
390
0
 62
     7
 48
0.00035
100
AcDbLine
 10
-24.961562
 20
-19.460357
 30
0.0
 11
-24.961834
 21
-19.474358
 31
0.0
210
0.0
220
0.0
230
1.0
  0
ELLIPSE
  5
154
100
AcDbEntity
  8
0
370
    40
390
0
 62
     7
100
AcDbEllipse
 10
-32.999996
 20
5.852716
 30
0.0
 11
3.0
 21
0.0
 31
0.0
210
0.0
220
0.0
230
1.0
 40
0.965473
 41
3.9478262330281848
 42
4.4860327885255442
  0
LINE
  5
155
100
AcDbEntity
  8
0
370
    40
390
0
 62
     7
 48
0.073569
100
AcDbLine
 10
-30.800669
 20
2.391455
 30
0.0
 11
-33.673282
 21
3.030184
 31
0.0
210
0.0
220
0.0
230
1.0
  0
ELLIPSE
  5
156
100
AcDbEntity
  8
0
370
    40
390
0
 62
     7
100
AcDbEllipse
 10
-32.999996
 20
5.852716
 30
0.0
 11
3.0
 21
0.0
 31
0.0
210
0.0
220
0.0
230
1.0
 40
0.965473
 41
1.3444401349357484
 42
2.6844249421186563
  0
LINE
  5
157
100
AcDbEntity
  8
0
370
    40
390
0
 62
     7
 48
0.085613
100
AcDbLine
 10
-35.076661
 20
3.762414
 30
0.0
 11
-35.691916
 21
7.13122
 31
0.0
210
0.0
220
0.0
230
1.0
  0
ELLIPSE
  5
158
100
AcDbEntity
  8
0
370
    40
390
0
 62
     7
100
AcDbEllipse
 10
-32.999996
 20
5.852716
 30
0.0
 11
1.2000000476837158
 21
0.0
 31
0.0
210
0.0
220
0.0
230
1.0
 40
0.965473
 41
3.1415926535897931
 42
6.2831853071795862
  0
ARC
  5
159
100
AcDbEntity
  8
0
370
    40
390
0
 62
     7
100
AcDbCircle
 10
-32.999998
 20
5.858381
 30
0.0
 40
1.20001
210
0.0
220
0.0
230
1.0
100
AcDbArc
 50
359.72952
 51
180.27048
  0
ARC
  5
15A
100
AcDbEntity
  8
0
370
    40
390
0
 62
     7
100
AcDbCircle
 10
33.000477
 20
5.810266
 30
0.0
 40
3.000778
210
0.0
220
0.0
230
1.0
100
AcDbArc
 50
179.189441
 51
217.195145
  0
LINE
  5
15B
100
AcDbEntity
  8
0
370
    13
390
0
 62
     7
 48
0.005804
100
AcDbLine
 10
29.999997
 20
5.852716
 30
0.0
 11
29.767834
 21
5.852716
 31
0.0
210
0.0
220
0.0
230
1.0
  0
LINE
  5
15C
100
AcDbEntity
  8
0
370
    40
390
0
 62
     7
 48
0.004301
100
AcDbLine
 10
30.610113
 20
3.996199
 30
0.0
 11
30.594624
 21
3.824843
 31
0.0
210
0.0
220
0.0
230
1.0
  0
LINE
  5
15D
100
AcDbEntity
  8
0
370
    13
390
0
 62
     7
 48
0.030791
100
AcDbLine
 10
29.999997
 20
5.852716
 30
0.0
 11
29.757088
 21
7.060152
 31
0.0
210
0.0
220
0.0
230
1.0
  0
ELLIPSE
  5
15E
100
AcDbEntity
  8
0
370
    40
390
0
 62
     7
100
AcDbEllipse
 10
32.999996
 20
5.852716
 30
0.0
 11
-3.0
 21
0.0000000000000004
 31
0.0
210
0.0
220
0.0
230
1.0
 40
0.965473
 41
5.9963381231040902
 42
6.2831853071795862
  0
ARC
  5
15F
100
AcDbEntity
  8
0
370
    40
390
0
 62
     7
100
AcDbCircle
 10
3.31489
 20
-1.515059
 30
0.0
 40
28.030032
210
0.0
220
0.0
230
1.0
100
AcDbArc
 50
16.983044
 51
18.448424
  0
ARC
  5
160
100
AcDbEntity
  8
0
370
    40
390
0
 62
     7
100
AcDbCircle
 10
-1.321086
 20
-0.809976
 30
0.0
 40
32.247768
210
0.0
220
0.0
230
1.0
100
AcDbArc
 50
356.241395
 51
0.002266
  0
ARC
  5
161
100
AcDbEntity
  8
0
370
    40
390
0
 62
     7
100
AcDbCircle
 10
-1.31691
 20
-0.809901
 30
0.0
 40
32.216911
210
0.0
220
0.0
230
1.0
100
AcDbArc
 50
356.240776
 51
359.999308
  0
LINE
  5
162
100
AcDbEntity
  8
0
370
    40
390
0
 62
     7
 48
0.00004
100
AcDbLine
 10
30.899999
 20
-0.810286
 30
0.0
 11
30.899999
 21
-0.808702
 31
0.0
210
0.0
220
0.0
230
1.0
  0
ARC
  5
163
100
AcDbEntity
  8
0
370
    40
390
0
 62
     7
100
AcDbCircle
 10
4.169916
 20
-4.950372
 30
0.0
 40
25.442235
210
0.0
220
0.0
230
1.0
100
AcDbArc
 50
331.555969
 51
333.35301
  0
ARC
  5
164
100
AcDbEntity
  8
0
370
    40
390
0
 62
     7
100
AcDbCircle
 10
-1.447116
 20
-0.796169
 30
0.0
 40
32.347854
210
0.0
220
0.0
230
1.0
100
AcDbArc
 50
331.238071
 51
356.228811
  0
LINE
  5
165
100
AcDbEntity
  8
0
370
    40
390
0
 62
     7
 48
0.00004
100
AcDbLine
 10
30.830579
 20
-2.923756
 30
0.0
 11
30.830684
 21
-2.922163
 31
0.0
210
0.0
220
0.0
230
1.0
  0
LINE
  5
166
100
AcDbEntity
  8
0
370
    40
390
0
 62
     7
 48
0.00512
100
AcDbLine
 10
30.843248
 20
-3.128234
 30
0.0
 11
30.857321
 21
-2.923914
 31
0.0
210
0.0
220
0.0
230
1.0
  0
ARC
  5
167
100
AcDbEntity
  8
0
370
    40
390
0
 62
     7
100
AcDbCircle
 10
-1.449606
 20
-0.795744
 30
0.0
 40
32.377098
210
0.0
220
0.0
230
1.0
100
AcDbArc
 50
332.214313
 51
355.868742
  0
SPLINE
  5
168
100
AcDbEntity
  8
0
370
    40
390
0
 62
     7
100
AcDbSpline
210
0.0
220
0.0
230
1.0
 70
     8
 71
     5
 72
    18
 73
    12
 74
     0
 42
0.0
 43
0.0
 40
0.0
 40
0.0
 40
0.0
 40
0.0
 40
0.0
 40
0.0
 40
0.1276820936500231
 40
0.1276820936500231
 40
0.1276820936500231
 40
0.833707691142888
 40
0.833707691142888
 40
0.833707691142888
 40
1.1197224238464081
 40
1.1197224238464081
 40
1.1197224238464081
 40
1.1197224238464081
 40
1.1197224238464081
 40
1.1197224238464081
 10
27.194317007537151
 20
-15.888862567133435
 30
0.0
 10
27.186547712570377
 20
-15.903605338989093
 30
0.0
 10
27.178826936037584
 20
-15.918296905226386
 30
0.0
 10
27.171020082669816
 20
-15.933087274726896
 30
0.0
 10
27.120572560660939
 20
-16.028877629641144
 30
0.0
 10
27.071593200873139
 20
-16.122054698622577
 30
0.0
 10
27.032408267074796
 20
-16.196766656037667
 30
0.0
 10
26.986330847055957
 20
-16.285653034678706
 30
0.0
 10
26.962145965484094
 20
-16.335336036272643
 30
0.0
 10
26.957335922553074
 20
-16.345780765137722
 30
0.0
 10
26.955057295252097
 20
-16.351657845933399
 30
0.0
 10
26.955361999174812
 20
-16.352825962742489
 30
0.0
  0
LINE
  5
169
100
AcDbEntity
  8
0
370
    40
390
0
 62
     7
 48
0.006198
100
AcDbLine
 10
23.286535
 20
-21.679336
 30
0.0
 11
23.44689
 21
-21.49027
 31
0.0
210
0.0
220
0.0
230
1.0
  0
LINE
  5
16A
100
AcDbEntity
  8
0
370
    40
390
0
 62
     7
 48
0.00007
100
AcDbLine
 10
24.961838
 20
-19.474353
 30
0.0
 11
24.964022
 21
-19.472585
 31
0.0
210
0.0
220
0.0
230
1.0
  0
ARC
  5
16B
100
AcDbEntity
  8
0
370
    40
390
0
 62
     7
100
AcDbCircle
 10
24.288679
 20
-18.702531
 30
0.0
 40
1.024479
210
0.0
220
0.0
230
1.0
100
AcDbArc
 50
311.251008
 51
320.44442
  0
SPLINE
  5
16C
100
AcDbEntity
  8
0
370
    40
390
0
 62
     7
100
AcDbSpline
210
0.0
220
0.0
230
1.0
 70
     8
 71
     5
 72
    33
 73
    27
 74
     0
 42
0.0
 43
0.0
 40
0.0
 40
0.0
 40
0.0
 40
0.0
 40
0.0
 40
0.0
 40
3.299091369684549
 40
3.299091369684549
 40
3.299091369684549
 40
13.214049035195501
 40
13.214049035195501
 40
13.214049035195501
 40
28.20557633999082
 40
28.20557633999082
 40
28.20557633999082
 40
30.70281446609193
 40
30.70281446609193
 40
30.70281446609193
 40
31.951409575193733
 40
31.951409575193733
 40
31.951409575193733
 40
33.200004684295536
 40
33.200004684295536
 40
33.200004684295536
 40
43.175532734367735
 40
43.175532734367735
 40
43.175532734367735
 40
49.91709474889349
 40
49.91709474889349
 40
49.91709474889349
 40
49.91709474889349
 40
49.91709474889349
 40
49.91709474889349
 10
0.0016092458634839
 20
-32.645375629105366
 30
0.0
 10
0.3574142820588675
 20
-32.645356135898155
 30
0.0
 10
0.7132252233971862
 20
-32.640000349830395
 30
0.0
 10
1.0688896264874421
 20
-32.629307680962299
 30
0.0
 10
2.4922295559789438
 20
-32.56514450908282
 30
0.0
 10
3.9100152838669482
 20
-32.415664137073449
 30
0.0
 10
4.9670373354916162
 20
-32.255780672031399
 30
0.0
 10
7.5967809193466076
 20
-31.736739562646395
 30
0.0
 10
10.146242664896416
 20
-30.929998904795891
 30
0.0
 10
11.641825545323917
 20
-30.344373357004368
 30
0.0
 10
13.332233598588839
 20
-29.551110728538024
 30
0.0
 10
14.951250525431808
 20
-28.636651824535647
 30
0.0
 10
15.180863106464548
 20
-28.503681122214388
 30
0.0
 10
15.523251722001785
 20
-28.300448523355705
 30
0.0
 10
15.862022941778863
 20
-28.091922442692734
 30
0.0
 10
15.97436943965616
 20
-28.021936093700198
 30
0.0
 10
16.198157650093389
 20
-27.880865110169768
 30
0.0
 10
16.420507793427738
 20
-27.73735847908668
 30
0.0
 10
16.53147586818843
 20
-27.66489813794691
 30
0.0
 10
17.525647809548538
 20
-27.008117223782726
 30
0.0
 10
18.487219324444755
 20
-26.304411145709324
 30
0.0
 10
19.313025270486044
 20
-25.644454150403277
 30
0.0
 10
20.64412353936055
 20
-24.486071724485615
 30
0.0
 10
21.882181336363089
 20
-23.248016979338217
 30
0.0
 10
22.366369330770276
 20
-22.736114483663307
 30
0.0
 10
22.834410731970035
 20
-22.213149631396504
 30
0.0
 10
23.286535389789844
 20
-21.679336118075486
 30
0.0
  0
SPLINE
  5
16D
100
AcDbEntity
  8
0
370
    40
390
0
 62
     7
100
AcDbSpline
210
0.0
220
0.0
230
1.0
 70
     8
 71
     5
 72
    27
 73
    21
 74
     0
 42
0.0
 43
0.0
 40
0.0
 40
0.0
 40
0.0
 40
0.0
 40
0.0
 40
0.0
 40
28.26670347046305
 40
28.26670347046305
 40
28.26670347046305
 40
33.362918688662468
 40
33.362918688662468
 40
33.362918688662468
 40
38.494505701396527
 40
38.494505701396527
 40
38.494505701396527
 40
41.085754906937673
 40
41.085754906937673
 40
41.085754906937673
 40
43.677004112478819
 40
43.677004112478819
 40
43.677004112478819
 40
55.259933329919576
 40
55.259933329919576
 40
55.259933329919576
 40
55.259933329919576
 40
55.259933329919576
 40
55.259933329919576
 10
0.0016079410784666
 20
-32.618105836365288
 30
0.0
 10
3.048559853703396
 20
-32.617938892541019
 30
0.0
 10
6.0956301191352944
 20
-32.226093719206261
 30
0.0
 10
9.0602942060280682
 20
-31.442185314309899
 30
0.0
 10
12.386509006938279
 20
-30.10065540665147
 30
0.0
 10
15.452946072742144
 20
-28.317475264329751
 30
0.0
 10
15.913091044161328
 20
-28.03616258626333
 30
0.0
 10
16.825580188562078
 20
-27.450693333470419
 30
0.0
 10
17.708554008845905
 20
-26.828328320870256
 30
0.0
 10
18.144240328543596
 20
-26.506787889531019
 30
0.0
 10
18.789625385582067
 20
-26.008527823033994
 30
0.0
 10
19.418702234876029
 20
-25.489383342740616
 30
0.0
 10
19.627923457983638
 20
-25.312860010855694
 30
0.0
 10
20.041992579441107
 20
-24.955716419789255
 30
0.0
 10
20.447415235543993
 20
-24.590402890471449
 30
0.0
 10
20.647943461297867
 20
-24.405742961134287
 30
0.0
 10
21.732481558589807
 20
-23.385207056214721
 30
0.0
 10
22.749378338777561
 20
-22.308391425165041
 30
0.0
 10
23.53468646260249
 20
-21.39333865255864
 30
0.0
 10
24.271753564815143
 20
-20.448713916899596
 30
0.0
 10
24.961838835584
 20
-19.474351342351547
 30
0.0
  0
LINE
  5
16E
100
AcDbEntity
  8
0
370
    40
390
0
 62
     7
 48
0.00004
100
AcDbLine
 10
0.000007
 20
-32.645376
 30
0.0
 11
0.001609
 21
-32.645376
 31
0.0
210
0.0
220
0.0
230
1.0
  0
LINE
  5
16F
100
AcDbEntity
  8
0
370
    40
390
0
 62
     7
 48
0.00004
100
AcDbLine
 10
0.000005
 20
-32.618106
 30
0.0
 11
0.001608
 21
-32.618106
 31
0.0
210
0.0
220
0.0
230
1.0
  0
LINE
  5
170
100
AcDbEntity
  8
0
370
    40
390
0
 62
     7
 48
0.000906
100
AcDbLine
 10
30.779385
 20
2.36211
 30
0.0
 11
30.800669
 21
2.391455
 31
0.0
210
0.0
220
0.0
230
1.0
  0
ARC
  5
171
100
AcDbEntity
  8
0
370
    40
390
0
 62
     7
100
AcDbCircle
 10
-3.082525
 20
-0.818825
 30
0.0
 40
34.034946
210
0.0
220
0.0
230
1.0
100
AcDbArc
 50
5.41236
 51
8.133095
  0
ARC
  5
172
100
AcDbEntity
  8
0
370
    40
390
0
 62
     7
100
AcDbCircle
 10
-6.820871
 20
-1.50776
 30
0.0
 40
37.838219
210
0.0
220
0.0
230
1.0
100
AcDbArc
 50
12.484912
 51
14.72179
  0
LINE
  5
173
100
AcDbEntity
  8
0
370
    40
390
0
 62
     7
 48
0.002019
100
AcDbLine
 10
29.775174
 20
8.107911
 30
0.0
 11
29.70609
 21
8.149738
 31
0.0
210
0.0
220
0.0
230
1.0
  0
LINE
  5
174
100
AcDbEntity
  8
0
370
    40
390
0
 62
     7
 48
0.065346
100
AcDbLine
 10
29.775174
 20
8.107911
 30
0.0
 11
32.326713
 21
8.675248
 31
0.0
210
0.0
220
0.0
230
1.0
  0
LINE
  5
175
100
AcDbEntity
  8
0
370
    40
390
0
 62
     7
 48
0.001451
100
AcDbLine
 10
-23.624907
 20
-21.287268
 30
0.0
 11
-23.682166
 21
-21.277722
 31
0.0
210
0.0
220
0.0
230
1.0
  0
ARC
  5
176
100
AcDbEntity
  8
0
370
    40
390
0
 62
     7
100
AcDbCircle
 10
1.230258
 20
-0.781927
 30
0.0
 40
32.260041
210
0.0
220
0.0
230
1.0
100
AcDbArc
 50
209.029169
 51
219.444603
  0
LINE
  5
177
100
AcDbEntity
  8
0
370
    40
390
0
 62
     7
 48
0.002156
100
AcDbLine
 10
-26.977091
 20
-16.436294
 30
0.0
 11
-26.955362
 21
-16.352826
 31
0.0
210
0.0
220
0.0
230
1.0
  0
ARC
  5
178
100
AcDbEntity
  8
0
370
    40
390
0
 62
     7
100
AcDbCircle
 10
-26.464321
 20
-23.926574
 30
0.0
 40
3.877311
210
0.0
220
0.0
230
1.0
100
AcDbArc
 50
38.917751
 51
42.908235
  0
LINE
  5
179
100
AcDbEntity
  8
0
370
    40
390
0
 62
     7
 48
0.083941
100
AcDbLine
 10
-26.977091
 20
-16.436294
 30
0.0
 11
-29.826786
 21
-18.211957
 31
0.0
210
0.0
220
0.0
230
1.0
  0
LINE
  5
17A
100
AcDbEntity
  8
0
370
    13
390
0
 62
     7
 48
0.000312
100
AcDbLine
 10
24.964022
 20
-19.472585
 30
0.0
 11
24.961562
 21
-19.460357
 31
0.0
210
0.0
220
0.0
230
1.0
  0
SPLINE
  5
17B
100
AcDbEntity
  8
0
370
    40
390
0
 62
     7
100
AcDbSpline
210
0.0
220
0.0
230
1.0
 70
     8
 71
     5
 72
    30
 73
    24
 74
     0
 42
0.0
 43
0.0
 40
0.0
 40
0.0
 40
0.0
 40
0.0
 40
0.0
 40
0.0
 40
2.0513961582519751
 40
2.0513961582519751
 40
2.0513961582519751
 40
2.7593045467565247
 40
2.7593045467565247
 40
2.7593045467565247
 40
3.1447048508431257
 40
3.1447048508431257
 40
3.1447048508431257
 40
3.5065162797779643
 40
3.5065162797779643
 40
3.5065162797779643
 40
4.3112382504195228
 40
4.3112382504195228
 40
4.3112382504195228
 40
5.7930093928350388
 40
5.7930093928350388
 40
5.7930093928350388
 40
7.2126010679274817
 40
7.2126010679274817
 40
7.2126010679274817
 40
7.2126010679274817
 40
7.2126010679274817
 40
7.2126010679274817
 10
25.07873499494378
 20
-19.355092112470299
 30
0.0
 10
25.110620031123872
 20
-19.318240968013047
 30
0.0
 10
25.148722968326013
 20
-19.272267377298121
 30
0.0
 10
25.19074788405576
 20
-19.219232069851945
 30
0.0
 10
25.264911291813011
 20
-19.123625331864059
 30
0.0
 10
25.384689249256365
 20
-18.957077902382551
 30
0.0
 10
25.419215586165478
 20
-18.908389881546384
 30
0.0
 10
25.477494090400246
 20
-18.82486302856697
 30
0.0
 10
25.54336263960306
 20
-18.728068504480564
 30
0.0
 10
25.568922092942049
 20
-18.690192287985997
 30
0.0
 10
25.616597744710173
 20
-18.618870029368573
 30
0.0
 10
25.665350424461529
 20
-18.544784222554842
 30
0.0
 10
25.697624889470529
 20
-18.495308606394953
 30
0.0
 10
25.771592364488253
 20
-18.380965114164038
 30
0.0
 10
25.841162591698936
 20
-18.270996063435003
 30
0.0
 10
25.888596977209694
 20
-18.194956797827761
 30
0.0
 10
26.010408547455647
 20
-17.99735006233222
 30
0.0
 10
26.115384076636484
 20
-17.821368933166752
 30
0.0
 10
26.181063744424321
 20
-17.709409933508521
 30
0.0
 10
26.296461309408762
 20
-17.509647367142918
 30
0.0
 10
26.3996453942631
 20
-17.32595483321532
 30
0.0
 10
26.448122465279262
 20
-17.238588707107159
 30
0.0
 10
26.495380520380397
 20
-17.152372983231722
 30
0.0
 10
26.541021464794081
 20
-17.068157258785615
 30
0.0
  0
SPLINE
  5
17C
100
AcDbEntity
  8
0
370
    40
390
0
 62
     7
100
AcDbSpline
210
0.0
220
0.0
230
1.0
 70
     8
 71
     5
 72
    15
 73
     9
 74
     0
 42
0.0
 43
0.0
 40
0.0
 40
0.0
 40
0.0
 40
0.0
 40
0.0
 40
0.0
 40
4.1727757405423498
 40
4.1727757405423498
 40
4.1727757405423498
 40
6.9534909868461785
 40
6.9534909868461785
 40
6.9534909868461785
 40
6.9534909868461785
 40
6.9534909868461785
 40
6.9534909868461785
 10
24.961562303175114
 20
-19.460357427045835
 30
0.0
 10
24.952276169030981
 20
-18.983811119991739
 30
0.0
 10
25.020684691806728
 20
-18.514272925168676
 30
0.0
 10
25.164517441140898
 20
-18.066835117639219
 30
0.0
 10
25.524831928382984
 20
-17.379801012794978
 30
0.0
 10
26.077570622198103
 20
-16.832306450178955
 30
0.0
 10
26.328685661397465
 20
-16.639982527838406
 30
0.0
 10
26.60773837482737
 20
-16.480870159527896
 30
0.0
 10
26.909883576571765
 20
-16.360974074657435
 30
0.0
  0
LINE
  5
17D
100
AcDbEntity
  8
0
370
    40
390
0
 62
     7
 48
0.00035
100
AcDbLine
 10
24.961562
 20
-19.460357
 30
0.0
 11
24.961834
 21
-19.474358
 31
0.0
210
0.0
220
0.0
230
1.0
  0
LINE
  5
17E
100
AcDbEntity
  8
0
370
    40
390
0
 62
     7
 48
0.085613
100
AcDbLine
 10
35.076661
 20
3.762414
 30
0.0
 11
35.691916
 21
7.13122
 31
0.0
210
0.0
220
0.0
230
1.0
  0
ELLIPSE
  5
17F
100
AcDbEntity
  8
0
370
    40
390
0
 62
     7
100
AcDbEllipse
 10
32.999996
 20
5.852716
 30
0.0
 11
3.0
 21
0.0
 31
0.0
210
0.0
220
0.0
230
1.0
 40
0.965473
 41
0.4571677114711366
 42
1.7971525186540447
  0
LINE
  5
180
100
AcDbEntity
  8
0
370
    40
390
0
 62
     7
 48
0.073569
100
AcDbLine
 10
30.800669
 20
2.391455
 30
0.0
 11
33.673282
 21
3.030184
 31
0.0
210
0.0
220
0.0
230
1.0
  0
ELLIPSE
  5
181
100
AcDbEntity
  8
0
370
    40
390
0
 62
     7
100
AcDbEllipse
 10
32.999996
 20
5.852716
 30
0.0
 11
3.0
 21
0.0
 31
0.0
210
0.0
220
0.0
230
1.0
 40
0.965473
 41
4.9387451722438351
 42
5.4769517277411932
  0
ARC
  5
182
100
AcDbEntity
  8
0
370
    40
390
0
 62
     7
100
AcDbCircle
 10
32.999998
 20
5.858381
 30
0.0
 40
1.20001
210
0.0
220
0.0
230
1.0
100
AcDbArc
 50
359.72952
 51
180.27048
  0
ELLIPSE
  5
183
100
AcDbEntity
  8
0
370
    40
390
0
 62
     7
100
AcDbEllipse
 10
32.999996
 20
5.852716
 30
0.0
 11
1.2000000476837158
 21
0.0
 31
0.0
210
0.0
220
0.0
230
1.0
 40
0.965473
 41
3.1415926535897909
 42
6.2831853071795862
  0
ARC
  5
184
100
AcDbEntity
  8
0
370
    40
390
0
 62
     7
100
AcDbCircle
 10
26.464321
 20
-23.926574
 30
0.0
 40
3.877311
210
0.0
220
0.0
230
1.0
100
AcDbArc
 50
137.091765
 51
141.082249
  0
LINE
  5
185
100
AcDbEntity
  8
0
370
    40
390
0
 62
     7
 48
0.002156
100
AcDbLine
 10
26.977091
 20
-16.436294
 30
0.0
 11
26.955362
 21
-16.352826
 31
0.0
210
0.0
220
0.0
230
1.0
  0
ARC
  5
186
100
AcDbEntity
  8
0
370
    40
390
0
 62
     7
100
AcDbCircle
 10
-1.230258
 20
-0.781927
 30
0.0
 40
32.260041
210
0.0
220
0.0
230
1.0
100
AcDbArc
 50
320.555397
 51
330.970831
  0
LINE
  5
187
100
AcDbEntity
  8
0
370
    40
390
0
 62
     7
 48
0.001451
100
AcDbLine
 10
23.624907
 20
-21.287268
 30
0.0
 11
23.682166
 21
-21.277722
 31
0.0
210
0.0
220
0.0
230
1.0
  0
LINE
  5
188
100
AcDbEntity
  8
0
370
    40
390
0
 62
     7
 48
0.083941
100
AcDbLine
 10
26.977091
 20
-16.436294
 30
0.0
 11
29.826786
 21
-18.211957
 31
0.0
210
0.0
220
0.0
230
1.0
  0
LINE
  5
189
100
AcDbEntity
  8
0
370
    40
390
0
 62
     7
 48
0.085159
100
AcDbLine
 10
-23.682166
 20
-21.277722
 30
0.0
 11
-26.57321
 21
-23.07915
 31
0.0
210
0.0
220
0.0
230
1.0
  0
ELLIPSE
  5
18A
100
AcDbEntity
  8
0
370
    40
390
0
 62
     7
100
AcDbEllipse
 10
-28.199997
 20
-20.645554
 30
0.0
 11
3.0
 21
0.0
 31
0.0
210
0.0
220
0.0
230
1.0
 40
0.965473
 41
2.1439239944762538
 42
5.2855166480660474
  0
ELLIPSE
  5
18B
100
AcDbEntity
  8
0
370
    40
390
0
 62
     7
100
AcDbEllipse
 10
-28.199997
 20
-20.645554
 30
0.0
 11
1.2000000476837158
 21
0.0
 31
0.0
210
0.0
220
0.0
230
1.0
 40
0.965473
 41
3.1415926535897936
 42
6.2831853071795871
  0
ARC
  5
18C
100
AcDbEntity
  8
0
370
    40
390
0
 62
     7
100
AcDbCircle
 10
-28.199998
 20
-20.639889
 30
0.0
 40
1.20001
210
0.0
220
0.0
230
1.0
100
AcDbArc
 50
359.72952
 51
180.27048
  0
LINE
  5
18D
100
AcDbEntity
  8
0
370
    40
390
0
 62
     7
 48
0.085159
100
AcDbLine
 10
23.682166
 20
-21.277722
 30
0.0
 11
26.57321
 21
-23.07915
 31
0.0
210
0.0
220
0.0
230
1.0
  0
ELLIPSE
  5
18E
100
AcDbEntity
  8
0
370
    40
390
0
 62
     7
100
AcDbEllipse
 10
28.199997
 20
-20.645554
 30
0.0
 11
3.0
 21
0.0
 31
0.0
210
0.0
220
0.0
230
1.0
 40
0.965473
 41
4.1392613127033329
 42
7.280853966293126
  0
ARC
  5
18F
100
AcDbEntity
  8
0
370
    40
390
0
 62
     7
100
AcDbCircle
 10
28.199998
 20
-20.639889
 30
0.0
 40
1.20001
210
0.0
220
0.0
230
1.0
100
AcDbArc
 50
359.72952
 51
180.27048
  0
ELLIPSE
  5
190
100
AcDbEntity
  8
0
370
    40
390
0
 62
     7
100
AcDbEllipse
 10
28.199997
 20
-20.645554
 30
0.0
 11
1.2000000476837158
 21
0.0
 31
0.0
210
0.0
220
0.0
230
1.0
 40
0.965473
 41
3.1415926535897936
 42
6.2831853071795871
  0
ARC
  5
191
100
AcDbEntity
  8
0
370
    13
390
0
 62
     7
100
AcDbCircle
 10
0.001227
 20
0.062324
 30
0.0
 40
27.127905
210
0.0
220
0.0
230
1.0
100
AcDbArc
 50
241.412944
 51
269.997415
  0
SPLINE
  5
192
100
AcDbEntity
  8
0
370
    13
390
0
 62
     7
100
AcDbSpline
210
0.0
220
0.0
230
1.0
 70
     8
 71
     5
 72
    45
 73
    39
 74
     0
 42
0.0
 43
0.0
 40
0.0
 40
0.0
 40
0.0
 40
0.0
 40
0.0
 40
0.0
 40
0.815891662716093
 40
0.815891662716093
 40
0.815891662716093
 40
27.729007216353242
 40
27.729007216353242
 40
27.729007216353242
 40
32.680844585431153
 40
32.680844585431153
 40
32.680844585431153
 40
47.657619459262548
 40
47.657619459262548
 40
47.657619459262548
 40
50.202937612301277
 40
50.202937612301277
 40
50.202937612301277
 40
52.748255765340005
 40
52.748255765340005
 40
52.748255765340005
 40
63.03242126321048
 40
63.03242126321048
 40
63.03242126321048
 40
65.642310265062704
 40
65.642310265062704
 40
65.642310265062704
 40
68.252199266914928
 40
68.252199266914928
 40
68.252199266914928
 40
81.587427322314184
 40
81.587427322314184
 40
81.587427322314184
 40
84.282168390303866
 40
84.282168390303866
 40
84.282168390303866
 40
85.120657242182304
 40
85.120657242182304
 40
85.120657242182304
 40
85.120657242182304
 40
85.120657242182304
 40
85.120657242182304
 10
0.0000028647897535
 20
-27.065531451283334
 30
0.0
 10
0.0856024370919434
 20
-27.065531436973096
 30
0.0
 10
0.1712025247384254
 20
-27.065193676310816
 30
0.0
 10
0.2565657235181954
 20
-27.064520379873503
 30
0.0
 10
3.1655298618593108
 20
-27.030109901876791
 30
0.0
 10
6.0665159335690522
 20
-26.60568933655458
 30
0.0
 10
8.7904828609021237
 20
-25.828779077159091
 30
0.0
 10
11.839476032297309
 20
-24.52188110445169
 30
0.0
 10
14.631126189983416
 20
-22.789829153905259
 30
0.0
 10
15.058105761668262
 20
-22.51080211894757
 30
0.0
 10
16.748334719683374
 20
-21.348717040801112
 30
0.0
 10
18.314062121464119
 20
-20.038645714872406
 30
0.0
 10
19.407013065851334
 20
-18.983146100119498
 30
0.0
 10
20.585796131762397
 20
-17.677997544943906
 30
0.0
 10
21.649000468276903
 20
-16.292647642743106
 30
0.0
 10
21.801016770511797
 20
-16.089716070358115
 30
0.0
 10
22.100251420377734
 20
-15.680398265631075
 30
0.0
 10
22.389707730639461
 20
-15.264444085310013
 30
0.0
 10
22.531945490992719
 20
-15.054875396196579
 30
0.0
 10
23.235745813353674
 20
-13.991485726496343
 30
0.0
 10
23.872778527691434
 20
-12.89399574748864
 30
0.0
 10
24.337226474095115
 20
-11.999091299946361
 30
0.0
 10
24.862514344383303
 20
-10.863522182848843
 30
0.0
 10
25.318895515669627
 20
-9.7086800432113662
 30
0.0
 10
25.408475536420124
 20
-9.4741172281699875
 30
0.0
 10
25.582150220286515
 20
-9.0031263571372033
 30
0.0
 10
25.744820490597967
 20
-8.5285242920064519
 30
0.0
 10
25.82339262607519
 20
-8.2903588333220579
 30
0.0
 10
26.286138946843746
 20
-6.8313780345611601
 30
0.0
 10
26.642983239144883
 20
-5.3512863251000091
 30
0.0
 10
26.864125712187246
 20
-4.1154282172848067
 30
0.0
 10
27.043444094557366
 20
-2.6416005562023424
 30
0.0
 10
27.1226923478233
 20
-1.1776252527609268
 30
0.0
 10
27.133147329831239
 20
-0.9334929810489662
 30
0.0
 10
27.143307707957607
 20
-0.6111093653901032
 30
0.0
 10
27.148686457129582
 20
-0.2892671904372721
 30
0.0
 10
27.149693650827405
 20
-0.2129544051925754
 30
0.0
 10
27.150433528556647
 20
-0.1366281272360074
 30
0.0
 10
27.150905373778617
 20
-0.0602585215383318
 30
0.0
  0
ARC
  5
193
100
AcDbEntity
  8
0
370
    13
390
0
 62
     7
100
AcDbCircle
 10
0.000512
 20
0.106891
 30
0.0
 40
27.393057
210
0.0
220
0.0
230
1.0
100
AcDbArc
 50
241.471122
 51
269.998923
  0
ARC
  5
194
100
AcDbEntity
  8
0
370
    13
390
0
 62
     7
100
AcDbCircle
 10
-0.005748
 20
0.11971
 30
0.0
 40
27.40656
210
0.0
220
0.0
230
1.0
100
AcDbArc
 50
270.012024
 51
359.577095
  0
LINE
  5
195
100
AcDbEntity
  8
0
370
    13
390
0
 62
     7
 48
0.000965
100
AcDbLine
 10
4.972107
 20
33.610281
 30
0.0
 11
4.999429
 21
33.637557
 31
0.0
210
0.0
220
0.0
230
1.0
  0
LINE
  5
196
100
AcDbEntity
  8
0
370
    40
390
0
 62
     7
 48
0.002251
100
AcDbLine
 10
5.0
 20
33.548096
 30
0.0
 11
4.999425
 21
33.638124
 31
0.0
210
0.0
220
0.0
230
1.0
  0
LINE
  5
197
100
AcDbEntity
  8
0
370
    13
390
0
 62
     7
 48
0.000904
100
AcDbLine
 10
4.676315
 20
33.910033
 30
0.0
 11
4.701924
 21
33.935584
 31
0.0
210
0.0
220
0.0
230
1.0
  0
ARC
  5
198
100
AcDbEntity
  8
0
370
    40
390
0
 62
     7
100
AcDbCircle
 10
4.699498
 20
33.635657
 30
0.0
 40
0.299933
210
0.0
220
0.0
230
1.0
100
AcDbArc
 50
0.362996
 51
89.536512
  0
ARC
  5
199
100
AcDbEntity
  8
0
370
    40
390
0
 62
     7
100
AcDbCircle
 10
0.000732
 20
-543.255494
 30
0.0
 40
577.210223
210
0.0
220
0.0
230
1.0
100
AcDbArc
 50
89.533339
 51
90.000073
  0
ARC
  5
19A
100
AcDbEntity
  8
0
370
    40
390
0
 62
     7
100
AcDbCircle
 10
-0.000732
 20
-543.255494
 30
0.0
 40
577.210223
210
0.0
220
0.0
230
1.0
100
AcDbArc
 50
89.999927
 51
90.466661
  0
LINE
  5
19B
100
AcDbEntity
  8
0
370
    13
390
0
 62
     7
 48
0.000904
100
AcDbLine
 10
-4.676315
 20
33.910033
 30
0.0
 11
-4.701924
 21
33.935584
 31
0.0
210
0.0
220
0.0
230
1.0
  0
LINE
  5
19C
100
AcDbEntity
  8
0
370
    40
390
0
 62
     7
 48
0.002251
100
AcDbLine
 10
-5.0
 20
33.548096
 30
0.0
 11
-4.999425
 21
33.638124
 31
0.0
210
0.0
220
0.0
230
1.0
  0
LINE
  5
19D
100
AcDbEntity
  8
0
370
    13
390
0
 62
     7
 48
0.000965
100
AcDbLine
 10
-4.972107
 20
33.610281
 30
0.0
 11
-4.999429
 21
33.637557
 31
0.0
210
0.0
220
0.0
230
1.0
  0
ARC
  5
19E
100
AcDbEntity
  8
0
370
    40
390
0
 62
     7
100
AcDbCircle
 10
-4.699498
 20
33.635657
 30
0.0
 40
0.299933
210
0.0
220
0.0
230
1.0
100
AcDbArc
 50
90.463488
 51
179.637004
  0
ENDBLK
  5
19F
100
AcDbEntity
  8
0
390
0
100
AcDbBlockEnd
  0
BLOCK
  5
1A0
100
AcDbEntity
  8
0
370
     0
390
0
100
AcDbBlockBegin
  2
BLOCK1579
 70
     0
 10
0.0
 20
0.0
 30
0.0
  3
BLOCK1579
  1

  0
TEXT
  5
1A1
100
AcDbEntity
  8
0
370
    13
390
0
 62
     7
100
AcDbText
 10
-40.339611
 20
-17.629955
 30
0.0
 40
3.5
  1
\U+03C654
 72
     5
 11
-28.77832
 21
-17.629955
 31
0.0
100
AcDbText
  0
POLYLINE
  5
1A2
100
AcDbEntity
  8
0
370
    13
390
0
 62
     7
100
AcDb2dPolyline
 66
     1
 10
0.0
 20
0.0
 30
0.0
 71
     3
  0
VERTEX
  5
1A3
100
AcDbEntity
  8
0
370
     0
390
0
100
AcDbVertex
100
AcDb2dVertex
 10
-23.940609
 20
-12.48388
 30
0.0
  0
VERTEX
  5
1A4
100
AcDbEntity
  8
0
370
     0
390
0
100
AcDbVertex
100
AcDb2dVertex
 10
-25.77832
 20
-19.428343
 30
0.0
  0
VERTEX
  5
1A5
100
AcDbEntity
  8
0
370
     0
390
0
100
AcDbVertex
100
AcDb2dVertex
 10
-40.339611
 20
-19.428343
 30
0.0
  0
SEQEND
  5
1A6
100
AcDbEntity
  8
0
370
     0
390
0
  0
POLYLINE
  5
1A7
100
AcDbEntity
  8
0
370
    13
390
0
 62
     7
100
AcDb2dPolyline
 66
     1
 10
0.0
 20
0.0
 30
0.0
 71
     3
  0
VERTEX
  5
1A8
100
AcDbEntity
  8
0
370
     0
390
0
100
AcDbVertex
100
AcDb2dVertex
 10
-23.932859
 20
-14.983868
 30
0.0
  0
VERTEX
  5
1A9
100
AcDbEntity
  8
0
370
     0
390
0
100
AcDbVertex
100
AcDb2dVertex
 10
-23.940609
 20
-12.48388
 30
0.0
  0
VERTEX
  5
1AA
100
AcDbEntity
  8
0
370
     0
390
0
100
AcDbVertex
100
AcDb2dVertex
 10
-25.183891
 20
-14.652807
 30
0.0
  0
SEQEND
  5
1AB
100
AcDbEntity
  8
0
370
     0
390
0
  0
ENDBLK
  5
1AC
100
AcDbEntity
  8
0
390
0
100
AcDbBlockEnd
  0
BLOCK
  5
1AD
100
AcDbEntity
  8
0
370
     0
390
0
100
AcDbBlockBegin
  2
*D7
 70
    65
 10
0.0
 20
0.0
 30
0.0
  3
*D7
  1

  0
TEXT
  5
1AE
100
AcDbEntity
  8
0
370
    13
390
0
 62
     7
100
AcDbText
 10
191.268296
 20
101.000074
 30
0.0
 40
3.5
  1
67
 50
90.000003
 41
0.8
 72
     5
 11
191.268296
 21
106.769428
 31
0.0
100
AcDbText
  0
LINE
  5
1AF
100
AcDbEntity
  8
0
370
    13
390
0
 62
     7
100
AcDbLine
 10
168.488001
 20
70.584699
 30
0.0
 11
192.768296
 21
70.584699
 31
0.0
210
0.0
220
0.0
230
1.0
  0
LINE
  5
1B0
100
AcDbEntity
  8
0
370
    13
390
0
 62
     7
100
AcDbLine
 10
159.08409
 20
137.184805
 30
0.0
 11
192.768296
 21
137.184805
 31
0.0
210
0.0
220
0.0
230
1.0
  0
POLYLINE
  5
1B1
100
AcDbEntity
  8
0
370
    13
390
0
 62
     7
100
AcDb2dPolyline
 66
     1
 10
0.0
 20
0.0
 30
0.0
 71
     3
  0
VERTEX
  5
1B2
100
AcDbEntity
  8
0
370
     0
390
0
100
AcDbVertex
100
AcDb2dVertex
 10
192.415343
 20
134.769989
 30
0.0
  0
VERTEX
  5
1B3
100
AcDbEntity
  8
0
370
     0
390
0
100
AcDbVertex
100
AcDb2dVertex
 10
191.768296
 20
137.184805
 30
0.0
  0
VERTEX
  5
1B4
100
AcDbEntity
  8
0
370
     0
390
0
100
AcDbVertex
100
AcDb2dVertex
 10
191.121249
 20
134.769989
 30
0.0
  0
SEQEND
  5
1B5
100
AcDbEntity
  8
0
370
     0
390
0
  0
POLYLINE
  5
1B6
100
AcDbEntity
  8
0
370
    13
390
0
 62
     7
100
AcDb2dPolyline
 66
     1
 10
0.0
 20
0.0
 30
0.0
 71
     3
  0
VERTEX
  5
1B7
100
AcDbEntity
  8
0
370
     0
390
0
100
AcDbVertex
100
AcDb2dVertex
 10
191.121249
 20
72.999513
 30
0.0
  0
VERTEX
  5
1B8
100
AcDbEntity
  8
0
370
     0
390
0
100
AcDbVertex
100
AcDb2dVertex
 10
191.768296
 20
70.584699
 30
0.0
  0
VERTEX
  5
1B9
100
AcDbEntity
  8
0
370
     0
390
0
100
AcDbVertex
100
AcDb2dVertex
 10
192.415343
 20
72.999513
 30
0.0
  0
SEQEND
  5
1BA
100
AcDbEntity
  8
0
370
     0
390
0
  0
LINE
  5
1BB
100
AcDbEntity
  8
0
370
    13
390
0
 62
     7
100
AcDbLine
 10
191.768296
 20
70.584699
 30
0.0
 11
191.768296
 21
137.184805
 31
0.0
210
0.0
220
0.0
230
1.0
  0
ENDBLK
  5
1BC
100
AcDbEntity
  8
0
390
0
100
AcDbBlockEnd
  0
BLOCK
  5
1BD
100
AcDbEntity
  8
0
370
     0
390
0
100
AcDbBlockBegin
  2
*D8
 70
    65
 10
0.0
 20
0.0
 30
0.0
  3
*D8
  1

  0
TEXT
  5
1BE
100
AcDbEntity
  8
0
370
    13
390
0
 62
     7
100
AcDbText
 10
153.147708
 20
63.300844
 30
0.0
 40
3.5
  1
37
 41
0.8
 72
     5
 11
158.917062
 21
63.300844
 31
0.0
100
AcDbText
  0
LINE
  5
1BF
100
AcDbEntity
  8
0
370
    13
390
0
 62
     7
100
AcDbLine
 10
137.65363
 20
103.230074
 30
0.0
 11
137.65363
 21
61.800844
 31
0.0
210
0.0
220
0.0
230
1.0
  0
LINE
  5
1C0
100
AcDbEntity
  8
0
370
    13
390
0
 62
     7
100
AcDbLine
 10
174.411139
 20
111.953145
 30
0.0
 11
174.411139
 21
61.800844
 31
0.0
210
0.0
220
0.0
230
1.0
  0
POLYLINE
  5
1C1
100
AcDbEntity
  8
0
370
    13
390
0
 62
     7
100
AcDb2dPolyline
 66
     1
 10
0.0
 20
0.0
 30
0.0
 71
     3
  0
VERTEX
  5
1C2
100
AcDbEntity
  8
0
370
     0
390
0
100
AcDbVertex
100
AcDb2dVertex
 10
140.068444
 20
63.447893
 30
0.0
  0
VERTEX
  5
1C3
100
AcDbEntity
  8
0
370
     0
390
0
100
AcDbVertex
100
AcDb2dVertex
 10
137.65363
 20
62.800844
 30
0.0
  0
VERTEX
  5
1C4
100
AcDbEntity
  8
0
370
     0
390
0
100
AcDbVertex
100
AcDb2dVertex
 10
140.068444
 20
62.153795
 30
0.0
  0
SEQEND
  5
1C5
100
AcDbEntity
  8
0
370
     0
390
0
  0
POLYLINE
  5
1C6
100
AcDbEntity
  8
0
370
    13
390
0
 62
     7
100
AcDb2dPolyline
 66
     1
 10
0.0
 20
0.0
 30
0.0
 71
     3
  0
VERTEX
  5
1C7
100
AcDbEntity
  8
0
370
     0
390
0
100
AcDbVertex
100
AcDb2dVertex
 10
171.996325
 20
62.153795
 30
0.0
  0
VERTEX
  5
1C8
100
AcDbEntity
  8
0
370
     0
390
0
100
AcDbVertex
100
AcDb2dVertex
 10
174.411139
 20
62.800844
 30
0.0
  0
VERTEX
  5
1C9
100
AcDbEntity
  8
0
370
     0
390
0
100
AcDbVertex
100
AcDb2dVertex
 10
171.996325
 20
63.447893
 30
0.0
  0
SEQEND
  5
1CA
100
AcDbEntity
  8
0
370
     0
390
0
  0
LINE
  5
1CB
100
AcDbEntity
  8
0
370
    13
390
0
 62
     7
100
AcDbLine
 10
137.65363
 20
62.800844
 30
0.0
 11
174.411139
 21
62.800844
 31
0.0
210
0.0
220
0.0
230
1.0
  0
ENDBLK
  5
1CC
100
AcDbEntity
  8
0
390
0
100
AcDbBlockEnd
  0
BLOCK
  5
1CD
100
AcDbEntity
  8
0
370
     0
390
0
100
AcDbBlockBegin
  2
BLOCK1580
 70
     0
 10
0.0
 20
0.0
 30
0.0
  3
BLOCK1580
  1

  0
LINE
  5
1CE
100
AcDbEntity
  8
0
370
    40
390
0
 62
     7
 48
0.114385
100
AcDbLine
 10
4.96135
 20
-25.373658
 30
0.0
 11
3.769437
 21
-29.791085
 31
0.0
210
0.0
220
0.0
230
1.0
  0
ARC
  5
1CF
100
AcDbEntity
  8
0
370
    40
390
0
 62
     7
100
AcDbCircle
 10
145.387581
 20
-21.620624
 30
0.0
 40
162.3
210
0.0
220
0.0
230
1.0
100
AcDbArc
 50
159.985503
 51
161.646271
  0
ARC
  5
1D0
100
AcDbEntity
  8
0
370
    40
390
0
 62
     7
100
AcDbCircle
 10
-3.910541
 20
27.910789
 30
0.0
 40
5.0
210
0.0
220
0.0
230
1.0
100
AcDbArc
 50
161.646128
 51
202.932788
  0
LINE
  5
1D1
100
AcDbEntity
  8
0
370
    13
390
0
 62
     7
 48
0.005285
100
AcDbLine
 10
-8.517476
 20
29.644761
 30
0.0
 11
-8.65619
 21
29.485214
 31
0.0
210
0.0
220
0.0
230
1.0
  0
LINE
  5
1D2
100
AcDbEntity
  8
0
370
    40
390
0
 62
     7
 48
0.010882
100
AcDbLine
 10
-7.175901
 20
33.524205
 30
0.0
 11
-7.244716
 21
33.094394
 31
0.0
210
0.0
220
0.0
230
1.0
  0
LINE
  5
1D3
100
AcDbEntity
  8
0
370
    40
390
0
 62
     7
 48
0.002288
100
AcDbLine
 10
-7.175902
 20
33.524202
 30
0.0
 11
-7.144761
 21
33.610281
 31
0.0
210
0.0
220
0.0
230
1.0
  0
SPLINE
  5
1D4
100
AcDbEntity
  8
0
370
    40
390
0
 62
     7
100
AcDbSpline
210
0.0
220
0.0
230
1.0
 70
     8
 71
     5
 72
    18
 73
    12
 74
     0
 42
0.0
 43
0.0
 40
0.0
 40
0.0
 40
0.0
 40
0.0
 40
0.0
 40
0.0
 40
2.9797765359309625
 40
2.9797765359309625
 40
2.9797765359309625
 40
3.8608728789881175
 40
3.8608728789881175
 40
3.8608728789881175
 40
4.4115990047261615
 40
4.4115990047261615
 40
4.4115990047261615
 40
4.4115990047261615
 40
4.4115990047261615
 40
4.4115990047261615
 10
-7.0452512118347848
 20
33.910032997064661
 30
0.0
 10
-7.043695029967008
 20
33.909608307548162
 30
0.0
 10
-7.0469826547885717
 20
33.896188882414485
 30
0.0
 10
-7.0535815203929513
 20
33.874168822602854
 30
0.0
 10
-7.066815736692817
 20
33.832780254646977
 30
0.0
 10
-7.0905998088231357
 20
33.763257897688725
 30
0.0
 10
-7.0966215208289842
 20
33.74582476537406
 30
0.0
 10
-7.1076343266878785
 20
33.714207342296582
 30
0.0
 10
-7.1220003545335899
 20
33.673644226151339
 30
0.0
 10
-7.1289820191867408
 20
33.654066909263193
 30
0.0
 10
-7.135868065697073
 20
33.634841453948674
 30
0.0
 10
-7.1447610262049155
 20
33.610281431455292
 30
0.0
  0
LINE
  5
1D5
100
AcDbEntity
  8
0
370
    40
390
0
 62
     7
 48
0.00169
100
AcDbLine
 10
-7.045251
 20
33.910033
 30
0.0
 11
-7.110481
 21
33.927833
 31
0.0
210
0.0
220
0.0
230
1.0
  0
ARC
  5
1D6
100
AcDbEntity
  8
0
370
    13
390
0
 62
     7
100
AcDbCircle
 10
-5.261921
 20
29.081488
 30
0.0
 40
4.507271
210
0.0
220
0.0
230
1.0
100
AcDbArc
 50
223.791044
 51
231.085145
  0
ARC
  5
1D7
100
AcDbEntity
  8
0
370
    40
390
0
 62
     7
100
AcDbCircle
 10
-8.791643
 20
25.845638
 30
0.0
 40
0.3
210
0.0
220
0.0
230
1.0
100
AcDbArc
 50
288.786231
 51
22.932788
  0
LINE
  5
1D8
100
AcDbEntity
  8
0
370
    40
390
0
 62
     7
 48
0.040163
100
AcDbLine
 10
-5.56954
 20
33.548097
 30
0.0
 11
-7.175901
 21
33.524205
 31
0.0
210
0.0
220
0.0
230
1.0
  0
LINE
  5
1D9
100
AcDbEntity
  8
0
370
    40
390
0
 62
     7
 48
0.010799
100
AcDbLine
 10
-5.56954
 20
33.548096
 30
0.0
 11
-5.63854
 21
33.121683
 31
0.0
210
0.0
220
0.0
230
1.0
  0
LINE
  5
1DA
100
AcDbEntity
  8
0
370
    40
390
0
 62
     7
 48
0.065028
100
AcDbLine
 10
-7.244716
 20
33.094394
 30
0.0
 11
-7.65567
 21
30.525952
 31
0.0
210
0.0
220
0.0
230
1.0
  0
SPLINE
  5
1DB
100
AcDbEntity
  8
0
370
    13
390
0
 62
     7
100
AcDbSpline
210
0.0
220
0.0
230
1.0
 70
     8
 71
     5
 72
    15
 73
     9
 74
     0
 42
0.0
 43
0.0
 40
0.0
 40
0.0
 40
0.0
 40
0.0
 40
0.0
 40
0.0
 40
43.514713117656413
 40
43.514713117656413
 40
43.514713117656413
 40
72.44895284742654
 40
72.44895284742654
 40
72.44895284742654
 40
72.44895284742654
 40
72.44895284742654
 40
72.44895284742654
 10
-8.517475587596385
 20
29.644760875835949
 30
0.0
 10
-8.4810367624918328
 20
29.68716521176561
 30
0.0
 10
-8.4354378641192032
 20
29.740009716213212
 30
0.0
 10
-8.3773825601221432
 20
29.8063416703218
 30
0.0
 10
-8.2530400859450523
 20
29.947472291512241
 30
0.0
 10
-8.0439729895311558
 20
30.165268721322558
 30
0.0
 10
-7.9415915825569128
 20
30.268004776008109
 30
0.0
 10
-7.8156387297963752
 20
30.389078922184407
 30
0.0
 10
-7.6556655663227202
 20
30.525950368871236
 30
0.0
  0
LINE
  5
1DC
100
AcDbEntity
  8
0
370
    13
390
0
 62
     7
 48
0.04004
100
AcDbLine
 10
-6.054252
 20
30.550846
 30
0.0
 11
-7.65567
 21
30.525952
 31
0.0
210
0.0
220
0.0
230
1.0
  0
LINE
  5
1DD
100
AcDbEntity
  8
0
370
    40
390
0
 62
     7
 48
0.063839
100
AcDbLine
 10
-5.646635
 20
33.071655
 30
0.0
 11
-6.054252
 21
30.550846
 31
0.0
210
0.0
220
0.0
230
1.0
  0
LINE
  5
1DE
100
AcDbEntity
  8
0
370
    40
390
0
 62
     7
 48
0.001267
100
AcDbLine
 10
-5.63854
 20
33.121683
 30
0.0
 11
-5.646635
 21
33.071655
 31
0.0
210
0.0
220
0.0
230
1.0
  0
LINE
  5
1DF
100
AcDbEntity
  8
0
370
    40
390
0
 62
     7
 48
0.01032
100
AcDbLine
 10
-6.054252
 20
30.550846
 30
0.0
 11
-6.12133
 21
30.143537
 31
0.0
210
0.0
220
0.0
230
1.0
  0
LINE
  5
1E0
100
AcDbEntity
  8
0
370
    40
390
0
 62
     7
 48
0.058762
100
AcDbLine
 10
-3.250347
 20
29.795564
 30
0.0
 11
-5.6008
 21
29.783502
 31
0.0
210
0.0
220
0.0
230
1.0
  0
SPLINE
  5
1E1
100
AcDbEntity
  8
0
370
    13
390
0
 62
     7
100
AcDbSpline
210
0.0
220
0.0
230
1.0
 70
     8
 71
     5
 72
    21
 73
    15
 74
     0
 42
0.0
 43
0.0
 40
0.0
 40
0.0
 40
0.0
 40
0.0
 40
0.0
 40
0.0
 40
39.951937835464484
 40
39.951937835464484
 40
39.951937835464484
 40
59.952655881931953
 40
59.952655881931953
 40
59.952655881931953
 40
63.288844220632328
 40
63.288844220632328
 40
63.288844220632328
 40
66.625032559332709
 40
66.625032559332709
 40
66.625032559332709
 40
66.625032559332709
 40
66.625032559332709
 40
66.625032559332709
 10
-7.6259368888413981
 20
25.225675858984481
 30
0.0
 10
-7.5574387229963058
 20
25.281672952360832
 30
0.0
 10
-7.4733807803891583
 20
25.350530100248747
 30
0.0
 10
-7.3682018815927304
 20
25.436437876712727
 30
0.0
 10
-7.1669185921686864
 20
25.602900074550668
 30
0.0
 10
-6.865208906873935
 20
25.845002673215546
 30
0.0
 10
-6.7515699737126322
 20
25.935112884421457
 30
0.0
 10
-6.6019368722957177
 20
26.051490508780208
 30
0.0
 10
-6.4319663990060407
 20
26.176411135609264
 30
0.0
 10
-6.407251383685943
 20
26.194428066575519
 30
0.0
 10
-6.3569835147923763
 20
26.230746404457459
 30
0.0
 10
-6.3050532341525232
 20
26.267537389179711
 30
0.0
 10
-6.2785754340072648
 20
26.286092625165921
 30
0.0
 10
-6.2520254352591502
 20
26.30448818632043
 30
0.0
 10
-6.2249355479330388
 20
26.323018934328701
 30
0.0
  0
SPLINE
  5
1E2
100
AcDbEntity
  8
0
370
    40
390
0
 62
     7
100
AcDbSpline
210
0.0
220
0.0
230
1.0
 70
     8
 71
     5
 72
    18
 73
    12
 74
     0
 42
0.0
 43
0.0
 40
0.0
 40
0.0
 40
0.0
 40
0.0
 40
0.0
 40
0.0
 40
4.7513973812621568
 40
4.7513973812621568
 40
4.7513973812621568
 40
7.6690566862283083
 40
7.6690566862283083
 40
7.6690566862283083
 40
9.7617591956125711
 40
9.7617591956125711
 40
9.7617591956125711
 40
9.7617591956125711
 40
9.7617591956125711
 40
9.7617591956125711
 10
-6.6976891342263052
 20
27.056742998149453
 30
0.0
 10
-6.7776022218906649
 20
27.111326236428265
 30
0.0
 10
-6.8676030656200986
 20
27.191685130065061
 30
0.0
 10
-6.9662106884444182
 20
27.299231495874693
 30
0.0
 10
-7.1329924533916964
 20
27.518431584113081
 30
0.0
 10
-7.3008023000888969
 20
27.836005634305177
 30
0.0
 10
-7.3628627700054645
 20
27.971818577962338
 30
0.0
 10
-7.4670076472677902
 20
28.241349387063256
 30
0.0
 10
-7.5526304074553829
 20
28.59529212227525
 30
0.0
 10
-7.5836191264218868
 20
28.759870138571063
 30
0.0
 10
-7.6067396584398121
 20
28.950434144240852
 30
0.0
 10
-7.6155199003122771
 20
29.164677775659644
 30
0.0
  0
ARC
  5
1E3
100
AcDbEntity
  8
0
370
    40
390
0
 62
     7
100
AcDbCircle
 10
-3.456961
 20
30.005564
 30
0.0
 40
4.242678
210
0.0
220
0.0
230
1.0
100
AcDbArc
 50
183.692377
 51
191.431429
  0
LINE
  5
1E4
100
AcDbEntity
  8
0
370
    40
390
0
 62
     7
 48
0.001011
100
AcDbLine
 10
-7.690786
 20
29.73234
 30
0.0
 11
-7.693117
 21
29.772708
 31
0.0
210
0.0
220
0.0
230
1.0
  0
ARC
  5
1E5
100
AcDbEntity
  8
0
370
    40
390
0
 62
     7
100
AcDbCircle
 10
-4.118537
 20
29.973898
 30
0.0
 40
3.580096
210
0.0
220
0.0
230
1.0
100
AcDbArc
 50
171.129421
 51
183.221406
  0
ARC
  5
1E6
100
AcDbEntity
  8
0
370
    13
390
0
 62
     7
100
AcDbCircle
 10
-3.985324
 20
30.598059
 30
0.0
 40
6.489684
210
0.0
220
0.0
230
1.0
100
AcDbArc
 50
230.726354
 51
235.876342
  0
ARC
  5
1E7
100
AcDbEntity
  8
0
370
    13
390
0
 62
     7
100
AcDbCircle
 10
-5.22262
 20
28.757385
 30
0.0
 40
4.71949
210
0.0
220
0.0
230
1.0
100
AcDbArc
 50
222.6243
 51
229.932929
  0
ARC
  5
1E8
100
AcDbEntity
  8
0
370
    13
390
0
 62
     7
100
AcDbCircle
 10
-24.993821
 20
0.058844
 30
0.0
 40
30.117089
210
0.0
220
0.0
230
1.0
100
AcDbArc
 50
50.105491
 51
55.13732
  0
ARC
  5
1E9
100
AcDbEntity
  8
0
370
    13
390
0
 62
     7
100
AcDbCircle
 10
-3.953512
 20
30.20837
 30
0.0
 40
6.647284
210
0.0
220
0.0
230
1.0
100
AcDbArc
 50
229.611748
 51
234.87642
  0
LINE
  5
1EA
100
AcDbEntity
  8
0
370
    40
390
0
 62
     7
 48
0.002235
100
AcDbLine
 10
-6.121338
 20
30.143528
 30
0.0
 11
-6.13442
 21
30.055105
 31
0.0
210
0.0
220
0.0
230
1.0
  0
ARC
  5
1EB
100
AcDbEntity
  8
0
370
    40
390
0
 62
     7
100
AcDbCircle
 10
-28.47845
 20
3.821457
 30
0.0
 40
33.159531
210
0.0
220
0.0
230
1.0
100
AcDbArc
 50
37.390092
 51
39.859194
  0
SPLINE
  5
1EC
100
AcDbEntity
  8
0
370
    40
390
0
 62
     7
100
AcDbSpline
210
0.0
220
0.0
230
1.0
 70
     8
 71
     5
 72
    18
 73
    12
 74
     0
 42
0.0
 43
0.0
 40
0.0
 40
0.0
 40
0.0
 40
0.0
 40
0.0
 40
0.0
 40
0.351241556861939
 40
0.351241556861939
 40
0.351241556861939
 40
1.1753771367331696
 40
1.1753771367331696
 40
1.1753771367331696
 40
1.3632344279165707
 40
1.3632344279165707
 40
1.3632344279165707
 40
1.3632344279165707
 40
1.3632344279165707
 40
1.3632344279165707
 10
-6.1344226180078367
 20
30.055104841438887
 30
0.0
 10
-6.1380863261529859
 20
30.026615477786756
 30
0.0
 10
-6.133202506526839
 20
29.998229663507182
 30
0.0
 10
-6.1201476448705021
 20
29.971524224743018
 30
0.0
 10
-6.0587756167093474
 20
29.890948085081227
 30
0.0
 10
-5.9512756248113652
 20
29.836923721946889
 30
0.0
 10
-5.8701092963150261
 20
29.811317542899747
 30
0.0
 10
-5.766072941679532
 20
29.791264928397077
 30
0.0
 10
-5.6600318847118345
 20
29.784551880746914
 30
0.0
 10
-5.6402947050477978
 20
29.783757716464226
 30
0.0
 10
-5.6205453186908079
 20
29.78341194285532
 30
0.0
 10
-5.6007944167475516
 20
29.783513648133102
 30
0.0
  0
SPLINE
  5
1ED
100
AcDbEntity
  8
0
370
    13
390
0
 62
     7
100
AcDbSpline
210
0.0
220
0.0
230
1.0
 70
     8
 71
     5
 72
    18
 73
    12
 74
     0
 42
0.0
 43
0.0
 40
0.0
 40
0.0
 40
0.0
 40
0.0
 40
0.0
 40
0.0
 40
7.8275891984449144
 40
7.8275891984449144
 40
7.8275891984449144
 40
13.164734528320684
 40
13.164734528320684
 40
13.164734528320684
 40
13.197540590495578
 40
13.197540590495578
 40
13.197540590495578
 40
13.197540590495578
 40
13.197540590495578
 40
13.197540590495578
 10
-5.4989319935543337
 20
23.592384690411016
 30
0.0
 10
-5.0904354347451575
 20
23.246419358412886
 30
0.0
 10
-4.6667354085901529
 20
22.868375184252073
 30
0.0
 10
-4.2357965153748651
 20
22.458444847459006
 30
0.0
 10
-3.5078135696825603
 20
21.712914692887288
 30
0.0
 10
-2.7890495286904056
 20
20.872065135258051
 30
0.0
 10
-2.4982379957656162
 20
20.512395051302466
 30
0.0
 10
-2.2119639398881672
 20
20.136154365478301
 30
0.0
 10
-1.931248700374101
 20
19.743469514773334
 30
0.0
 10
-1.9295339643909344
 20
19.741069919069147
 30
0.0
 10
-1.9278194353604921
 20
19.738669721807376
 30
0.0
 10
-1.9261051126604682
 20
19.736268931443469
 30
0.0
  0
ARC
  5
1EE
100
AcDbEntity
  8
0
370
    13
390
0
 62
     7
100
AcDbCircle
 10
-25.092893
 20
0.246034
 30
0.0
 40
30.479845
210
0.0
220
0.0
230
1.0
100
AcDbArc
 50
49.994172
 51
55.03692
  0
ARC
  5
1EF
100
AcDbEntity
  8
0
370
    40
390
0
 62
     7
100
AcDbCircle
 10
-6.360962
 20
27.543813
 30
0.0
 40
0.59211
210
0.0
220
0.0
230
1.0
100
AcDbArc
 50
235.341896
 51
242.799648
  0
LINE
  5
1F0
100
AcDbEntity
  8
0
370
    13
390
0
 62
     7
 48
0.003501
100
AcDbLine
 10
-6.108504
 20
26.400845
 30
0.0
 11
-6.224935
 21
26.323019
 31
0.0
210
0.0
220
0.0
230
1.0
  0
ARC
  5
1F1
100
AcDbEntity
  8
0
370
    40
390
0
 62
     7
100
AcDbCircle
 10
-1.617173
 20
30.743034
 30
0.0
 40
6.247119
210
0.0
220
0.0
230
1.0
100
AcDbArc
 50
216.612421
 51
224.03252
  0
ARC
  5
1F2
100
AcDbEntity
  8
0
370
    40
390
0
 62
     7
100
AcDbCircle
 10
-29.71917
 20
-998.753959
 30
0.0
 40
1028.156173
210
0.0
220
0.0
230
1.0
100
AcDbArc
 50
88.535783
 51
88.768142
  0
LINE
  5
1F3
100
AcDbEntity
  8
0
370
    40
390
0
 62
     7
 48
0.066972
100
AcDbLine
 10
-3.95744
 20
27.174961
 30
0.0
 11
-6.631666
 21
27.017216
 31
0.0
210
0.0
220
0.0
230
1.0
  0
LINE
  5
1F4
100
AcDbEntity
  8
0
370
    40
390
0
 62
     7
 48
0.058762
100
AcDbLine
 10
-3.250347
 20
29.795564
 30
0.0
 11
-5.6008
 21
29.783502
 31
0.0
210
0.0
220
0.0
230
1.0
  0
ELLIPSE
  5
1F5
100
AcDbEntity
  8
0
370
    13
390
0
 62
     7
100
AcDbEllipse
 10
-7.864419
 20
25.046675
 30
0.0
 11
-0.1729046404361725
 21
-0.2451611459255219
 31
0.0
210
0.0
220
0.0
230
1.0
 40
0.941177
 41
0.9474921501183676
 42
2.8107434477207218
  0
ARC
  5
1F6
100
AcDbEntity
  8
0
370
    40
390
0
 62
     7
100
AcDbCircle
 10
-29.100378
 20
3.324048
 30
0.0
 40
33.955794
210
0.0
220
0.0
230
1.0
100
AcDbArc
 50
37.419693
 51
41.632959
  0
LINE
  5
1F7
100
AcDbEntity
  8
0
370
    40
390
0
 62
     7
 48
0.089614
100
AcDbLine
 10
-3.024453
 20
25.073517
 30
0.0
 11
-2.090662
 21
28.534301
 31
0.0
210
0.0
220
0.0
230
1.0
  0
LINE
  5
1F8
100
AcDbEntity
  8
0
370
    40
390
0
 62
     7
 48
0.116482
100
AcDbLine
 10
-0.876895
 20
33.032723
 30
0.0
 11
-2.090662
 21
28.534301
 31
0.0
210
0.0
220
0.0
230
1.0
  0
SPLINE
  5
1F9
100
AcDbEntity
  8
0
370
    40
390
0
 62
     7
100
AcDbSpline
210
0.0
220
0.0
230
1.0
 70
     8
 71
     5
 72
    15
 73
     9
 74
     0
 42
0.0
 43
0.0
 40
0.0
 40
0.0
 40
0.0
 40
0.0
 40
0.0
 40
0.0
 40
1.1395602417753621
 40
1.1395602417753621
 40
1.1395602417753621
 40
1.977308124823119
 40
1.977308124823119
 40
1.977308124823119
 40
1.977308124823119
 40
1.977308124823119
 40
1.977308124823119
 10
2.6788956056685884
 20
17.345948781069481
 30
0.0
 10
2.731210557979896
 20
17.331625321225527
 30
0.0
 10
2.7906084444224639
 20
17.288837019996102
 30
0.0
 10
2.8532683551646665
 20
17.224786301915028
 30
0.0
 10
2.9614194645183183
 20
17.09217747536302
 30
0.0
 10
3.0692710393665426
 20
16.927885159624143
 30
0.0
 10
3.1147044232329439
 20
16.853657847044648
 30
0.0
 10
3.1595082215838857
 20
16.77590914886164
 30
0.0
 10
3.203716200435708
 20
16.694948524216269
 30
0.0
  0
LINE
  5
1FA
100
AcDbEntity
  8
0
370
    40
390
0
 62
     7
 48
0.024059
100
AcDbLine
 10
1.750676
 20
17.600051
 30
0.0
 11
2.678896
 21
17.345949
 31
0.0
210
0.0
220
0.0
230
1.0
  0
ELLIPSE
  5
1FB
100
AcDbEntity
  8
0
370
    40
390
0
 62
     7
100
AcDbEllipse
 10
-112.803833
 20
-10.687315
 30
0.0
 11
116.96729278564453
 21
20.708293914794922
 31
0.0
210
0.0
220
0.0
230
1.0
 40
0.499182
 41
0.1333489783327828
 42
0.2467647089455539
  0
LINE
  5
1FC
100
AcDbEntity
  8
0
370
    40
390
0
 62
     7
 48
0.009441
100
AcDbLine
 10
-2.132565
 20
23.957192
 30
0.0
 11
-1.904784
 21
23.655981
 31
0.0
210
0.0
220
0.0
230
1.0
  0
ARC
  5
1FD
100
AcDbEntity
  8
0
370
    13
390
0
 62
     7
100
AcDbCircle
 10
-20.270826
 20
6.781052
 30
0.0
 40
22.461814
210
0.0
220
0.0
230
1.0
100
AcDbArc
 50
25.29751
 51
31.697973
  0
ARC
  5
1FE
100
AcDbEntity
  8
0
370
    13
390
0
 62
     7
100
AcDbCircle
 10
-18.881999
 20
7.633625
 30
0.0
 40
20.832112
210
0.0
220
0.0
230
1.0
100
AcDbArc
 50
31.709955
 51
35.518194
  0
ARC
  5
1FF
100
AcDbEntity
  8
0
370
    40
390
0
 62
     7
100
AcDbCircle
 10
-31.453955
 20
1.795754
 30
0.0
 40
35.323831
210
0.0
220
0.0
230
1.0
100
AcDbArc
 50
38.193801
 51
44.150823
  0
SPLINE
  5
200
100
AcDbEntity
  8
0
370
    13
390
0
 62
     7
100
AcDbSpline
210
0.0
220
0.0
230
1.0
 70
     8
 71
     5
 72
    18
 73
    12
 74
     0
 42
0.0
 43
0.0
 40
0.0
 40
0.0
 40
0.0
 40
0.0
 40
0.0
 40
0.0
 40
7.8084102803529873
 40
7.8084102803529873
 40
7.8084102803529873
 40
13.129581095558642
 40
13.129581095558642
 40
13.129581095558642
 40
13.160912803750207
 40
13.160912803750207
 40
13.160912803750207
 40
13.160912803750207
 40
13.160912803750207
 40
13.160912803750207
 10
-5.6779454678674623
 20
23.164870766107043
 30
0.0
 10
-5.2756322283143611
 20
22.825374968586683
 30
0.0
 10
-4.8585551362722459
 20
22.454537381479469
 30
0.0
 10
-4.4344295920096135
 20
22.052373767909813
 30
0.0
 10
-3.7185298948416072
 20
21.321325027164541
 30
0.0
 10
-3.0119943257277644
 20
20.496692777608505
 30
0.0
 10
-2.726975250025494
 20
20.144776421804021
 30
0.0
 10
-2.4456881308007672
 20
19.77599449557777
 30
0.0
 10
-2.169970998181622
 20
19.391000125038506
 30
0.0
 10
-2.1683572382291922
 20
19.388745947960626
 30
0.0
 10
-2.1667436749101405
 20
19.386491222708994
 30
0.0
 10
-2.1651303120348375
 20
19.384235954267226
 30
0.0
  0
LINE
  5
201
100
AcDbEntity
  8
0
370
    13
390
0
 62
     7
 48
0.001237
100
AcDbLine
 10
-4.160287
 20
26.423177
 30
0.0
 11
-4.20978
 21
26.422609
 31
0.0
210
0.0
220
0.0
230
1.0
  0
LINE
  5
202
100
AcDbEntity
  8
0
370
    13
390
0
 62
     7
 48
0.047471
100
AcDbLine
 10
-4.209785
 20
26.422617
 30
0.0
 11
-6.108483
 21
26.400852
 31
0.0
210
0.0
220
0.0
230
1.0
  0
LINE
  5
203
100
AcDbEntity
  8
0
370
    40
390
0
 62
     7
 48
0.004924
100
AcDbLine
 10
-4.120305
 20
26.571358
 30
0.0
 11
-4.171613
 21
26.381201
 31
0.0
210
0.0
220
0.0
230
1.0
  0
LINE
  5
204
100
AcDbEntity
  8
0
370
    40
390
0
 62
     7
 48
0.050432
100
AcDbLine
 10
-3.594799
 20
28.518968
 30
0.0
 11
-4.120305
 21
26.571357
 31
0.0
210
0.0
220
0.0
230
1.0
  0
LINE
  5
205
100
AcDbEntity
  8
0
370
    40
390
0
 62
     7
 48
0.117554
100
AcDbLine
 10
-2.369861
 20
33.058792
 30
0.0
 11
-3.594799
 21
28.518968
 31
0.0
210
0.0
220
0.0
230
1.0
  0
ELLIPSE
  5
206
100
AcDbEntity
  8
0
370
    13
390
0
 62
     7
100
AcDbEllipse
 10
-1.428772
 20
18.457699
 30
0.0
 11
0.2550716996192932
 21
0.1579190641641617
 31
0.0
210
0.0
220
0.0
230
1.0
 40
0.633921
 41
4.3957208168322088
 42
6.0993182320779757
  0
ARC
  5
207
100
AcDbEntity
  8
0
370
    13
390
0
 62
     7
100
AcDbCircle
 10
-18.733199
 20
7.536798
 30
0.0
 40
20.368193
210
0.0
220
0.0
230
1.0
100
AcDbArc
 50
31.750124
 51
35.567679
  0
LINE
  5
208
100
AcDbEntity
  8
0
370
    40
390
0
 62
     7
 48
0.009441
100
AcDbLine
 10
-2.132565
 20
23.957192
 30
0.0
 11
-1.904784
 21
23.655981
 31
0.0
210
0.0
220
0.0
230
1.0
  0
ELLIPSE
  5
209
100
AcDbEntity
  8
0
370
    40
390
0
 62
     7
100
AcDbEllipse
 10
-112.803833
 20
-10.687315
 30
0.0
 11
116.96729278564453
 21
20.708293914794922
 31
0.0
210
0.0
220
0.0
230
1.0
 40
0.499182
 41
0.1333489783327828
 42
0.2467647089455539
  0
LINE
  5
20A
100
AcDbEntity
  8
0
370
    40
390
0
 62
     7
 48
0.024059
100
AcDbLine
 10
1.750676
 20
17.600051
 30
0.0
 11
2.678896
 21
17.345949
 31
0.0
210
0.0
220
0.0
230
1.0
  0
SPLINE
  5
20B
100
AcDbEntity
  8
0
370
    40
390
0
 62
     7
100
AcDbSpline
210
0.0
220
0.0
230
1.0
 70
     8
 71
     5
 72
    24
 73
    18
 74
     0
 42
0.0
 43
0.0
 40
0.0
 40
0.0
 40
0.0
 40
0.0
 40
0.0
 40
0.0
 40
1.0821986507668893
 40
1.0821986507668893
 40
1.0821986507668893
 40
2.7476112325052386
 40
2.7476112325052386
 40
2.7476112325052386
 40
5.5019814127554607
 40
5.5019814127554607
 40
5.5019814127554607
 40
7.4408070869013034
 40
7.4408070869013034
 40
7.4408070869013034
 40
9.0189813273545383
 40
9.0189813273545383
 40
9.0189813273545383
 40
9.0189813273545383
 40
9.0189813273545383
 40
9.0189813273545383
 10
2.6788956056685884
 20
17.345948781069481
 30
0.0
 10
2.7285772010163054
 20
17.332346315531289
 30
0.0
 10
2.7846466153655527
 20
17.293072531961911
 30
0.0
 10
2.8438249194897836
 20
17.23427930900754
 30
0.0
 10
2.9938092803192413
 20
17.055174007180511
 30
0.0
 10
3.1439869955572619
 20
16.811952607161498
 30
0.0
 10
3.2319804712952567
 20
16.652168372841633
 30
0.0
 10
3.4599189106879553
 20
16.196772543643871
 30
0.0
 10
3.6666269198283112
 20
15.679826395634034
 30
0.0
 10
3.7851598692664106
 20
15.344481055352388
 30
0.0
 10
3.9705957501964919
 20
14.748652266745442
 30
0.0
 10
4.1218399614347252
 20
14.12750556272934
 30
0.0
 10
4.1780550202738986
 20
13.867593440976306
 30
0.0
 10
4.2673905940738983
 20
13.39327746064818
 30
0.0
 10
4.3304319728290075
 20
12.921169075270601
 30
0.0
 10
4.3528673257595623
 20
12.710756087690207
 30
0.0
 10
4.3685803860202732
 20
12.504233288323475
 30
0.0
 10
4.3759894519415869
 20
12.306190178233326
 30
0.0
  0
ARC
  5
20C
100
AcDbEntity
  8
0
370
    40
390
0
 62
     7
100
AcDbCircle
 10
-36.664261
 20
10.692222
 30
0.0
 40
41.071647
210
0.0
220
0.0
230
1.0
100
AcDbArc
 50
357.360514
 51
2.25208
  0
LINE
  5
20D
100
AcDbEntity
  8
0
370
    40
390
0
 62
     7
 48
0.005741
100
AcDbLine
 10
4.394487
 20
8.573284
 30
0.0
 11
4.363508
 21
8.800827
 31
0.0
210
0.0
220
0.0
230
1.0
  0
ARC
  5
20E
100
AcDbEntity
  8
0
370
    40
390
0
 62
     7
100
AcDbCircle
 10
-96.253255
 20
5.520907
 30
0.0
 40
100.98037
210
0.0
220
0.0
230
1.0
100
AcDbArc
 50
356.754971
 51
357.92441
  0
LINE
  5
20F
100
AcDbEntity
  8
0
370
    40
390
0
 62
     7
 48
0.00238
100
AcDbLine
 10
4.560243
 20
-0.290271
 30
0.0
 11
4.56544
 21
-0.195218
 31
0.0
210
0.0
220
0.0
230
1.0
  0
ARC
  5
210
100
AcDbEntity
  8
0
370
    40
390
0
 62
     7
100
AcDbCircle
 10
-31.448926
 20
1.273986
 30
0.0
 40
37.073223
210
0.0
220
0.0
230
1.0
100
AcDbArc
 50
41.589649
 51
42.627803
  0
ARC
  5
211
100
AcDbEntity
  8
0
370
    40
390
0
 62
     7
100
AcDbCircle
 10
-54.142607
 20
-2.886327
 30
0.0
 40
58.051574
210
0.0
220
0.0
230
1.0
100
AcDbArc
 50
29.707991
 51
30.493449
  0
LINE
  5
212
100
AcDbEntity
  8
0
370
    13
390
0
 62
     7
 48
0.037605
100
AcDbLine
 10
-2.090662
 20
28.534301
 30
0.0
 11
-3.594799
 21
28.518968
 31
0.0
210
0.0
220
0.0
230
1.0
  0
SPLINE
  5
213
100
AcDbEntity
  8
0
370
    40
390
0
 62
     7
100
AcDbSpline
210
0.0
220
0.0
230
1.0
 70
     8
 71
     5
 72
    24
 73
    18
 74
     0
 42
0.0
 43
0.0
 40
0.0
 40
0.0
 40
0.0
 40
0.0
 40
0.0
 40
0.0
 40
0.3293384378333277
 40
0.3293384378333277
 40
0.3293384378333277
 40
0.5528774254469867
 40
0.5528774254469867
 40
0.5528774254469867
 40
0.7772884593229924
 40
0.7772884593229924
 40
0.7772884593229924
 40
1.0011188978039303
 40
1.0011188978039303
 40
1.0011188978039303
 40
1.1097133904464678
 40
1.1097133904464678
 40
1.1097133904464678
 40
1.1097133904464678
 40
1.1097133904464678
 40
1.1097133904464678
 10
4.3944866988476292
 20
8.5732837189703321
 30
0.0
 10
4.399887855760662
 20
8.5325193516326667
 30
0.0
 10
4.4096611012462192
 20
8.4918037263426314
 30
0.0
 10
4.4251506216414498
 20
8.4508513878007978
 30
0.0
 10
4.4570756827579956
 20
8.3877916753765493
 30
0.0
 10
4.5000323897776244
 20
8.3314087995379786
 30
0.0
 10
4.5191815866059546
 20
8.3097648604070073
 30
0.0
 10
4.5605466747918015
 20
8.2693945144050627
 30
0.0
 10
4.6073219869738651
 20
8.2353220100514761
 30
0.0
 10
4.6319292361690136
 20
8.2199618974513928
 30
0.0
 10
4.6830272280068375
 20
8.1928723640365924
 30
0.0
 10
4.7372377998049817
 20
8.1731756989338233
 30
0.0
 10
4.7648921640377413
 20
8.1652391793122927
 30
0.0
 10
4.8065254728320106
 20
8.1563102355580277
 30
0.0
 10
4.8486048957357628
 20
8.1516223107231607
 30
0.0
 10
4.8623870739683666
 20
8.1505442059332793
 30
0.0
 10
4.8761334694575602
 20
8.1499178243866517
 30
0.0
 10
4.8898663901011226
 20
8.1497384527821186
 30
0.0
  0
SPLINE
  5
214
100
AcDbEntity
  8
0
370
    13
390
0
 62
     7
100
AcDbSpline
210
0.0
220
0.0
230
1.0
 70
     8
 71
     5
 72
    30
 73
    24
 74
     0
 42
0.0
 43
0.0
 40
0.0
 40
0.0
 40
0.0
 40
0.0
 40
0.0
 40
0.0
 40
6.1350968099964254
 40
6.1350968099964254
 40
6.1350968099964254
 40
9.2402139711196192
 40
9.2402139711196192
 40
9.2402139711196192
 40
15.512161794818262
 40
15.512161794818262
 40
15.512161794818262
 40
25.010747740041417
 40
25.010747740041417
 40
25.010747740041417
 40
28.18239357432622
 40
28.18239357432622
 40
28.18239357432622
 40
31.395534725223563
 40
31.395534725223563
 40
31.395534725223563
 40
31.437257128328717
 40
31.437257128328717
 40
31.437257128328717
 40
31.437257128328717
 40
31.437257128328717
 40
31.437257128328717
 10
0.036983803092598
 20
16.379418638078111
 30
0.0
 10
0.2980185037809138
 20
15.827306176057343
 30
0.0
 10
0.5468827615214917
 20
15.261560659380921
 30
0.0
 10
0.7821052547168135
 20
14.682680128482374
 30
0.0
 10
1.1151418976018843
 20
13.787980205739805
 30
0.0
 10
1.4117808721533007
 20
12.864301275403271
 30
0.0
 10
1.5072090663769198
 20
12.550660123235062
 30
0.0
 10
1.7817715105154053
 20
11.595083867050098
 30
0.0
 10
2.0140627378890197
 20
10.615937189997368
 30
0.0
 10
2.1494453069315131
 20
9.9522134236231885
 30
0.0
 10
2.4383985510059776
 20
8.265431908238158
 30
0.0
 10
2.5993257429641292
 20
6.5425113767213867
 30
0.0
 10
2.6504681073319043
 20
5.4972792892284126
 30
0.0
 10
2.663521687356762
 20
4.0994400667767943
 30
0.0
 10
2.61971111684172
 20
2.7059192900775182
 30
0.0
 10
2.6055296422590999
 20
2.3575029243492969
 30
0.0
 10
2.5713380287223111
 20
1.6573667705900901
 30
0.0
 10
2.5277019786688104
 20
0.9602628376511925
 30
0.0
 10
2.5056836036883805
 20
0.6367322552744681
 30
0.0
 10
2.4802136406020274
 20
0.2831293609785144
 30
0.0
 10
2.4540099207173434
 20
-0.0690404353711387
 30
0.0
 10
2.453673886050789
 20
-0.0735547763895351
 30
0.0
 10
2.4533377991629544
 20
-0.0780680773594005
 30
0.0
 10
2.4530015752810441
 20
-0.0825814100151087
 30
0.0
  0
ELLIPSE
  5
215
100
AcDbEntity
  8
0
370
    40
390
0
 62
     7
100
AcDbEllipse
 10
-111.970726
 20
-8.816045
 30
0.0
 11
114.70636749267578
 21
18.201610565185547
 31
0.0
210
0.0
220
0.0
230
1.0
 40
0.492224
 41
0.1491353848685216
 42
0.2669956855734947
  0
LINE
  5
216
100
AcDbEntity
  8
0
370
    40
390
0
 62
     7
 48
0.024122
100
AcDbLine
 10
0.130973
 20
17.572617
 30
0.0
 11
1.062559
 21
17.321264
 31
0.0
210
0.0
220
0.0
230
1.0
  0
SPLINE
  5
217
100
AcDbEntity
  8
0
370
    40
390
0
 62
     7
100
AcDbSpline
210
0.0
220
0.0
230
1.0
 70
     8
 71
     5
 72
    21
 73
    15
 74
     0
 42
0.0
 43
0.0
 40
0.0
 40
0.0
 40
0.0
 40
0.0
 40
0.0
 40
0.0
 40
1.9161972433953527
 40
1.9161972433953527
 40
1.9161972433953527
 40
5.8205218890536301
 40
5.8205218890536301
 40
5.8205218890536301
 40
7.6426682121986182
 40
7.6426682121986182
 40
7.6426682121986182
 40
9.2023553453171409
 40
9.2023553453171409
 40
9.2023553453171409
 40
9.2023553453171409
 40
9.2023553453171409
 40
9.2023553453171409
 10
2.8236428258414277
 20
12.282214074770877
 30
0.0
 10
2.8127805985138195
 20
12.519650312714688
 30
0.0
 10
2.7898328830326786
 20
12.76862638048188
 30
0.0
 10
2.7578872087567738
 20
13.019755910761775
 30
0.0
 10
2.6361686395946231
 20
13.789451810016038
 30
0.0
 10
2.4489129428098826
 20
14.552672245977934
 30
0.0
 10
2.3013626625030588
 20
15.045463628775691
 30
0.0
 10
2.0545161949028654
 20
15.739534619056499
 30
0.0
 10
1.7701622376469164
 20
16.355350828481221
 30
0.0
 10
1.6768404862650979
 20
16.540403685488908
 30
0.0
 10
1.4964183478739774
 20
16.864765146335458
 30
0.0
 10
1.309577329139151
 20
17.124483685481003
 30
0.0
 10
1.2207016518062557
 20
17.229325379914727
 30
0.0
 10
1.1348933607085852
 20
17.301738735744166
 30
0.0
 10
1.0625538949323179
 20
17.321257388854526
 30
0.0
  0
ARC
  5
218
100
AcDbEntity
  8
0
370
    40
390
0
 62
     7
100
AcDbCircle
 10
-36.294519
 20
10.412104
 30
0.0
 40
39.162486
210
0.0
220
0.0
230
1.0
100
AcDbArc
 50
357.652987
 51
2.737038
  0
ARC
  5
219
100
AcDbEntity
  8
0
370
    40
390
0
 62
     7
100
AcDbCircle
 10
-27.991935
 20
4.368757
 30
0.0
 40
31.144794
210
0.0
220
0.0
230
1.0
100
AcDbArc
 50
6.075442
 51
8.195256
  0
LINE
  5
21A
100
AcDbEntity
  8
0
370
    40
390
0
 62
     7
 48
0.015141
100
AcDbLine
 10
2.977939
 20
7.665057
 30
0.0
 11
3.008073
 21
7.060152
 31
0.0
210
0.0
220
0.0
230
1.0
  0
ARC
  5
21B
100
AcDbEntity
  8
0
370
    40
390
0
 62
     7
100
AcDbCircle
 10
-33.105189
 20
5.110097
 30
0.0
 40
36.165888
210
0.0
220
0.0
230
1.0
100
AcDbArc
 50
1.176576
 51
3.090873
  0
SPLINE
  5
21C
100
AcDbEntity
  8
0
370
    40
390
0
 62
     7
100
AcDbSpline
210
0.0
220
0.0
230
1.0
 70
     8
 71
     5
 72
    15
 73
     9
 74
     0
 42
0.0
 43
0.0
 40
0.0
 40
0.0
 40
0.0
 40
0.0
 40
0.0
 40
0.0
 40
3.4726691490437585
 40
3.4726691490437585
 40
3.4726691490437585
 40
3.8324144939629958
 40
3.8324144939629958
 40
3.8324144939629958
 40
3.8324144939629958
 40
3.8324144939629958
 40
3.8324144939629958
 10
3.0530893260485694
 20
5.8527162954342433
 30
0.0
 10
3.0615325466601071
 20
5.4464347216378881
 30
0.0
 10
3.0745293374995439
 20
5.0410473468724391
 30
0.0
 10
3.0920900025004219
 20
4.6503278786802342
 30
0.0
 10
3.1194166298607549
 20
4.2217737838821128
 30
0.0
 10
3.1600069366127972
 20
3.8256257662945141
 30
0.0
 10
3.1639387731422053
 20
3.7887408310733122
 30
0.0
 10
3.1679961371548506
 20
3.7521854019667105
 30
0.0
 10
3.1721841495332166
 20
3.7159797422230363
 30
0.0
  0
SPLINE
  5
21D
100
AcDbEntity
  8
0
370
    40
390
0
 62
     7
100
AcDbSpline
210
0.0
220
0.0
230
1.0
 70
     8
 71
     5
 72
    12
 73
     6
 74
     0
 42
0.0
 43
0.0
 40
0.0
 40
0.0
 40
0.0
 40
0.0
 40
0.0
 40
0.0
 40
6.8068415701557976
 40
6.8068415701557976
 40
6.8068415701557976
 40
6.8068415701557976
 40
6.8068415701557976
 40
6.8068415701557976
 10
3.1721890934840995
 20
3.7160016115739198
 30
0.0
 10
3.1708289254858437
 20
2.9308056015336028
 30
0.0
 10
3.1525476127284184
 20
2.1457202607232011
 30
0.0
 10
3.1207602346370207
 20
1.361906357407684
 30
0.0
 10
3.0802027746795755
 20
0.5809390250399118
 30
0.0
 10
3.0371988695392975
 20
-0.1956923875450372
 30
0.0
  0
ARC
  5
21E
100
AcDbEntity
  8
0
370
    13
390
0
 62
     7
100
AcDbCircle
 10
-3.944379
 20
-34.385707
 30
0.0
 40
34.893932
210
0.0
220
0.0
230
1.0
100
AcDbArc
 50
78.458565
 51
79.435834
  0
ARC
  5
21F
100
AcDbEntity
  8
0
370
    40
390
0
 62
     7
100
AcDbCircle
 10
-27.394419
 20
6.102038
 30
0.0
 40
30.234196
210
0.0
220
0.0
230
1.0
100
AcDbArc
 50
13.992312
 51
15.180315
  0
SPLINE
  5
220
100
AcDbEntity
  8
0
370
    40
390
0
 62
     7
100
AcDbSpline
210
0.0
220
0.0
230
1.0
 70
     8
 71
     5
 72
    18
 73
    12
 74
     0
 42
0.0
 43
0.0
 40
0.0
 40
0.0
 40
0.0
 40
0.0
 40
0.0
 40
0.0
 40
1.4120360079481178
 40
1.4120360079481178
 40
1.4120360079481178
 40
2.432182075651053
 40
2.432182075651053
 40
2.432182075651053
 40
2.6399919170141728
 40
2.6399919170141728
 40
2.6399919170141728
 40
2.6399919170141728
 40
2.6399919170141728
 40
2.6399919170141728
 10
1.9426704846315428
 20
13.412415028855738
 30
0.0
 10
1.9831190503303542
 20
13.250042021402628
 30
0.0
 10
2.0265637444458875
 20
13.088861624730219
 30
0.0
 10
2.071455679963448
 20
12.93420723826987
 30
0.0
 10
2.1538239189675292
 20
12.67317264144047
 30
0.0
 10
2.2407882595154032
 20
12.456438308265996
 30
0.0
 10
2.278807937559912
 20
12.374160087812635
 30
0.0
 10
2.3230196951834783
 20
12.303412488117397
 30
0.0
 10
2.3607272103735513
 20
12.279268365747082
 30
0.0
 10
2.366913304620196
 20
12.276587732782394
 30
0.0
 10
2.3728170019338708
 20
12.275393810516135
 30
0.0
 10
2.3784324495243547
 20
12.275689602946288
 30
0.0
  0
SPLINE
  5
221
100
AcDbEntity
  8
0
370
    40
390
0
 62
     7
100
AcDbSpline
210
0.0
220
0.0
230
1.0
 70
     8
 71
     5
 72
    18
 73
    12
 74
     0
 42
0.0
 43
0.0
 40
0.0
 40
0.0
 40
0.0
 40
0.0
 40
0.0
 40
0.0
 40
0.6889543115641927
 40
0.6889543115641927
 40
0.6889543115641927
 40
1.9687876420470209
 40
1.9687876420470209
 40
1.9687876420470209
 40
2.5248113793221352
 40
2.5248113793221352
 40
2.5248113793221352
 40
2.5248113793221352
 40
2.5248113793221352
 40
2.5248113793221352
 10
2.3784324495243556
 20
12.275689602946288
 30
0.0
 10
2.3970494062740908
 20
12.276670246927079
 30
0.0
 10
2.41249763028727
 20
12.294025017494443
 30
0.0
 10
2.4234874112222999
 20
12.32840888690987
 30
0.0
 10
2.4429940153494276
 20
12.459802301110402
 30
0.0
 10
2.4332381554792279
 20
12.660475282860743
 30
0.0
 10
2.4184211229728665
 20
12.799289683680685
 30
0.0
 10
2.3879672272110768
 20
13.007177556052639
 30
0.0
 10
2.3463663788298286
 20
13.219374618080431
 30
0.0
 10
2.3328190471783641
 20
13.283842296569755
 30
0.0
 10
2.3184035821872642
 20
13.348234027050902
 30
0.0
 10
2.3031621923205696
 20
13.412415028852093
 30
0.0
  0
LINE
  5
222
100
AcDbEntity
  8
0
370
    40
390
0
 62
     7
 48
0.01286
100
AcDbLine
 10
2.181213
 20
13.912133
 30
0.0
 11
2.303162
 21
13.412415
 31
0.0
210
0.0
220
0.0
230
1.0
  0
SPLINE
  5
223
100
AcDbEntity
  8
0
370
    40
390
0
 62
     7
100
AcDbSpline
210
0.0
220
0.0
230
1.0
 70
     8
 71
     5
 72
    21
 73
    15
 74
     0
 42
0.0
 43
0.0
 40
0.0
 40
0.0
 40
0.0
 40
0.0
 40
0.0
 40
0.0
 40
0.8998278330127113
 40
0.8998278330127113
 40
0.8998278330127113
 40
2.0730609703082266
 40
2.0730609703082266
 40
2.0730609703082266
 40
2.5878586726976875
 40
2.5878586726976875
 40
2.5878586726976875
 40
2.817306436970012
 40
2.817306436970012
 40
2.817306436970012
 40
2.817306436970012
 40
2.817306436970012
 40
2.817306436970012
 10
1.7848028360346684
 20
14.019093220535071
 30
0.0
 10
1.7570497479915581
 20
14.121413597994838
 30
0.0
 10
1.7301353698201918
 20
14.224184256381273
 30
0.0
 10
1.7041880820370201
 20
14.327068568758612
 30
0.0
 10
1.6471817079912459
 20
14.563110092377212
 30
0.0
 10
1.5986561838891338
 20
14.79478990958142
 30
0.0
 10
1.5760234535673954
 20
14.917016609491824
 30
0.0
 10
1.5494893197206956
 20
15.094922195898619
 30
0.0
 10
1.5495463303845636
 20
15.227065660955274
 30
0.0
 10
1.5526863494028977
 20
15.261822695823342
 30
0.0
 10
1.5632856560859492
 20
15.297794459573664
 30
0.0
 10
1.5817966195929447
 20
15.311004081775314
 30
0.0
 10
1.5882744980156911
 20
15.312819120408848
 30
0.0
 10
1.5953256615225224
 20
15.31240223068729
 30
0.0
 10
1.60290304256048
 20
15.309925130083826
 30
0.0
  0
SPLINE
  5
224
100
AcDbEntity
  8
0
370
    40
390
0
 62
     7
100
AcDbSpline
210
0.0
220
0.0
230
1.0
 70
     8
 71
     5
 72
    18
 73
    12
 74
     0
 42
0.0
 43
0.0
 40
0.0
 40
0.0
 40
0.0
 40
0.0
 40
0.0
 40
0.0
 40
0.6674535987305803
 40
0.6674535987305803
 40
0.6674535987305803
 40
1.8885933626686708
 40
1.8885933626686708
 40
1.8885933626686708
 40
3.0538794493088917
 40
3.0538794493088917
 40
3.0538794493088917
 40
3.0538794493088917
 40
3.0538794493088917
 40
3.0538794493088917
 10
1.60290304256048
 20
15.309925130083826
 30
0.0
 10
1.6249453154881639
 20
15.302719351821201
 30
0.0
 10
1.6514394065104669
 20
15.278081499157931
 30
0.0
 10
1.6804191595188041
 20
15.239344997336623
 30
0.0
 10
1.7617154146230831
 20
15.110949932589783
 30
0.0
 10
1.8434479473794911
 20
14.936214420351607
 30
0.0
 10
1.8923124575986925
 20
14.819901126538992
 30
0.0
 10
1.98687478977067
 20
14.572980656257309
 30
0.0
 10
2.0720658214123615
 20
14.309636459942492
 30
0.0
 10
2.111227216686931
 20
14.178494401405221
 30
0.0
 10
2.1477336064429
 20
14.045679447018665
 30
0.0
 10
2.1812132194778266
 20
13.912133490284397
 30
0.0
  0
ELLIPSE
  5
225
100
AcDbEntity
  8
0
370
    13
390
0
 62
     7
100
AcDbEllipse
 10
-0.241972
 20
16.27512
 30
0.0
 11
0.2710972428321838
 21
0.1284767985343933
 31
0.0
210
0.0
220
0.0
230
1.0
 40
0.572359
 41
4.5034384264313552
 42
6.1358135637597799
  0
ARC
  5
226
100
AcDbEntity
  8
0
370
    13
390
0
 62
     7
100
AcDbCircle
 10
-19.964636
 20
6.649077
 30
0.0
 40
21.882813
210
0.0
220
0.0
230
1.0
100
AcDbArc
 50
25.577741
 51
32.029947
  0
LINE
  5
227
100
AcDbEntity
  8
0
370
    13
390
0
 62
     7
 48
0.007005
100
AcDbLine
 10
2.173702
 20
-0.060259
 30
0.0
 11
2.453
 21
-0.082604
 31
0.0
210
0.0
220
0.0
230
1.0
  0
SPLINE
  5
228
100
AcDbEntity
  8
0
370
    13
390
0
 62
     7
100
AcDbSpline
210
0.0
220
0.0
230
1.0
 70
     8
 71
     5
 72
    30
 73
    24
 74
     0
 42
0.0
 43
0.0
 40
0.0
 40
0.0
 40
0.0
 40
0.0
 40
0.0
 40
0.0
 40
6.1073497380156532
 40
6.1073497380156532
 40
6.1073497380156532
 40
9.1960028166212364
 40
9.1960028166212364
 40
9.1960028166212364
 40
15.432270113097569
 40
15.432270113097569
 40
15.432270113097569
 40
24.877173761492116
 40
24.877173761492116
 40
24.877173761492116
 40
28.033338946423861
 40
28.033338946423861
 40
28.033338946423861
 40
31.141583604532013
 40
31.141583604532013
 40
31.141583604532013
 40
31.185186726968105
 40
31.185186726968105
 40
31.185186726968105
 40
31.185186726968105
 40
31.185186726968105
 40
31.185186726968105
 10
-0.2262707973175893
 20
16.096678670918649
 30
0.0
 10
0.0327881998991657
 20
15.556125483240097
 30
0.0
 10
0.2797641810306839
 20
15.002116174972098
 30
0.0
 10
0.5130559709250093
 20
14.435826515932158
 30
0.0
 10
0.843683273732633
 20
13.559612092136739
 30
0.0
 10
1.1382625329422909
 20
12.654721246344812
 30
0.0
 10
1.2329907428306712
 20
12.347587576228381
 30
0.0
 10
1.5055134496978628
 20
11.411972930154745
 30
0.0
 10
1.7361907233701204
 20
10.452972918535215
 30
0.0
 10
1.8706655267587964
 20
9.8028471405501136
 30
0.0
 10
2.1578334461013586
 20
8.1501210032693372
 30
0.0
 10
2.318113001261124
 20
6.4606311831316825
 30
0.0
 10
2.3692237652730199
 20
5.4349794136460883
 30
0.0
 10
2.3826259255246036
 20
4.0620570466984907
 30
0.0
 10
2.339414962741265
 20
2.6913985052299516
 30
0.0
 10
2.3253847812794302
 20
2.3483638252038634
 30
0.0
 10
2.2919798512470342
 20
1.6684274504122656
 30
0.0
 10
2.2493894489827024
 20
0.9907585513859186
 30
0.0
 10
2.2247743016134387
 20
0.6314049588666291
 30
0.0
 10
2.2001311135703641
 20
0.2921766195408606
 30
0.0
 10
2.1747556948287516
 20
-0.0462148235717321
 30
0.0
 10
2.1744045058911237
 20
-0.0508960597965101
 30
0.0
 10
2.1740531710198541
 20
-0.0555772584640076
 30
0.0
 10
2.1737016862889478
 20
-0.0602584877165351
 30
0.0
  0
LINE
  5
229
100
AcDbEntity
  8
0
370
    40
390
0
 62
     7
 48
0.012922
100
AcDbLine
 10
4.531688
 20
-0.808696
 30
0.0
 11
4.560114
 21
-0.2926
 31
0.0
210
0.0
220
0.0
230
1.0
  0
LINE
  5
22A
100
AcDbEntity
  8
0
370
    40
390
0
 62
     7
 48
0.015308
100
AcDbLine
 10
3.003153
 20
-0.808697
 30
0.0
 11
3.037108
 21
-0.197316
 31
0.0
210
0.0
220
0.0
230
1.0
  0
LINE
  5
22B
100
AcDbEntity
  8
0
370
    40
390
0
 62
     7
 48
0.038163
100
AcDbLine
 10
4.694828
 20
3.824772
 30
0.0
 11
3.172189
 21
3.716002
 31
0.0
210
0.0
220
0.0
230
1.0
  0
ARC
  5
22C
100
AcDbEntity
  8
0
370
    40
390
0
 62
     7
100
AcDbCircle
 10
5.18327
 20
1.837063
 30
0.0
 40
0.525243
210
0.0
220
0.0
230
1.0
100
AcDbArc
 50
91.333041
 51
142.474127
  0
ARC
  5
22D
100
AcDbEntity
  8
0
370
    40
390
0
 62
     7
100
AcDbCircle
 10
5.171569
 20
1.844674
 30
0.0
 40
0.511286
210
0.0
220
0.0
230
1.0
100
AcDbArc
 50
142.351904
 51
177.877325
  0
ARC
  5
22E
100
AcDbEntity
  8
0
370
    13
390
0
 62
     7
100
AcDbCircle
 10
5.131913
 20
1.852747
 30
0.0
 40
0.475237
210
0.0
220
0.0
230
1.0
100
AcDbArc
 50
88.432352
 51
141.186652
  0
ARC
  5
22F
100
AcDbEntity
  8
0
370
    13
390
0
 62
     7
100
AcDbCircle
 10
5.059241
 20
2.404835
 30
0.0
 40
0.114679
210
0.0
220
0.0
230
1.0
100
AcDbArc
 50
275.768775
 51
318.137209
  0
SPLINE
  5
230
100
AcDbEntity
  8
0
370
    40
390
0
 62
     7
100
AcDbSpline
210
0.0
220
0.0
230
1.0
 70
     8
 71
     5
 72
    24
 73
    18
 74
     0
 42
0.0
 43
0.0
 40
0.0
 40
0.0
 40
0.0
 40
0.0
 40
0.0
 40
0.0
 40
0.3293384378333277
 40
0.3293384378333277
 40
0.3293384378333277
 40
0.5528774254469867
 40
0.5528774254469867
 40
0.5528774254469867
 40
0.7772884593229924
 40
0.7772884593229924
 40
0.7772884593229924
 40
1.0011188978039303
 40
1.0011188978039303
 40
1.0011188978039303
 40
1.1097133904464678
 40
1.1097133904464678
 40
1.1097133904464678
 40
1.1097133904464678
 40
1.1097133904464678
 40
1.1097133904464678
 10
4.3944866988476292
 20
8.5732837189703321
 30
0.0
 10
4.399887855760662
 20
8.5325193516326667
 30
0.0
 10
4.4096611012462192
 20
8.4918037263426314
 30
0.0
 10
4.4251506216414498
 20
8.4508513878007978
 30
0.0
 10
4.4570756827579956
 20
8.3877916753765493
 30
0.0
 10
4.5000323897776244
 20
8.3314087995379786
 30
0.0
 10
4.5191815866059546
 20
8.3097648604070073
 30
0.0
 10
4.5605466747918015
 20
8.2693945144050627
 30
0.0
 10
4.6073219869738651
 20
8.2353220100514761
 30
0.0
 10
4.6319292361690136
 20
8.2199618974513928
 30
0.0
 10
4.6830272280068375
 20
8.1928723640365924
 30
0.0
 10
4.7372377998049817
 20
8.1731756989338233
 30
0.0
 10
4.7648921640377413
 20
8.1652391793122927
 30
0.0
 10
4.8065254728320106
 20
8.1563102355580277
 30
0.0
 10
4.8486048957357628
 20
8.1516223107231607
 30
0.0
 10
4.8623870739683666
 20
8.1505442059332793
 30
0.0
 10
4.8761334694575602
 20
8.1499178243866517
 30
0.0
 10
4.8898663901011226
 20
8.1497384527821186
 30
0.0
  0
ARC
  5
231
100
AcDbEntity
  8
0
370
    40
390
0
 62
     7
100
AcDbCircle
 10
-23.805315
 20
-130.763301
 30
0.0
 40
140.99559
210
0.0
220
0.0
230
1.0
100
AcDbArc
 50
78.405447
 51
79.04966
  0
LINE
  5
232
100
AcDbEntity
  8
0
370
    40
390
0
 62
     7
 48
0.038218
100
AcDbLine
 10
4.363508
 20
8.800824
 30
0.0
 11
2.834802
 21
8.808349
 31
0.0
210
0.0
220
0.0
230
1.0
  0
LINE
  5
233
100
AcDbEntity
  8
0
370
    13
390
0
 62
     7
 48
0.038813
100
AcDbLine
 10
2.823643
 20
12.282214
 30
0.0
 11
4.375989
 21
12.30619
 31
0.0
210
0.0
220
0.0
230
1.0
  0
LINE
  5
234
100
AcDbEntity
  8
0
370
    13
390
0
 62
     7
 48
0.040413
100
AcDbLine
 10
1.062554
 20
17.321257
 30
0.0
 11
2.678896
 21
17.345949
 31
0.0
210
0.0
220
0.0
230
1.0
  0
LINE
  5
235
100
AcDbEntity
  8
0
370
    40
390
0
 62
     7
 48
0.040492
100
AcDbLine
 10
1.750675
 20
17.600051
 30
0.0
 11
0.131235
 21
17.572621
 31
0.0
210
0.0
220
0.0
230
1.0
  0
LINE
  5
236
100
AcDbEntity
  8
0
370
    13
390
0
 62
     7
 48
0.009012
100
AcDbLine
 10
2.303163
 20
13.412415
 30
0.0
 11
1.94267
 21
13.412415
 31
0.0
210
0.0
220
0.0
230
1.0
  0
LINE
  5
237
100
AcDbEntity
  8
0
370
    13
390
0
 62
     7
 48
0.010265
100
AcDbLine
 10
2.181214
 20
13.912133
 30
0.0
 11
1.784803
 21
14.019093
 31
0.0
210
0.0
220
0.0
230
1.0
  0
SPLINE
  5
238
100
AcDbEntity
  8
0
370
    40
390
0
 62
     7
100
AcDbSpline
210
0.0
220
0.0
230
1.0
 70
     8
 71
     5
 72
    27
 73
    21
 74
     0
 42
0.0
 43
0.0
 40
0.0
 40
0.0
 40
0.0
 40
0.0
 40
0.0
 40
0.0
 40
7.9513831750417614
 40
7.9513831750417614
 40
7.9513831750417614
 40
9.0324432923841727
 40
9.0324432923841727
 40
9.0324432923841727
 40
10.363131022750226
 40
10.363131022750226
 40
10.363131022750226
 40
11.664299764541143
 40
11.664299764541143
 40
11.664299764541143
 40
23.69706156712013
 40
23.69706156712013
 40
23.69706156712013
 40
26.387456852577756
 40
26.387456852577756
 40
26.387456852577756
 40
26.387456852577756
 40
26.387456852577756
 40
26.387456852577756
 10
3.8860599382162189
 20
-15.888837129159258
 30
0.0
 10
3.9068041279921144
 20
-15.149679654745771
 30
0.0
 10
3.9293559508692213
 20
-14.403876903720846
 30
0.0
 10
3.953630259104858
 20
-13.653580433563384
 30
0.0
 10
3.9830268937208748
 20
-12.798319708095915
 30
0.0
 10
4.014485500065434
 20
-11.938378177710133
 30
0.0
 10
4.0226829111329252
 20
-11.716606167719332
 30
0.0
 10
4.0312984301160117
 20
-11.485917071811148
 30
0.0
 10
4.0399943930739504
 20
-11.256576400100572
 30
0.0
 10
4.0447525131319928
 20
-11.132115422568598
 30
0.0
 10
4.0542373345844913
 20
-10.885982103156717
 30
0.0
 10
4.0640129147729471
 20
-10.636219482648126
 30
0.0
 10
4.0694583411436831
 20
-10.498169363439436
 30
0.0
 10
4.1204519143018512
 20
-9.2156562218724751
 30
0.0
 10
4.1758767396906649
 20
-7.9200581754825601
 30
0.0
 10
4.2291698037008523
 20
-6.7459259503902658
 30
0.0
 10
4.2972398404659238
 20
-5.319221990637562
 30
0.0
 10
4.3685058143607387
 20
-3.9026541006938258
 30
0.0
 10
4.3816317209936653
 20
-3.6441493402674583
 30
0.0
 10
4.3948571471795779
 20
-3.386011989570048
 30
0.0
 10
4.4081797702898671
 20
-3.1282339102266756
 30
0.0
  0
LINE
  5
239
100
AcDbEntity
  8
0
370
    13
390
0
 62
     7
 48
0.000066
100
AcDbLine
 10
4.113596
 20
-15.985981
 30
0.0
 11
4.110941
 21
-15.985951
 31
0.0
210
0.0
220
0.0
230
1.0
  0
LINE
  5
23A
100
AcDbEntity
  8
0
370
    40
390
0
 62
     7
 48
0.080048
100
AcDbLine
 10
8.091526
 20
8.107911
 30
0.0
 11
4.889866
 21
8.149738
 31
0.0
210
0.0
220
0.0
230
1.0
  0
LINE
  5
23B
100
AcDbEntity
  8
0
370
    13
390
0
 62
     7
 48
0.110748
100
AcDbLine
 10
7.483028
 20
5.852716
 30
0.0
 11
3.053089
 21
5.852716
 31
0.0
210
0.0
220
0.0
230
1.0
  0
ARC
  5
23C
100
AcDbEntity
  8
0
370
    40
390
0
 62
     7
100
AcDbCircle
 10
-30.677821
 20
491.426699
 30
0.0
 40
488.883194
210
0.0
220
0.0
230
1.0
100
AcDbArc
 50
274.149204
 51
274.418017
  0
LINE
  5
23D
100
AcDbEntity
  8
0
370
    13
390
0
 62
     7
 48
0.115875
100
AcDbLine
 10
7.483028
 20
5.852716
 30
0.0
 11
3.008073
 21
7.060152
 31
0.0
210
0.0
220
0.0
230
1.0
  0
ARC
  5
23E
100
AcDbEntity
  8
0
370
    40
390
0
 62
     7
100
AcDbCircle
 10
-29.891543
 20
-160.196867
 30
0.0
 40
171.051742
210
0.0
220
0.0
230
1.0
100
AcDbArc
 50
77.30323
 51
78.389913
  0
LINE
  5
23F
100
AcDbEntity
  8
0
370
    40
390
0
 62
     7
 48
0.052956
100
AcDbLine
 10
4.418769
 20
-2.923914
 30
0.0
 11
4.531688
 21
-0.808701
 31
0.0
210
0.0
220
0.0
230
1.0
  0
LINE
  5
240
100
AcDbEntity
  8
0
370
    40
390
0
 62
     7
 48
0.052873
100
AcDbLine
 10
2.889417
 20
-2.922163
 30
0.0
 11
3.00305
 21
-0.81029
 31
0.0
210
0.0
220
0.0
230
1.0
  0
LINE
  5
241
100
AcDbEntity
  8
0
370
    40
390
0
 62
     7
 48
0.00004
100
AcDbLine
 10
3.003065
 20
-0.810286
 30
0.0
 11
3.003153
 21
-0.808702
 31
0.0
210
0.0
220
0.0
230
1.0
  0
ARC
  5
242
100
AcDbEntity
  8
0
370
    40
390
0
 62
     7
100
AcDbCircle
 10
-6.990571
 20
-38.40541
 30
0.0
 40
23.935389
210
0.0
220
0.0
230
1.0
100
AcDbArc
 50
63.056507
 51
67.069325
  0
SPLINE
  5
243
100
AcDbEntity
  8
0
370
    40
390
0
 62
     7
100
AcDbSpline
210
0.0
220
0.0
230
1.0
 70
     8
 71
     5
 72
    18
 73
    12
 74
     0
 42
0.0
 43
0.0
 40
0.0
 40
0.0
 40
0.0
 40
0.0
 40
0.0
 40
0.0
 40
11.115666291757904
 40
11.115666291757904
 40
11.115666291757904
 40
16.644914524012464
 40
16.644914524012464
 40
16.644914524012464
 40
27.927873198708433
 40
27.927873198708433
 40
27.927873198708433
 40
27.927873198708433
 40
27.927873198708433
 40
27.927873198708433
 10
2.335150753398231
 20
-16.361020648630113
 30
0.0
 10
2.3637706884129108
 20
-15.332652518655975
 30
0.0
 10
2.3959106335677567
 20
-14.290282206209234
 30
0.0
 10
2.4320829985406585
 20
-13.218325344217369
 30
0.0
 10
2.4898255502142241
 20
-11.636999690053802
 30
0.0
 10
2.5544252307857316
 20
-10.035844823569441
 30
0.0
 10
2.5785293172403736
 20
-9.4568319651260317
 30
0.0
 10
2.6483911394998656
 20
-7.8273420821043533
 30
0.0
 10
2.7242911859383834
 20
-6.1909710865751357
 30
0.0
 10
2.7775668844857968
 20
-5.0944613299295618
 30
0.0
 10
2.8326419007503638
 20
-4.0055086379125866
 30
0.0
 10
2.8893337253342422
 20
-2.9237490350427384
 30
0.0
  0
LINE
  5
244
100
AcDbEntity
  8
0
370
    40
390
0
 62
     7
 48
0.00004
100
AcDbLine
 10
2.889333
 20
-2.923756
 30
0.0
 11
2.889417
 21
-2.922163
 31
0.0
210
0.0
220
0.0
230
1.0
  0
LINE
  5
245
100
AcDbEntity
  8
0
370
    40
390
0
 62
     7
 48
0.005115
100
AcDbLine
 10
4.40818
 20
-3.128234
 30
0.0
 11
4.418769
 21
-2.923914
 31
0.0
210
0.0
220
0.0
230
1.0
  0
SPLINE
  5
246
100
AcDbEntity
  8
0
370
    40
390
0
 62
     7
100
AcDbSpline
210
0.0
220
0.0
230
1.0
 70
     8
 71
     5
 72
    27
 73
    21
 74
     0
 42
0.0
 43
0.0
 40
0.0
 40
0.0
 40
0.0
 40
0.0
 40
0.0
 40
0.0
 40
7.9513831750417676
 40
7.9513831750417676
 40
7.9513831750417676
 40
9.0324425724301847
 40
9.0324425724301847
 40
9.0324425724301847
 40
10.363130302796234
 40
10.363130302796234
 40
10.363130302796234
 40
11.664299055290101
 40
11.664299055290101
 40
11.664299055290101
 40
23.697060857869104
 40
23.697060857869104
 40
23.697060857869104
 40
26.387456143326723
 40
26.387456143326723
 40
26.387456143326723
 40
26.387456143326723
 40
26.387456143326723
 40
26.387456143326723
 10
3.8860599382162189
 20
-15.888837129159255
 30
0.0
 10
3.906804127992114
 20
-15.149679654745766
 30
0.0
 10
3.9293559508692226
 20
-14.403876903720841
 30
0.0
 10
3.9536302591047505
 20
-13.653580433559869
 30
0.0
 10
3.9830268913777562
 20
-12.798319776267132
 30
0.0
 10
4.0144854950504554
 20
-11.938378314797745
 30
0.0
 10
4.0226829162767377
 20
-11.716606029988833
 30
0.0
 10
4.0312984327119175
 20
-11.48591700334854
 30
0.0
 10
4.0399943930739664
 20
-11.256576400100471
 30
0.0
 10
4.0447525131320035
 20
-11.1321154225685
 30
0.0
 10
4.0542373346230498
 20
-10.885982102155866
 30
0.0
 10
4.0640129148524666
 20
-10.636219480616617
 30
0.0
 10
4.0694583410618481
 20
-10.498169365498249
 30
0.0
 10
4.1204519142571172
 20
-9.2156562229133012
 30
0.0
 10
4.1758767396929262
 20
-7.9200581754745212
 30
0.0
 10
4.2291698037008523
 20
-6.7459259503902693
 30
0.0
 10
4.2972398404659247
 20
-5.3192219906375655
 30
0.0
 10
4.3685058143607396
 20
-3.9026541006938267
 30
0.0
 10
4.3816317209936653
 20
-3.6441493402674565
 30
0.0
 10
4.3948571471795788
 20
-3.3860119895700471
 30
0.0
 10
4.4081797702898671
 20
-3.1282339102266752
 30
0.0
  0
ARC
  5
247
100
AcDbEntity
  8
0
370
    40
390
0
 62
     7
100
AcDbCircle
 10
4.27938
 20
-15.899138
 30
0.0
 40
0.393469
210
0.0
220
0.0
230
1.0
100
AcDbArc
 50
178.503524
 51
200.89701
  0
SPLINE
  5
248
100
AcDbEntity
  8
0
370
    40
390
0
 62
     7
100
AcDbSpline
210
0.0
220
0.0
230
1.0
 70
     8
 71
     5
 72
    18
 73
    12
 74
     0
 42
0.0
 43
0.0
 40
0.0
 40
0.0
 40
0.0
 40
0.0
 40
0.0
 40
0.0
 40
0.3874089425597045
 40
0.3874089425597045
 40
0.3874089425597045
 40
0.880128082444793
 40
0.880128082444793
 40
0.880128082444793
 40
0.9790898516234441
 40
0.9790898516234441
 40
0.9790898516234441
 40
0.9790898516234441
 40
0.9790898516234441
 40
0.9790898516234441
 10
3.9117747583129372
 20
-16.039490525662458
 30
0.0
 10
3.9284184356333469
 20
-16.083434748046216
 30
0.0
 10
3.9514399622915657
 20
-16.125227331290947
 30
0.0
 10
3.980153552458904
 20
-16.163730005815047
 30
0.0
 10
4.0559475341917297
 20
-16.242360373337135
 30
0.0
 10
4.1516864729640819
 20
-16.299222423459195
 30
0.0
 10
4.2098054648419128
 20
-16.323469699218375
 30
0.0
 10
4.28300271385696
 20
-16.343062208963381
 30
0.0
 10
4.3580703929998652
 20
-16.350890418550499
 30
0.0
 10
4.3706772930007443
 20
-16.35186952498465
 30
0.0
 10
4.3832987259138232
 20
-16.352514857482007
 30
0.0
 10
4.3959336700524769
 20
-16.352825962742493
 30
0.0
  0
ELLIPSE
  5
249
100
AcDbEntity
  8
0
370
    13
390
0
 62
     7
100
AcDbEllipse
 10
4.35454
 20
-15.796858
 30
0.0
 11
0.467588484287262
 21
0.1770896911621094
 31
0.0
210
0.0
220
0.0
230
1.0
 40
0.828746
 41
3.2224913232594412
 42
4.3904491692696883
  0
LINE
  5
24A
100
AcDbEntity
  8
0
370
    13
390
0
 62
     7
 48
0.003538
100
AcDbLine
 10
4.395934
 20
-16.352826
 30
0.0
 11
4.345813
 21
-16.220494
 31
0.0
210
0.0
220
0.0
230
1.0
  0
SPLINE
  5
24B
100
AcDbEntity
  8
0
370
    13
390
0
 62
     7
100
AcDbSpline
210
0.0
220
0.0
230
1.0
 70
     8
 71
     5
 72
    15
 73
     9
 74
     0
 42
0.0
 43
0.0
 40
0.0
 40
0.0
 40
0.0
 40
0.0
 40
0.0
 40
0.0
 40
1.0579503660455534
 40
1.0579503660455534
 40
1.0579503660455534
 40
1.1656026313254351
 40
1.1656026313254351
 40
1.1656026313254351
 40
1.1656026313254351
 40
1.1656026313254351
 40
1.1656026313254351
 10
4.3458105682727339
 20
-16.220493838526611
 30
0.0
 10
4.3049645965683556
 20
-16.141066469108168
 30
0.0
 10
4.2617015076502733
 20
-16.074031090518091
 30
0.0
 10
4.2173963951762889
 20
-16.02486445875634
 30
0.0
 10
4.169693012739863
 20
-15.994180365221569
 30
0.0
 10
4.1256118474071801
 20
-15.986843446715092
 30
0.0
 10
4.1215718484708237
 20
-15.986362568335043
 30
0.0
 10
4.1175666952942187
 20
-15.986075974226415
 30
0.0
 10
4.1135963867937919
 20
-15.985980538116877
 30
0.0
  0
ARC
  5
24C
100
AcDbEntity
  8
0
370
    40
390
0
 62
     7
100
AcDbCircle
 10
4.088468
 20
-21.688797
 30
0.0
 40
0.322204
210
0.0
220
0.0
230
1.0
100
AcDbArc
 50
142.002733
 51
178.316066
  0
LINE
  5
24D
100
AcDbEntity
  8
0
370
    40
390
0
 62
     7
 48
0.001091
100
AcDbLine
 10
2.26056
 20
-19.474353
 30
0.0
 11
2.30418
 21
-19.472585
 31
0.0
210
0.0
220
0.0
230
1.0
  0
ARC
  5
24E
100
AcDbEntity
  8
0
370
    40
390
0
 62
     7
100
AcDbCircle
 10
1.704472
 20
-2.039771
 30
0.0
 40
17.442594
210
0.0
220
0.0
230
1.0
100
AcDbArc
 50
271.970258
 51
276.912659
  0
SPLINE
  5
24F
100
AcDbEntity
  8
0
370
    40
390
0
 62
     7
100
AcDbSpline
210
0.0
220
0.0
230
1.0
 70
     8
 71
     5
 72
    24
 73
    18
 74
     0
 42
0.0
 43
0.0
 40
0.0
 40
0.0
 40
0.0
 40
0.0
 40
0.0
 40
0.0
 40
1.0907722787398697
 40
1.0907722787398697
 40
1.0907722787398697
 40
13.888704036253863
 40
13.888704036253863
 40
13.888704036253863
 40
16.064263199507774
 40
16.064263199507774
 40
16.064263199507774
 40
18.253508626059528
 40
18.253508626059528
 40
18.253508626059528
 40
32.205417444913408
 40
32.205417444913408
 40
32.205417444913408
 40
32.205417444913408
 40
32.205417444913408
 40
32.205417444913408
 10
3.834370809114116
 20
-32.645375629105374
 30
0.0
 10
3.833453630681503
 20
-32.609052995001754
 30
0.0
 10
3.8325364522488901
 20
-32.572730360898149
 30
0.0
 10
3.8081208967297986
 20
-31.612466829802813
 30
0.0
 10
3.7975195759633626
 20
-31.152518371079807
 30
0.0
 10
3.7854404507379469
 20
-30.576410532206694
 30
0.0
 10
3.7741291808935529
 20
-29.954954030281055
 30
0.0
 10
3.7621925866778883
 20
-29.133993448415744
 30
0.0
 10
3.7531630684673782
 20
-28.213382859777795
 30
0.0
 10
3.7517986400917609
 20
-28.064038133566552
 30
0.0
 10
3.7494625953830241
 20
-27.788249315447079
 30
0.0
 10
3.7474220503456097
 20
-27.503360421328537
 30
0.0
 10
3.7464204430702095
 20
-27.348614819513667
 30
0.0
 10
3.7401587134220948
 20
-26.265533662737539
 30
0.0
 10
3.738873493425344
 20
-25.080878024468792
 30
0.0
 10
3.7427217487485409
 20
-23.983734611998088
 30
0.0
 10
3.7518709614415933
 20
-22.851959717484842
 30
0.0
 10
3.7666432068737503
 20
-21.679336118075479
 30
0.0
  0
LINE
  5
250
100
AcDbEntity
  8
0
370
    40
390
0
 62
     7
 48
0.03906
100
AcDbLine
 10
3.834371
 20
-32.645376
 30
0.0
 11
2.27219
 21
-32.618108
 31
0.0
210
0.0
220
0.0
230
1.0
  0
SPLINE
  5
251
100
AcDbEntity
  8
0
370
    40
390
0
 62
     7
100
AcDbSpline
210
0.0
220
0.0
230
1.0
 70
     8
 71
     5
 72
    27
 73
    21
 74
     0
 42
0.0
 43
0.0
 40
0.0
 40
0.0
 40
0.0
 40
0.0
 40
0.0
 40
0.0
 40
0.7751983043526707
 40
0.7751983043526707
 40
0.7751983043526707
 40
11.509815594012554
 40
11.509815594012554
 40
11.509815594012554
 40
16.22162704532748
 40
16.22162704532748
 40
16.22162704532748
 40
21.149050169324067
 40
21.149050169324067
 40
21.149050169324067
 40
26.177610834322905
 40
26.177610834322905
 40
26.177610834322905
 40
39.152279113136032
 40
39.152279113136032
 40
39.152279113136032
 40
39.152279113136032
 40
39.152279113136032
 40
39.152279113136032
 10
2.2720854278455338
 20
-32.618105836365295
 30
0.0
 10
2.2715626283510133
 20
-32.596092822518273
 30
0.0
 10
2.271039828856491
 20
-32.574079808671243
 30
0.0
 10
2.2544672887125561
 20
-31.879292542023347
 30
0.0
 10
2.2472654726759869
 20
-31.554674937189521
 30
0.0
 10
2.2388129526525908
 20
-31.147178000437947
 30
0.0
 10
2.2304002987005482
 20
-30.699457377247661
 30
0.0
 10
2.2185558312078584
 20
-29.965932336912438
 30
0.0
 10
2.2084219339082631
 20
-29.114449255961866
 30
0.0
 10
2.2055059972413904
 20
-28.840447387928194
 30
0.0
 10
2.2001689813632783
 20
-28.266052475691229
 30
0.0
 10
2.1961577873044549
 20
-27.652081221983249
 30
0.0
 10
2.1945244852612511
 20
-27.329211002228512
 30
0.0
 10
2.1921175352191806
 20
-26.65849314100231
 30
0.0
 10
2.1916965908784194
 20
-25.950078219280222
 30
0.0
 10
2.1920299554809324
 20
-25.593872688281795
 30
0.0
 10
2.1954183670737271
 20
-24.24760185577518
 30
0.0
 10
2.2068844915609063
 20
-22.80631989745455
 30
0.0
 10
2.2198176944505237
 20
-21.72891961038475
 30
0.0
 10
2.2376366289650322
 20
-20.617650688412958
 30
0.0
 10
2.2604778509654118
 20
-19.474351342351547
 30
0.0
  0
LINE
  5
252
100
AcDbEntity
  8
0
370
    40
390
0
 62
     7
 48
0.034458
100
AcDbLine
 10
5.171083
 20
2.36211
 30
0.0
 11
6.549108
 21
2.391455
 31
0.0
210
0.0
220
0.0
230
1.0
  0
LINE
  5
253
100
AcDbEntity
  8
0
370
    13
390
0
 62
     7
 48
0.001069
100
AcDbLine
 10
5.145015
 20
2.328179
 30
0.0
 11
5.171045
 21
2.362109
 31
0.0
210
0.0
220
0.0
230
1.0
  0
LINE
  5
254
100
AcDbEntity
  8
0
370
    40
390
0
 62
     7
 48
0.000923
100
AcDbLine
 10
8.04854
 20
2.38935
 30
0.0
 11
8.038926
 21
2.353718
 31
0.0
210
0.0
220
0.0
230
1.0
  0
LINE
  5
255
100
AcDbEntity
  8
0
370
    13
390
0
 62
     7
 48
0.072607
100
AcDbLine
 10
5.144921
 20
2.328059
 30
0.0
 11
8.04854
 21
2.38935
 31
0.0
210
0.0
220
0.0
230
1.0
  0
LINE
  5
256
100
AcDbEntity
  8
0
370
    40
390
0
 62
     7
 48
0.080048
100
AcDbLine
 10
8.091526
 20
8.107911
 30
0.0
 11
4.889866
 21
8.149738
 31
0.0
210
0.0
220
0.0
230
1.0
  0
LINE
  5
257
100
AcDbEntity
  8
0
370
    13
390
0
 62
     7
 48
0.001173
100
AcDbLine
 10
2.30418
 20
-19.472585
 30
0.0
 11
2.258863
 21
-19.460357
 31
0.0
210
0.0
220
0.0
230
1.0
  0
SPLINE
  5
258
100
AcDbEntity
  8
0
370
    40
390
0
 62
     7
100
AcDbSpline
210
0.0
220
0.0
230
1.0
 70
     8
 71
     5
 72
    36
 73
    30
 74
     0
 42
0.0
 43
0.0
 40
0.0
 40
0.0
 40
0.0
 40
0.0
 40
0.0
 40
0.0
 40
2.028174809091186
 40
2.028174809091186
 40
2.028174809091186
 40
2.4323090588266711
 40
2.4323090588266711
 40
2.4323090588266711
 40
2.971620853355089
 40
2.971620853355089
 40
2.971620853355089
 40
3.3275041960168448
 40
3.3275041960168448
 40
3.3275041960168448
 40
3.5318351775829471
 40
3.5318351775829471
 40
3.5318351775829471
 40
4.1830193019657465
 40
4.1830193019657465
 40
4.1830193019657465
 40
4.8777293055200577
 40
4.8777293055200577
 40
4.8777293055200577
 40
5.6771559326386285
 40
5.6771559326386285
 40
5.6771559326386285
 40
7.9842448992092834
 40
7.9842448992092834
 40
7.9842448992092834
 40
7.9842448992092834
 40
7.9842448992092834
 40
7.9842448992092834
 10
3.8037382670324273
 20
-19.355092112470299
 30
0.0
 10
4.0359296434830174
 20
-19.325126906233933
 30
0.0
 10
4.267078378040563
 20
-19.289035501361319
 30
0.0
 10
4.4881874572585403
 20
-19.246123303352565
 30
0.0
 10
4.7613837494913822
 20
-19.182050466702986
 30
0.0
 10
5.0220057296109726
 20
-19.087214172278809
 30
0.0
 10
5.0649004419206634
 20
-19.070503382494053
 30
0.0
 10
5.1641408310612329
 20
-19.028829589424582
 30
0.0
 10
5.2600320385192338
 20
-18.979972638700001
 30
0.0
 10
5.3134543103894387
 20
-18.949137855994515
 30
0.0
 10
5.3974381317273536
 20
-18.892717852318135
 30
0.0
 10
5.4697461369471529
 20
-18.825762612366265
 30
0.0
 10
5.4963567958582393
 20
-18.797151941806582
 30
0.0
 10
5.5333555059291815
 20
-18.749149306432681
 30
0.0
 10
5.5611638543019746
 20
-18.696597000263242
 30
0.0
 10
5.5699827009580778
 20
-18.676757350204628
 30
0.0
 10
5.6004684579012727
 20
-18.592291216960685
 30
0.0
 10
5.6039868557196737
 20
-18.500491924000745
 30
0.0
 10
5.5888190170847558
 20
-18.431940253369209
 30
0.0
 10
5.5374337040915096
 20
-18.298968993678457
 30
0.0
 10
5.4538812421732423
 20
-18.178998712190275
 30
0.0
 10
5.4053993759068533
 20
-18.120053131527243
 30
0.0
 10
5.2939767189656095
 20
-17.999894093970887
 30
0.0
 10
5.1700908777652552
 20
-17.890478202354799
 30
0.0
 10
5.1014272827285314
 20
-17.834244786468936
 30
0.0
 10
4.8273975747465609
 20
-17.623449756557957
 30
0.0
 10
4.5326865030978372
 20
-17.439115959762429
 30
0.0
 10
4.3153241511888671
 20
-17.31256067191164
 30
0.0
 10
4.0861607594790526
 20
-17.18798858681518
 30
0.0
 10
3.8539624892447666
 20
-17.068157258785615
 30
0.0
  0
SPLINE
  5
259
100
AcDbEntity
  8
0
370
    40
390
0
 62
     7
100
AcDbSpline
210
0.0
220
0.0
230
1.0
 70
     8
 71
     5
 72
    15
 73
     9
 74
     0
 42
0.0
 43
0.0
 40
0.0
 40
0.0
 40
0.0
 40
0.0
 40
0.0
 40
0.0
 40
4.7635900527184472
 40
4.7635900527184472
 40
4.7635900527184472
 40
6.5858515126716997
 40
6.5858515126716997
 40
6.5858515126716997
 40
6.5858515126716997
 40
6.5858515126716997
 40
6.5858515126716997
 10
2.2588628228004177
 20
-19.460357427045839
 30
0.0
 10
2.1962703456410688
 20
-18.917479704428249
 30
0.0
 10
2.1566275109307336
 20
-18.383474415075575
 30
0.0
 10
2.1419131554656907
 20
-17.877469529360766
 30
0.0
 10
2.1587160785405386
 20
-17.219331905137064
 30
0.0
 10
2.2378236033431627
 20
-16.699494480092994
 30
0.0
 10
2.2647628030111662
 20
-16.568599904213919
 30
0.0
 10
2.2971903674978837
 20
-16.454051699982589
 30
0.0
 10
2.3351518859700056
 20
-16.360974074657435
 30
0.0
  0
LINE
  5
25A
100
AcDbEntity
  8
0
370
    40
390
0
 62
     7
 48
0.000352
100
AcDbLine
 10
2.258863
 20
-19.460357
 30
0.0
 11
2.260478
 21
-19.474358
 31
0.0
210
0.0
220
0.0
230
1.0
  0
LINE
  5
25B
100
AcDbEntity
  8
0
370
    40
390
0
 62
     7
 48
0.087232
100
AcDbLine
 10
6.919021
 20
3.762414
 30
0.0
 11
7.827995
 21
7.13122
 31
0.0
210
0.0
220
0.0
230
1.0
  0
LINE
  5
25C
100
AcDbEntity
  8
0
370
    40
390
0
 62
     7
 48
0.041894
100
AcDbLine
 10
8.264542
 20
8.749134
 30
0.0
 11
7.827995
 21
7.13122
 31
0.0
210
0.0
220
0.0
230
1.0
  0
LINE
  5
25D
100
AcDbEntity
  8
0
370
    40
390
0
 62
     7
 48
0.016539
100
AcDbLine
 10
6.549108
 20
2.391455
 30
0.0
 11
6.721451
 21
3.030184
 31
0.0
210
0.0
220
0.0
230
1.0
  0
LINE
  5
25E
100
AcDbEntity
  8
0
370
    40
390
0
 62
     7
 48
0.01896
100
AcDbLine
 10
6.919022
 20
3.762415
 30
0.0
 11
6.721451
 21
3.030184
 31
0.0
210
0.0
220
0.0
230
1.0
  0
SPLINE
  5
25F
100
AcDbEntity
  8
0
370
    40
390
0
 62
     7
100
AcDbSpline
210
0.0
220
0.0
230
1.0
 70
     8
 71
     5
 72
    15
 73
     9
 74
     0
 42
0.0
 43
0.0
 40
0.0
 40
0.0
 40
0.0
 40
0.0
 40
0.0
 40
0.0
 40
0.497903824125318
 40
0.497903824125318
 40
0.497903824125318
 40
0.8424867050782419
 40
0.8424867050782419
 40
0.8424867050782419
 40
0.8424867050782419
 40
0.8424867050782419
 40
0.8424867050782419
 10
3.8343452825391608
 20
-21.490269483936736
 30
0.0
 10
3.8682827568902924
 20
-21.444881017358512
 30
0.0
 10
3.9113264623637569
 20
-21.404575060602959
 30
0.0
 10
3.9614884384222915
 20
-21.370541957764694
 30
0.0
 10
4.0544582768160966
 20
-21.324522379826973
 30
0.0
 10
4.1571234504123726
 20
-21.298469967422818
 30
0.0
 10
4.2006017167480758
 20
-21.29118468465424
 30
0.0
 10
4.2442979393579501
 20
-21.28745795450525
 30
0.0
 10
4.2881034858480103
 20
-21.287267569787648
 30
0.0
  0
LINE
  5
260
100
AcDbEntity
  8
0
370
    40
390
0
 62
     7
 48
0.084806
100
AcDbLine
 10
7.787141
 20
-16.436294
 30
0.0
 11
4.395934
 21
-16.352826
 31
0.0
210
0.0
220
0.0
230
1.0
  0
LINE
  5
261
100
AcDbEntity
  8
0
370
    40
390
0
 62
     7
 48
0.054819
100
AcDbLine
 10
4.288103
 20
-21.287268
 30
0.0
 11
6.480823
 21
-21.277722
 31
0.0
210
0.0
220
0.0
230
1.0
  0
LINE
  5
262
100
AcDbEntity
  8
0
370
    13
390
0
 62
     7
 48
0.124216
100
AcDbLine
 10
9.312983
 20
-16.340518
 30
0.0
 11
4.345811
 21
-16.220494
 31
0.0
210
0.0
220
0.0
230
1.0
  0
LINE
  5
263
100
AcDbEntity
  8
0
370
    40
390
0
 62
     7
 48
0.049031
100
AcDbLine
 10
8.802067
 20
-18.234056
 30
0.0
 11
9.312983
 21
-16.340518
 31
0.0
210
0.0
220
0.0
230
1.0
  0
LINE
  5
264
100
AcDbEntity
  8
0
370
    13
390
0
 62
     7
 48
0.037355
100
AcDbLine
 10
8.802067
 20
-18.234056
 30
0.0
 11
7.30803
 21
-18.211957
 31
0.0
210
0.0
220
0.0
230
1.0
  0
LINE
  5
265
100
AcDbEntity
  8
0
370
    40
390
0
 62
     7
 48
0.045979
100
AcDbLine
 10
7.787141
 20
-16.436294
 30
0.0
 11
7.30803
 21
-18.211957
 31
0.0
210
0.0
220
0.0
230
1.0
  0
LINE
  5
266
100
AcDbEntity
  8
0
370
    40
390
0
 62
     7
 48
0.005889
100
AcDbLine
 10
9.374345
 20
-16.113102
 30
0.0
 11
9.312983
 21
-16.340518
 31
0.0
210
0.0
220
0.0
230
1.0
  0
LINE
  5
267
100
AcDbEntity
  8
0
370
    13
390
0
 62
     7
 48
0.037679
100
AcDbLine
 10
8.22838
 20
3.055866
 30
0.0
 11
6.721451
 21
3.030184
 31
0.0
210
0.0
220
0.0
230
1.0
  0
LINE
  5
268
100
AcDbEntity
  8
0
370
    40
390
0
 62
     7
 48
0.017259
100
AcDbLine
 10
8.22838
 20
3.055866
 30
0.0
 11
8.04854
 21
2.38935
 31
0.0
210
0.0
220
0.0
230
1.0
  0
LINE
  5
269
100
AcDbEntity
  8
0
370
    40
390
0
 62
     7
 48
0.086783
100
AcDbLine
 10
8.422645
 20
3.775845
 30
0.0
 11
9.326942
 21
7.127319
 31
0.0
210
0.0
220
0.0
230
1.0
  0
LINE
  5
26A
100
AcDbEntity
  8
0
370
    40
390
0
 62
     7
 48
0.04132
100
AcDbLine
 10
9.757508
 20
8.723065
 30
0.0
 11
9.326942
 21
7.127319
 31
0.0
210
0.0
220
0.0
230
1.0
  0
LINE
  5
26B
100
AcDbEntity
  8
0
370
    40
390
0
 62
     7
 48
0.018643
100
AcDbLine
 10
8.422645
 20
3.775845
 30
0.0
 11
8.22838
 21
3.055866
 31
0.0
210
0.0
220
0.0
230
1.0
  0
LINE
  5
26C
100
AcDbEntity
  8
0
370
    40
390
0
 62
     7
 48
0.037474
100
AcDbLine
 10
7.827995
 20
7.13122
 30
0.0
 11
9.326942
 21
7.127319
 31
0.0
210
0.0
220
0.0
230
1.0
  0
LINE
  5
26D
100
AcDbEntity
  8
0
370
    40
390
0
 62
     7
 48
0.037592
100
AcDbLine
 10
8.422645
 20
3.775845
 30
0.0
 11
6.919021
 21
3.762414
 31
0.0
210
0.0
220
0.0
230
1.0
  0
LINE
  5
26E
100
AcDbEntity
  8
0
370
    40
390
0
 62
     7
 48
0.138016
100
AcDbLine
 10
7.30803
 20
-18.211957
 30
0.0
 11
5.869882
 21
-23.541972
 31
0.0
210
0.0
220
0.0
230
1.0
  0
LINE
  5
26F
100
AcDbEntity
  8
0
370
    40
390
0
 62
     7
 48
0.136762
100
AcDbLine
 10
8.802067
 20
-18.234056
 30
0.0
 11
7.376981
 21
-23.515662
 31
0.0
210
0.0
220
0.0
230
1.0
  0
LINE
  5
270
100
AcDbEntity
  8
0
370
    13
390
0
 62
     7
100
AcDbLine
 10
-1.413071
 20
-26.962997
 30
0.0
 11
-1.413071
 21
18.254869
 31
0.0
210
0.0
220
0.0
230
1.0
  0
SPLINE
  5
271
100
AcDbEntity
  8
0
370
    13
390
0
 62
     7
100
AcDbSpline
210
0.0
220
0.0
230
1.0
 70
     8
 71
     5
 72
    39
 73
    33
 74
     0
 42
0.0
 43
0.0
 40
0.0
 40
0.0
 40
0.0
 40
0.0
 40
0.0
 40
0.0
 40
0.8371838056926464
 40
0.8371838056926464
 40
0.8371838056926464
 40
14.188084911899587
 40
14.188084911899587
 40
14.188084911899587
 40
29.96365857247855
 40
29.96365857247855
 40
29.96365857247855
 40
36.468262963502575
 40
36.468262963502575
 40
36.468262963502575
 40
43.401484483849657
 40
43.401484483849657
 40
43.401484483849657
 40
47.525795148049177
 40
47.525795148049177
 40
47.525795148049177
 40
51.715654319430598
 40
51.715654319430598
 40
51.715654319430598
 40
66.294776742810157
 40
66.294776742810157
 40
66.294776742810157
 40
68.671262935884556
 40
68.671262935884556
 40
68.671262935884556
 40
69.45652030999527
 40
69.45652030999527
 40
69.45652030999527
 40
69.45652030999527
 40
69.45652030999527
 40
69.45652030999527
 10
0.5433946958208864
 20
-27.065531451283334
 30
0.0
 10
0.5443421948716862
 20
-27.040767620501349
 30
0.0
 10
0.5452896939224852
 20
-27.016003789719356
 30
0.0
 10
0.573809823432911
 20
-26.269281863731159
 30
0.0
 10
0.5901691527975386
 20
-25.85237659732411
 30
0.0
 10
0.6120266550664057
 20
-25.309491306636986
 30
0.0
 10
0.6376352928450926
 20
-24.695728075189436
 30
0.0
 10
0.7050050466275248
 20
-23.157768247751914
 30
0.0
 10
0.7986088419450015
 20
-21.21936846479716
 30
0.0
 10
0.8570496125878702
 20
-20.074227851812129
 30
0.0
 10
0.9486438380120488
 20
-18.369325020043664
 30
0.0
 10
1.053358286016568
 20
-16.545859383245691
 30
0.0
 10
1.0846527566120479
 20
-16.010483654780753
 30
0.0
 10
1.1525506343500953
 20
-14.868837457900167
 30
0.0
 10
1.2248154683991763
 20
-13.694219600145619
 30
0.0
 10
1.2631288761038362
 20
-13.08172685747682
 30
0.0
 10
1.3256650923668012
 20
-12.097575066392865
 30
0.0
 10
1.3903499552707475
 20
-11.103358462574235
 30
0.0
 10
1.4147638849689268
 20
-10.731267271155703
 30
0.0
 10
1.464555823381906
 20
-9.9785909630726088
 30
0.0
 10
1.5155518694491068
 20
-9.219923160229019
 30
0.0
 10
1.5395383865356802
 20
-8.8657370215695046
 30
0.0
 10
1.6575197809248687
 20
-7.136330435433786
 30
0.0
 10
1.7810290148997059
 20
-5.3829773464021011
 30
0.0
 10
1.8780465762471268
 20
-4.0364173269393024
 30
0.0
 10
1.9923711989464874
 20
-2.4787055825361128
 30
0.0
 10
2.1080824866564489
 20
-0.9320540685666068
 30
0.0
 10
2.1141786529864706
 20
-0.8507283912338117
 30
0.0
 10
2.1358340108945026
 20
-0.5624051785269384
 30
0.0
 10
2.1575218988024867
 20
-0.2746078101538001
 30
0.0
 10
2.1629091024302767
 20
-0.2031795217422298
 30
0.0
 10
2.1683023521440883
 20
-0.131737798415688
 30
0.0
 10
2.1737021101016158
 20
-0.0602585215383318
 30
0.0
  0
LINE
  5
272
100
AcDbEntity
  8
0
370
    40
390
0
 62
     7
 48
0.138173
100
AcDbLine
 10
0.817112
 20
-27.286145
 30
0.0
 11
2.272085
 21
-32.618106
 31
0.0
210
0.0
220
0.0
230
1.0
  0
ARC
  5
273
100
AcDbEntity
  8
0
370
    40
390
0
 62
     7
100
AcDbCircle
 10
0.527694
 20
-27.36512
 30
0.0
 40
0.3
210
0.0
220
0.0
230
1.0
100
AcDbArc
 50
15.263142
 51
86.999998
  0
SPLINE
  5
274
100
AcDbEntity
  8
0
370
    13
390
0
 62
     7
100
AcDbSpline
210
0.0
220
0.0
230
1.0
 70
     8
 71
     5
 72
    36
 73
    30
 74
     0
 42
0.0
 43
0.0
 40
0.0
 40
0.0
 40
0.0
 40
0.0
 40
0.0
 40
0.0
 40
0.837163277935943
 40
0.837163277935943
 40
0.837163277935943
 40
14.146887132612264
 40
14.146887132612264
 40
14.146887132612264
 40
29.842539331606993
 40
29.842539331606993
 40
29.842539331606993
 40
36.294158616547193
 40
36.294158616547193
 40
36.294158616547193
 40
43.179677750606679
 40
43.179677750606679
 40
43.179677750606679
 40
47.309283022726255
 40
47.309283022726255
 40
47.309283022726255
 40
51.520533402125956
 40
51.520533402125956
 40
51.520533402125956
 40
68.252479769655821
 40
68.252479769655821
 40
68.252479769655821
 40
69.136572184857499
 40
69.136572184857499
 40
69.136572184857499
 40
69.136572184857499
 40
69.136572184857499
 40
69.136572184857499
 10
0.8171119996773788
 20
-27.286144563796451
 30
0.0
 10
0.8180684041445847
 20
-27.26131137778545
 30
0.0
 10
0.8190248086117906
 20
-27.236478191774452
 30
0.0
 10
0.8477243362484606
 20
-26.490010986605686
 30
0.0
 10
0.8641763494491732
 20
-26.07313751809135
 30
0.0
 10
0.8861402568498642
 20
-25.530268585850667
 30
0.0
 10
0.9118414056471327
 20
-24.916600278346351
 30
0.0
 10
0.9792850073848856
 20
-23.38041816951959
 30
0.0
 10
1.0727197762849467
 20
-21.444475820063776
 30
0.0
 10
1.1310809118216847
 20
-20.298511928155381
 30
0.0
 10
1.2221694468853377
 20
-18.597408934653366
 30
0.0
 10
1.3261268796077808
 20
-16.778061970573724
 30
0.0
 10
1.3574968040475972
 20
-16.238565869188839
 30
0.0
 10
1.4247460123112097
 20
-15.101286861065613
 30
0.0
 10
1.4963185555078162
 20
-13.93033645463564
 30
0.0
 10
1.5342837719844322
 20
-13.319233436148274
 30
0.0
 10
1.5964388738907584
 20
-12.334030136584637
 30
0.0
 10
1.6607202538702337
 20
-11.33849477113513
 30
0.0
 10
1.6851055747524346
 20
-10.963972944745342
 30
0.0
 10
1.7349300216817332
 20
-10.204921145487686
 30
0.0
 10
1.7859460960139355
 20
-9.4399059241459238
 30
0.0
 10
1.8094867014145155
 20
-9.0894962559158898
 30
0.0
 10
1.9407448228913238
 20
-7.1496922329380599
 30
0.0
 10
2.0789821006212637
 20
-5.1773491502733462
 30
0.0
 10
2.1893578008999146
 20
-3.6417475064475631
 30
0.0
 10
2.3082125549815307
 20
-2.0204960543253572
 30
0.0
 10
2.4288951009357769
 20
-0.4046553819837572
 30
0.0
 10
2.4408692526286706
 20
-0.2445396327830042
 30
0.0
 10
2.4469298397421122
 20
-0.1636048086107124
 30
0.0
 10
2.4530018191925373
 20
-0.0825814425441833
 30
0.0
  0
LINE
  5
275
100
AcDbEntity
  8
0
370
    13
390
0
 62
     7
 48
0.039386
100
AcDbLine
 10
-7.144761
 20
33.610281
 30
0.0
 11
-5.56954
 21
33.637557
 31
0.0
210
0.0
220
0.0
230
1.0
  0
LINE
  5
276
100
AcDbEntity
  8
0
370
    40
390
0
 62
     7
 48
0.002251
100
AcDbLine
 10
-5.56954
 20
33.548096
 30
0.0
 11
-5.56954
 21
33.638124
 31
0.0
210
0.0
220
0.0
230
1.0
  0
LINE
  5
277
100
AcDbEntity
  8
0
370
    13
390
0
 62
     7
 48
0.036898
100
AcDbLine
 10
-7.045251
 20
33.910033
 30
0.0
 11
-5.56954
 21
33.935584
 31
0.0
210
0.0
220
0.0
230
1.0
  0
LINE
  5
278
100
AcDbEntity
  8
0
370
    40
390
0
 62
     7
 48
0.007451
100
AcDbLine
 10
-5.56954
 20
33.935584
 30
0.0
 11
-5.56954
 21
33.637557
 31
0.0
210
0.0
220
0.0
230
1.0
  0
LINE
  5
279
100
AcDbEntity
  8
0
370
    40
390
0
 62
     7
 48
0.038529
100
AcDbLine
 10
-7.110481
 20
33.927833
 30
0.0
 11
-5.56954
 21
33.95473
 31
0.0
210
0.0
220
0.0
230
1.0
  0
LINE
  5
27A
100
AcDbEntity
  8
0
370
    40
390
0
 62
     7
 48
0.000479
100
AcDbLine
 10
-5.56954
 20
33.95473
 30
0.0
 11
-5.56954
 21
33.935584
 31
0.0
210
0.0
220
0.0
230
1.0
  0
LINE
  5
27B
100
AcDbEntity
  8
0
370
    40
390
0
 62
     7
 48
0.031805
100
AcDbLine
 10
4.96135
 20
-25.373658
 30
0.0
 11
3.741829
 21
-25.011339
 31
0.0
210
0.0
220
0.0
230
1.0
  0
LINE
  5
27C
100
AcDbEntity
  8
0
370
    40
390
0
 62
     7
 48
0.031805
100
AcDbLine
 10
4.96135
 20
-25.373658
 30
0.0
 11
3.74183
 21
-25.011339
 31
0.0
210
0.0
220
0.0
230
1.0
  0
ARC
  5
27D
100
AcDbEntity
  8
0
370
    40
390
0
 62
     7
100
AcDbCircle
 10
0.0
 20
0.0
 30
0.0
 40
27.0
210
0.0
220
0.0
230
1.0
100
AcDbArc
 50
108.786231
 51
180.0
  0
LINE
  5
27E
100
AcDbEntity
  8
0
370
    40
390
0
 62
     7
 48
0.03733
100
AcDbLine
 10
-0.876893
 20
33.032729
 30
0.0
 11
-2.369862
 21
33.058789
 31
0.0
210
0.0
220
0.0
230
1.0
  0
LINE
  5
27F
100
AcDbEntity
  8
0
370
    40
390
0
 62
     7
 48
0.03733
100
AcDbLine
 10
-0.876893
 20
33.032729
 30
0.0
 11
-2.369862
 21
33.058789
 31
0.0
210
0.0
220
0.0
230
1.0
  0
ARC
  5
280
100
AcDbEntity
  8
0
370
    40
390
0
 62
     7
100
AcDbCircle
 10
5.072195
 20
1.875908
 30
0.0
 40
0.414708
210
0.0
220
0.0
230
1.0
100
AcDbArc
 50
90.201527
 51
139.567571
  0
ARC
  5
281
100
AcDbEntity
  8
0
370
    40
390
0
 62
     7
100
AcDbCircle
 10
4.119915
 20
-15.585632
 30
0.0
 40
0.400276
210
0.0
220
0.0
230
1.0
100
AcDbArc
 50
234.127271
 51
269.095807
  0
ARC
  5
282
100
AcDbEntity
  8
0
370
    40
390
0
 62
     7
100
AcDbCircle
 10
4.119915
 20
-15.585632
 30
0.0
 40
0.400276
210
0.0
220
0.0
230
1.0
100
AcDbArc
 50
234.126649
 51
269.095832
  0
LINE
  5
283
100
AcDbEntity
  8
0
370
    40
390
0
 62
     7
 48
0.074221
100
AcDbLine
 10
8.038926
 20
2.353715
 30
0.0
 11
5.070735
 21
2.291061
 31
0.0
210
0.0
220
0.0
230
1.0
  0
LINE
  5
284
100
AcDbEntity
  8
0
370
    40
390
0
 62
     7
 48
0.131542
100
AcDbLine
 10
4.113596
 20
-15.985981
 30
0.0
 11
9.373751
 21
-16.113087
 31
0.0
210
0.0
220
0.0
230
1.0
  0
LINE
  5
285
100
AcDbEntity
  8
0
370
    40
390
0
 62
     7
 48
0.03733
100
AcDbLine
 10
9.757509
 20
8.723071
 30
0.0
 11
8.264541
 21
8.749131
 31
0.0
210
0.0
220
0.0
230
1.0
  0
LINE
  5
286
100
AcDbEntity
  8
0
370
    40
390
0
 62
     7
 48
0.131542
100
AcDbLine
 10
4.113596
 20
-15.985981
 30
0.0
 11
9.373751
 21
-16.113087
 31
0.0
210
0.0
220
0.0
230
1.0
  0
LINE
  5
287
100
AcDbEntity
  8
0
370
    40
390
0
 62
     7
 48
0.03733
100
AcDbLine
 10
9.757509
 20
8.723071
 30
0.0
 11
8.264541
 21
8.749131
 31
0.0
210
0.0
220
0.0
230
1.0
  0
LINE
  5
288
100
AcDbEntity
  8
0
370
    40
390
0
 62
     7
 48
0.037683
100
AcDbLine
 10
7.376979
 20
-23.515665
 30
0.0
 11
5.869882
 21
-23.541971
 31
0.0
210
0.0
220
0.0
230
1.0
  0
ARC
  5
289
100
AcDbEntity
  8
0
370
    40
390
0
 62
     7
100
AcDbCircle
 10
0.0
 20
0.0
 30
0.0
 40
27.0
210
0.0
220
0.0
230
1.0
100
AcDbArc
 50
180.0
 51
267.0
  0
LINE
  5
28A
100
AcDbEntity
  8
0
370
    40
390
0
 62
     7
 48
0.048979
100
AcDbLine
 10
-1.413071
 20
-26.962997
 30
0.0
 11
0.543395
 21
-27.065531
 31
0.0
210
0.0
220
0.0
230
1.0
  0
ENDBLK
  5
28B
100
AcDbEntity
  8
0
390
0
100
AcDbBlockEnd
  0
ENDSEC
  0
SECTION
  2
ENTITIES
  0
VIEWPORT
  5
38
100
AcDbEntity
 67
     1
  8
0
370
     0
390
0
 62
     0
 48
0.0
100
AcDbViewport
 10
0.0
 20
0.0
 30
0.0
 40
1000.0
 41
1000.0
 68
     1
 69
     1
 12
0.0
 22
0.0
 13
0.0
 23
0.0
 14
1.0
 24
1.0
 15
1.0
 25
1.0
 16
0.0
 26
0.0
 36
1.0
 17
0.0
 27
0.0
 37
0.0
 42
50.0
 43
0.0
 44
0.0
 45
1000.0
 50
0.0
 51
0.0
 72
   100
 90
        0
340
0
  1

281
     0
 71
     0
 74
     1
110
0.0
120
0.0
130
0.0
111
1.0
121
0.0
131
0.0
112
0.0
122
1.0
132
0.0
345
0
346
0
 79
     0
146
0.0
  0
DIMENSION
  5
27
100
AcDbEntity
  8
0
370
     0
390
0
 62
     0
100
AcDbDimension
  2
*D1
 10
23.389093
 20
143.511247
 30
0.0
 11
67.328374
 21
143.511247
 31
0.0
 70
   161
 71
     5
 72
     1
 41
1.0
 42
0.0
210
0.0
220
0.0
230
1.0
 52
89.999523
  1
72
  3
STANDARD
100
AcDbAlignedDimension
 13
94.772925
 23
110.361294
 33
0.0
 14
23.389093
 24
110.361294
 34
0.0
  0
POINT
  5
28
100
AcDbEntity
  8
0
370
     5
390
0
 62
     7
100
AcDbPoint
 10
94.157669
 20
106.992488
 30
0.0
210
0.0
220
0.0
230
1.0
  0
POINT
  5
29
100
AcDbEntity
  8
0
370
     5
390
0
 62
     7
100
AcDbPoint
 10
94.772926
 20
110.361294
 30
0.0
210
0.0
220
0.0
230
1.0
  0
POINT
  5
2A
100
AcDbEntity
  8
0
370
     5
390
0
 62
     7
100
AcDbPoint
 10
23.389091
 20
110.361294
 30
0.0
210
0.0
220
0.0
230
1.0
  0
POINT
  5
2B
100
AcDbEntity
  8
0
370
     5
390
0
 62
     7
100
AcDbPoint
 10
23.389091
 20
110.361294
 30
0.0
210
0.0
220
0.0
230
1.0
  0
DIMENSION
  5
2D
100
AcDbEntity
  8
0
370
     0
390
0
 62
     0
100
AcDbDimension
  2
*D7
 10
191.768296
 20
137.184804
 30
0.0
 11
191.768296
 21
103.884751
 31
0.0
 70
   160
 71
     5
 72
     1
 41
1.0
 42
0.0
210
0.0
220
0.0
230
1.0
 52
89.999523
  3
STANDARD
100
AcDbAlignedDimension
 13
168.488001
 23
70.584698
 33
0.0
 14
159.08409
 24
137.184804
 34
0.0
 50
89.999523
100
AcDbRotatedDimension
  0
DIMENSION
  5
2F
100
AcDbEntity
  8
0
370
     0
390
0
 62
     0
100
AcDbDimension
  2
*D8
 10
137.65363
 20
62.800844
 30
0.0
 11
156.032385
 21
62.800844
 31
0.0
 70
   160
 71
     5
 72
     1
 41
1.0
 42
0.0
210
0.0
220
0.0
230
1.0
 52
89.999523
  3
STANDARD
100
AcDbAlignedDimension
 13
174.41114
 23
111.953145
 33
0.0
 14
137.65363
 24
103.230074
 34
0.0
 50
179.999046
100
AcDbRotatedDimension
  0
POINT
  5
30
100
AcDbEntity
  8
0
370
     5
390
0
 62
     7
100
AcDbPoint
 10
168.488001
 20
70.584699
 30
0.0
210
0.0
220
0.0
230
1.0
  0
POINT
  5
31
100
AcDbEntity
  8
0
370
     5
390
0
 62
     7
100
AcDbPoint
 10
159.08409
 20
137.184805
 30
0.0
210
0.0
220
0.0
230
1.0
  0
POINT
  5
32
100
AcDbEntity
  8
0
370
     5
390
0
 62
     7
100
AcDbPoint
 10
137.65363
 20
103.230074
 30
0.0
210
0.0
220
0.0
230
1.0
  0
POINT
  5
33
100
AcDbEntity
  8
0
370
     5
390
0
 62
     7
100
AcDbPoint
 10
174.411139
 20
111.953145
 30
0.0
210
0.0
220
0.0
230
1.0
  0
POINT
  5
34
100
AcDbEntity
  8
0
370
     5
390
0
 62
     7
100
AcDbPoint
 10
174.027975
 20
87.116972
 30
0.0
210
0.0
220
0.0
230
1.0
  0
LINE
  5
35
100
AcDbEntity
  8
0
370
    13
390
0
  6
DASHDOT
 62
     7
100
AcDbLine
 10
119.182782
 20
103.230074
 30
0.0
 11
184.65363
 21
103.230074
 31
0.0
210
0.0
220
0.0
230
1.0
  0
LINE
  5
36
100
AcDbEntity
  8
0
370
    13
390
0
  6
DASHDOT
 62
     7
100
AcDbLine
 10
164.65363
 20
60.412748
 30
0.0
 11
164.65363
 21
151.933225
 31
0.0
210
0.0
220
0.0
230
1.0
  0
LINE
  5
37
100
AcDbEntity
  8
0
370
    13
390
0
 62
     7
 48
0.025004
100
AcDbLine
 10
158.08409
 20
137.167349
 30
0.0
 11
159.08409
 21
137.184804
 31
0.0
210
0.0
220
0.0
230
1.0
  0
INSERT
  5
28C
100
AcDbEntity
  8
0
370
     0
390
0
100
AcDbBlockReference
  2
BLOCK1574
 10
0.0
 20
0.0
 30
0.0
210
0.0
220
0.0
230
1.0
  0
INSERT
  5
28D
100
AcDbEntity
  8
0
370
     0
390
0
100
AcDbBlockReference
  2
BLOCK1575
 10
59.081009
 20
103.230074
 30
0.0
210
0.0
220
0.0
230
1.0
  0
INSERT
  5
28E
100
AcDbEntity
  8
0
370
     0
390
0
100
AcDbBlockReference
  2
BLOCK1576
 10
59.081009
 20
103.230074
 30
0.0
210
0.0
220
0.0
230
1.0
  0
INSERT
  5
28F
100
AcDbEntity
  8
0
370
     0
390
0
100
AcDbBlockReference
  2
BLOCK1577
 10
59.081009
 20
103.230074
 30
0.0
210
0.0
220
0.0
230
1.0
  0
INSERT
  5
290
100
AcDbEntity
  8
0
370
     0
390
0
100
AcDbBlockReference
  2
BLOCK1578
 10
59.081009
 20
103.230074
 30
0.0
210
0.0
220
0.0
230
1.0
  0
INSERT
  5
291
100
AcDbEntity
  8
0
370
     0
390
0
100
AcDbBlockReference
  2
BLOCK1579
 10
164.65363
 20
103.230074
 30
0.0
210
0.0
220
0.0
230
1.0
  0
INSERT
  5
292
100
AcDbEntity
  8
0
370
     0
390
0
100
AcDbBlockReference
  2
BLOCK1580
 10
164.65363
 20
103.230074
 30
0.0
210
0.0
220
0.0
230
1.0
  0
ENDSEC
  0
SECTION
  2
OBJECTS
  0
DICTIONARY
  5
19
100
AcDbDictionary
280
     0
281
     1
  3
ACAD_GROUP
350
1A
  3
ACAD_MLINESTYLE
350
1B
  3
ACAD_LAYOUT
350
1E
  3
ACAD_PLOTSETTINGS
350
22
  3
ACAD_PLOTSTYLENAME
350
1F
  3
ACAD_WIPEOUT_VARS
350
23
  0
DICTIONARY
  5
1A
102
{ACAD_REACTORS
330
19
102
}
100
AcDbDictionary
280
     0
281
     1
  0
DICTIONARY
  5
1B
102
{ACAD_REACTORS
330
19
102
}
100
AcDbDictionary
280
     0
281
     1
  3
Standard
350
1C
  0
MLINESTYLE
  5
1C
102
{ACAD_REACTORS
330
1B
102
}
100
AcDbMlineStyle
  2
Standard
 70
     0
  3

 62
     0
 51
90.0
 52
90.0
 71
     2
 49
0.5
 62
   256
  6
ByLayer
 49
-0.5
 62
   256
  6
ByLayer
  0
ACDBDICTIONARYWDFLT
  5
1F
102
{ACAD_REACTORS
330
19
102
}
100
AcDbDictionary
281
     1
  3
Normal
350
1D
100
AcDbDictionaryWithDefault
340
1D
  0
ACDBPLACEHOLDER
  5
1D
102
{ACAD_REACTORS
330
1F
102
}
  0
LAYOUT
  5
20
102
{ACAD_REACTORS
330
1E
102
}
100
AcDbPlotSettings
  1

  2

  4

  6

 40
0.0
 41
0.0
 42
0.0
 43
0.0
 44
0.0
 45
0.0
 46
0.0
 47
0.0
 48
0.0
 49
0.0
140
0.0
141
0.0
142
1.0
143
1.0
 70
  1024
 72
     0
 73
     0
 74
     0
  7

 75
     0
147
1.0
148
0.0
149
0.0
100
AcDbLayout
  1
Model
 70
     0
 71
     0
 10
0.0
 20
0.0
 11
0.0
 21
0.0
 12
0.0
 22
0.0
 32
0.0
 14
0.0
 24
0.0
 34
0.0
 15
0.0
 25
0.0
 35
0.0
146
0.0
 13
0.0
 23
0.0
 33
0.0
 16
0.0
 26
0.0
 36
0.0
 17
0.0
 27
0.0
 37
0.0
 76
     0
330
A
331
0
345
0
346
0
  0
LAYOUT
  5
21
102
{ACAD_REACTORS
330
1E
102
}
100
AcDbPlotSettings
  1

  2

  4

  6

 40
0.0
 41
0.0
 42
0.0
 43
0.0
 44
0.0
 45
0.0
 46
0.0
 47
0.0
 48
0.0
 49
0.0
140
0.0
141
0.0
142
1.0
143
1.0
 70
     0
 72
     0
 73
     0
 74
     0
  7

 75
     0
147
1.0
148
0.0
149
0.0
100
AcDbLayout
  1
Layout1
 70
     0
 71
     0
 10
0.0
 20
0.0
 11
0.0
 21
0.0
 12
0.0
 22
0.0
 32
0.0
 14
0.0
 24
0.0
 34
0.0
 15
0.0
 25
0.0
 35
0.0
146
0.0
 13
0.0
 23
0.0
 33
0.0
 16
0.0
 26
0.0
 36
0.0
 17
0.0
 27
0.0
 37
0.0
 76
     0
330
B
331
0
345
0
346
0
  0
DICTIONARY
  5
1E
102
{ACAD_REACTORS
330
19
102
}
100
AcDbDictionary
280
     0
281
     1
  3
Layout1
350
21
  3
Model
350
20
  0
DICTIONARY
  5
22
102
{ACAD_REACTORS
330
19
102
}
100
AcDbDictionary
280
     0
281
     1
  0
WIPEOUTVARIABLES
  5
23
100
AcDbWipeoutVariables
 70
     1
  0
ENDSEC
  0
EOF
