  0
SECTION
  2
HEADER
  9
$ACADVER
  1
AC1015
  9
$ACADMAINTVER
 70
     6
  9
$DWGCODEPAGE
  3
ANSI_1252
  9
$INSBASE
 10
0.0
 20
0.0
 30
0.0
  9
$EXTMIN
 10
-353.8313466589
 20
-659.463172693587
 30
0.0
  9
$EXTMAX
 10
-131.7724100965514
 20
-457.110619700591
 30
0.0
  9
$LIMMIN
 10
0.0
 20
0.0
  9
$LIMMAX
 10
12.0
 20
9.0
  9
$ORTHOMODE
 70
     0
  9
$REGENMODE
 70
     1
  9
$FILLMODE
 70
     1
  9
$QTEXTMODE
 70
     0
  9
$MIRRTEXT
 70
     1
  9
$LTSCALE
 40
1.0
  9
$ATTMODE
 70
     1
  9
$TEXTSIZE
 40
0.2
  9
$TRACEWID
 40
0.05
  9
$TEXTSTYLE
  7
Standard
  9
$CLAYER
  8
0
  9
$CELTYPE
  6
ByLayer
  9
$CECOLOR
 62
   256
  9
$CELTSCALE
 40
1.0
  9
$DISPSILH
 70
     0
  9
$DIMSCALE
 40
1.0
  9
$DIMASZ
 40
0.18
  9
$DIMEXO
 40
0.0625
  9
$DIMDLI
 40
0.38
  9
$DIMRND
 40
0.0
  9
$DIMDLE
 40
0.0
  9
$DIMEXE
 40
0.18
  9
$DIMTP
 40
0.0
  9
$DIMTM
 40
0.0
  9
$DIMTXT
 40
0.18
  9
$DIMCEN
 40
0.09
  9
$DIMTSZ
 40
0.0
  9
$DIMTOL
 70
     0
  9
$DIMLIM
 70
     0
  9
$DIMTIH
 70
     1
  9
$DIMTOH
 70
     1
  9
$DIMSE1
 70
     0
  9
$DIMSE2
 70
     0
  9
$DIMTAD
 70
     0
  9
$DIMZIN
 70
     0
  9
$DIMBLK
  1

  9
$DIMASO
 70
     1
  9
$DIMSHO
 70
     1
  9
$DIMPOST
  1

  9
$DIMAPOST
  1

  9
$DIMALT
 70
     0
  9
$DIMALTD
 70
     2
  9
$DIMALTF
 40
25.4
  9
$DIMLFAC
 40
1.0
  9
$DIMTOFL
 70
     0
  9
$DIMTVP
 40
0.0
  9
$DIMTIX
 70
     0
  9
$DIMSOXD
 70
     0
  9
$DIMSAH
 70
     0
  9
$DIMBLK1
  1

  9
$DIMBLK2
  1

  9
$DIMSTYLE
  2
Standard
  9
$DIMCLRD
 70
     0
  9
$DIMCLRE
 70
     0
  9
$DIMCLRT
 70
     0
  9
$DIMTFAC
 40
1.0
  9
$DIMGAP
 40
0.09
  9
$DIMJUST
 70
     0
  9
$DIMSD1
 70
     0
  9
$DIMSD2
 70
     0
  9
$DIMTOLJ
 70
     1
  9
$DIMTZIN
 70
     0
  9
$DIMALTZ
 70
     0
  9
$DIMALTTZ
 70
     0
  9
$DIMUPT
 70
     0
  9
$DIMDEC
 70
     4
  9
$DIMTDEC
 70
     4
  9
$DIMALTU
 70
     2
  9
$DIMALTTD
 70
     2
  9
$DIMTXSTY
  7
Standard
  9
$DIMAUNIT
 70
     0
  9
$DIMADEC
 70
     0
  9
$DIMALTRND
 40
0.0
  9
$DIMAZIN
 70
     0
  9
$DIMDSEP
 70
    46
  9
$DIMATFIT
 70
     3
  9
$DIMFRAC
 70
     0
  9
$DIMLDRBLK
  1

  9
$DIMLUNIT
 70
     2
  9
$DIMLWD
 70
    -2
  9
$DIMLWE
 70
    -2
  9
$DIMTMOVE
 70
     0
  9
$LUNITS
 70
     2
  9
$LUPREC
 70
     4
  9
$SKETCHINC
 40
0.1
  9
$FILLETRAD
 40
0.5
  9
$AUNITS
 70
     0
  9
$AUPREC
 70
     0
  9
$MENU
  1
.
  9
$ELEVATION
 40
0.0
  9
$PELEVATION
 40
0.0
  9
$THICKNESS
 40
0.0
  9
$LIMCHECK
 70
     0
  9
$CHAMFERA
 40
0.5
  9
$CHAMFERB
 40
0.5
  9
$CHAMFERC
 40
1.0
  9
$CHAMFERD
 40
0.0
  9
$SKPOLY
 70
     0
  9
$TDCREATE
 40
2456267.699080509
  9
$TDUCREATE
 40
2456267.324080509
  9
$TDUPDATE
 40
2456267.699080521
  9
$TDUUPDATE
 40
2456267.324080521
  9
$TDINDWG
 40
0.0000000116
  9
$TDUSRTIMER
 40
0.0000000116
  9
$USRTIMER
 70
     1
  9
$ANGBASE
 50
0.0
  9
$ANGDIR
 70
     0
  9
$PDMODE
 70
     0
  9
$PDSIZE
 40
0.0
  9
$PLINEWID
 40
0.0
  9
$SPLFRAME
 70
     0
  9
$SPLINETYPE
 70
     6
  9
$SPLINESEGS
 70
     8
  9
$HANDSEED
  5
393
  9
$SURFTAB1
 70
     6
  9
$SURFTAB2
 70
     6
  9
$SURFTYPE
 70
     6
  9
$SURFU
 70
     6
  9
$SURFV
 70
     6
  9
$UCSBASE
  2

  9
$UCSNAME
  2

  9
$UCSORG
 10
0.0
 20
0.0
 30
0.0
  9
$UCSXDIR
 10
1.0
 20
0.0
 30
0.0
  9
$UCSYDIR
 10
0.0
 20
1.0
 30
0.0
  9
$UCSORTHOREF
  2

  9
$UCSORTHOVIEW
 70
     0
  9
$UCSORGTOP
 10
0.0
 20
0.0
 30
0.0
  9
$UCSORGBOTTOM
 10
0.0
 20
0.0
 30
0.0
  9
$UCSORGLEFT
 10
0.0
 20
0.0
 30
0.0
  9
$UCSORGRIGHT
 10
0.0
 20
0.0
 30
0.0
  9
$UCSORGFRONT
 10
0.0
 20
0.0
 30
0.0
  9
$UCSORGBACK
 10
0.0
 20
0.0
 30
0.0
  9
$PUCSBASE
  2

  9
$PUCSNAME
  2

  9
$PUCSORG
 10
0.0
 20
0.0
 30
0.0
  9
$PUCSXDIR
 10
1.0
 20
0.0
 30
0.0
  9
$PUCSYDIR
 10
0.0
 20
1.0
 30
0.0
  9
$PUCSORTHOREF
  2

  9
$PUCSORTHOVIEW
 70
     0
  9
$PUCSORGTOP
 10
0.0
 20
0.0
 30
0.0
  9
$PUCSORGBOTTOM
 10
0.0
 20
0.0
 30
0.0
  9
$PUCSORGLEFT
 10
0.0
 20
0.0
 30
0.0
  9
$PUCSORGRIGHT
 10
0.0
 20
0.0
 30
0.0
  9
$PUCSORGFRONT
 10
0.0
 20
0.0
 30
0.0
  9
$PUCSORGBACK
 10
0.0
 20
0.0
 30
0.0
  9
$USERI1
 70
     0
  9
$USERI2
 70
     0
  9
$USERI3
 70
     0
  9
$USERI4
 70
     0
  9
$USERI5
 70
     0
  9
$USERR1
 40
14.5
  9
$USERR2
 40
0.0
  9
$USERR3
 40
0.0
  9
$USERR4
 40
0.0
  9
$USERR5
 40
0.0
  9
$WORLDVIEW
 70
     1
  9
$SHADEDGE
 70
     3
  9
$SHADEDIF
 70
    70
  9
$TILEMODE
 70
     1
  9
$MAXACTVP
 70
    64
  9
$PINSBASE
 10
0.0
 20
0.0
 30
0.0
  9
$PLIMCHECK
 70
     0
  9
$PEXTMIN
 10
1.00000000000000E+20
 20
1.00000000000000E+20
 30
1.00000000000000E+20
  9
$PEXTMAX
 10
-1.00000000000000E+20
 20
-1.00000000000000E+20
 30
-1.00000000000000E+20
  9
$PLIMMIN
 10
0.0
 20
0.0
  9
$PLIMMAX
 10
12.0
 20
9.0
  9
$UNITMODE
 70
     0
  9
$VISRETAIN
 70
     1
  9
$PLINEGEN
 70
     0
  9
$PSLTSCALE
 70
     1
  9
$TREEDEPTH
 70
  3020
  9
$CMLSTYLE
  2
Standard
  9
$CMLJUST
 70
     0
  9
$CMLSCALE
 40
1.0
  9
$PROXYGRAPHICS
 70
     1
  9
$MEASUREMENT
 70
     1
  9
$CELWEIGHT
370
    -1
  9
$ENDCAPS
280
     0
  9
$JOINSTYLE
280
     0
  9
$LWDISPLAY
290
     0
  9
$INSUNITS
 70
     1
  9
$HYPERLINKBASE
  1

  9
$STYLESHEET
  1

  9
$XEDIT
290
     1
  9
$CEPSNTYPE
380
     0
  9
$PSTYLEMODE
290
     1
  9
$FINGERPRINTGUID
  2
{262955DD-3D15-4CE1-9C10-A14272594B3B}
  9
$VERSIONGUID
  2
{FAEB1C32-E019-11D5-929B-00C0DF256EC4}
  9
$EXTNAMES
290
     1
  9
$PSVPSCALE
 40
0.0
  9
$OLESTARTUP
290
     0
  0
ENDSEC
  0
SECTION
  2
CLASSES
  0
CLASS
  1
ACDBDICTIONARYWDFLT
  2
AcDbDictionaryWithDefault
  3
ObjectDBX Classes
 90
        0
280
     0
281
     0
  0
CLASS
  1

  2
exOdDbCircle
  3

 90
        0
280
     0
281
     1
  0
CLASS
  1

  2
exOdDbPolyline
  3

 90
        0
280
     0
281
     1
  0
CLASS
  1
ACDBPLACEHOLDER
  2
AcDbPlaceHolder
  3
ObjectDBX Classes
 90
        0
280
     0
281
     0
  0
CLASS
  1
LAYOUT
  2
AcDbLayout
  3
ObjectDBX Classes
 90
        0
280
     0
281
     0
  0
ENDSEC
  0
SECTION
  2
TABLES
  0
TABLE
  2
VPORT
  5
8
330
0
100
AcDbSymbolTable
 70
     1
  0
VPORT
  5
29
330
8
100
AcDbSymbolTableRecord
100
AcDbViewportTableRecord
  2
*Active
 70
     0
 10
0.0
 20
0.0
 11
1.0
 21
1.0
 12
-242.8018783777257
 22
-558.2868961970889
 13
0.0
 23
0.0
 14
0.5
 24
0.5
 15
0.5
 25
0.5
 16
0.0
 26
0.0
 36
1.0
 17
0.0
 27
0.0
 37
0.0
 40
222.5878082922956
 41
1.60267857142857
 42
50.0
 43
0.0
 44
0.0
 50
0.0
 51
0.0
 71
     0
 72
   100
 73
     1
 74
     3
 75
     0
 76
     0
 77
     0
 78
     0
281
     0
 65
     1
110
0.0
120
0.0
130
0.0
111
1.0
121
0.0
131
0.0
112
0.0
122
1.0
132
0.0
 79
     0
146
0.0
  0
ENDTAB
  0
TABLE
  2
LTYPE
  5
5
330
0
100
AcDbSymbolTable
 70
     8
  0
LTYPE
  5
14
330
5
100
AcDbSymbolTableRecord
100
AcDbLinetypeTableRecord
  2
ByBlock
 70
     0
  3

 72
    65
 73
     0
 40
0.0
  0
LTYPE
  5
15
330
5
100
AcDbSymbolTableRecord
100
AcDbLinetypeTableRecord
  2
ByLayer
 70
     0
  3

 72
    65
 73
     0
 40
0.0
  0
LTYPE
  5
16
330
5
100
AcDbSymbolTableRecord
100
AcDbLinetypeTableRecord
  2
Continuous
 70
     0
  3
Solid line
 72
    65
 73
     0
 40
0.0
  0
LTYPE
  5
2A
330
5
100
AcDbSymbolTableRecord
100
AcDbLinetypeTableRecord
  2
DASHED
 70
     0
  3
Dashed
 72
    65
 73
     2
 40
15.0
 49
7.0
 74
     0
 49
-8.0
 74
     0
  0
LTYPE
  5
2B
330
5
100
AcDbSymbolTableRecord
100
AcDbLinetypeTableRecord
  2
DOTTED
 70
     0
  3
Dotted
 72
    65
 73
     2
 40
1.0
 49
0.0
 74
     0
 49
-1.0
 74
     0
  0
LTYPE
  5
2C
330
5
100
AcDbSymbolTableRecord
100
AcDbLinetypeTableRecord
  2
DOT_CENTER
 70
     0
  3
Dot_Center
 72
    65
 73
     4
 40
14.0
 49
12.0
 74
     0
 49
-1.0
 74
     0
 49
0.0
 74
     0
 49
-1.0
 74
     0
  0
LTYPE
  5
2D
330
5
100
AcDbSymbolTableRecord
100
AcDbLinetypeTableRecord
  2
LONG_DASHED
 70
     0
  3
Long_Dashed
 72
    65
 73
     2
 40
15.0
 49
10.0
 74
     0
 49
-5.0
 74
     0
  0
LTYPE
  5
2E
330
5
100
AcDbSymbolTableRecord
100
AcDbLinetypeTableRecord
  2
DASH_CENTER
 70
     0
  3
Dash_Center
 72
    65
 73
     4
 40
14.0
 49
11.0
 74
     0
 49
-1.0
 74
     0
 49
1.0
 74
     0
 49
-1.0
 74
     0
  0
LTYPE
  5
2F
330
5
100
AcDbSymbolTableRecord
100
AcDbLinetypeTableRecord
  2
PHANTOM
 70
     0
  3
Phantom
 72
    65
 73
     6
 40
13.0
 49
10.0
 74
     0
 49
-1.0
 74
     0
 49
0.0
 74
     0
 49
-1.0
 74
     0
 49
0.0
 74
     0
 49
-1.0
 74
     0
  0
LTYPE
  5
30
330
5
100
AcDbSymbolTableRecord
100
AcDbLinetypeTableRecord
  2
CENTER_DASH_DASH
 70
     0
  3
Center_Dash_Dash
 72
    65
 73
     6
 40
14.0
 49
9.0
 74
     0
 49
-1.0
 74
     0
 49
1.0
 74
     0
 49
-1.0
 74
     0
 49
1.0
 74
     0
 49
-1.0
 74
     0
  0
ENDTAB
  0
TABLE
  2
LAYER
  5
2
330
0
100
AcDbSymbolTable
 70
     2
  0
LAYER
  5
10
330
2
100
AcDbSymbolTableRecord
100
AcDbLayerTableRecord
  2
0
 70
     0
 62
     7
  6
Continuous
370
    -3
390
F
  0
LAYER
  5
31
330
2
100
AcDbSymbolTableRecord
100
AcDbLayerTableRecord
  2
1
 70
     0
 62
     7
  6
Continuous
370
    -3
390
F
  0
ENDTAB
  0
TABLE
  2
STYLE
  5
3
330
0
100
AcDbSymbolTable
 70
     4
  0
STYLE
  5
11
330
3
100
AcDbSymbolTableRecord
100
AcDbTextStyleTableRecord
  2
Standard
 70
     0
 40
0.0
 41
1.0
 50
0.0
 71
     0
 42
0.2
  3
txt
  4

  0
STYLE
  5
5B
330
3
100
AcDbSymbolTableRecord
100
AcDbTextStyleTableRecord
  2
CONVERTER_11
 70
     0
 40
0.0
 41
0.6408
 50
0.0
 71
     0
 42
0.2
  3
txt.shx
  4

  0
STYLE
  5
1C5
330
3
100
AcDbSymbolTableRecord
100
AcDbTextStyleTableRecord
  2
CONVERTER_12
 70
     0
 40
0.0
 41
0.855
 50
0.0
 71
     0
 42
0.2
  3
complex.shx
  4

  0
STYLE
  5
1E6
330
3
100
AcDbSymbolTableRecord
100
AcDbTextStyleTableRecord
  2
CONVERTER_13
 70
     0
 40
0.0
 41
0.72
 50
0.0
 71
     0
 42
0.2
  3
txt.shx
  4

  0
ENDTAB
  0
TABLE
  2
VIEW
  5
6
330
0
100
AcDbSymbolTable
 70
     0
  0
ENDTAB
  0
TABLE
  2
UCS
  5
7
330
0
100
AcDbSymbolTable
 70
     0
  0
ENDTAB
  0
TABLE
  2
APPID
  5
9
330
0
100
AcDbSymbolTable
 70
     1
  0
APPID
  5
12
330
9
100
AcDbSymbolTableRecord
100
AcDbRegAppTableRecord
  2
ACAD
 70
     0
  0
ENDTAB
  0
TABLE
  2
DIMSTYLE
  5
A
330
0
100
AcDbSymbolTable
 70
     4
100
AcDbDimStyleTable
  0
DIMSTYLE
105
27
330
A
100
AcDbSymbolTableRecord
100
AcDbDimStyleTableRecord
  2
Standard
 70
     0
340
11
  0
DIMSTYLE
105
1D3
102
{ACAD_REACTORS
330
1D4
102
}
330
A
100
AcDbSymbolTableRecord
100
AcDbDimStyleTableRecord
  2
ME10_DIM_10
 70
     0
 41
2.5
 42
0.5
 44
0.8
 73
     0
 74
     0
 77
     1
 78
    12
140
3.0
147
1.0
172
     1
173
     1
176
     2
177
     2
178
     2
271
     3
340
5B
  0
DIMSTYLE
105
1DE
102
{ACAD_REACTORS
330
1DF
102
}
330
A
100
AcDbSymbolTableRecord
100
AcDbDimStyleTableRecord
  2
ME10_DIM_11
 70
     0
 41
2.5
 42
0.5
 44
0.8
 73
     0
 74
     0
 77
     1
 78
    12
140
3.0
147
1.0
172
     1
173
     1
176
     2
177
     2
178
     2
271
     3
340
5B
  0
DIMSTYLE
105
1EA
102
{ACAD_REACTORS
330
1EB
102
}
330
A
100
AcDbSymbolTableRecord
100
AcDbDimStyleTableRecord
  2
ME10_DIM_12
 70
     0
  3
(<>)
 41
2.5
 42
0.5
 44
0.8
 73
     0
 74
     0
 77
     1
 78
    12
140
3.0
147
1.0
172
     1
173
     1
176
     2
177
     2
178
     2
271
     3
340
1E6
  0
ENDTAB
  0
TABLE
  2
BLOCK_RECORD
  5
1
330
0
100
AcDbSymbolTable
 70
    13
  0
BLOCK_RECORD
  5
1F
330
1
100
AcDbSymbolTableRecord
100
AcDbBlockTableRecord
  2
*Model_Space
340
22
  0
BLOCK_RECORD
  5
1B
330
1
100
AcDbSymbolTableRecord
100
AcDbBlockTableRecord
  2
*Paper_Space
340
1E
  0
BLOCK_RECORD
  5
23
330
1
100
AcDbSymbolTableRecord
100
AcDbBlockTableRecord
  2
*Paper_Space0
340
26
  0
BLOCK_RECORD
  5
32
330
1
100
AcDbSymbolTableRecord
100
AcDbBlockTableRecord
  2
_D14
340
0
102
{BLKREFS
331
39
102
}
  0
BLOCK_RECORD
  5
35
330
1
100
AcDbSymbolTableRecord
100
AcDbBlockTableRecord
  2
_D15
340
0
102
{BLKREFS
331
3A
102
}
  0
BLOCK_RECORD
  5
38
330
1
100
AcDbSymbolTableRecord
100
AcDbBlockTableRecord
  2
cf35_dome__2002_06_19_16_36_45
340
0
102
{BLKREFS
331
3E
102
}
  0
BLOCK_RECORD
  5
3D
330
1
100
AcDbSymbolTableRecord
100
AcDbBlockTableRecord
  2
TOP
340
0
102
{BLKREFS
331
42
102
}
  0
BLOCK_RECORD
  5
41
330
1
100
AcDbSymbolTableRecord
100
AcDbBlockTableRecord
  2
reference__2005_03_02_11_27_59
340
0
102
{BLKREFS
331
46
102
}
  0
BLOCK_RECORD
  5
45
330
1
100
AcDbSymbolTableRecord
100
AcDbBlockTableRecord
  2
cf45_atari__2006_01_11_15_26_59
340
0
102
{BLKREFS
331
4A
102
}
  0
BLOCK_RECORD
  5
49
330
1
100
AcDbSymbolTableRecord
100
AcDbBlockTableRecord
  2
YV3_6X2_8_AF_kentou__2006_01_13_14_48_41
340
0
102
{BLKREFS
331
51
102
}
  0
BLOCK_RECORD
  5
4D
330
1
100
AcDbSymbolTableRecord
100
AcDbBlockTableRecord
  2
cf284p_name_label-3pa-a__2006_09_07_20_29_23
340
0
102
{BLKREFS
331
52
102
}
  0
BLOCK_RECORD
  5
50
330
1
100
AcDbSymbolTableRecord
100
AcDbBlockTableRecord
  2
060710_3da002689aaa__2006_10_03_15_32_45
340
0
102
{BLKREFS
331
55
102
}
  0
BLOCK_RECORD
  5
1CA
330
1
100
AcDbSymbolTableRecord
100
AcDbBlockTableRecord
  2
*D10
340
0
  0
BLOCK_RECORD
  5
1D5
330
1
100
AcDbSymbolTableRecord
100
AcDbBlockTableRecord
  2
*D11
340
0
  0
BLOCK_RECORD
  5
1E0
330
1
100
AcDbSymbolTableRecord
100
AcDbBlockTableRecord
  2
*D12
340
0
  0
ENDTAB
  0
ENDSEC
  0
SECTION
  2
BLOCKS
  0
BLOCK
  5
20
330
1F
100
AcDbEntity
  8
0
100
AcDbBlockBegin
  2
*Model_Space
 70
     0
 71
     0
 10
0.0
 20
0.0
 30
0.0
  3
*Model_Space
  1

  0
ENDBLK
  5
21
330
1F
100
AcDbEntity
  8
0
100
AcDbBlockEnd
  0
BLOCK
  5
1C
330
1B
100
AcDbEntity
 67
     1
  8
0
100
AcDbBlockBegin
  2
*Paper_Space
 70
     0
 71
     0
 10
0.0
 20
0.0
 30
0.0
  3
*Paper_Space
  1

  0
ENDBLK
  5
1D
330
1B
100
AcDbEntity
 67
     1
  8
0
100
AcDbBlockEnd
  0
BLOCK
  5
24
330
23
100
AcDbEntity
  8
0
100
AcDbBlockBegin
  2
*Paper_Space0
 70
     0
 71
     0
 10
0.0
 20
0.0
 30
0.0
  3
*Paper_Space0
  1

  0
ENDBLK
  5
25
330
23
100
AcDbEntity
  8
0
100
AcDbBlockEnd
  0
BLOCK
  5
33
330
32
100
AcDbEntity
  8
0
100
AcDbBlockBegin
  2
_D14
 70
     0
 71
     0
 10
0.0
 20
0.0
 30
0.0
  3
_D14
  1

  0
LINE
  5
56
102
{ACAD_REACTORS
330
5E
330
5E
102
}
330
32
100
AcDbEntity
  8
1
  6
Continuous
 62
     2
100
AcDbLine
 10
-197.267289836373
 20
-539.991758299163
 30
0.0
 11
-199.499018022054
 21
-541.165520064169
 31
0.0
  0
LINE
  5
57
102
{ACAD_REACTORS
330
5E
330
5E
102
}
330
32
100
AcDbEntity
  8
1
  6
Continuous
 62
     2
100
AcDbLine
 10
-199.119181828983
 20
-541.703138859839
 30
0.0
 11
-197.267289836373
 21
-539.991758299163
 31
0.0
  0
LINE
  5
58
102
{ACAD_REACTORS
330
5E
330
5E
102
}
330
32
100
AcDbEntity
  8
1
  6
Continuous
 62
     2
100
AcDbLine
 10
-199.499018022054
 20
-541.165520064169
 30
0.0
 11
-199.119181828983
 21
-541.703138859839
 31
0.0
  0
LINE
  5
59
330
32
100
AcDbEntity
  8
1
  6
Continuous
 62
     2
100
AcDbLine
 10
-164.598328410036
 20
-516.910619693702
 30
0.0
 11
-211.124683389874
 21
-549.78222629552
 31
0.0
  0
LINE
  5
5A
330
32
100
AcDbEntity
  8
1
  6
Continuous
 62
     2
100
AcDbLine
 10
-211.124683389874
 20
-549.78222629552
 30
0.0
 11
-230.83135005654
 21
-549.78222629552
 31
0.0
  0
MTEXT
  5
5C
330
32
100
AcDbEntity
  8
1
 62
     2
100
AcDbMText
 10
-221.507364019185
 20
-543.022217510713
 30
0.0
 40
1.8
 41
0.0
 71
     1
 72
     1
  1
0.3
  7
CONVERTER_11
 11
0.999999999997062
 21
2.424068405545310E-6
 31
0.0
 73
     1
 44
1.32052821128451
  0
MTEXT
  5
5D
330
32
100
AcDbEntity
  8
1
 62
     2
100
AcDbMText
 10
-230.0513704187
 20
-540.382238221961
 30
0.0
 40
3.0
 41
0.0
 71
     1
 72
     1
  1
SR40
  7
CONVERTER_11
 11
0.999999999997062
 21
2.424068405545310E-6
 31
0.0
 73
     1
 44
1.32052821128451
  0
HATCH
  5
5E
330
32
100
AcDbEntity
  8
1
  6
Continuous
 62
     2
100
AcDbHatch
 10
0.0
 20
0.0
 30
0.0
210
0.0
220
0.0
230
1.0
  2
SOLID
 70
     1
 71
     1
 91
        1
 92
        1
 93
        3
 72
     1
 10
-199.119181828983
 20
-541.703138859839
 11
-197.267289836373
 21
-539.991758299163
 72
     1
 10
-197.267289836373
 20
-539.991758299163
 11
-199.499018022054
 21
-541.165520064169
 72
     1
 10
-199.499018022054
 20
-541.165520064169
 11
-199.119181828983
 21
-541.703138859839
 97
        3
330
56
330
57
330
58
 75
     0
 76
     1
 98
        1
 10
0.0
 20
0.0
  0
ENDBLK
  5
34
330
32
100
AcDbEntity
  8
0
100
AcDbBlockEnd
  0
BLOCK
  5
36
330
35
100
AcDbEntity
  8
0
100
AcDbBlockBegin
  2
_D15
 70
     0
 71
     0
 10
0.0
 20
0.0
 30
0.0
  3
_D15
  1

  0
LINE
  5
5F
102
{ACAD_REACTORS
330
69
330
69
102
}
330
35
100
AcDbEntity
  8
1
  6
Continuous
 62
     2
100
AcDbLine
 10
-318.659651543526
 20
-478.059022581163
 30
0.0
 11
-317.599140941001
 21
-480.346738611987
 31
0.0
  0
LINE
  5
60
102
{ACAD_REACTORS
330
69
330
69
102
}
330
35
100
AcDbEntity
  8
1
  6
Continuous
 62
     2
100
AcDbLine
 10
-317.04317248493
 20
-479.994306237085
 30
0.0
 11
-318.659651543526
 21
-478.059022581163
 31
0.0
  0
LINE
  5
61
102
{ACAD_REACTORS
330
69
330
69
102
}
330
35
100
AcDbEntity
  8
1
  6
Continuous
 62
     2
100
AcDbLine
 10
-317.599140941001
 20
-480.346738611987
 30
0.0
 11
-317.04317248493
 21
-479.994306237085
 31
0.0
  0
LINE
  5
62
102
{ACAD_REACTORS
330
6A
330
6A
102
}
330
35
100
AcDbEntity
  8
1
  6
Continuous
 62
     2
100
AcDbLine
 10
-269.403041782115
 20
-555.762216812175
 30
0.0
 11
-270.46355238464
 21
-553.474500781351
 31
0.0
  0
LINE
  5
63
102
{ACAD_REACTORS
330
6A
330
6A
102
}
330
35
100
AcDbEntity
  8
1
  6
Continuous
 62
     2
100
AcDbLine
 10
-271.019520840711
 20
-553.826933156254
 30
0.0
 11
-269.403041782115
 21
-555.762216812175
 31
0.0
  0
LINE
  5
64
102
{ACAD_REACTORS
330
6A
330
6A
102
}
330
35
100
AcDbEntity
  8
1
  6
Continuous
 62
     2
100
AcDbLine
 10
-270.46355238464
 20
-553.474500781351
 30
0.0
 11
-271.019520840711
 21
-553.826933156254
 31
0.0
  0
LINE
  5
65
330
35
100
AcDbEntity
  8
1
  6
Continuous
 62
     2
100
AcDbLine
 10
-318.659651543526
 20
-478.059022581163
 30
0.0
 11
-258.664661988131
 21
-572.702205473595
 31
0.0
  0
LINE
  5
66
330
35
100
AcDbEntity
  8
1
  6
Continuous
 62
     2
100
AcDbLine
 10
-258.664661988131
 20
-572.702205473595
 30
0.0
 11
-241.344661988131
 21
-572.702205473595
 31
0.0
  0
MTEXT
  5
67
330
35
100
AcDbEntity
  8
1
 62
     2
100
AcDbMText
 10
-245.724675950782
 20
-565.942191510978
 30
0.0
 40
1.8
 41
0.0
 71
     1
 72
     1
  1
0.5
  7
CONVERTER_11
 11
0.999999999997062
 21
2.424068405545310E-6
 31
0.0
 73
     1
 44
1.32052821128451
  0
MTEXT
  5
68
330
35
100
AcDbEntity
  8
1
 62
     2
100
AcDbMText
 10
-256.404682350291
 20
-563.302217400036
 30
0.0
 40
3.0
 41
0.0
 71
     1
 72
     1
  1
{\Fgdt;n}92
  7
CONVERTER_11
 11
0.999999999997062
 21
2.424068405545310E-6
 31
0.0
 73
     1
 44
1.32052821128451
  0
HATCH
  5
69
330
35
100
AcDbEntity
  8
1
  6
Continuous
 62
     2
100
AcDbHatch
 10
0.0
 20
0.0
 30
0.0
210
0.0
220
0.0
230
1.0
  2
SOLID
 70
     1
 71
     1
 91
        1
 92
        1
 93
        3
 72
     1
 10
-317.04317248493
 20
-479.994306237085
 11
-318.659651543526
 21
-478.059022581163
 72
     1
 10
-318.659651543526
 20
-478.059022581163
 11
-317.599140941001
 21
-480.346738611987
 72
     1
 10
-317.599140941001
 20
-480.346738611987
 11
-317.04317248493
 21
-479.994306237085
 97
        3
330
5F
330
60
330
61
 75
     0
 76
     1
 98
        1
 10
0.0
 20
0.0
  0
HATCH
  5
6A
330
35
100
AcDbEntity
  8
1
  6
Continuous
 62
     2
100
AcDbHatch
 10
0.0
 20
0.0
 30
0.0
210
0.0
220
0.0
230
1.0
  2
SOLID
 70
     1
 71
     1
 91
        1
 92
        1
 93
        3
 72
     1
 10
-271.019520840711
 20
-553.826933156254
 11
-269.403041782115
 21
-555.762216812175
 72
     1
 10
-269.403041782115
 20
-555.762216812175
 11
-270.46355238464
 21
-553.474500781351
 72
     1
 10
-270.46355238464
 20
-553.474500781351
 11
-271.019520840711
 21
-553.826933156254
 97
        3
330
62
330
63
330
64
 75
     0
 76
     1
 98
        1
 10
0.0
 20
0.0
  0
ENDBLK
  5
37
330
35
100
AcDbEntity
  8
0
100
AcDbBlockEnd
  0
BLOCK
  5
3B
330
38
100
AcDbEntity
  8
0
100
AcDbBlockBegin
  2
cf35_dome__2002_06_19_16_36_45
 70
     0
 71
     0
 10
-13662.3528464393
 20
-15483.5598807447
 30
0.0
  3
cf35_dome__2002_06_19_16_36_45
  1

  0
INSERT
  5
39
330
38
100
AcDbEntity
  8
1
100
AcDbBlockReference
  2
_D14
 10
0.0
 20
0.0
 30
0.0
  0
INSERT
  5
3A
330
38
100
AcDbEntity
  8
1
100
AcDbBlockReference
  2
_D15
 10
0.0
 20
0.0
 30
0.0
  0
POINT
  5
6B
330
38
100
AcDbEntity
  8
1
 62
     7
100
AcDbPoint
 10
-155.098328409927
 20
-562.098299953511
 30
0.0
  0
POINT
  5
6C
330
38
100
AcDbEntity
  8
1
 62
     7
100
AcDbPoint
 10
-156.898328413074
 20
-561.598299953511
 30
0.0
  0
POINT
  5
6D
330
38
100
AcDbEntity
  8
1
 62
     7
100
AcDbPoint
 10
-204.59832841004
 20
-516.910619696724
 30
0.0
  0
POINT
  5
6E
330
38
100
AcDbEntity
  8
1
 62
     7
100
AcDbPoint
 10
-155.098328409927
 20
-562.098299953511
 30
0.0
  0
POINT
  5
6F
330
38
100
AcDbEntity
  8
1
 62
     7
100
AcDbPoint
 10
-164.598328410036
 20
-562.098299953511
 30
0.0
  0
POINT
  5
70
330
38
100
AcDbEntity
  8
1
 62
     7
100
AcDbPoint
 10
-155.098328409927
 20
-562.098299953511
 30
0.0
  0
LINE
  5
10C
330
38
100
AcDbEntity
  8
1
  6
Continuous
 62
     7
100
AcDbLine
 10
-165.598328409918
 20
-476.923121647434
 30
0.0
 11
-165.598328409918
 21
-476.923121647434
 31
0.0
  0
LINE
  5
10D
330
38
100
AcDbEntity
  8
1
  6
Continuous
 62
     7
100
AcDbLine
 10
-286.531346662821
 20
-655.864248346723
 30
0.0
 11
-253.281346671882
 21
-655.864248346723
 31
0.0
  0
LINE
  5
10E
330
38
100
AcDbEntity
  8
1
  6
Continuous
 62
     7
100
AcDbLine
 10
-254.043860896765
 20
-645.363757294052
 30
0.0
 11
-334.018832422956
 21
-645.363757294052
 31
0.0
  0
LINE
  5
10F
330
38
100
AcDbEntity
  8
1
  6
Continuous
 62
     7
100
AcDbLine
 10
-165.598328410055
 20
-556.898117739966
 30
0.0
 11
-165.598328409918
 21
-476.923121647434
 31
0.0
  0
LINE
  5
110
330
38
100
AcDbEntity
  8
1
  6
Continuous
 62
     7
100
AcDbLine
 10
-338.531346662821
 20
-528.561799882496
 30
0.0
 11
-338.531346662821
 21
-505.259439510843
 31
0.0
  0
LINE
  5
111
330
38
100
AcDbEntity
  8
1
  6
Continuous
 62
     7
100
AcDbLine
 10
-156.898328413074
 20
-475.910619696669
 30
0.0
 11
-156.898328413074
 21
-471.449508978063
 31
0.0
  0
LINE
  5
112
330
38
100
AcDbEntity
  8
1
  6
Continuous
 62
     7
100
AcDbLine
 10
-156.898328413074
 20
-557.910619693629
 30
0.0
 11
-156.898328413074
 21
-557.310619693701
 31
0.0
  0
LINE
  5
113
330
38
100
AcDbEntity
  8
1
  6
Continuous
 62
     7
100
AcDbLine
 10
-255.59910711473
 20
-654.064248343577
 30
0.0
 11
-254.300203071506
 21
-654.064248343577
 31
0.0
  0
LINE
  5
114
330
38
100
AcDbEntity
  8
1
  6
Continuous
 62
     7
100
AcDbLine
 10
-254.300203071506
 20
-654.064248343577
 30
0.0
 11
-253.731346668809
 21
-654.064248343577
 31
0.0
  0
LINE
  5
115
330
38
100
AcDbEntity
  8
1
  6
Continuous
 62
     7
100
AcDbLine
 10
-286.531346662821
 20
-654.064248343576
 30
0.0
 11
-286.031346662821
 21
-654.064248343576
 31
0.0
  0
LINE
  5
116
330
38
100
AcDbEntity
  8
1
  6
Continuous
 62
     7
100
AcDbLine
 10
-302.031346662821
 20
-654.064248343576
 30
0.0
 11
-301.531346662821
 21
-654.064248343576
 31
0.0
  0
LINE
  5
117
330
38
100
AcDbEntity
  8
1
  6
Continuous
 62
     7
100
AcDbLine
 10
-334.331346662863
 20
-654.064248343576
 30
0.0
 11
-333.762490248215
 21
-654.064248343576
 31
0.0
  0
LINE
  5
118
330
38
100
AcDbEntity
  8
1
  6
Continuous
 62
     7
100
AcDbLine
 10
-333.762490248215
 20
-654.064248343576
 30
0.0
 11
-332.463586204991
 21
-654.064248343576
 31
0.0
  0
LINE
  5
119
330
38
100
AcDbEntity
  8
1
  6
Continuous
 62
     7
100
AcDbLine
 10
-253.931346668809
 20
-645.363757294052
 30
0.0
 11
-253.731346668809
 21
-654.064248343577
 31
0.0
  0
LINE
  5
11A
330
38
100
AcDbEntity
  8
1
  6
Continuous
 62
     7
100
AcDbLine
 10
-254.043860896765
 20
-645.363757294052
 30
0.0
 11
-253.931346668809
 21
-645.363757294052
 31
0.0
  0
LINE
  5
11B
330
38
100
AcDbEntity
  8
1
  6
Continuous
 62
     7
100
AcDbLine
 10
-334.131346662863
 20
-645.363757294052
 30
0.0
 11
-334.331346662863
 21
-654.064248343576
 31
0.0
  0
LINE
  5
11C
330
38
100
AcDbEntity
  8
1
  6
Continuous
 62
     7
100
AcDbLine
 10
-334.018832422956
 20
-645.363757294052
 30
0.0
 11
-334.131346662863
 21
-645.363757294052
 31
0.0
  0
LINE
  5
11D
330
38
100
AcDbEntity
  8
1
  6
Continuous
 62
     2
100
AcDbLine
 10
-155.098328409927
 20
-478.069636679036
 30
0.0
 11
-155.098328409927
 21
-478.069636679036
 31
0.0
  0
LINE
  5
11E
330
38
100
AcDbEntity
  8
1
  6
Continuous
 62
     7
100
AcDbLine
 10
-155.098328409937
 20
-556.240240553361
 30
0.0
 11
-155.098328410036
 21
-555.751602705939
 31
0.0
  0
LINE
  5
11F
330
38
100
AcDbEntity
  8
1
  6
Continuous
 62
     7
100
AcDbLine
 10
-155.098328409927
 20
-478.069636679036
 30
0.0
 11
-155.098328409927
 21
-477.423422891346
 31
0.0
  0
LINE
  5
120
330
38
100
AcDbEntity
  8
1
  6
Continuous
 62
     7
100
AcDbLine
 10
-155.098328410036
 20
-555.751602705939
 30
0.0
 11
-155.098328410036
 21
-555.751602705939
 31
0.0
  0
LINE
  5
121
330
38
100
AcDbEntity
  8
1
  6
Continuous
 62
     7
100
AcDbLine
 10
-156.898328413074
 20
-476.610619690698
 30
0.0
 11
-156.898328413074
 21
-475.910619696669
 31
0.0
  0
LINE
  5
122
330
38
100
AcDbEntity
  8
1
  6
Continuous
 62
     7
100
AcDbLine
 10
-165.598328409918
 20
-476.81061970265
 30
0.0
 11
-156.898328413074
 21
-476.610619690698
 31
0.0
  0
LINE
  5
123
330
38
100
AcDbEntity
  8
1
  6
Continuous
 62
     7
100
AcDbLine
 10
-165.598328409918
 20
-476.923121647434
 30
0.0
 11
-165.598328409918
 21
-476.81061970265
 31
0.0
  0
LINE
  5
124
330
38
100
AcDbEntity
  8
1
  6
Continuous
 62
     7
100
AcDbLine
 10
-165.59832841003
 20
-557.010619696704
 30
0.0
 11
-156.898328413074
 21
-557.210619696705
 31
0.0
  0
LINE
  5
125
330
38
100
AcDbEntity
  8
1
  6
Continuous
 62
     7
100
AcDbLine
 10
-165.59832841003
 20
-557.010619696704
 30
0.0
 11
-165.598328410055
 21
-556.898117739966
 31
0.0
  0
LINE
  5
126
330
38
100
AcDbEntity
  8
1
  6
Continuous
 62
     7
100
AcDbLine
 10
-156.898328413074
 20
-557.910619693629
 30
0.0
 11
-156.898328413074
 21
-557.610619693628
 31
0.0
  0
LINE
  5
127
330
38
100
AcDbEntity
  8
1
  6
Continuous
 62
     7
100
AcDbLine
 10
-156.898328413074
 20
-561.598299953511
 30
0.0
 11
-156.898328413074
 21
-559.997877963838
 31
0.0
  0
LINE
  5
128
330
38
100
AcDbEntity
  8
1
  6
Continuous
 62
     7
100
AcDbLine
 10
-338.031346662821
 20
-654.064248343576
 30
0.0
 11
-334.530844144471
 21
-654.064248343576
 31
0.0
  0
LINE
  5
129
330
38
100
AcDbEntity
  8
1
  6
Continuous
 62
     7
100
AcDbLine
 10
-332.463586204991
 20
-654.064248343576
 30
0.0
 11
-332.115596687813
 21
-654.064248343576
 31
0.0
  0
LINE
  5
12A
330
38
100
AcDbEntity
  8
1
  6
Continuous
 62
     7
100
AcDbLine
 10
-332.415596687813
 20
-655.864248346724
 30
0.0
 11
-301.531346662821
 21
-655.864248346724
 31
0.0
  0
LINE
  5
12B
330
38
100
AcDbEntity
  8
1
  6
Continuous
 62
     7
100
AcDbLine
 10
-332.115596687813
 20
-654.064248343576
 30
0.0
 11
-302.031346662821
 21
-654.064248343576
 31
0.0
  0
LINE
  5
12C
330
38
100
AcDbEntity
  8
1
  6
Continuous
 62
     7
100
AcDbLine
 10
-334.830844144472
 20
-655.864248346724
 30
0.0
 11
-332.415596687813
 21
-655.864248346724
 31
0.0
  0
LINE
  5
12D
330
38
100
AcDbEntity
  8
1
  6
Continuous
 62
     7
100
AcDbLine
 10
-334.530844144471
 20
-654.064248343576
 30
0.0
 11
-334.331346662863
 21
-654.064248343576
 31
0.0
  0
LINE
  5
12E
330
38
100
AcDbEntity
  8
1
  6
Continuous
 62
     7
100
AcDbLine
 10
-253.281346671882
 20
-655.864248346723
 30
0.0
 11
-253.031346671885
 21
-655.864248346724
 31
0.0
  0
LINE
  5
12F
330
38
100
AcDbEntity
  8
1
  6
Continuous
 62
     7
100
AcDbLine
 10
-338.531346662821
 20
-655.864248346724
 30
0.0
 11
-338.531346662821
 21
-654.564248343576
 31
0.0
  0
LINE
  5
130
330
38
100
AcDbEntity
  8
1
  6
Continuous
 62
     7
100
AcDbLine
 10
-248.031346665836
 20
-654.564248343576
 30
0.0
 11
-248.031346665836
 21
-655.864248346724
 31
0.0
  0
LINE
  5
131
330
38
100
AcDbEntity
  8
1
  6
Continuous
 62
     7
100
AcDbLine
 10
-156.898328413074
 20
-476.610619702651
 30
0.0
 11
-156.898328413074
 21
-476.610619690698
 31
0.0
  0
LINE
  5
132
330
38
100
AcDbEntity
  8
1
  6
Continuous
 62
     7
100
AcDbLine
 10
-156.398328413074
 20
-470.949508978063
 30
0.0
 11
-155.098328409927
 21
-470.949508978063
 31
0.0
  0
LINE
  5
133
330
38
100
AcDbEntity
  8
1
  6
Continuous
 62
     7
100
AcDbLine
 10
-155.098328409927
 20
-477.910619702651
 30
0.0
 11
-155.098328409927
 21
-477.423422891346
 31
0.0
  0
LINE
  5
134
330
38
100
AcDbEntity
  8
1
  6
Continuous
 62
     7
100
AcDbLine
 10
-155.098328409927
 20
-557.910619693629
 30
0.0
 11
-155.098328409927
 21
-556.292155385448
 31
0.0
  0
LINE
  5
135
330
38
100
AcDbEntity
  8
1
  6
Continuous
 62
     7
100
AcDbLine
 10
-155.098328409927
 20
-562.098299953511
 30
0.0
 11
-156.398328413074
 21
-562.098299953511
 31
0.0
  0
LINE
  5
136
330
38
100
AcDbEntity
  8
1
  6
Continuous
 62
     7
100
AcDbLine
 10
-338.531346662821
 20
-655.864248346724
 30
0.0
 11
-334.830844144472
 21
-655.864248346724
 31
0.0
  0
LINE
  5
137
330
38
100
AcDbEntity
  8
1
  6
Continuous
 62
     7
100
AcDbLine
 10
-155.098328409927
 20
-477.423422891346
 30
0.0
 11
-155.098328409927
 21
-475.910619705727
 31
0.0
  0
LINE
  5
138
330
38
100
AcDbEntity
  8
1
  6
Continuous
 62
     7
100
AcDbLine
 10
-253.031346671885
 20
-655.864248346724
 30
0.0
 11
-248.031346665836
 21
-655.864248346724
 31
0.0
  0
LINE
  5
139
330
38
100
AcDbEntity
  8
1
  6
Continuous
 62
     7
100
AcDbLine
 10
-155.098328409927
 20
-558.660619693702
 30
0.0
 11
-155.098328409927
 21
-557.910619693629
 31
0.0
  0
LINE
  5
13A
330
38
100
AcDbEntity
  8
1
  6
Continuous
 62
     7
100
AcDbLine
 10
-155.098328409927
 20
-556.292155385448
 30
0.0
 11
-155.098328409928
 21
-556.279071838726
 31
0.0
  0
LINE
  5
13B
330
38
100
AcDbEntity
  8
1
  6
Continuous
 62
     7
100
AcDbLine
 10
-155.098328409927
 20
-475.910619705727
 30
0.0
 11
-155.098328409927
 21
-470.949508978063
 31
0.0
  0
LINE
  5
13C
330
38
100
AcDbEntity
  8
1
  6
Continuous
 62
     7
100
AcDbLine
 10
-155.098328409927
 20
-562.098299953511
 30
0.0
 11
-155.098328409927
 21
-558.660619693702
 31
0.0
  0
LINE
  5
13D
330
38
100
AcDbEntity
  8
1
  6
DOT_CENTER
 62
     2
100
AcDbLine
 10
-294.031346659861
 20
-601.296153083647
 30
0.0
 11
-294.031346659861
 21
-659.463172693587
 31
0.0
  0
LINE
  5
13E
330
38
100
AcDbEntity
  8
1
  6
Continuous
 62
     7
100
AcDbLine
 10
-253.731346668809
 20
-654.064248343577
 30
0.0
 11
-248.531346665836
 21
-654.064248343576
 31
0.0
  0
LINE
  5
13F
330
38
100
AcDbEntity
  8
1
  6
Continuous
 62
     7
100
AcDbLine
 10
-286.531346662821
 20
-561.100550673404
 30
0.0
 11
-286.531346662821
 21
-558.404595162995
 31
0.0
  0
LINE
  5
140
330
38
100
AcDbEntity
  8
1
  6
Continuous
 62
     7
100
AcDbLine
 10
-301.531346662821
 20
-561.100550673404
 30
0.0
 11
-301.531346662821
 21
-558.404595162995
 31
0.0
  0
LINE
  5
141
330
38
100
AcDbEntity
  8
1
  6
Continuous
 62
     7
100
AcDbLine
 10
-252.011743845487
 20
-501.310844736686
 30
0.0
 11
-254.346509804975
 21
-502.65882249189
 31
0.0
  0
LINE
  5
142
330
38
100
AcDbEntity
  8
1
  6
Continuous
 62
     7
100
AcDbLine
 10
-328.550949480154
 20
-488.32046367992
 30
0.0
 11
-326.216183520667
 21
-489.668441435123
 31
0.0
  0
LINE
  5
143
330
38
100
AcDbEntity
  8
1
  6
Continuous
 62
     7
100
AcDbLine
 10
-156.898328413074
 20
-557.310619693701
 30
0.0
 11
-156.898328413074
 21
-557.210619696705
 31
0.0
  0
LINE
  5
144
330
38
100
AcDbEntity
  8
1
  6
Continuous
 62
     7
100
AcDbLine
 10
-293.181346662821
 20
-471.948663558969
 30
0.0
 11
-293.181346662821
 21
-475.06061969667
 31
0.0
  0
LINE
  5
145
330
38
100
AcDbEntity
  8
1
  6
Continuous
 62
     7
100
AcDbLine
 10
-294.88134666282
 20
-475.06061969667
 30
0.0
 11
-294.88134666282
 21
-471.948663558969
 31
0.0
  0
LINE
  5
146
330
38
100
AcDbEntity
  8
1
  6
Continuous
 62
     7
100
AcDbLine
 10
-261.846509804975
 20
-489.668441435123
 30
0.0
 11
-259.511743845487
 21
-488.320463679919
 31
0.0
  0
LINE
  5
147
330
38
100
AcDbEntity
  8
1
  6
Continuous
 62
     7
100
AcDbLine
 10
-336.050949480154
 20
-501.310844736686
 30
0.0
 11
-333.716183520667
 21
-502.65882249189
 31
0.0
  0
LINE
  5
148
330
38
100
AcDbEntity
  8
1
  6
Continuous
 62
     7
100
AcDbLine
 10
-301.531346662821
 20
-655.864248346724
 30
0.0
 11
-301.531346662821
 21
-654.564248343576
 31
0.0
  0
LINE
  5
149
330
38
100
AcDbEntity
  8
1
  6
Continuous
 62
     7
100
AcDbLine
 10
-286.531346662821
 20
-655.864248346723
 30
0.0
 11
-286.531346662821
 21
-654.564248343576
 31
0.0
  0
LINE
  5
14A
330
38
100
AcDbEntity
  8
1
  6
Continuous
 62
     7
100
AcDbLine
 10
-301.831346662821
 20
-654.064248343576
 30
0.0
 11
-286.231346662821
 21
-654.064248343576
 31
0.0
  0
LINE
  5
14B
330
38
100
AcDbEntity
  8
1
  6
Continuous
 62
     7
100
AcDbLine
 10
-255.09910711473
 20
-654.564248343577
 30
0.0
 11
-255.09910711473
 21
-655.864248346724
 31
0.0
  0
LINE
  5
14C
330
38
100
AcDbEntity
  8
1
  6
Continuous
 62
     2
100
AcDbLine
 10
-253.800203071506
 20
-654.564248343577
 30
0.0
 11
-253.800203071506
 21
-655.864248346724
 31
0.0
  0
LINE
  5
14D
330
38
100
AcDbEntity
  8
1
  6
Continuous
 62
     7
100
AcDbLine
 10
-254.598712539293
 20
-538.522361084364
 30
0.0
 11
-257.158279703874
 21
-537.044594292884
 31
0.0
  0
LINE
  5
14E
330
38
100
AcDbEntity
  8
1
  6
Continuous
 62
     7
100
AcDbLine
 10
-255.598712539293
 20
-540.254411891934
 30
0.0
 11
-258.158279703874
 21
-538.776645100454
 31
0.0
  0
LINE
  5
14F
330
38
100
AcDbEntity
  8
1
  6
Continuous
 62
     7
100
AcDbLine
 10
-333.463980786348
 20
-538.522361084364
 30
0.0
 11
-330.904413621767
 21
-537.044594292884
 31
0.0
  0
LINE
  5
150
330
38
100
AcDbEntity
  8
1
  6
Continuous
 62
     7
100
AcDbLine
 10
-332.463980786348
 20
-540.254411891934
 30
0.0
 11
-329.904413621767
 21
-538.776645100454
 31
0.0
  0
LINE
  5
151
330
38
100
AcDbEntity
  8
1
  6
Continuous
 62
     7
100
AcDbLine
 10
-332.963586204991
 20
-655.864248346724
 30
0.0
 11
-332.963586204991
 21
-654.564248343576
 31
0.0
  0
LINE
  5
152
330
38
100
AcDbEntity
  8
1
  6
Continuous
 62
     2
100
AcDbLine
 10
-334.262490248215
 20
-655.864248346724
 30
0.0
 11
-334.262490248215
 21
-654.564248343576
 31
0.0
  0
LINE
  5
153
330
38
100
AcDbEntity
  8
1
  6
Continuous
 62
     7
100
AcDbLine
 10
-155.098328409928
 20
-556.279071838726
 30
0.0
 11
-155.098328409937
 21
-556.240240553361
 31
0.0
  0
LINE
  5
154
330
38
100
AcDbEntity
  8
1
  6
Continuous
 62
     7
100
AcDbLine
 10
-155.098328410036
 20
-555.751602705939
 30
0.0
 11
-155.098328409959
 21
-501.17812771131
 31
0.0
  0
LINE
  5
155
330
38
100
AcDbEntity
  8
1
  6
Continuous
 62
     7
100
AcDbLine
 10
-286.031346662821
 20
-654.064248343576
 30
0.0
 11
-255.59910711473
 21
-654.064248343577
 31
0.0
  0
LINE
  5
156
330
38
100
AcDbEntity
  8
1
  6
Continuous
 62
     7
100
AcDbLine
 10
-301.531346662821
 20
-655.864248346724
 30
0.0
 11
-286.531346662821
 21
-655.864248346723
 31
0.0
  0
LINE
  5
157
330
38
100
AcDbEntity
  8
1
  6
Continuous
 62
     7
100
AcDbLine
 10
-155.098328409927
 20
-478.069636679036
 30
0.0
 11
-155.098328409927
 21
-478.069636679036
 31
0.0
  0
LINE
  5
158
330
38
100
AcDbEntity
  8
1
  6
Continuous
 62
     7
100
AcDbLine
 10
-155.098328409927
 20
-478.076606060511
 30
0.0
 11
-155.098328409927
 21
-478.069636679036
 31
0.0
  0
LINE
  5
159
330
38
100
AcDbEntity
  8
1
  6
Continuous
 62
     7
100
AcDbLine
 10
-156.898328413074
 20
-559.997877963838
 30
0.0
 11
-156.898328413074
 21
-557.910619693629
 31
0.0
  0
LINE
  5
15A
330
38
100
AcDbEntity
  8
1
  6
Continuous
 62
     2
100
AcDbLine
 10
-250.042146588245
 20
-507.376274999783
 30
0.0
 11
-250.38627220099
 21
-507.439342920728
 31
0.0
  0
LINE
  5
15B
330
38
100
AcDbEntity
  8
1
  6
Continuous
 62
     2
100
AcDbLine
 10
-252.992999373104
 20
-507.917077960284
 30
0.0
 11
-251.06690384693
 21
-510.105720467418
 31
0.0
  0
LINE
  5
15C
330
38
100
AcDbEntity
  8
1
  6
Continuous
 62
     2
100
AcDbLine
 10
-251.06690384693
 20
-510.105720467418
 30
0.0
 11
-250.042146588245
 21
-507.376274999783
 31
0.0
  0
LINE
  5
15D
330
38
100
AcDbEntity
  8
1
  6
Continuous
 62
     2
100
AcDbLine
 10
-252.648873760357
 20
-507.854010039337
 30
0.0
 11
-251.172017048515
 21
-509.532177779495
 31
0.0
  0
LINE
  5
15E
330
38
100
AcDbEntity
  8
1
  6
Continuous
 62
     2
100
AcDbLine
 10
-252.648873760357
 20
-507.854010039337
 30
0.0
 11
-252.992999373104
 21
-507.917077960284
 31
0.0
  0
LINE
  5
15F
330
38
100
AcDbEntity
  8
1
  6
Continuous
 62
     2
100
AcDbLine
 10
-251.172017048515
 20
-509.532177779495
 30
0.0
 11
-250.38627220099
 21
-507.439342920728
 31
0.0
  0
LINE
  5
160
330
38
100
AcDbEntity
  8
1
  6
Continuous
 62
     2
100
AcDbLine
 10
-250.278322158962
 20
-526.522321184972
 30
0.0
 11
-251.06690384693
 21
-523.71551892592
 31
0.0
  0
LINE
  5
161
330
38
100
AcDbEntity
  8
1
  6
Continuous
 62
     2
100
AcDbLine
 10
-250.615826360435
 20
-526.430175029393
 30
0.0
 11
-251.220480772905
 21
-524.278025928387
 31
0.0
  0
LINE
  5
162
330
38
100
AcDbEntity
  8
1
  6
Continuous
 62
     2
100
AcDbLine
 10
-251.220480772905
 20
-524.278025928387
 30
0.0
 11
-252.834892609101
 21
-525.824320575139
 31
0.0
  0
LINE
  5
163
330
38
100
AcDbEntity
  8
1
  6
Continuous
 62
     2
100
AcDbLine
 10
-251.06690384693
 20
-523.71551892592
 30
0.0
 11
-253.172396810575
 21
-525.732174419559
 31
0.0
  0
LINE
  5
164
330
38
100
AcDbEntity
  8
1
  6
Continuous
 62
     2
100
AcDbLine
 10
-250.615826360435
 20
-526.430175029393
 30
0.0
 11
-250.278322158962
 21
-526.522321184972
 31
0.0
  0
LINE
  5
165
330
38
100
AcDbEntity
  8
1
  6
Continuous
 62
     2
100
AcDbLine
 10
-253.172396810575
 20
-525.732174419559
 30
0.0
 11
-252.834892609101
 21
-525.824320575139
 31
0.0
  0
LINE
  5
166
330
38
100
AcDbEntity
  8
1
  6
Continuous
 62
     7
100
AcDbLine
 10
-249.365923797672
 20
-527.910619696669
 30
0.0
 11
-253.239190554079
 21
-527.910619696669
 31
0.0
  0
LINE
  5
167
330
38
100
AcDbEntity
  8
1
  6
Continuous
 62
     7
100
AcDbLine
 10
-253.239190554079
 20
-505.910619696669
 30
0.0
 11
-249.365923797672
 21
-505.910619696669
 31
0.0
  0
LINE
  5
168
330
38
100
AcDbEntity
  8
1
  6
DOT_CENTER
 62
     2
100
AcDbLine
 10
-234.231346666741
 20
-516.910619696669
 30
0.0
 11
-353.8313466589
 21
-516.910619696669
 31
0.0
  0
LINE
  5
169
330
38
100
AcDbEntity
  8
1
  6
DOT_CENTER
 62
     2
100
AcDbLine
 10
-294.031346662821
 20
-457.110619700591
 30
0.0
 11
-294.031346662821
 21
-576.71061969275
 31
0.0
  0
LINE
  5
16A
330
38
100
AcDbEntity
  8
1
  6
Continuous
 62
     2
100
AcDbLine
 10
-155.098328409927
 20
-540.77120967408
 30
0.0
 11
-156.398328413074
 21
-540.77120967408
 31
0.0
  0
LINE
  5
16B
330
38
100
AcDbEntity
  8
1
  6
Continuous
 62
     7
100
AcDbLine
 10
-155.098328409927
 20
-538.656278730332
 30
0.0
 11
-156.398328413074
 21
-538.656278730332
 31
0.0
  0
LINE
  5
16C
330
38
100
AcDbEntity
  8
1
  6
Continuous
 62
     7
100
AcDbLine
 10
-156.898328413074
 20
-476.610619702651
 30
0.0
 11
-156.898328413074
 21
-487.223194815305
 31
0.0
  0
LINE
  5
16D
330
38
100
AcDbEntity
  8
1
  6
Continuous
 62
     2
100
AcDbLine
 10
-156.398328413074
 20
-487.723194815305
 30
0.0
 11
-155.09832840994
 21
-487.723194815305
 31
0.0
  0
LINE
  5
16E
330
38
100
AcDbEntity
  8
1
  6
Continuous
 62
     7
100
AcDbLine
 10
-155.09832840994
 20
-487.723194815305
 30
0.0
 11
-155.098328409927
 21
-478.069636679036
 31
0.0
  0
LINE
  5
16F
330
38
100
AcDbEntity
  8
1
  6
Continuous
 62
     2
100
AcDbLine
 10
-155.098328409944
 20
-490.261335291358
 30
0.0
 11
-156.898328413074
 21
-490.261335291358
 31
0.0
  0
LINE
  5
170
330
38
100
AcDbEntity
  8
1
  6
Continuous
 62
     7
100
AcDbLine
 10
-155.098328409944
 20
-490.261335291358
 30
0.0
 11
-155.09832840994
 21
-487.723194815305
 31
0.0
  0
LINE
  5
171
330
38
100
AcDbEntity
  8
1
  6
Continuous
 62
     7
100
AcDbLine
 10
-155.098328409959
 20
-501.17812771131
 30
0.0
 11
-156.398328413074
 21
-501.17812771131
 31
0.0
  0
LINE
  5
172
330
38
100
AcDbEntity
  8
1
  6
Continuous
 62
     7
100
AcDbLine
 10
-155.098328409959
 20
-501.17812771131
 30
0.0
 11
-155.098328409944
 21
-490.261335291358
 31
0.0
  0
LINE
  5
173
330
38
100
AcDbEntity
  8
1
  6
Continuous
 62
     7
100
AcDbLine
 10
-156.898328413074
 20
-501.67812771131
 30
0.0
 11
-156.898328413074
 21
-505.910619696669
 31
0.0
  0
LINE
  5
174
330
38
100
AcDbEntity
  8
1
  6
Continuous
 62
     7
100
AcDbLine
 10
-156.898328413074
 20
-490.261335291358
 30
0.0
 11
-156.898328413074
 21
-501.67812771131
 31
0.0
  0
LINE
  5
175
330
38
100
AcDbEntity
  8
1
  6
Continuous
 62
     7
100
AcDbLine
 10
-156.898328413074
 20
-487.223194815305
 30
0.0
 11
-156.898328413074
 21
-490.261335291358
 31
0.0
  0
LINE
  5
176
330
38
100
AcDbEntity
  8
1
  6
Continuous
 62
     2
100
AcDbLine
 10
-156.598328413075
 20
-527.910619696669
 30
0.0
 11
-156.898328413074
 21
-527.910619696669
 31
0.0
  0
LINE
  5
177
330
38
100
AcDbEntity
  8
1
  6
Continuous
 62
     7
100
AcDbLine
 10
-156.898328413074
 20
-527.910619696669
 30
0.0
 11
-156.898328413074
 21
-557.210619696705
 31
0.0
  0
LINE
  5
178
330
38
100
AcDbEntity
  8
1
  6
Continuous
 62
     2
100
AcDbLine
 10
-156.598328413075
 20
-527.910619696669
 30
0.0
 11
-156.598328413075
 21
-505.910619696669
 31
0.0
  0
LINE
  5
179
330
38
100
AcDbEntity
  8
1
  6
Continuous
 62
     2
100
AcDbLine
 10
-156.598328413075
 20
-505.910619696669
 30
0.0
 11
-156.898328413074
 21
-505.910619696669
 31
0.0
  0
LINE
  5
17A
330
38
100
AcDbEntity
  8
1
  6
Continuous
 62
     7
100
AcDbLine
 10
-156.898328413074
 20
-505.910619696669
 30
0.0
 11
-156.898328413074
 21
-527.910619696669
 31
0.0
  0
LINE
  5
17B
330
38
100
AcDbEntity
  8
1
  6
DOT_CENTER
 62
     2
100
AcDbLine
 10
-209.393662351028
 20
-516.910619693702
 30
0.0
 11
-147.000342729185
 21
-516.910619693702
 31
0.0
  0
LINE
  5
17C
330
38
100
AcDbEntity
  8
1
  6
DOT_CENTER
 62
     2
100
AcDbLine
 10
-164.598328410036
 20
-473.85645739489
 30
0.0
 11
-164.598328410036
 21
-562.098299953511
 31
0.0
  0
ARC
  5
17D
330
38
100
AcDbEntity
  8
1
  6
Continuous
 62
     7
100
AcDbCircle
 10
-156.398328413074
 20
-471.449508978063
 30
0.0
 40
0.5
100
AcDbArc
 50
90.0
 51
180.0
  0
ARC
  5
17E
330
38
100
AcDbEntity
  8
1
  6
Continuous
 62
     7
100
AcDbCircle
 10
-255.59910711473
 20
-654.564248343577
 30
0.0
 40
0.5
100
AcDbArc
 50
0.0
 51
90.0
  0
ARC
  5
17F
330
38
100
AcDbEntity
  8
1
  6
Continuous
 62
     2
100
AcDbCircle
 10
-254.300203071506
 20
-654.564248343577
 30
0.0
 40
0.5
100
AcDbArc
 50
0.0
 51
90.0
  0
ARC
  5
180
330
38
100
AcDbEntity
  8
1
  6
Continuous
 62
     7
100
AcDbCircle
 10
-286.031346662821
 20
-654.564248343576
 30
0.0
 40
0.5
100
AcDbArc
 50
90.0
 51
180.0
  0
ARC
  5
181
330
38
100
AcDbEntity
  8
1
  6
Continuous
 62
     7
100
AcDbCircle
 10
-302.031346662821
 20
-654.564248343576
 30
0.0
 40
0.5
100
AcDbArc
 50
0.0
 51
90.0
  0
ARC
  5
182
330
38
100
AcDbEntity
  8
1
  6
Continuous
 62
     2
100
AcDbCircle
 10
-333.762490248215
 20
-654.564248343576
 30
0.0
 40
0.5
100
AcDbArc
 50
90.0
 51
180.0
  0
ARC
  5
183
330
38
100
AcDbEntity
  8
1
  6
Continuous
 62
     7
100
AcDbCircle
 10
-332.463586204991
 20
-654.564248343576
 30
0.0
 40
0.5
100
AcDbArc
 50
90.0
 51
180.0
  0
ARC
  5
184
330
38
100
AcDbEntity
  8
1
  6
Continuous
 62
     7
100
AcDbCircle
 10
-338.031346662821
 20
-654.564248343576
 30
0.0
 40
0.5
100
AcDbArc
 50
90.0
 51
180.0
  0
ARC
  5
185
330
38
100
AcDbEntity
  8
1
  6
Continuous
 62
     7
100
AcDbCircle
 10
-248.531346665836
 20
-654.564248343576
 30
0.0
 40
0.5
100
AcDbArc
 50
0.0
 51
90.0
  0
ARC
  5
186
330
38
100
AcDbEntity
  8
1
  6
Continuous
 62
     7
100
AcDbCircle
 10
-156.398328413074
 20
-561.598299953511
 30
0.0
 40
0.5
100
AcDbArc
 50
180.0
 51
-90.0
  0
ARC
  5
187
330
38
100
AcDbEntity
  8
1
  6
Continuous
 62
     7
100
AcDbCircle
 10
-294.031346662821
 20
-475.06061969667
 30
0.0
 40
0.8499999999999659
100
AcDbArc
 50
-90.0
 51
0.0
  0
ARC
  5
188
330
38
100
AcDbEntity
  8
1
  6
Continuous
 62
     7
100
AcDbCircle
 10
-294.031346662821
 20
-475.06061969667
 30
0.0
 40
0.8499999999989996
100
AcDbArc
 50
180.0
 51
-90.0
  0
ARC
  5
189
330
38
100
AcDbEntity
  8
1
  6
Continuous
 62
     7
100
AcDbCircle
 10
-285.531346662821
 20
-561.100550673404
 30
0.0
 40
1.0
100
AcDbArc
 50
180.0
 51
-79.11205186911107
  0
ARC
  5
18A
330
38
100
AcDbEntity
  8
1
  6
Continuous
 62
     7
100
AcDbCircle
 10
-302.531346662821
 20
-561.100550673404
 30
0.0
 40
0.9999999999994602
100
AcDbArc
 50
-100.8879481308314
 51
0.0
  0
ARC
  5
18B
330
38
100
AcDbEntity
  8
1
  6
Continuous
 62
     7
100
AcDbCircle
 10
-287.531346662821
 20
-558.404595162995
 30
0.0
 40
1.0
100
AcDbArc
 50
0.0
 51
98.90298777568879
  0
ARC
  5
18C
330
38
100
AcDbEntity
  8
1
  6
Continuous
 62
     7
100
AcDbCircle
 10
-300.531346662821
 20
-558.404595162995
 30
0.0
 40
0.999999999999659
100
AcDbArc
 50
81.09701222425008
 51
180.0
  0
ARC
  5
18D
330
38
100
AcDbEntity
  8
1
  6
Continuous
 62
     7
100
AcDbCircle
 10
-260.011743845487
 20
-487.454438276135
 30
0.0
 40
0.9999999999995898
100
AcDbArc
 50
-59.99999999998644
 51
40.88794813090787
  0
ARC
  5
18E
330
38
100
AcDbEntity
  8
1
  6
Continuous
 62
     7
100
AcDbCircle
 10
-251.511743845487
 20
-502.176870140471
 30
0.0
 40
0.9999999999995061
100
AcDbArc
 50
19.1120518691877
 51
119.9999999999843
  0
ARC
  5
18F
330
38
100
AcDbEntity
  8
1
  6
Continuous
 62
     7
100
AcDbCircle
 10
-254.846509804975
 20
-501.792797088105
 30
0.0
 40
0.999999999999923
100
AcDbArc
 50
-158.9029877757194
 51
-60.00000000001737
  0
ARC
  5
190
330
38
100
AcDbEntity
  8
1
  6
Continuous
 62
     7
100
AcDbCircle
 10
-261.346509804975
 20
-490.534466838909
 30
0.0
 40
1.000000000001362
100
AcDbArc
 50
119.999999999955
 51
-141.0970122243165
  0
ARC
  5
191
330
38
100
AcDbEntity
  8
1
  6
Continuous
 62
     7
100
AcDbCircle
 10
-328.050949480154
 20
-487.454438276135
 30
0.0
 40
1.000000000000497
100
AcDbArc
 50
139.1120518690943
 51
-119.9999999999843
  0
ARC
  5
192
330
38
100
AcDbEntity
  8
1
  6
Continuous
 62
     7
100
AcDbCircle
 10
-336.550949480154
 20
-502.17687014047
 30
0.0
 40
0.9999999999995898
100
AcDbArc
 50
59.99999999998644
 51
160.8879481308869
  0
ARC
  5
193
330
38
100
AcDbEntity
  8
1
  6
Continuous
 62
     7
100
AcDbCircle
 10
-333.216183520667
 20
-501.792797088105
 30
0.0
 40
1.000000000000525
100
AcDbArc
 50
-119.9999999999826
 51
-21.09701222428063
  0
ARC
  5
194
330
38
100
AcDbEntity
  8
1
  6
Continuous
 62
     7
100
AcDbCircle
 10
-326.716183520667
 20
-490.534466838909
 30
0.0
 40
0.999999999998838
100
AcDbArc
 50
-38.9029877756815
 51
60.00000000004506
  0
ARC
  5
195
330
38
100
AcDbEntity
  8
1
  6
Continuous
 62
     7
100
AcDbCircle
 10
-292.181346662821
 20
-471.948663558969
 30
0.0
 40
1.000000000001187
100
AcDbArc
 50
87.64384282455823
 51
180.0
  0
ARC
  5
196
330
38
100
AcDbEntity
  8
1
  6
Continuous
 62
     7
100
AcDbCircle
 10
-295.88134666282
 20
-471.948663558969
 30
0.0
 40
1.0
100
AcDbArc
 50
0.0
 51
92.35615717549707
  0
ARC
  5
197
330
38
100
AcDbEntity
  8
1
  6
Continuous
 62
     7
100
AcDbCircle
 10
-254.098712539293
 20
-537.656335680579
 30
0.0
 40
1.000000000000476
100
AcDbArc
 50
-119.9999999999843
 51
-27.45268181734381
  0
ARC
  5
198
330
38
100
AcDbEntity
  8
1
  6
Continuous
 62
     7
100
AcDbCircle
 10
-256.098712539293
 20
-541.120437295718
 30
0.0
 40
0.9999999999998874
100
AcDbArc
 50
-32.5473181827066
 51
59.99999999998969
  0
ARC
  5
199
330
38
100
AcDbEntity
  8
1
  6
Continuous
 62
     7
100
AcDbCircle
 10
-331.963980786348
 20
-541.120437295719
 30
0.0
 40
1.000000000000476
100
AcDbArc
 50
119.9999999999843
 51
-147.4526818173067
  0
ARC
  5
19A
330
38
100
AcDbEntity
  8
1
  6
Continuous
 62
     7
100
AcDbCircle
 10
-333.963980786348
 20
-537.656335680579
 30
0.0
 40
1.000000000000564
100
AcDbArc
 50
-152.5473181826562
 51
-60.00000000001575
  0
ARC
  5
19B
330
38
100
AcDbEntity
  8
1
  6
Continuous
 62
     7
100
AcDbCircle
 10
-253.239190554079
 20
-526.910619696669
 30
0.0
 40
1.00000000000004
100
AcDbArc
 50
166.2258530019905
 51
-90.0
  0
ARC
  5
19C
330
38
100
AcDbEntity
  8
1
  6
Continuous
 62
     7
100
AcDbCircle
 10
-253.239190554079
 20
-506.910619696669
 30
0.0
 40
1.0
100
AcDbArc
 50
90.0
 51
-166.2258530019905
  0
ARC
  5
19D
330
38
100
AcDbEntity
  8
1
  6
Continuous
 62
     2
100
AcDbCircle
 10
-156.398328413074
 20
-540.27120967408
 30
0.0
 40
0.5
100
AcDbArc
 50
180.0
 51
-90.0
  0
ARC
  5
19E
330
38
100
AcDbEntity
  8
1
  6
Continuous
 62
     7
100
AcDbCircle
 10
-156.398328413074
 20
-538.156278730332
 30
0.0
 40
0.5
100
AcDbArc
 50
180.0
 51
-90.0
  0
ARC
  5
19F
330
38
100
AcDbEntity
  8
1
  6
Continuous
 62
     7
100
AcDbCircle
 10
-156.398328413074
 20
-501.67812771131
 30
0.0
 40
0.5
100
AcDbArc
 50
90.0
 51
180.0
  0
ARC
  5
1A0
330
38
100
AcDbEntity
  8
1
  6
Continuous
 62
     2
100
AcDbCircle
 10
-156.398328413074
 20
-488.223194815305
 30
0.0
 40
0.5
100
AcDbArc
 50
90.0
 51
180.0
  0
ARC
  5
1A1
330
38
100
AcDbEntity
  8
1
  6
Continuous
 62
     7
100
AcDbCircle
 10
-294.031346662821
 20
-516.910619696669
 30
0.0
 40
45.99999999698394
100
AcDbArc
 50
160.8879481308601
 51
165.3279225493293
  0
ARC
  5
1A2
330
38
100
AcDbEntity
  8
1
  6
Continuous
 62
     7
100
AcDbCircle
 10
-294.031346659861
 20
-646.364248346614
 30
0.0
 40
40.00000000000077
100
AcDbArc
 50
1.4332473385672
 51
178.5667526614328
  0
ARC
  5
1A3
330
38
100
AcDbEntity
  8
1
  6
Continuous
 62
     7
100
AcDbCircle
 10
-164.598328410036
 20
-516.910619693702
 30
0.0
 40
40.00000000000038
100
AcDbArc
 50
-101.9894571857517
 51
-91.43254373759372
  0
ARC
  5
1A4
330
38
100
AcDbEntity
  8
1
  6
Continuous
 62
     7
100
AcDbCircle
 10
-294.031346662821
 20
-516.910619696669
 30
0.0
 40
41.00000000000028
100
AcDbArc
 50
21.09701222426073
 51
38.90298777573865
  0
ARC
  5
1A5
330
38
100
AcDbEntity
  8
1
  6
Continuous
 62
     7
100
AcDbCircle
 10
-164.598328410036
 20
-516.910619693702
 30
0.0
 40
40.00000000000401
100
AcDbArc
 50
-179.9999999956713
 51
-101.9894571857517
  0
ARC
  5
1A6
330
38
100
AcDbEntity
  8
1
  6
Continuous
 62
     7
100
AcDbCircle
 10
-164.598328410036
 20
-516.910619693702
 30
0.0
 40
40.00000000000058
100
AcDbArc
 50
91.43254373739741
 51
-179.9999999956713
  0
ARC
  5
1A7
330
38
100
AcDbEntity
  8
1
  6
Continuous
 62
     7
100
AcDbCircle
 10
-294.031346662821
 20
-516.910619696669
 30
0.0
 40
45.99999999698404
100
AcDbArc
 50
92.35615717543749
 51
139.1120518691411
  0
ARC
  5
1A8
330
38
100
AcDbEntity
  8
1
  6
Continuous
 62
     7
100
AcDbCircle
 10
-294.031346662821
 20
-516.910619696669
 30
0.0
 40
45.99999999698457
100
AcDbArc
 50
40.88794813085804
 51
87.64384282456244
  0
ARC
  5
1A9
330
38
100
AcDbEntity
  8
1
  6
Continuous
 62
     7
100
AcDbCircle
 10
-294.031346662821
 20
-516.910619696669
 30
0.0
 40
41.00000000000029
100
AcDbArc
 50
141.0970122242613
 51
158.9029877757393
  0
ARC
  5
1AA
330
38
100
AcDbEntity
  8
1
  6
Continuous
 62
     7
100
AcDbCircle
 10
-294.031346662821
 20
-516.910619696669
 30
0.0
 40
41.00000000000109
100
AcDbArc
 50
-98.90298777573858
 51
-81.09701222425993
  0
ARC
  5
1AB
330
38
100
AcDbEntity
  8
1
  6
Continuous
 62
     7
100
AcDbCircle
 10
-294.031346662821
 20
-516.910619696669
 30
0.0
 40
45.99999999698453
100
AcDbArc
 50
13.83522361496299
 51
19.11205186913991
  0
ARC
  5
1AC
330
38
100
AcDbEntity
  8
1
  6
Continuous
 62
     7
100
AcDbCircle
 10
-294.031346662821
 20
-516.910619696669
 30
0.0
 40
45.99999999698435
100
AcDbArc
 50
-74.00225984808975
 51
-32.54731818274049
  0
ARC
  5
1AD
330
38
100
AcDbEntity
  8
1
  6
Continuous
 62
     7
100
AcDbCircle
 10
-257.658279703874
 20
-537.910619696669
 30
0.0
 40
1.000000000000476
100
AcDbArc
 50
60.00000000001575
 51
-119.9999999999843
  0
ARC
  5
1AE
330
38
100
AcDbEntity
  8
1
  6
Continuous
 62
     7
100
AcDbCircle
 10
-294.031346662821
 20
-516.910619696669
 30
0.0
 40
45.99999999698487
100
AcDbArc
 50
-165.3279225493281
 51
-152.54731818274
  0
ARC
  5
1AF
330
38
100
AcDbEntity
  8
1
  6
Continuous
 62
     7
100
AcDbCircle
 10
-294.031346662821
 20
-516.910619696669
 30
0.0
 40
45.99999999698336
100
AcDbArc
 50
-147.4526818172581
 51
-100.8879481308581
  0
ARC
  5
1B0
330
38
100
AcDbEntity
  8
1
  6
Continuous
 62
     7
100
AcDbCircle
 10
-330.404413621767
 20
-537.910619696669
 30
0.0
 40
1.000000000000476
100
AcDbArc
 50
-60.00000000001575
 51
119.9999999999843
  0
ARC
  5
1B1
330
38
100
AcDbEntity
  8
1
  6
Continuous
 62
     7
100
AcDbCircle
 10
-294.031346662821
 20
-516.910619696669
 30
0.0
 40
45.99999999698461
100
AcDbArc
 50
12.5558577994224
 51
13.83522361496299
  0
ARC
  5
1B2
330
38
100
AcDbEntity
  8
1
  6
Continuous
 62
     7
100
AcDbCircle
 10
-294.031346662821
 20
-516.910619696669
 30
0.0
 40
45.99999999698518
100
AcDbArc
 50
-27.45268181725935
 51
-13.83522361496306
  0
ARC
  5
1B3
330
38
100
AcDbEntity
  8
1
  6
Continuous
 62
     7
100
AcDbCircle
 10
-294.031346662821
 20
-516.910619696669
 30
0.0
 40
45.99999999698454
100
AcDbArc
 50
-13.83522361496306
 51
-12.55585779942247
  0
ARC
  5
1B4
330
38
100
AcDbEntity
  8
1
  6
Continuous
 62
     7
100
AcDbCircle
 10
-294.031346662821
 20
-516.910619696669
 30
0.0
 40
45.99999999698462
100
AcDbArc
 50
-12.55585779942247
 51
12.5558577994224
  0
ARC
  5
1B5
330
38
100
AcDbEntity
  8
1
  6
Continuous
 62
     7
100
AcDbCircle
 10
-294.031346662821
 20
-516.910619696669
 30
0.0
 40
45.99999999698415
100
AcDbArc
 50
-79.11205186914066
 51
-74.00225984808975
  0
ARC
  5
1B6
330
38
100
AcDbEntity
  8
1
  6
Continuous
 62
     7
100
AcDbCircle
 10
-294.031346662821
 20
-516.910619696669
 30
0.0
 40
40.99999999999972
100
AcDbArc
 50
-13.77414699802723
 51
13.77414699802715
  0
CIRCLE
  5
1B7
330
38
100
AcDbEntity
  8
1
  6
Continuous
 62
     2
100
AcDbCircle
 10
-294.031346662821
 20
-516.910619696669
 30
0.0
 40
39.99999999998701
  0
CIRCLE
  5
1B8
330
38
100
AcDbEntity
  8
1
  6
Continuous
 62
     2
100
AcDbCircle
 10
-294.031346662821
 20
-516.910619696669
 30
0.0
 40
40.09999999401202
  0
CIRCLE
  5
1B9
330
38
100
AcDbEntity
  8
1
  6
Continuous
 62
     2
100
AcDbCircle
 10
-294.031346662821
 20
-516.910619696669
 30
0.0
 40
40.29999999401201
  0
CIRCLE
  5
1BA
330
38
100
AcDbEntity
  8
1
  6
DOT_CENTER
 62
     2
100
AcDbCircle
 10
-294.031346662821
 20
-516.910619696669
 30
0.0
 40
45.99999999698503
  0
LWPOLYLINE
  5
1BB
330
38
100
AcDbEntity
  8
1
  6
Continuous
 62
     7
 60
     1
100
AcDbPolyline
 90
        2
 70
     0
 43
0.0
 10
-155.098328409927
 20
-475.910619705727
 10
-156.898328413074
 20
-475.910619696669
  0
LWPOLYLINE
  5
1BC
330
38
100
AcDbEntity
  8
1
  6
Continuous
 62
     7
 60
     1
100
AcDbPolyline
 90
        2
 70
     0
 43
0.0
 10
-156.898328413074
 20
-557.910619693629
 10
-155.098328409927
 20
-557.910619693629
  0
LWPOLYLINE
  5
1BD
330
38
100
AcDbEntity
  8
1
  6
Continuous
 62
     7
 60
     1
100
AcDbPolyline
 90
       15
 70
     0
 43
0.0
 10
-164.598328410036
 20
-556.910619696704
 10
-164.809540757238
 20
-556.91006205662
 10
-165.0808720348
 20
-556.907708983427
 10
-165.522536604421
 20
-556.899941258508
 10
-165.944150044611
 20
-556.887972834298
 10
-166.246109917273
 20
-556.876665483903
 10
-166.718604348968
 20
-556.854385539485
 10
-167.23763141225
 20
-556.823450709085
 10
-167.771891025114
 20
-556.784527206362
 10
-168.44667113026
 20
-556.725067552585
 10
-169.117476420628
 20
-556.654516096274
 10
-169.808442495146
 20
-556.569852051631
 10
-170.472051622643
 20
-556.477011690214
 10
-170.635069771881
 20
-556.452467826158
 10
-172.907596468774
 20
-556.038053347445
  0
LWPOLYLINE
  5
1BE
330
38
100
AcDbEntity
  8
1
  6
Continuous
 62
     7
 60
     1
100
AcDbPolyline
 90
        2
 70
     0
 43
0.0
 10
-155.098328409927
 20
-475.910619696669
 10
-155.098328409927
 20
-477.423422891346
  0
LWPOLYLINE
  5
1BF
330
38
100
AcDbEntity
  8
1
  6
Continuous
 62
     7
 60
     1
100
AcDbPolyline
 90
       55
 70
     0
 43
0.0
 10
-164.598328410036
 20
-478.410619705653
 10
-164.78322619755
 20
-478.411063685766
 10
-165.136608541492
 20
-478.414382806181
 10
-165.400732054986
 20
-478.41898231114
 10
-165.669300343601
 20
-478.425518432077
 10
-165.923587982647
 20
-478.433435713254
 10
-166.207382435819
 20
-478.444258478451
 10
-166.456050184077
 20
-478.455465685295
 10
-166.799388696721
 20
-478.473588934102
 10
-167.043014719979
 20
-478.48831485854
 10
-167.107451365536
 20
-478.492469009498
 10
-169.365037380096
 20
-478.706843890847
 10
-171.77618250368
 20
-479.085648965221
 10
-173.902408003727
 20
-479.551763944169
 10
-176.649041461008
 20
-480.345194563353
 10
-178.309582150777
 20
-480.934912322517
 10
-181.085326908938
 20
-482.119401254313
 10
-182.697496757612
 20
-482.930182599307
 10
-184.417579334264
 20
-483.903843225792
 10
-185.22445280078
 20
-484.401959422666
 10
-188.900379584167
 20
-487.049938041568
 10
-192.07624252298
 20
-489.943709674166
 10
-195.365833774362
 20
-493.767356880169
 10
-197.530869977074
 20
-496.968260105745
 10
-199.031233627873
 20
-499.68781393333
 10
-200.345980706878
 20
-502.615328326816
 10
-201.291312531381
 20
-505.25408005834
 10
-202.26064829816
 20
-508.923150717565
 10
-202.836472937984
 20
-512.427952735304
 10
-203.04326606828
 20
-514.852278503841
 10
-203.098328410038
 20
-516.910619693702
 10
-203.029899878093
 20
-519.205029093894
 10
-202.24253917869
 20
-524.983004447
 10
-201.070537208816
 20
-529.240582602741
 10
-200.242521095295
 20
-531.461960793967
 10
-198.520841689813
 20
-535.118120696954
 10
-196.73565907652
 20
-538.110666335943
 10
-194.799568890072
 20
-540.788121101244
 10
-192.879871489303
 20
-543.033489387815
 10
-190.396618829182
 20
-545.488551939572
 10
-188.28695289749
 20
-547.260233692771
 10
-186.152729167065
 20
-548.81136902668
 10
-183.789825123597
 20
-550.286306261822
 10
-180.735069879632
 20
-551.865670469569
 10
-178.120464361197
 20
-552.957836497755
 10
-175.285987809443
 20
-553.897427295364
 10
-171.059309036604
 20
-554.864614599945
 10
-170.27496798747
 20
-554.989823507698
 10
-169.429750755037
 20
-555.106265494293
 10
-168.172284081521
 20
-555.244375586626
 10
-166.872473701792
 20
-555.34339559126
 10
-165.838773923673
 20
-555.390631322179
 10
-164.857999745306
 20
-555.409743979816
 10
-164.598328410036
 20
-555.410619693702
 10
-164.598328410036
 20
-555.510151019925
  0
LWPOLYLINE
  5
1C0
330
38
100
AcDbEntity
  8
1
  6
Continuous
 62
     7
 60
     1
100
AcDbPolyline
 90
        2
 70
     0
 43
0.0
 10
-155.098328409927
 20
-556.292155385448
 10
-155.098328409927
 20
-557.910619693629
  0
LWPOLYLINE
  5
1C1
330
38
100
AcDbEntity
  8
1
  6
Continuous
 62
     7
 60
     1
100
AcDbPolyline
 90
       53
 70
     0
 43
0.0
 10
-164.598328410036
 20
-478.410619705653
 10
-165.136608541492
 20
-478.414382806181
 10
-165.669300343601
 20
-478.425518432077
 10
-166.207382435819
 20
-478.444258478451
 10
-167.107451365536
 20
-478.492469009498
 10
-168.091055704082
 20
-478.56937745966
 10
-168.709738896671
 20
-478.630777690233
 10
-168.980151855178
 20
-478.660788017004
 10
-171.198359128136
 20
-478.980557809752
 10
-174.676174444192
 20
-479.753022633183
 10
-177.545673008832
 20
-480.652982321142
 10
-181.085326908938
 20
-482.119401254313
 10
-183.221493402071
 20
-483.214511228783
 10
-185.795158299454
 20
-484.77116726154
 10
-188.194950932595
 20
-486.489419758
 10
-190.97501882762
 20
-488.865652184093
 10
-192.772806218178
 20
-490.672311816886
 10
-195.365833774362
 20
-493.767356880169
 10
-197.01704593664
 20
-496.143415887451
 10
-198.771880106495
 20
-499.178773640637
 10
-199.987976518498
 20
-501.750711819333
 10
-201.291312531381
 20
-505.25408005834
 10
-202.26064829816
 20
-508.923150717565
 10
-202.836472937984
 20
-512.427952735304
 10
-203.08343599127
 20
-515.839874877694
 10
-203.098328410038
 20
-516.910619693702
 10
-203.029899878093
 20
-519.205029093894
 10
-202.872457368443
 20
-521.074878628422
 10
-202.566091484799
 20
-523.29019390354
 10
-202.34609425496
 20
-524.484005575653
 10
-201.572428969843
 20
-527.642156759442
 10
-200.575534815384
 20
-530.617939609245
 10
-199.628169908539
 20
-532.884354529046
 10
-198.520841689813
 20
-535.118120696954
 10
-197.386595280812
 20
-537.089310325426
 10
-196.73565907652
 20
-538.110666335943
 10
-195.282550687617
 20
-540.164189381388
 10
-193.885576014187
 20
-541.900760305017
 10
-191.982223072086
 20
-543.972997880733
 10
-189.626064185429
 20
-546.16574645735
 10
-187.282617933381
 20
-548.018062674781
 10
-184.528921112492
 20
-549.850283846952
 10
-182.343877115919
 20
-551.077057920816
 10
-179.615439144065
 20
-552.361097619987
 10
-178.120464361197
 20
-552.957836497755
 10
-176.234609993908
 20
-553.610033189027
 10
-173.598078371979
 20
-554.343953777411
 10
-171.059309036604
 20
-554.864614599945
 10
-169.429750755037
 20
-555.106265494293
 10
-168.172284081521
 20
-555.244375586626
 10
-165.838773923673
 20
-555.390631322179
 10
-164.598328410036
 20
-555.410619693702
 10
-164.598328410036
 20
-555.510151019925
  0
LWPOLYLINE
  5
1C2
330
38
100
AcDbEntity
  8
1
  6
Continuous
 62
     7
 60
     1
100
AcDbPolyline
 90
        3
 70
     0
 43
0.0
 10
-164.598819462599
 20
-476.910619696715
 10
-164.598328410036
 20
-476.81061970265
 10
-156.898328413074
 20
-476.610619702651
  0
LWPOLYLINE
  5
1C3
330
38
100
AcDbEntity
  8
1
  6
Continuous
 62
     7
 60
     1
100
AcDbPolyline
 90
       29
 70
     0
 43
0.0
 10
-164.598328410036
 20
-556.910619696704
 10
-164.639275194254
 20
-556.910598735706
 10
-164.723439758125
 20
-556.910424032605
 10
-164.809540757238
 20
-556.91006205662
 10
-164.85231436598
 20
-556.909813324752
 10
-164.892813651466
 20
-556.909535659545
 10
-164.978039589306
 20
-556.908817395852
 10
-166.718604348968
 20
-556.854385539485
 10
-169.117476420628
 20
-556.654516096274
 10
-170.635069771881
 20
-556.452467826158
 10
-174.024223233079
 20
-555.78416476982
 10
-177.211739441657
 20
-554.869832832905
 10
-179.496801782514
 20
-554.032520118781
 10
-182.316000802891
 20
-552.772634207382
 10
-184.885131508815
 20
-551.384459341054
 10
-187.611129192371
 20
-549.627755878774
 10
-190.89457732451
 20
-547.052074420174
 10
-193.581241301951
 20
-544.478549617795
 10
-196.1089572487
 20
-541.549618662654
 10
-198.23605932605
 20
-538.555551174812
 10
-199.84456312119
 20
-535.823655903848
 10
-201.054048831472
 20
-533.37210348327
 10
-202.750341200666
 20
-528.928270047399
 10
-203.557548729516
 20
-525.975891454563
 10
-204.013904109487
 20
-523.723283804088
 10
-204.351747770762
 20
-521.34521653336
 10
-204.517080764693
 20
-519.458797561826
 10
-204.588536919004
 20
-517.795618794997
 10
-204.59832841004
 20
-516.910619696724
  0
LWPOLYLINE
  5
1C4
330
38
100
AcDbEntity
  8
1
  6
Continuous
 62
     7
 60
     1
100
AcDbPolyline
 90
        2
 70
     0
 43
0.0
 10
-156.898328413074
 20
-557.610619693628
 10
-156.898328413074
 20
-557.210619696705
  0
MTEXT
  5
1C6
330
38
100
AcDbEntity
  8
1
 62
     2
100
AcDbMText
 10
-250.716149094357
 20
-521.307981484586
 30
0.0
 40
3.0
 41
0.0
 71
     5
 72
     1
  1
P
  7
CONVERTER_12
 11
0.06975647374412541
 21
0.9975640502598244
 31
0.0
 73
     1
 44
1.0
  0
MTEXT
  5
1C7
330
38
100
AcDbEntity
  8
1
 62
     2
100
AcDbMText
 10
-250.481653385138
 20
-518.479316068239
 30
0.0
 40
3.0
 41
0.0
 71
     5
 72
     1
  1
M
  7
CONVERTER_12
 11
6.123031769111889E-17
 21
1.0
 31
0.0
 73
     1
 44
1.0
  0
MTEXT
  5
1C8
330
38
100
AcDbEntity
  8
1
 62
     2
100
AcDbMText
 10
-250.481527321405
 20
-515.34488842281
 30
0.0
 40
3.0
 41
0.0
 71
     5
 72
     1
  1
M
  7
CONVERTER_12
 11
6.123031769111889E-17
 21
1.0
 31
0.0
 73
     1
 44
1.0
  0
MTEXT
  5
1C9
330
38
100
AcDbEntity
  8
1
 62
     2
100
AcDbMText
 10
-250.738195436584
 20
-512.560764839625
 30
0.0
 40
3.0
 41
0.0
 71
     5
 72
     1
  1
A
  7
CONVERTER_12
 11
-0.1045284632676531
 21
0.9945218953682735
 31
0.0
 73
     1
 44
1.0
  0
DIMENSION
  5
1D4
330
38
100
AcDbEntity
  8
1
100
AcDbDimension
  2
*D10
 10
-156.898328413075
 20
-572.702205473595
 30
0.0
 11
-147.098213732609
 21
-570.483455473595
 31
0.0
 70
    32
  1
1.80.3
 71
     5
 42
-1.0
 53
0.00013888888889
  3
ME10_DIM_10
100
AcDbAlignedDimension
 13
-155.098328409927
 23
-562.098299953511
 33
0.0
 14
-156.898328413074
 24
-561.598299953511
 34
0.0
100
AcDbRotatedDimension
  0
DIMENSION
  5
1DF
330
38
100
AcDbEntity
  8
1
100
AcDbDimension
  2
*D11
 10
-155.0983284099261
 20
-586.984301338016
 30
0.0
 11
-179.848328409981
 21
-584.765551338016
 31
0.0
 70
    32
  1
49.50.5
 71
     5
 42
-1.0
 53
0.00013888888889
  3
ME10_DIM_11
100
AcDbAlignedDimension
 13
-204.59832841004
 23
-516.910619696724
 33
0.0
 14
-155.098328409927
 24
-562.098299953511
 34
0.0
100
AcDbRotatedDimension
  0
DIMENSION
  5
1EB
330
38
100
AcDbEntity
  8
1
100
AcDbDimension
  2
*D12
 10
-155.0983284099266
 20
-579.985574318002
 30
0.0
 11
-149.225755613139
 21
-577.485574318002
 31
0.0
 70
    32
  1
(9.5
 71
     5
 42
-1.0
 53
0.00013888888889
  3
ME10_DIM_12
100
AcDbAlignedDimension
 13
-164.598328410036
 23
-562.098299953511
 33
0.0
 14
-155.098328409927
 24
-562.098299953511
 34
0.0
100
AcDbRotatedDimension
  0
ENDBLK
  5
3C
330
38
100
AcDbEntity
  8
0
100
AcDbBlockEnd
  0
BLOCK
  5
3F
330
3D
100
AcDbEntity
  8
0
100
AcDbBlockBegin
  2
TOP
 70
     0
 71
     0
 10
-4548.24030806361
 20
-7215.18789297293
 30
0.0
  3
TOP
  1

  0
INSERT
  5
3E
330
3D
100
AcDbEntity
  8
0
100
AcDbBlockReference
  2
cf35_dome__2002_06_19_16_36_45
 10
-13662.3528464393
 20
-15483.5598807447
 30
0.0
  0
ENDBLK
  5
40
330
3D
100
AcDbEntity
  8
0
100
AcDbBlockEnd
  0
BLOCK
  5
43
330
41
100
AcDbEntity
  8
0
100
AcDbBlockBegin
  2
reference__2005_03_02_11_27_59
 70
     0
 71
     0
 10
-4575.39487044722
 20
-7031.31824679043
 30
0.0
  3
reference__2005_03_02_11_27_59
  1

  0
INSERT
  5
42
330
41
100
AcDbEntity
  8
0
100
AcDbBlockReference
  2
TOP
 10
-4548.24030806361
 20
-7215.18789297293
 30
0.0
  0
ENDBLK
  5
44
330
41
100
AcDbEntity
  8
0
100
AcDbBlockEnd
  0
BLOCK
  5
47
330
45
100
AcDbEntity
  8
0
100
AcDbBlockBegin
  2
cf45_atari__2006_01_11_15_26_59
 70
     0
 71
     0
 10
-4403.07638485067
 20
-3481.05174591506
 30
0.0
  3
cf45_atari__2006_01_11_15_26_59
  1

  0
INSERT
  5
46
330
45
100
AcDbEntity
  8
0
100
AcDbBlockReference
  2
reference__2005_03_02_11_27_59
 10
-4575.39487044722
 20
-7031.31824679043
 30
0.0
  0
ENDBLK
  5
48
330
45
100
AcDbEntity
  8
0
100
AcDbBlockEnd
  0
BLOCK
  5
4B
330
49
100
AcDbEntity
  8
0
100
AcDbBlockBegin
  2
YV3_6X2_8_AF_kentou__2006_01_13_14_48_41
 70
     0
 71
     0
 10
-389.143883416194
 20
-2974.64528815413
 30
0.0
  3
YV3_6X2_8_AF_kentou__2006_01_13_14_48_41
  1

  0
INSERT
  5
4A
330
49
100
AcDbEntity
  8
0
100
AcDbBlockReference
  2
cf45_atari__2006_01_11_15_26_59
 10
-4403.07638485067
 20
-3481.05174591506
 30
0.0
  0
ENDBLK
  5
4C
330
49
100
AcDbEntity
  8
0
100
AcDbBlockEnd
  0
BLOCK
  5
4E
330
4D
100
AcDbEntity
  8
0
100
AcDbBlockBegin
  2
cf284p_name_label-3pa-a__2006_09_07_20_29_23
 70
     0
 71
     0
 10
-745.792844362037
 20
-2392.6723223633
 30
0.0
  3
cf284p_name_label-3pa-a__2006_09_07_20_29_23
  1

  0
POINT
  5
1EC
330
4D
100
AcDbEntity
  8
1
 62
     3
 60
     1
100
AcDbPoint
 10
-3960.2370748488
 20
-2767.06385398897
 30
0.0
  0
POINT
  5
1ED
330
4D
100
AcDbEntity
  8
1
 62
     3
 60
     1
100
AcDbPoint
 10
-3717.04981201401
 20
-3702.91517274216
 30
0.0
  0
POINT
  5
1EE
330
4D
100
AcDbEntity
  8
1
 62
     3
 60
     1
100
AcDbPoint
 10
840.002804469941
 20
-5130.9872063334
 30
0.0
  0
POINT
  5
1EF
330
4D
100
AcDbEntity
  8
1
 62
     3
 60
     1
100
AcDbPoint
 10
-5771.38266122774
 20
-3313.46645775477
 30
0.0
  0
POINT
  5
1F0
330
4D
100
AcDbEntity
  8
1
 62
     3
 60
     1
100
AcDbPoint
 10
-392.189276654546
 20
-2206.9889992665
 30
0.0
  0
POINT
  5
1F1
330
4D
100
AcDbEntity
  8
1
 62
     3
 60
     1
100
AcDbPoint
 10
-5161.74412188755
 20
-2459.94469300431
 30
0.0
  0
POINT
  5
1F2
330
4D
100
AcDbEntity
  8
1
 62
     3
 60
     1
100
AcDbPoint
 10
-4918.55685905276
 20
-3395.7960117575
 30
0.0
  0
POINT
  5
1F3
330
4D
100
AcDbEntity
  8
1
 62
     3
 60
     1
100
AcDbPoint
 10
-361.504242568808
 20
-4823.86804534875
 30
0.0
  0
POINT
  5
1F4
330
4D
100
AcDbEntity
  8
1
 62
     3
 60
     1
100
AcDbPoint
 10
-6972.88970826649
 20
-3006.34729677011
 30
0.0
  0
POINT
  5
1F5
330
4D
100
AcDbEntity
  8
1
 62
     3
 60
     1
100
AcDbPoint
 10
-2679.67099547941
 20
-3129.47396152069
 30
0.0
  0
POINT
  5
1F6
330
4D
100
AcDbEntity
  8
1
 62
     3
 60
     1
100
AcDbPoint
 10
-3963.62992062966
 20
-3411.7058711344
 30
0.0
  0
POINT
  5
1F7
330
4D
100
AcDbEntity
  8
1
 62
     3
 60
     1
100
AcDbPoint
 10
6219.19618904314
 20
-4024.50974784514
 30
0.0
  0
POINT
  5
1F8
330
4D
100
AcDbEntity
  8
1
 62
     3
 60
     1
100
AcDbPoint
 10
1311.8683403567
 20
-3396.73194205815
 30
0.0
  0
POINT
  5
1F9
330
4D
100
AcDbEntity
  8
1
 62
     3
 60
     1
100
AcDbPoint
 10
-2696.77627654612
 20
-3087.10865566631
 30
0.0
  0
POINT
  5
1FA
330
4D
100
AcDbEntity
  8
1
 62
     3
 60
     1
100
AcDbPoint
 10
-4161.74412188755
 20
-3359.94469300431
 30
0.0
  0
POINT
  5
1FB
330
4D
100
AcDbEntity
  8
1
 62
     3
 60
     1
100
AcDbPoint
 10
-3918.55685905276
 20
-4295.7960117575
 30
0.0
  0
POINT
  5
1FC
330
4D
100
AcDbEntity
  8
1
 62
     3
 60
     1
100
AcDbPoint
 10
638.495757431192
 20
-5723.86804534875
 30
0.0
  0
POINT
  5
1FD
330
4D
100
AcDbEntity
  8
1
 62
     3
 60
     1
100
AcDbPoint
 10
-5972.88970826649
 20
-3906.34729677011
 30
0.0
  0
POINT
  5
1FE
330
4D
100
AcDbEntity
  8
1
 62
     3
 60
     1
100
AcDbPoint
 10
-2960.2370748488
 20
-3667.06385398897
 30
0.0
  0
POINT
  5
1FF
330
4D
100
AcDbEntity
  8
1
 62
     3
 60
     1
100
AcDbPoint
 10
-2717.04981201401
 20
-4602.91517274216
 30
0.0
  0
POINT
  5
200
330
4D
100
AcDbEntity
  8
1
 62
     3
 60
     1
100
AcDbPoint
 10
1840.00280446994
 20
-6030.9872063334
 30
0.0
  0
POINT
  5
201
330
4D
100
AcDbEntity
  8
1
 62
     3
 60
     1
100
AcDbPoint
 10
-4771.38266122774
 20
-4213.46645775476
 30
0.0
  0
POINT
  5
202
330
4D
100
AcDbEntity
  8
1
 62
     3
 60
     1
100
AcDbPoint
 10
-10046.8809222141
 20
-3328.44038683102
 30
0.0
  0
POINT
  5
203
330
4D
100
AcDbEntity
  8
1
 62
     3
 60
     1
100
AcDbPoint
 10
-3435.49545651642
 20
-5145.96113540965
 30
0.0
  0
POINT
  5
204
330
4D
100
AcDbEntity
  8
1
 62
     3
 60
     1
100
AcDbPoint
 10
-7992.54807300038
 20
-3717.88910181841
 30
0.0
  0
POINT
  5
205
330
4D
100
AcDbEntity
  8
1
 62
     3
 60
     1
100
AcDbPoint
 10
-8235.73533583516
 20
-2782.03778306522
 30
0.0
  0
POINT
  5
206
330
4D
100
AcDbEntity
  8
1
 62
     3
 60
     1
100
AcDbPoint
 10
-11248.3879692529
 20
-3021.32122584636
 30
0.0
  0
POINT
  5
207
330
4D
100
AcDbEntity
  8
1
 62
     3
 60
     1
100
AcDbPoint
 10
-4637.00250355517
 20
-4838.841974425
 30
0.0
  0
POINT
  5
208
330
4D
100
AcDbEntity
  8
1
 62
     3
 60
     1
100
AcDbPoint
 10
-9194.05512003913
 20
-3410.76994083375
 30
0.0
  0
POINT
  5
209
330
4D
100
AcDbEntity
  8
1
 62
     3
 60
     1
100
AcDbPoint
 10
-9437.24238287392
 20
-2474.91862208056
 30
0.0
  0
POINT
  5
20A
330
4D
100
AcDbEntity
  8
1
 62
     3
 60
     1
100
AcDbPoint
 10
-3051.73327938614
 20
-3411.7058711344
 30
0.0
  0
POINT
  5
20B
330
4D
100
AcDbEntity
  8
1
 62
     3
 60
     1
100
AcDbPoint
 10
2223.76498159962
 20
-3396.73194205815
 30
0.0
  0
POINT
  5
20C
330
4D
100
AcDbEntity
  8
0
 62
     3
 60
     1
100
AcDbPoint
 10
4774.68593206984
 20
-5768.700155513
 30
0.0
  0
POINT
  5
20D
330
4D
100
AcDbEntity
  8
0
 62
     3
 60
     1
100
AcDbPoint
 10
4774.68593206984
 20
-5770.700155513
 30
0.0
  0
POINT
  5
20E
330
4D
100
AcDbEntity
  8
0
 62
     3
 60
     1
100
AcDbPoint
 10
4794.68593206984
 20
-5770.700155513
 30
0.0
  0
POINT
  5
20F
330
4D
100
AcDbEntity
  8
0
 62
     3
 60
     1
100
AcDbPoint
 10
4796.68593206984
 20
-5770.700155513
 30
0.0
  0
POINT
  5
210
330
4D
100
AcDbEntity
  8
1
 62
     3
 60
     1
100
AcDbPoint
 10
3135.66162284314
 20
-896.731942058152
 30
0.0
  0
POINT
  5
211
330
4D
100
AcDbEntity
  8
1
 62
     3
 60
     1
100
AcDbPoint
 10
-3051.73327938614
 20
-911.705871134402
 30
0.0
  0
POINT
  5
212
330
4D
100
AcDbEntity
  8
1
 62
     3
 60
     1
100
AcDbPoint
 10
-9437.24238287392
 20
25.0813779194364
 30
0.0
  0
POINT
  5
213
330
4D
100
AcDbEntity
  8
1
 62
     3
 60
     1
100
AcDbPoint
 10
-9194.05512003913
 20
-910.769940833753
 30
0.0
  0
POINT
  5
214
330
4D
100
AcDbEntity
  8
1
 62
     3
 60
     1
100
AcDbPoint
 10
-4637.00250355517
 20
-2338.841974425
 30
0.0
  0
POINT
  5
215
330
4D
100
AcDbEntity
  8
1
 62
     3
 60
     1
100
AcDbPoint
 10
-11248.3879692529
 20
-521.32122584636
 30
0.0
  0
POINT
  5
216
330
4D
100
AcDbEntity
  8
1
 62
     3
 60
     1
100
AcDbPoint
 10
-8235.73533583516
 20
-282.037783065218
 30
0.0
  0
POINT
  5
217
330
4D
100
AcDbEntity
  8
1
 62
     3
 60
     1
100
AcDbPoint
 10
-7992.54807300038
 20
-1217.88910181841
 30
0.0
  0
POINT
  5
218
330
4D
100
AcDbEntity
  8
1
 62
     3
 60
     1
100
AcDbPoint
 10
-3435.49545651642
 20
-2645.96113540965
 30
0.0
  0
POINT
  5
219
330
4D
100
AcDbEntity
  8
1
 62
     3
 60
     1
100
AcDbPoint
 10
-10046.8809222141
 20
-828.440386831015
 30
0.0
  0
POINT
  5
21A
330
4D
100
AcDbEntity
  8
1
 62
     3
 60
     1
100
AcDbPoint
 10
2223.76498159962
 20
-3396.73194205815
 30
0.0
  0
POINT
  5
21B
330
4D
100
AcDbEntity
  8
1
 62
     3
 60
     1
100
AcDbPoint
 10
-4382.19365989314
 20
-3515.73366472528
 30
0.0
  0
POINT
  5
21C
330
4D
100
AcDbEntity
  8
1
 62
     3
 60
     1
100
AcDbPoint
 10
-4139.00639705836
 20
-4451.58498347847
 30
0.0
  0
POINT
  5
21D
330
4D
100
AcDbEntity
  8
1
 62
     3
 60
     1
100
AcDbPoint
 10
418.046219425595
 20
-5879.65701706972
 30
0.0
  0
POINT
  5
21E
330
4D
100
AcDbEntity
  8
1
 62
     3
 60
     1
100
AcDbPoint
 10
-6193.33924627209
 20
-4062.13626849108
 30
0.0
  0
POINT
  5
21F
330
4D
100
AcDbEntity
  8
1
 62
     3
 60
     1
100
AcDbPoint
 10
-814.145861698892
 20
-2955.65881000281
 30
0.0
  0
POINT
  5
220
330
4D
100
AcDbEntity
  8
1
 62
     3
 60
     1
100
AcDbPoint
 10
-5583.70070693189
 20
-3208.61450374063
 30
0.0
  0
POINT
  5
221
330
4D
100
AcDbEntity
  8
1
 62
     3
 60
     1
100
AcDbPoint
 10
-5340.51344409711
 20
-4144.46582249382
 30
0.0
  0
POINT
  5
222
330
4D
100
AcDbEntity
  8
1
 62
     3
 60
     1
100
AcDbPoint
 10
-783.460827613153
 20
-5572.53785608506
 30
0.0
  0
POINT
  5
223
330
4D
100
AcDbEntity
  8
1
 62
     3
 60
     1
100
AcDbPoint
 10
-7394.84629331084
 20
-3755.01710750642
 30
0.0
  0
POINT
  5
224
330
4D
100
AcDbEntity
  8
1
 62
     3
 60
     1
100
AcDbPoint
 10
-3101.62758052375
 20
-3878.143772257
 30
0.0
  0
POINT
  5
225
330
4D
100
AcDbEntity
  8
1
 62
     3
 60
     1
100
AcDbPoint
 10
-4385.586505674
 20
-4160.37568187072
 30
0.0
  0
POINT
  5
226
330
4D
100
AcDbEntity
  8
1
 62
     3
 60
     1
100
AcDbPoint
 10
5797.23960399879
 20
-4773.17955858145
 30
0.0
  0
POINT
  5
227
330
4D
100
AcDbEntity
  8
1
 62
     3
 60
     1
100
AcDbPoint
 10
889.911755312356
 20
-4145.40175279447
 30
0.0
  0
POINT
  5
228
330
4D
100
AcDbEntity
  8
1
 62
     3
 60
     1
100
AcDbPoint
 10
-3118.73286159046
 20
-3835.77846640263
 30
0.0
  0
POINT
  5
229
330
4D
100
AcDbEntity
  8
1
 62
     3
 60
     1
100
AcDbPoint
 10
-4583.70070693189
 20
-4108.61450374063
 30
0.0
  0
POINT
  5
22A
330
4D
100
AcDbEntity
  8
1
 62
     3
 60
     1
100
AcDbPoint
 10
-4340.51344409711
 20
-5044.46582249382
 30
0.0
  0
POINT
  5
22B
330
4D
100
AcDbEntity
  8
1
 62
     3
 60
     1
100
AcDbPoint
 10
216.539172386846
 20
-6472.53785608506
 30
0.0
  0
POINT
  5
22C
330
4D
100
AcDbEntity
  8
1
 62
     3
 60
     1
100
AcDbPoint
 10
-6394.84629331084
 20
-4655.01710750642
 30
0.0
  0
POINT
  5
22D
330
4D
100
AcDbEntity
  8
1
 62
     3
 60
     1
100
AcDbPoint
 10
-3382.19365989314
 20
-4415.73366472528
 30
0.0
  0
POINT
  5
22E
330
4D
100
AcDbEntity
  8
1
 62
     3
 60
     1
100
AcDbPoint
 10
-3139.00639705836
 20
-5351.58498347847
 30
0.0
  0
POINT
  5
22F
330
4D
100
AcDbEntity
  8
1
 62
     3
 60
     1
100
AcDbPoint
 10
1418.0462194256
 20
-6779.65701706972
 30
0.0
  0
POINT
  5
230
330
4D
100
AcDbEntity
  8
1
 62
     3
 60
     1
100
AcDbPoint
 10
-5193.33924627208
 20
-4962.13626849108
 30
0.0
  0
POINT
  5
231
330
4D
100
AcDbEntity
  8
1
 62
     3
 60
     1
100
AcDbPoint
 10
-10468.8375072584
 20
-4077.11019756733
 30
0.0
  0
POINT
  5
232
330
4D
100
AcDbEntity
  8
1
 62
     3
 60
     1
100
AcDbPoint
 10
-3857.45204156076
 20
-5894.63094614597
 30
0.0
  0
POINT
  5
233
330
4D
100
AcDbEntity
  8
1
 62
     3
 60
     1
100
AcDbPoint
 10
-8414.50465804473
 20
-4466.55891255472
 30
0.0
  0
POINT
  5
234
330
4D
100
AcDbEntity
  8
1
 62
     3
 60
     1
100
AcDbPoint
 10
-8657.6919208795
 20
-3530.70759380153
 30
0.0
  0
POINT
  5
235
330
4D
100
AcDbEntity
  8
1
 62
     3
 60
     1
100
AcDbPoint
 10
-11670.3445542972
 20
-3769.99103658267
 30
0.0
  0
POINT
  5
236
330
4D
100
AcDbEntity
  8
1
 62
     3
 60
     1
100
AcDbPoint
 10
-5058.95908859951
 20
-5587.51178516131
 30
0.0
  0
POINT
  5
237
330
4D
100
AcDbEntity
  8
1
 62
     3
 60
     1
100
AcDbPoint
 10
-9616.01170508347
 20
-4159.43975157007
 30
0.0
  0
POINT
  5
238
330
4D
100
AcDbEntity
  8
1
 62
     3
 60
     1
100
AcDbPoint
 10
-9859.19896791826
 20
-3223.58843281688
 30
0.0
  0
POINT
  5
239
330
4D
100
AcDbEntity
  8
1
 62
     3
 60
     1
100
AcDbPoint
 10
-3473.68986443049
 20
-4160.37568187072
 30
0.0
  0
POINT
  5
23A
330
4D
100
AcDbEntity
  8
1
 62
     3
 60
     1
100
AcDbPoint
 10
1801.80839655528
 20
-4145.40175279446
 30
0.0
  0
POINT
  5
23B
330
4D
100
AcDbEntity
  8
0
 62
     3
 60
     1
100
AcDbPoint
 10
4352.7293470255
 20
-6517.36996624931
 30
0.0
  0
POINT
  5
23C
330
4D
100
AcDbEntity
  8
0
 62
     3
 60
     1
100
AcDbPoint
 10
4352.7293470255
 20
-6519.36996624931
 30
0.0
  0
POINT
  5
23D
330
4D
100
AcDbEntity
  8
0
 62
     3
 60
     1
100
AcDbPoint
 10
4372.7293470255
 20
-6519.36996624931
 30
0.0
  0
POINT
  5
23E
330
4D
100
AcDbEntity
  8
0
 62
     3
 60
     1
100
AcDbPoint
 10
4374.7293470255
 20
-6519.36996624931
 30
0.0
  0
POINT
  5
23F
330
4D
100
AcDbEntity
  8
1
 62
     3
 60
     1
100
AcDbPoint
 10
2713.70503779879
 20
-1645.40175279447
 30
0.0
  0
POINT
  5
240
330
4D
100
AcDbEntity
  8
1
 62
     3
 60
     1
100
AcDbPoint
 10
-3473.68986443049
 20
-1660.37568187072
 30
0.0
  0
POINT
  5
241
330
4D
100
AcDbEntity
  8
1
 62
     3
 60
     1
100
AcDbPoint
 10
-9859.19896791826
 20
-723.588432816877
 30
0.0
  0
POINT
  5
242
330
4D
100
AcDbEntity
  8
1
 62
     3
 60
     1
100
AcDbPoint
 10
-9616.01170508347
 20
-1659.43975157007
 30
0.0
  0
POINT
  5
243
330
4D
100
AcDbEntity
  8
1
 62
     3
 60
     1
100
AcDbPoint
 10
-5058.95908859951
 20
-3087.51178516131
 30
0.0
  0
POINT
  5
244
330
4D
100
AcDbEntity
  8
1
 62
     3
 60
     1
100
AcDbPoint
 10
-11670.3445542972
 20
-1269.99103658267
 30
0.0
  0
POINT
  5
245
330
4D
100
AcDbEntity
  8
1
 62
     3
 60
     1
100
AcDbPoint
 10
-8657.6919208795
 20
-1030.70759380153
 30
0.0
  0
POINT
  5
246
330
4D
100
AcDbEntity
  8
1
 62
     3
 60
     1
100
AcDbPoint
 10
-8414.50465804473
 20
-1966.55891255472
 30
0.0
  0
POINT
  5
247
330
4D
100
AcDbEntity
  8
1
 62
     3
 60
     1
100
AcDbPoint
 10
-3857.45204156076
 20
-3394.63094614597
 30
0.0
  0
POINT
  5
248
330
4D
100
AcDbEntity
  8
1
 62
     3
 60
     1
100
AcDbPoint
 10
-10468.8375072584
 20
-1577.11019756733
 30
0.0
  0
POINT
  5
249
330
4D
100
AcDbEntity
  8
1
 62
     3
 60
     1
100
AcDbPoint
 10
1801.80839655528
 20
-4145.40175279446
 30
0.0
  0
POINT
  5
24A
330
4D
100
AcDbEntity
  8
1
 62
     3
 60
     1
100
AcDbPoint
 10
-6221.13399831373
 20
-4211.18371989981
 30
0.0
  0
POINT
  5
24B
330
4D
100
AcDbEntity
  8
1
 62
     3
 60
     1
100
AcDbPoint
 10
-5977.94673547894
 20
-5147.035038653
 30
0.0
  0
POINT
  5
24C
330
4D
100
AcDbEntity
  8
1
 62
     3
 60
     1
100
AcDbPoint
 10
-1420.89411899499
 20
-6575.10707224425
 30
0.0
  0
POINT
  5
24D
330
4D
100
AcDbEntity
  8
1
 62
     3
 60
     1
100
AcDbPoint
 10
-8032.27958469267
 20
-4757.58632366561
 30
0.0
  0
POINT
  5
24E
330
4D
100
AcDbEntity
  8
1
 62
     3
 60
     1
100
AcDbPoint
 10
-2653.08620011948
 20
-3651.10886517734
 30
0.0
  0
POINT
  5
24F
330
4D
100
AcDbEntity
  8
1
 62
     3
 60
     1
100
AcDbPoint
 10
-7422.64104535248
 20
-3904.06455891516
 30
0.0
  0
POINT
  5
250
330
4D
100
AcDbEntity
  8
1
 62
     3
 60
     1
100
AcDbPoint
 10
-7179.45378251769
 20
-4839.91587766835
 30
0.0
  0
POINT
  5
251
330
4D
100
AcDbEntity
  8
1
 62
     3
 60
     1
100
AcDbPoint
 10
-2622.40116603374
 20
-6267.98791125959
 30
0.0
  0
POINT
  5
252
330
4D
100
AcDbEntity
  8
1
 62
     3
 60
     1
100
AcDbPoint
 10
-9233.78663173142
 20
-4450.46716268095
 30
0.0
  0
POINT
  5
253
330
4D
100
AcDbEntity
  8
1
 62
     3
 60
     1
100
AcDbPoint
 10
-4940.56791894434
 20
-4573.59382743153
 30
0.0
  0
POINT
  5
254
330
4D
100
AcDbEntity
  8
1
 62
     3
 60
     1
100
AcDbPoint
 10
-6224.52684409459
 20
-4855.82573704524
 30
0.0
  0
POINT
  5
255
330
4D
100
AcDbEntity
  8
1
 62
     3
 60
     1
100
AcDbPoint
 10
3958.29926557821
 20
-5468.62961375598
 30
0.0
  0
POINT
  5
256
330
4D
100
AcDbEntity
  8
1
 62
     3
 60
     1
100
AcDbPoint
 10
-949.028583108228
 20
-4840.85180796899
 30
0.0
  0
POINT
  5
257
330
4D
100
AcDbEntity
  8
1
 62
     3
 60
     1
100
AcDbPoint
 10
-4957.67320001105
 20
-4531.22852157716
 30
0.0
  0
POINT
  5
258
330
4D
100
AcDbEntity
  8
1
 62
     3
 60
     1
100
AcDbPoint
 10
-6422.64104535248
 20
-4804.06455891516
 30
0.0
  0
POINT
  5
259
330
4D
100
AcDbEntity
  8
1
 62
     3
 60
     1
100
AcDbPoint
 10
-6179.45378251769
 20
-5739.91587766835
 30
0.0
  0
POINT
  5
25A
330
4D
100
AcDbEntity
  8
1
 62
     3
 60
     1
100
AcDbPoint
 10
-1622.40116603374
 20
-7167.98791125959
 30
0.0
  0
POINT
  5
25B
330
4D
100
AcDbEntity
  8
1
 62
     3
 60
     1
100
AcDbPoint
 10
-8233.78663173142
 20
-5350.46716268095
 30
0.0
  0
POINT
  5
25C
330
4D
100
AcDbEntity
  8
1
 62
     3
 60
     1
100
AcDbPoint
 10
-5221.13399831373
 20
-5111.18371989981
 30
0.0
  0
POINT
  5
25D
330
4D
100
AcDbEntity
  8
1
 62
     3
 60
     1
100
AcDbPoint
 10
-4977.94673547894
 20
-6047.035038653
 30
0.0
  0
POINT
  5
25E
330
4D
100
AcDbEntity
  8
1
 62
     3
 60
     1
100
AcDbPoint
 10
-420.894118994988
 20
-7475.10707224425
 30
0.0
  0
POINT
  5
25F
330
4D
100
AcDbEntity
  8
1
 62
     3
 60
     1
100
AcDbPoint
 10
-7032.27958469267
 20
-5657.58632366561
 30
0.0
  0
POINT
  5
260
330
4D
100
AcDbEntity
  8
1
 62
     3
 60
     1
100
AcDbPoint
 10
-12307.777845679
 20
-4772.56025274186
 30
0.0
  0
POINT
  5
261
330
4D
100
AcDbEntity
  8
1
 62
     3
 60
     1
100
AcDbPoint
 10
-5696.39237998135
 20
-6590.0810013205
 30
0.0
  0
POINT
  5
262
330
4D
100
AcDbEntity
  8
1
 62
     3
 60
     1
100
AcDbPoint
 10
-10253.4449964653
 20
-5162.00896772925
 30
0.0
  0
POINT
  5
263
330
4D
100
AcDbEntity
  8
1
 62
     3
 60
     1
100
AcDbPoint
 10
-10496.6322593001
 20
-4226.15764897606
 30
0.0
  0
POINT
  5
264
330
4D
100
AcDbEntity
  8
1
 62
     3
 60
     1
100
AcDbPoint
 10
-13509.2848927178
 20
-4465.4410917572
 30
0.0
  0
POINT
  5
265
330
4D
100
AcDbEntity
  8
1
 62
     3
 60
     1
100
AcDbPoint
 10
-6897.8994270201
 20
-6282.96184033584
 30
0.0
  0
POINT
  5
266
330
4D
100
AcDbEntity
  8
1
 62
     3
 60
     1
100
AcDbPoint
 10
-11454.9520435041
 20
-4854.8898067446
 30
0.0
  0
POINT
  5
267
330
4D
100
AcDbEntity
  8
1
 62
     3
 60
     1
100
AcDbPoint
 10
-11698.1393063389
 20
-3919.03848799141
 30
0.0
  0
POINT
  5
268
330
4D
100
AcDbEntity
  8
1
 62
     3
 60
     1
100
AcDbPoint
 10
-5312.63020285107
 20
-4855.82573704524
 30
0.0
  0
POINT
  5
269
330
4D
100
AcDbEntity
  8
1
 62
     3
 60
     1
100
AcDbPoint
 10
-37.131941864712
 20
-4840.85180796899
 30
0.0
  0
POINT
  5
26A
330
4D
100
AcDbEntity
  8
0
 62
     3
 60
     1
100
AcDbPoint
 10
2513.78900860491
 20
-7212.82002142384
 30
0.0
  0
POINT
  5
26B
330
4D
100
AcDbEntity
  8
0
 62
     3
 60
     1
100
AcDbPoint
 10
2513.78900860491
 20
-7214.82002142384
 30
0.0
  0
POINT
  5
26C
330
4D
100
AcDbEntity
  8
0
 62
     3
 60
     1
100
AcDbPoint
 10
2533.78900860491
 20
-7214.82002142384
 30
0.0
  0
POINT
  5
26D
330
4D
100
AcDbEntity
  8
0
 62
     3
 60
     1
100
AcDbPoint
 10
2535.78900860491
 20
-7214.82002142384
 30
0.0
  0
POINT
  5
26E
330
4D
100
AcDbEntity
  8
1
 62
     3
 60
     1
100
AcDbPoint
 10
874.764699378208
 20
-2340.851807969
 30
0.0
  0
POINT
  5
26F
330
4D
100
AcDbEntity
  8
1
 62
     3
 60
     1
100
AcDbPoint
 10
-5312.63020285107
 20
-2355.82573704525
 30
0.0
  0
POINT
  5
270
330
4D
100
AcDbEntity
  8
1
 62
     3
 60
     1
100
AcDbPoint
 10
-11698.1393063389
 20
-1419.03848799141
 30
0.0
  0
POINT
  5
271
330
4D
100
AcDbEntity
  8
1
 62
     3
 60
     1
100
AcDbPoint
 10
-11454.9520435041
 20
-2354.8898067446
 30
0.0
  0
POINT
  5
272
330
4D
100
AcDbEntity
  8
1
 62
     3
 60
     1
100
AcDbPoint
 10
-6897.8994270201
 20
-3782.96184033584
 30
0.0
  0
POINT
  5
273
330
4D
100
AcDbEntity
  8
1
 62
     3
 60
     1
100
AcDbPoint
 10
-13509.2848927178
 20
-1965.4410917572
 30
0.0
  0
POINT
  5
274
330
4D
100
AcDbEntity
  8
1
 62
     3
 60
     1
100
AcDbPoint
 10
-10496.6322593001
 20
-1726.15764897606
 30
0.0
  0
POINT
  5
275
330
4D
100
AcDbEntity
  8
1
 62
     3
 60
     1
100
AcDbPoint
 10
-10253.4449964653
 20
-2662.00896772925
 30
0.0
  0
POINT
  5
276
330
4D
100
AcDbEntity
  8
1
 62
     3
 60
     1
100
AcDbPoint
 10
-5696.39237998135
 20
-4090.0810013205
 30
0.0
  0
POINT
  5
277
330
4D
100
AcDbEntity
  8
1
 62
     3
 60
     1
100
AcDbPoint
 10
-12307.777845679
 20
-2272.56025274186
 30
0.0
  0
POINT
  5
278
330
4D
100
AcDbEntity
  8
1
 62
     3
 60
     1
100
AcDbPoint
 10
-37.131941865307
 20
-4840.85180796899
 30
0.0
  0
POINT
  5
279
330
4D
100
AcDbEntity
  8
1
 62
     3
 60
     1
100
AcDbPoint
 10
-2745.95648316603
 20
-1635.2759152043
 30
0.0
  0
POINT
  5
27A
330
4D
100
AcDbEntity
  8
1
 62
     3
 60
     1
100
AcDbPoint
 10
-2502.76922033124
 20
-2571.12723395749
 30
0.0
  0
POINT
  5
27B
330
4D
100
AcDbEntity
  8
1
 62
     3
 60
     1
100
AcDbPoint
 10
2054.28339615271
 20
-3999.19926754874
 30
0.0
  0
POINT
  5
27C
330
4D
100
AcDbEntity
  8
1
 62
     3
 60
     1
100
AcDbPoint
 10
-4557.10206954497
 20
-2181.6785189701
 30
0.0
  0
POINT
  5
27D
330
4D
100
AcDbEntity
  8
1
 62
     3
 60
     1
100
AcDbPoint
 10
822.091315028225
 20
-1075.20106048183
 30
0.0
  0
POINT
  5
27E
330
4D
100
AcDbEntity
  8
1
 62
     3
 60
     1
100
AcDbPoint
 10
-3947.46353020478
 20
-1328.15675421964
 30
0.0
  0
POINT
  5
27F
330
4D
100
AcDbEntity
  8
1
 62
     3
 60
     1
100
AcDbPoint
 10
-3704.27626736999
 20
-2264.00807297283
 30
0.0
  0
POINT
  5
280
330
4D
100
AcDbEntity
  8
1
 62
     3
 60
     1
100
AcDbPoint
 10
852.776349113963
 20
-3692.08010656408
 30
0.0
  0
POINT
  5
281
330
4D
100
AcDbEntity
  8
1
 62
     3
 60
     1
100
AcDbPoint
 10
-5758.60911658372
 20
-1874.55935798544
 30
0.0
  0
POINT
  5
282
330
4D
100
AcDbEntity
  8
1
 62
     3
 60
     1
100
AcDbPoint
 10
-1465.39040379664
 20
-1997.68602273602
 30
0.0
  0
POINT
  5
283
330
4D
100
AcDbEntity
  8
1
 62
     3
 60
     1
100
AcDbPoint
 10
-2749.34932894689
 20
-2279.91793234973
 30
0.0
  0
POINT
  5
284
330
4D
100
AcDbEntity
  8
1
 62
     3
 60
     1
100
AcDbPoint
 10
7433.47678072591
 20
-2892.72180906047
 30
0.0
  0
POINT
  5
285
330
4D
100
AcDbEntity
  8
1
 62
     3
 60
     1
100
AcDbPoint
 10
2526.14893203947
 20
-2264.94400327348
 30
0.0
  0
POINT
  5
286
330
4D
100
AcDbEntity
  8
1
 62
     3
 60
     1
100
AcDbPoint
 10
-1482.49568486335
 20
-1955.32071688164
 30
0.0
  0
POINT
  5
287
330
4D
100
AcDbEntity
  8
1
 62
     3
 60
     1
100
AcDbPoint
 10
-2947.46353020478
 20
-2228.15675421964
 30
0.0
  0
POINT
  5
288
330
4D
100
AcDbEntity
  8
1
 62
     3
 60
     1
100
AcDbPoint
 10
-2704.27626736999
 20
-3164.00807297283
 30
0.0
  0
POINT
  5
289
330
4D
100
AcDbEntity
  8
1
 62
     3
 60
     1
100
AcDbPoint
 10
1852.77634911396
 20
-4592.08010656408
 30
0.0
  0
POINT
  5
28A
330
4D
100
AcDbEntity
  8
1
 62
     3
 60
     1
100
AcDbPoint
 10
-4758.60911658372
 20
-2774.55935798544
 30
0.0
  0
POINT
  5
28B
330
4D
100
AcDbEntity
  8
1
 62
     3
 60
     1
100
AcDbPoint
 10
-1745.95648316603
 20
-2535.2759152043
 30
0.0
  0
POINT
  5
28C
330
4D
100
AcDbEntity
  8
1
 62
     3
 60
     1
100
AcDbPoint
 10
-1502.76922033124
 20
-3471.12723395749
 30
0.0
  0
POINT
  5
28D
330
4D
100
AcDbEntity
  8
1
 62
     3
 60
     1
100
AcDbPoint
 10
3054.28339615271
 20
-4899.19926754874
 30
0.0
  0
POINT
  5
28E
330
4D
100
AcDbEntity
  8
1
 62
     3
 60
     1
100
AcDbPoint
 10
-3557.10206954497
 20
-3081.6785189701
 30
0.0
  0
POINT
  5
28F
330
4D
100
AcDbEntity
  8
1
 62
     3
 60
     1
100
AcDbPoint
 10
-8832.60033053133
 20
-2196.65244804634
 30
0.0
  0
POINT
  5
290
330
4D
100
AcDbEntity
  8
1
 62
     3
 60
     1
100
AcDbPoint
 10
-2221.21486483365
 20
-4014.17319662498
 30
0.0
  0
POINT
  5
291
330
4D
100
AcDbEntity
  8
1
 62
     3
 60
     1
100
AcDbPoint
 10
-6778.26748131761
 20
-2586.10116303374
 30
0.0
  0
POINT
  5
292
330
4D
100
AcDbEntity
  8
1
 62
     3
 60
     1
100
AcDbPoint
 10
-7021.45474415239
 20
-1650.24984428055
 30
0.0
  0
POINT
  5
293
330
4D
100
AcDbEntity
  8
1
 62
     3
 60
     1
100
AcDbPoint
 10
-10034.1073775701
 20
-1889.53328706169
 30
0.0
  0
POINT
  5
294
330
4D
100
AcDbEntity
  8
1
 62
     3
 60
     1
100
AcDbPoint
 10
-3422.7219118724
 20
-3707.05403564033
 30
0.0
  0
POINT
  5
295
330
4D
100
AcDbEntity
  8
1
 62
     3
 60
     1
100
AcDbPoint
 10
-7979.77452835636
 20
-2278.98200204908
 30
0.0
  0
POINT
  5
296
330
4D
100
AcDbEntity
  8
1
 62
     3
 60
     1
100
AcDbPoint
 10
-8222.96179119115
 20
-1343.13068329589
 30
0.0
  0
POINT
  5
297
330
4D
100
AcDbEntity
  8
1
 62
     3
 60
     1
100
AcDbPoint
 10
-1837.45268770337
 20
-2279.91793234973
 30
0.0
  0
POINT
  5
298
330
4D
100
AcDbEntity
  8
1
 62
     3
 60
     1
100
AcDbPoint
 10
3438.0455732824
 20
-2264.94400327348
 30
0.0
  0
POINT
  5
299
330
4D
100
AcDbEntity
  8
0
 62
     3
 60
     1
100
AcDbPoint
 10
5988.96652375261
 20
-4636.91221672833
 30
0.0
  0
POINT
  5
29A
330
4D
100
AcDbEntity
  8
0
 62
     3
 60
     1
100
AcDbPoint
 10
5988.96652375261
 20
-4638.91221672833
 30
0.0
  0
POINT
  5
29B
330
4D
100
AcDbEntity
  8
0
 62
     3
 60
     1
100
AcDbPoint
 10
6008.96652375261
 20
-4638.91221672833
 30
0.0
  0
POINT
  5
29C
330
4D
100
AcDbEntity
  8
0
 62
     3
 60
     1
100
AcDbPoint
 10
6010.96652375261
 20
-4638.91221672833
 30
0.0
  0
POINT
  5
29D
330
4D
100
AcDbEntity
  8
1
 62
     3
 60
     1
100
AcDbPoint
 10
4349.94221452591
 20
235.055996726518
 30
0.0
  0
POINT
  5
29E
330
4D
100
AcDbEntity
  8
1
 62
     3
 60
     1
100
AcDbPoint
 10
-1837.45268770337
 20
220.082067650268
 30
0.0
  0
POINT
  5
29F
330
4D
100
AcDbEntity
  8
1
 62
     3
 60
     1
100
AcDbPoint
 10
-8222.96179119115
 20
1156.86931670411
 30
0.0
  0
POINT
  5
2A0
330
4D
100
AcDbEntity
  8
1
 62
     3
 60
     1
100
AcDbPoint
 10
-7979.77452835636
 20
221.017997950917
 30
0.0
  0
POINT
  5
2A1
330
4D
100
AcDbEntity
  8
1
 62
     3
 60
     1
100
AcDbPoint
 10
-3422.7219118724
 20
-1207.05403564033
 30
0.0
  0
POINT
  5
2A2
330
4D
100
AcDbEntity
  8
1
 62
     3
 60
     1
100
AcDbPoint
 10
-10034.1073775701
 20
610.46671293831
 30
0.0
  0
POINT
  5
2A3
330
4D
100
AcDbEntity
  8
1
 62
     3
 60
     1
100
AcDbPoint
 10
-7021.45474415239
 20
849.750155719452
 30
0.0
  0
POINT
  5
2A4
330
4D
100
AcDbEntity
  8
1
 62
     3
 60
     1
100
AcDbPoint
 10
-6778.26748131761
 20
-86.101163033738
 30
0.0
  0
POINT
  5
2A5
330
4D
100
AcDbEntity
  8
1
 62
     3
 60
     1
100
AcDbPoint
 10
-2221.21486483365
 20
-1514.17319662498
 30
0.0
  0
POINT
  5
2A6
330
4D
100
AcDbEntity
  8
1
 62
     3
 60
     1
100
AcDbPoint
 10
-8832.60033053133
 20
303.347551953655
 30
0.0
  0
POINT
  5
2A7
330
4D
100
AcDbEntity
  8
1
 62
     3
 60
     1
100
AcDbPoint
 10
3438.0455732824
 20
-2264.94400327348
 30
0.0
  0
POINT
  5
2A8
330
4D
100
AcDbEntity
  8
1
 62
     3
 60
     1
100
AcDbPoint
 10
-3167.91306821037
 20
-2383.94572594061
 30
0.0
  0
POINT
  5
2A9
330
4D
100
AcDbEntity
  8
1
 62
     3
 60
     1
100
AcDbPoint
 10
-2924.72580537559
 20
-3319.7970446938
 30
0.0
  0
POINT
  5
2AA
330
4D
100
AcDbEntity
  8
1
 62
     3
 60
     1
100
AcDbPoint
 10
1632.32681110837
 20
-4747.86907828505
 30
0.0
  0
POINT
  5
2AB
330
4D
100
AcDbEntity
  8
1
 62
     3
 60
     1
100
AcDbPoint
 10
-4979.05865458931
 20
-2930.34832970641
 30
0.0
  0
POINT
  5
2AC
330
4D
100
AcDbEntity
  8
1
 62
     3
 60
     1
100
AcDbPoint
 10
400.134729983879
 20
-1823.87087121814
 30
0.0
  0
POINT
  5
2AD
330
4D
100
AcDbEntity
  8
1
 62
     3
 60
     1
100
AcDbPoint
 10
-4369.42011524912
 20
-2076.82656495596
 30
0.0
  0
POINT
  5
2AE
330
4D
100
AcDbEntity
  8
1
 62
     3
 60
     1
100
AcDbPoint
 10
-4126.23285241434
 20
-3012.67788370915
 30
0.0
  0
POINT
  5
2AF
330
4D
100
AcDbEntity
  8
1
 62
     3
 60
     1
100
AcDbPoint
 10
430.819764069618
 20
-4440.74991730039
 30
0.0
  0
POINT
  5
2B0
330
4D
100
AcDbEntity
  8
1
 62
     3
 60
     1
100
AcDbPoint
 10
-6180.56570162806
 20
-2623.22916872175
 30
0.0
  0
POINT
  5
2B1
330
4D
100
AcDbEntity
  8
1
 62
     3
 60
     1
100
AcDbPoint
 10
-1887.34698884098
 20
-2746.35583347233
 30
0.0
  0
POINT
  5
2B2
330
4D
100
AcDbEntity
  8
1
 62
     3
 60
     1
100
AcDbPoint
 10
-3171.30591399123
 20
-3028.58774308605
 30
0.0
  0
POINT
  5
2B3
330
4D
100
AcDbEntity
  8
1
 62
     3
 60
     1
100
AcDbPoint
 10
7011.52019568156
 20
-3641.39161979678
 30
0.0
  0
POINT
  5
2B4
330
4D
100
AcDbEntity
  8
1
 62
     3
 60
     1
100
AcDbPoint
 10
2104.19234699513
 20
-3013.6138140098
 30
0.0
  0
POINT
  5
2B5
330
4D
100
AcDbEntity
  8
1
 62
     3
 60
     1
100
AcDbPoint
 10
-1904.45226990769
 20
-2703.99052761796
 30
0.0
  0
POINT
  5
2B6
330
4D
100
AcDbEntity
  8
1
 62
     3
 60
     1
100
AcDbPoint
 10
-3369.42011524912
 20
-2976.82656495596
 30
0.0
  0
POINT
  5
2B7
330
4D
100
AcDbEntity
  8
1
 62
     3
 60
     1
100
AcDbPoint
 10
-3126.23285241434
 20
-3912.67788370915
 30
0.0
  0
POINT
  5
2B8
330
4D
100
AcDbEntity
  8
1
 62
     3
 60
     1
100
AcDbPoint
 10
1430.81976406962
 20
-5340.74991730039
 30
0.0
  0
POINT
  5
2B9
330
4D
100
AcDbEntity
  8
1
 62
     3
 60
     1
100
AcDbPoint
 10
-5180.56570162806
 20
-3523.22916872175
 30
0.0
  0
POINT
  5
2BA
330
4D
100
AcDbEntity
  8
1
 62
     3
 60
     1
100
AcDbPoint
 10
-2167.91306821037
 20
-3283.94572594061
 30
0.0
  0
POINT
  5
2BB
330
4D
100
AcDbEntity
  8
1
 62
     3
 60
     1
100
AcDbPoint
 10
-1924.72580537559
 20
-4219.7970446938
 30
0.0
  0
POINT
  5
2BC
330
4D
100
AcDbEntity
  8
1
 62
     3
 60
     1
100
AcDbPoint
 10
2632.32681110837
 20
-5647.86907828505
 30
0.0
  0
POINT
  5
2BD
330
4D
100
AcDbEntity
  8
1
 62
     3
 60
     1
100
AcDbPoint
 10
-3979.05865458931
 20
-3830.34832970641
 30
0.0
  0
POINT
  5
2BE
330
4D
100
AcDbEntity
  8
1
 62
     3
 60
     1
100
AcDbPoint
 10
-9254.55691557568
 20
-2945.32225878266
 30
0.0
  0
POINT
  5
2BF
330
4D
100
AcDbEntity
  8
1
 62
     3
 60
     1
100
AcDbPoint
 10
-2643.17144987799
 20
-4762.8430073613
 30
0.0
  0
POINT
  5
2C0
330
4D
100
AcDbEntity
  8
1
 62
     3
 60
     1
100
AcDbPoint
 10
-7200.22406636195
 20
-3334.77097377005
 30
0.0
  0
POINT
  5
2C1
330
4D
100
AcDbEntity
  8
1
 62
     3
 60
     1
100
AcDbPoint
 10
-7443.41132919673
 20
-2398.91965501686
 30
0.0
  0
POINT
  5
2C2
330
4D
100
AcDbEntity
  8
1
 62
     3
 60
     1
100
AcDbPoint
 10
-10456.0639626144
 20
-2638.203097798
 30
0.0
  0
POINT
  5
2C3
330
4D
100
AcDbEntity
  8
1
 62
     3
 60
     1
100
AcDbPoint
 10
-3844.67849691674
 20
-4455.72384637664
 30
0.0
  0
POINT
  5
2C4
330
4D
100
AcDbEntity
  8
1
 62
     3
 60
     1
100
AcDbPoint
 10
-8401.7311134007
 20
-3027.6518127854
 30
0.0
  0
POINT
  5
2C5
330
4D
100
AcDbEntity
  8
1
 62
     3
 60
     1
100
AcDbPoint
 10
-8644.91837623549
 20
-2091.80049403221
 30
0.0
  0
POINT
  5
2C6
330
4D
100
AcDbEntity
  8
1
 62
     3
 60
     1
100
AcDbPoint
 10
-2259.40927274772
 20
-3028.58774308605
 30
0.0
  0
POINT
  5
2C7
330
4D
100
AcDbEntity
  8
1
 62
     3
 60
     1
100
AcDbPoint
 10
3016.08898823805
 20
-3013.61381400979
 30
0.0
  0
POINT
  5
2C8
330
4D
100
AcDbEntity
  8
0
 62
     3
 60
     1
100
AcDbPoint
 10
5567.00993870827
 20
-5385.58202746464
 30
0.0
  0
POINT
  5
2C9
330
4D
100
AcDbEntity
  8
0
 62
     3
 60
     1
100
AcDbPoint
 10
5567.00993870827
 20
-5387.58202746464
 30
0.0
  0
POINT
  5
2CA
330
4D
100
AcDbEntity
  8
0
 62
     3
 60
     1
100
AcDbPoint
 10
5587.00993870827
 20
-5387.58202746464
 30
0.0
  0
POINT
  5
2CB
330
4D
100
AcDbEntity
  8
0
 62
     3
 60
     1
100
AcDbPoint
 10
5589.00993870827
 20
-5387.58202746464
 30
0.0
  0
POINT
  5
2CC
330
4D
100
AcDbEntity
  8
1
 62
     3
 60
     1
100
AcDbPoint
 10
3927.98562948156
 20
-513.613814009795
 30
0.0
  0
POINT
  5
2CD
330
4D
100
AcDbEntity
  8
1
 62
     3
 60
     1
100
AcDbPoint
 10
-2259.40927274772
 20
-528.587743086045
 30
0.0
  0
POINT
  5
2CE
330
4D
100
AcDbEntity
  8
1
 62
     3
 60
     1
100
AcDbPoint
 10
-8644.91837623549
 20
408.199505967793
 30
0.0
  0
POINT
  5
2CF
330
4D
100
AcDbEntity
  8
1
 62
     3
 60
     1
100
AcDbPoint
 10
-8401.7311134007
 20
-527.651812785396
 30
0.0
  0
POINT
  5
2D0
330
4D
100
AcDbEntity
  8
1
 62
     3
 60
     1
100
AcDbPoint
 10
-3844.67849691674
 20
-1955.72384637664
 30
0.0
  0
POINT
  5
2D1
330
4D
100
AcDbEntity
  8
1
 62
     3
 60
     1
100
AcDbPoint
 10
-10456.0639626144
 20
-138.203097798003
 30
0.0
  0
POINT
  5
2D2
330
4D
100
AcDbEntity
  8
1
 62
     3
 60
     1
100
AcDbPoint
 10
-7443.41132919673
 20
101.08034498314
 30
0.0
  0
POINT
  5
2D3
330
4D
100
AcDbEntity
  8
1
 62
     3
 60
     1
100
AcDbPoint
 10
-7200.22406636195
 20
-834.770973770051
 30
0.0
  0
POINT
  5
2D4
330
4D
100
AcDbEntity
  8
1
 62
     3
 60
     1
100
AcDbPoint
 10
-2643.17144987799
 20
-2262.8430073613
 30
0.0
  0
POINT
  5
2D5
330
4D
100
AcDbEntity
  8
1
 62
     3
 60
     1
100
AcDbPoint
 10
-9254.55691557568
 20
-445.322258782658
 30
0.0
  0
POINT
  5
2D6
330
4D
100
AcDbEntity
  8
1
 62
     3
 60
     1
100
AcDbPoint
 10
3016.08898823805
 20
-3013.61381400979
 30
0.0
  0
POINT
  5
2D7
330
4D
100
AcDbEntity
  8
1
 62
     3
 60
     1
100
AcDbPoint
 10
-5006.85340663096
 20
-3079.39578111514
 30
0.0
  0
POINT
  5
2D8
330
4D
100
AcDbEntity
  8
1
 62
     3
 60
     1
100
AcDbPoint
 10
-4763.66614379617
 20
-4015.24709986833
 30
0.0
  0
POINT
  5
2D9
330
4D
100
AcDbEntity
  8
1
 62
     3
 60
     1
100
AcDbPoint
 10
-206.613527312218
 20
-5443.31913345958
 30
0.0
  0
POINT
  5
2DA
330
4D
100
AcDbEntity
  8
1
 62
     3
 60
     1
100
AcDbPoint
 10
-6817.9989930099
 20
-3625.79838488094
 30
0.0
  0
POINT
  5
2DB
330
4D
100
AcDbEntity
  8
1
 62
     3
 60
     1
100
AcDbPoint
 10
-1438.8056084367
 20
-2519.32092639267
 30
0.0
  0
POINT
  5
2DC
330
4D
100
AcDbEntity
  8
1
 62
     3
 60
     1
100
AcDbPoint
 10
-6208.36045366971
 20
-2772.27662013049
 30
0.0
  0
POINT
  5
2DD
330
4D
100
AcDbEntity
  8
1
 62
     3
 60
     1
100
AcDbPoint
 10
-5965.17319083492
 20
-3708.12793888368
 30
0.0
  0
POINT
  5
2DE
330
4D
100
AcDbEntity
  8
1
 62
     3
 60
     1
100
AcDbPoint
 10
-1408.12057435097
 20
-5136.19997247492
 30
0.0
  0
POINT
  5
2DF
330
4D
100
AcDbEntity
  8
1
 62
     3
 60
     1
100
AcDbPoint
 10
-8019.50604004865
 20
-3318.67922389628
 30
0.0
  0
POINT
  5
2E0
330
4D
100
AcDbEntity
  8
1
 62
     3
 60
     1
100
AcDbPoint
 10
-3726.28732726157
 20
-3441.80588864686
 30
0.0
  0
POINT
  5
2E1
330
4D
100
AcDbEntity
  8
1
 62
     3
 60
     1
100
AcDbPoint
 10
-5010.24625241181
 20
-3724.03779826058
 30
0.0
  0
POINT
  5
2E2
330
4D
100
AcDbEntity
  8
1
 62
     3
 60
     1
100
AcDbPoint
 10
5172.57985726098
 20
-4336.84167497131
 30
0.0
  0
POINT
  5
2E3
330
4D
100
AcDbEntity
  8
1
 62
     3
 60
     1
100
AcDbPoint
 10
265.252008574543
 20
-3709.06386918433
 30
0.0
  0
POINT
  5
2E4
330
4D
100
AcDbEntity
  8
1
 62
     3
 60
     1
100
AcDbPoint
 10
-3743.39260832827
 20
-3399.44058279249
 30
0.0
  0
POINT
  5
2E5
330
4D
100
AcDbEntity
  8
1
 62
     3
 60
     1
100
AcDbPoint
 10
-5208.36045366971
 20
-3672.27662013049
 30
0.0
  0
POINT
  5
2E6
330
4D
100
AcDbEntity
  8
1
 62
     3
 60
     1
100
AcDbPoint
 10
-4965.17319083492
 20
-4608.12793888368
 30
0.0
  0
POINT
  5
2E7
330
4D
100
AcDbEntity
  8
1
 62
     3
 60
     1
100
AcDbPoint
 10
-408.120574350967
 20
-6036.19997247492
 30
0.0
  0
POINT
  5
2E8
330
4D
100
AcDbEntity
  8
1
 62
     3
 60
     1
100
AcDbPoint
 10
-7019.50604004865
 20
-4218.67922389628
 30
0.0
  0
POINT
  5
2E9
330
4D
100
AcDbEntity
  8
1
 62
     3
 60
     1
100
AcDbPoint
 10
-4006.85340663096
 20
-3979.39578111514
 30
0.0
  0
POINT
  5
2EA
330
4D
100
AcDbEntity
  8
1
 62
     3
 60
     1
100
AcDbPoint
 10
-3763.66614379617
 20
-4915.24709986833
 30
0.0
  0
POINT
  5
2EB
330
4D
100
AcDbEntity
  8
1
 62
     3
 60
     1
100
AcDbPoint
 10
793.386472687783
 20
-6343.31913345958
 30
0.0
  0
POINT
  5
2EC
330
4D
100
AcDbEntity
  8
1
 62
     3
 60
     1
100
AcDbPoint
 10
-5817.9989930099
 20
-4525.79838488094
 30
0.0
  0
POINT
  5
2ED
330
4D
100
AcDbEntity
  8
1
 62
     3
 60
     1
100
AcDbPoint
 10
-11093.4972539963
 20
-3640.77231395719
 30
0.0
  0
POINT
  5
2EE
330
4D
100
AcDbEntity
  8
1
 62
     3
 60
     1
100
AcDbPoint
 10
-4482.11178829858
 20
-5458.29306253583
 30
0.0
  0
POINT
  5
2EF
330
4D
100
AcDbEntity
  8
1
 62
     3
 60
     1
100
AcDbPoint
 10
-9039.16440478254
 20
-4030.22102894458
 30
0.0
  0
POINT
  5
2F0
330
4D
100
AcDbEntity
  8
1
 62
     3
 60
     1
100
AcDbPoint
 10
-9282.35166761732
 20
-3094.36971019139
 30
0.0
  0
POINT
  5
2F1
330
4D
100
AcDbEntity
  8
1
 62
     3
 60
     1
100
AcDbPoint
 10
-12295.004301035
 20
-3333.65315297253
 30
0.0
  0
POINT
  5
2F2
330
4D
100
AcDbEntity
  8
1
 62
     3
 60
     1
100
AcDbPoint
 10
-5683.61883533733
 20
-5151.17390155117
 30
0.0
  0
POINT
  5
2F3
330
4D
100
AcDbEntity
  8
1
 62
     3
 60
     1
100
AcDbPoint
 10
-10240.6714518213
 20
-3723.10186795993
 30
0.0
  0
POINT
  5
2F4
330
4D
100
AcDbEntity
  8
1
 62
     3
 60
     1
100
AcDbPoint
 10
-10483.8587146561
 20
-2787.25054920674
 30
0.0
  0
POINT
  5
2F5
330
4D
100
AcDbEntity
  8
1
 62
     3
 60
     1
100
AcDbPoint
 10
-4098.3496111683
 20
-3724.03779826058
 30
0.0
  0
POINT
  5
2F6
330
4D
100
AcDbEntity
  8
1
 62
     3
 60
     1
100
AcDbPoint
 10
1177.14864981746
 20
-3709.06386918432
 30
0.0
  0
POINT
  5
2F7
330
4D
100
AcDbEntity
  8
0
 62
     3
 60
     1
100
AcDbPoint
 10
3728.06960028768
 20
-6081.03208263917
 30
0.0
  0
POINT
  5
2F8
330
4D
100
AcDbEntity
  8
0
 62
     3
 60
     1
100
AcDbPoint
 10
3728.06960028768
 20
-6083.03208263917
 30
0.0
  0
POINT
  5
2F9
330
4D
100
AcDbEntity
  8
0
 62
     3
 60
     1
100
AcDbPoint
 10
3748.06960028768
 20
-6083.03208263917
 30
0.0
  0
POINT
  5
2FA
330
4D
100
AcDbEntity
  8
0
 62
     3
 60
     1
100
AcDbPoint
 10
3750.06960028768
 20
-6083.03208263917
 30
0.0
  0
POINT
  5
2FB
330
4D
100
AcDbEntity
  8
1
 62
     3
 60
     1
100
AcDbPoint
 10
2089.04529106098
 20
-1209.06386918433
 30
0.0
  0
POINT
  5
2FC
330
4D
100
AcDbEntity
  8
1
 62
     3
 60
     1
100
AcDbPoint
 10
-4098.3496111683
 20
-1224.03779826058
 30
0.0
  0
POINT
  5
2FD
330
4D
100
AcDbEntity
  8
1
 62
     3
 60
     1
100
AcDbPoint
 10
-10483.8587146561
 20
-287.250549206737
 30
0.0
  0
POINT
  5
2FE
330
4D
100
AcDbEntity
  8
1
 62
     3
 60
     1
100
AcDbPoint
 10
-10240.6714518213
 20
-1223.10186795993
 30
0.0
  0
POINT
  5
2FF
330
4D
100
AcDbEntity
  8
1
 62
     3
 60
     1
100
AcDbPoint
 10
-5683.61883533733
 20
-2651.17390155117
 30
0.0
  0
POINT
  5
300
330
4D
100
AcDbEntity
  8
1
 62
     3
 60
     1
100
AcDbPoint
 10
-12295.004301035
 20
-833.653152972533
 30
0.0
  0
POINT
  5
301
330
4D
100
AcDbEntity
  8
1
 62
     3
 60
     1
100
AcDbPoint
 10
-9282.35166761732
 20
-594.369710191391
 30
0.0
  0
POINT
  5
302
330
4D
100
AcDbEntity
  8
1
 62
     3
 60
     1
100
AcDbPoint
 10
-9039.16440478254
 20
-1530.22102894458
 30
0.0
  0
POINT
  5
303
330
4D
100
AcDbEntity
  8
1
 62
     3
 60
     1
100
AcDbPoint
 10
-4482.11178829858
 20
-2958.29306253583
 30
0.0
  0
POINT
  5
304
330
4D
100
AcDbEntity
  8
1
 62
     3
 60
     1
100
AcDbPoint
 10
-11093.4972539963
 20
-1140.77231395719
 30
0.0
  0
POINT
  5
305
330
4D
100
AcDbEntity
  8
1
 62
     3
 60
     1
100
AcDbPoint
 10
1177.14864981746
 20
-3709.06386918432
 30
0.0
  0
POINT
  5
306
330
4D
100
AcDbEntity
  8
1
 62
     3
 60
     1
100
AcDbPoint
 10
-4415.83670529011
 20
50.8378822581622
 30
0.0
  0
POINT
  5
307
330
4D
100
AcDbEntity
  8
1
 62
     3
 60
     1
100
AcDbPoint
 10
-4172.64944245532
 20
-885.013436495028
 30
0.0
  0
POINT
  5
308
330
4D
100
AcDbEntity
  8
1
 62
     3
 60
     1
100
AcDbPoint
 10
384.403174028632
 20
-2313.08547008627
 30
0.0
  0
POINT
  5
309
330
4D
100
AcDbEntity
  8
1
 62
     3
 60
     1
100
AcDbPoint
 10
-6226.98229166905
 20
-495.564721507635
 30
0.0
  0
POINT
  5
30A
330
4D
100
AcDbEntity
  8
1
 62
     3
 60
     1
100
AcDbPoint
 10
-847.788907095855
 20
610.912736980632
 30
0.0
  0
POINT
  5
30B
330
4D
100
AcDbEntity
  8
1
 62
     3
 60
     1
100
AcDbPoint
 10
-5617.34375232886
 20
357.957043242816
 30
0.0
  0
POINT
  5
30C
330
4D
100
AcDbEntity
  8
1
 62
     3
 60
     1
100
AcDbPoint
 10
-5374.15648949407
 20
-577.894275510374
 30
0.0
  0
POINT
  5
30D
330
4D
100
AcDbEntity
  8
1
 62
     3
 60
     1
100
AcDbPoint
 10
-817.103873010117
 20
-2005.96630910162
 30
0.0
  0
POINT
  5
30E
330
4D
100
AcDbEntity
  8
1
 62
     3
 60
     1
100
AcDbPoint
 10
-7428.4893387078
 20
-188.44556052298
 30
0.0
  0
POINT
  5
30F
330
4D
100
AcDbEntity
  8
1
 62
     3
 60
     1
100
AcDbPoint
 10
-3135.27062592072
 20
-311.572225273561
 30
0.0
  0
POINT
  5
310
330
4D
100
AcDbEntity
  8
1
 62
     3
 60
     1
100
AcDbPoint
 10
-4419.22955107097
 20
-593.804134887272
 30
0.0
  0
POINT
  5
311
330
4D
100
AcDbEntity
  8
1
 62
     3
 60
     1
100
AcDbPoint
 10
5763.59655860183
 20
-1206.60801159801
 30
0.0
  0
POINT
  5
312
330
4D
100
AcDbEntity
  8
1
 62
     3
 60
     1
100
AcDbPoint
 10
856.268709915393
 20
-578.830205811022
 30
0.0
  0
POINT
  5
313
330
4D
100
AcDbEntity
  8
1
 62
     3
 60
     1
100
AcDbPoint
 10
-3152.37590698743
 20
-269.206919419184
 30
0.0
  0
POINT
  5
314
330
4D
100
AcDbEntity
  8
1
 62
     3
 60
     1
100
AcDbPoint
 10
-4617.34375232886
 20
-542.042956757184
 30
0.0
  0
POINT
  5
315
330
4D
100
AcDbEntity
  8
1
 62
     3
 60
     1
100
AcDbPoint
 10
-4374.15648949407
 20
-1477.89427551037
 30
0.0
  0
POINT
  5
316
330
4D
100
AcDbEntity
  8
1
 62
     3
 60
     1
100
AcDbPoint
 10
182.896126989883
 20
-2905.96630910162
 30
0.0
  0
POINT
  5
317
330
4D
100
AcDbEntity
  8
1
 62
     3
 60
     1
100
AcDbPoint
 10
-6428.4893387078
 20
-1088.44556052298
 30
0.0
  0
POINT
  5
318
330
4D
100
AcDbEntity
  8
1
 62
     3
 60
     1
100
AcDbPoint
 10
-3415.83670529011
 20
-849.162117741839
 30
0.0
  0
POINT
  5
319
330
4D
100
AcDbEntity
  8
1
 62
     3
 60
     1
100
AcDbPoint
 10
-3172.64944245532
 20
-1785.01343649503
 30
0.0
  0
POINT
  5
31A
330
4D
100
AcDbEntity
  8
1
 62
     3
 60
     1
100
AcDbPoint
 10
1384.40317402863
 20
-3213.08547008627
 30
0.0
  0
POINT
  5
31B
330
4D
100
AcDbEntity
  8
1
 62
     3
 60
     1
100
AcDbPoint
 10
-5226.98229166905
 20
-1395.56472150764
 30
0.0
  0
POINT
  5
31C
330
4D
100
AcDbEntity
  8
1
 62
     3
 60
     1
100
AcDbPoint
 10
-10502.4805526554
 20
-510.538650583885
 30
0.0
  0
POINT
  5
31D
330
4D
100
AcDbEntity
  8
1
 62
     3
 60
     1
100
AcDbPoint
 10
-3891.09508695773
 20
-2328.05939916252
 30
0.0
  0
POINT
  5
31E
330
4D
100
AcDbEntity
  8
1
 62
     3
 60
     1
100
AcDbPoint
 10
-8448.14770344169
 20
-899.987365571278
 30
0.0
  0
POINT
  5
31F
330
4D
100
AcDbEntity
  8
1
 62
     3
 60
     1
100
AcDbPoint
 10
-8691.33496627647
 20
35.8639531819113
 30
0.0
  0
POINT
  5
320
330
4D
100
AcDbEntity
  8
1
 62
     3
 60
     1
100
AcDbPoint
 10
-11703.9875996942
 20
-203.41948959923
 30
0.0
  0
POINT
  5
321
330
4D
100
AcDbEntity
  8
1
 62
     3
 60
     1
100
AcDbPoint
 10
-5092.60213399648
 20
-2020.94023817787
 30
0.0
  0
POINT
  5
322
330
4D
100
AcDbEntity
  8
1
 62
     3
 60
     1
100
AcDbPoint
 10
-9649.65475048044
 20
-592.868204586624
 30
0.0
  0
POINT
  5
323
330
4D
100
AcDbEntity
  8
1
 62
     3
 60
     1
100
AcDbPoint
 10
-9892.84201331523
 20
342.983114166566
 30
0.0
  0
POINT
  5
324
330
4D
100
AcDbEntity
  8
1
 62
     3
 60
     1
100
AcDbPoint
 10
-3507.33290982745
 20
-593.804134887272
 30
0.0
  0
POINT
  5
325
330
4D
100
AcDbEntity
  8
1
 62
     3
 60
     1
100
AcDbPoint
 10
1768.16535115831
 20
-578.83020581102
 30
0.0
  0
POINT
  5
326
330
4D
100
AcDbEntity
  8
0
 62
     3
 60
     1
100
AcDbPoint
 10
4319.08630162853
 20
-2950.79841926587
 30
0.0
  0
POINT
  5
327
330
4D
100
AcDbEntity
  8
0
 62
     3
 60
     1
100
AcDbPoint
 10
4319.08630162853
 20
-2952.79841926587
 30
0.0
  0
POINT
  5
328
330
4D
100
AcDbEntity
  8
0
 62
     3
 60
     1
100
AcDbPoint
 10
4339.08630162853
 20
-2952.79841926587
 30
0.0
  0
POINT
  5
329
330
4D
100
AcDbEntity
  8
0
 62
     3
 60
     1
100
AcDbPoint
 10
4341.08630162853
 20
-2952.79841926587
 30
0.0
  0
POINT
  5
32A
330
4D
100
AcDbEntity
  8
1
 62
     3
 60
     1
100
AcDbPoint
 10
2680.06199240183
 20
1921.16979418898
 30
0.0
  0
POINT
  5
32B
330
4D
100
AcDbEntity
  8
1
 62
     3
 60
     1
100
AcDbPoint
 10
-3507.33290982745
 20
1906.19586511273
 30
0.0
  0
POINT
  5
32C
330
4D
100
AcDbEntity
  8
1
 62
     3
 60
     1
100
AcDbPoint
 10
-9892.84201331523
 20
2842.98311416657
 30
0.0
  0
POINT
  5
32D
330
4D
100
AcDbEntity
  8
1
 62
     3
 60
     1
100
AcDbPoint
 10
-9649.65475048044
 20
1907.13179541338
 30
0.0
  0
POINT
  5
32E
330
4D
100
AcDbEntity
  8
1
 62
     3
 60
     1
100
AcDbPoint
 10
-5092.60213399648
 20
479.059761822131
 30
0.0
  0
POINT
  5
32F
330
4D
100
AcDbEntity
  8
1
 62
     3
 60
     1
100
AcDbPoint
 10
-11703.9875996942
 20
2296.58051040077
 30
0.0
  0
POINT
  5
330
330
4D
100
AcDbEntity
  8
1
 62
     3
 60
     1
100
AcDbPoint
 10
-8691.33496627647
 20
2535.86395318191
 30
0.0
  0
POINT
  5
331
330
4D
100
AcDbEntity
  8
1
 62
     3
 60
     1
100
AcDbPoint
 10
-8448.14770344169
 20
1600.01263442872
 30
0.0
  0
POINT
  5
332
330
4D
100
AcDbEntity
  8
1
 62
     3
 60
     1
100
AcDbPoint
 10
-3891.09508695773
 20
171.940600837476
 30
0.0
  0
POINT
  5
333
330
4D
100
AcDbEntity
  8
1
 62
     3
 60
     1
100
AcDbPoint
 10
-10502.4805526554
 20
1989.46134941612
 30
0.0
  0
POINT
  5
334
330
4D
100
AcDbEntity
  8
1
 62
     3
 60
     1
100
AcDbPoint
 10
1768.16535115831
 20
-578.83020581102
 30
0.0
  0
POINT
  5
335
330
4D
100
AcDbEntity
  8
1
 62
     3
 60
     1
100
AcDbPoint
 10
-6676.73362875504
 20
-1393.28198365268
 30
0.0
  0
POINT
  5
336
330
4D
100
AcDbEntity
  8
1
 62
     3
 60
     1
100
AcDbPoint
 10
-6433.54636592025
 20
-2329.13330240587
 30
0.0
  0
POINT
  5
337
330
4D
100
AcDbEntity
  8
1
 62
     3
 60
     1
100
AcDbPoint
 10
-1876.4937494363
 20
-3757.20533599712
 30
0.0
  0
POINT
  5
338
330
4D
100
AcDbEntity
  8
1
 62
     3
 60
     1
100
AcDbPoint
 10
-8487.87921513398
 20
-1939.68458741848
 30
0.0
  0
POINT
  5
339
330
4D
100
AcDbEntity
  8
1
 62
     3
 60
     1
100
AcDbPoint
 10
-3108.68583056078
 20
-833.207128930211
 30
0.0
  0
POINT
  5
33A
330
4D
100
AcDbEntity
  8
1
 62
     3
 60
     1
100
AcDbPoint
 10
-7878.24067579379
 20
-1086.16282266803
 30
0.0
  0
POINT
  5
33B
330
4D
100
AcDbEntity
  8
1
 62
     3
 60
     1
100
AcDbPoint
 10
-7635.053412959
 20
-2022.01414142122
 30
0.0
  0
POINT
  5
33C
330
4D
100
AcDbEntity
  8
1
 62
     3
 60
     1
100
AcDbPoint
 10
-3078.00079647505
 20
-3450.08617501246
 30
0.0
  0
POINT
  5
33D
330
4D
100
AcDbEntity
  8
1
 62
     3
 60
     1
100
AcDbPoint
 10
-9689.38626217273
 20
-1632.56542643382
 30
0.0
  0
POINT
  5
33E
330
4D
100
AcDbEntity
  8
1
 62
     3
 60
     1
100
AcDbPoint
 10
-5396.16754938565
 20
-1755.6920911844
 30
0.0
  0
POINT
  5
33F
330
4D
100
AcDbEntity
  8
1
 62
     3
 60
     1
100
AcDbPoint
 10
-6680.12647453589
 20
-2037.92400079812
 30
0.0
  0
POINT
  5
340
330
4D
100
AcDbEntity
  8
1
 62
     3
 60
     1
100
AcDbPoint
 10
3502.6996351369
 20
-2650.72787750885
 30
0.0
  0
POINT
  5
341
330
4D
100
AcDbEntity
  8
1
 62
     3
 60
     1
100
AcDbPoint
 10
-1404.62821354954
 20
-2022.95007172187
 30
0.0
  0
POINT
  5
342
330
4D
100
AcDbEntity
  8
1
 62
     3
 60
     1
100
AcDbPoint
 10
-5413.27283045236
 20
-1713.32678533003
 30
0.0
  0
POINT
  5
343
330
4D
100
AcDbEntity
  8
1
 62
     3
 60
     1
100
AcDbPoint
 10
-6878.24067579379
 20
-1986.16282266803
 30
0.0
  0
POINT
  5
344
330
4D
100
AcDbEntity
  8
1
 62
     3
 60
     1
100
AcDbPoint
 10
-6635.053412959
 20
-2922.01414142122
 30
0.0
  0
POINT
  5
345
330
4D
100
AcDbEntity
  8
1
 62
     3
 60
     1
100
AcDbPoint
 10
-2078.00079647505
 20
-4350.08617501246
 30
0.0
  0
POINT
  5
346
330
4D
100
AcDbEntity
  8
1
 62
     3
 60
     1
100
AcDbPoint
 10
-8689.38626217273
 20
-2532.56542643382
 30
0.0
  0
POINT
  5
347
330
4D
100
AcDbEntity
  8
1
 62
     3
 60
     1
100
AcDbPoint
 10
-5676.73362875504
 20
-2293.28198365268
 30
0.0
  0
POINT
  5
348
330
4D
100
AcDbEntity
  8
1
 62
     3
 60
     1
100
AcDbPoint
 10
-5433.54636592025
 20
-3229.13330240587
 30
0.0
  0
POINT
  5
349
330
4D
100
AcDbEntity
  8
1
 62
     3
 60
     1
100
AcDbPoint
 10
-876.493749436297
 20
-4657.20533599712
 30
0.0
  0
POINT
  5
34A
330
4D
100
AcDbEntity
  8
1
 62
     3
 60
     1
100
AcDbPoint
 10
-7487.87921513398
 20
-2839.68458741848
 30
0.0
  0
POINT
  5
34B
330
4D
100
AcDbEntity
  8
1
 62
     3
 60
     1
100
AcDbPoint
 10
-12763.3774761203
 20
-1954.65851649473
 30
0.0
  0
POINT
  5
34C
330
4D
100
AcDbEntity
  8
1
 62
     3
 60
     1
100
AcDbPoint
 10
-6151.99201042266
 20
-3772.17926507337
 30
0.0
  0
POINT
  5
34D
330
4D
100
AcDbEntity
  8
1
 62
     3
 60
     1
100
AcDbPoint
 10
-10709.0446269066
 20
-2344.10723148212
 30
0.0
  0
POINT
  5
34E
330
4D
100
AcDbEntity
  8
1
 62
     3
 60
     1
100
AcDbPoint
 10
-10952.2318897414
 20
-1408.25591272893
 30
0.0
  0
POINT
  5
34F
330
4D
100
AcDbEntity
  8
1
 62
     3
 60
     1
100
AcDbPoint
 10
-13964.8845231591
 20
-1647.53935551007
 30
0.0
  0
POINT
  5
350
330
4D
100
AcDbEntity
  8
1
 62
     3
 60
     1
100
AcDbPoint
 10
-7353.49905746141
 20
-3465.06010408871
 30
0.0
  0
POINT
  5
351
330
4D
100
AcDbEntity
  8
1
 62
     3
 60
     1
100
AcDbPoint
 10
-11910.5516739454
 20
-2036.98807049747
 30
0.0
  0
POINT
  5
352
330
4D
100
AcDbEntity
  8
1
 62
     3
 60
     1
100
AcDbPoint
 10
-12153.7389367802
 20
-1101.13675174428
 30
0.0
  0
POINT
  5
353
330
4D
100
AcDbEntity
  8
1
 62
     3
 60
     1
100
AcDbPoint
 10
-5768.22983329238
 20
-2037.92400079812
 30
0.0
  0
POINT
  5
354
330
4D
100
AcDbEntity
  8
1
 62
     3
 60
     1
100
AcDbPoint
 10
-492.731572306616
 20
-2022.95007172186
 30
0.0
  0
POINT
  5
355
330
4D
100
AcDbEntity
  8
0
 62
     3
 60
     1
100
AcDbPoint
 10
2058.1893781636
 20
-4394.91828517671
 30
0.0
  0
POINT
  5
356
330
4D
100
AcDbEntity
  8
0
 62
     3
 60
     1
100
AcDbPoint
 10
2058.1893781636
 20
-4396.91828517671
 30
0.0
  0
POINT
  5
357
330
4D
100
AcDbEntity
  8
0
 62
     3
 60
     1
100
AcDbPoint
 10
2078.1893781636
 20
-4396.91828517671
 30
0.0
  0
POINT
  5
358
330
4D
100
AcDbEntity
  8
0
 62
     3
 60
     1
100
AcDbPoint
 10
2080.1893781636
 20
-4396.91828517671
 30
0.0
  0
POINT
  5
359
330
4D
100
AcDbEntity
  8
1
 62
     3
 60
     1
100
AcDbPoint
 10
419.165068936899
 20
477.049928278134
 30
0.0
  0
POINT
  5
35A
330
4D
100
AcDbEntity
  8
1
 62
     3
 60
     1
100
AcDbPoint
 10
-5768.22983329238
 20
462.075999201884
 30
0.0
  0
POINT
  5
35B
330
4D
100
AcDbEntity
  8
1
 62
     3
 60
     1
100
AcDbPoint
 10
-12153.7389367802
 20
1398.86324825572
 30
0.0
  0
POINT
  5
35C
330
4D
100
AcDbEntity
  8
1
 62
     3
 60
     1
100
AcDbPoint
 10
-11910.5516739454
 20
463.011929502534
 30
0.0
  0
POINT
  5
35D
330
4D
100
AcDbEntity
  8
1
 62
     3
 60
     1
100
AcDbPoint
 10
-7353.49905746141
 20
-965.060104088713
 30
0.0
  0
POINT
  5
35E
330
4D
100
AcDbEntity
  8
1
 62
     3
 60
     1
100
AcDbPoint
 10
-13964.8845231591
 20
852.460644489927
 30
0.0
  0
POINT
  5
35F
330
4D
100
AcDbEntity
  8
1
 62
     3
 60
     1
100
AcDbPoint
 10
-10952.2318897414
 20
1091.74408727107
 30
0.0
  0
POINT
  5
360
330
4D
100
AcDbEntity
  8
1
 62
     3
 60
     1
100
AcDbPoint
 10
-10709.0446269066
 20
155.892768517878
 30
0.0
  0
POINT
  5
361
330
4D
100
AcDbEntity
  8
1
 62
     3
 60
     1
100
AcDbPoint
 10
-6151.99201042266
 20
-1272.17926507337
 30
0.0
  0
POINT
  5
362
330
4D
100
AcDbEntity
  8
1
 62
     3
 60
     1
100
AcDbPoint
 10
-12763.3774761203
 20
545.341483505271
 30
0.0
  0
POINT
  5
363
330
4D
100
AcDbEntity
  8
1
 62
     3
 60
     1
100
AcDbPoint
 10
-492.731572306616
 20
-2022.95007172186
 30
0.0
  0
POINT
  5
364
330
4D
100
AcDbEntity
  8
1
 62
     3
 60
     1
100
AcDbPoint
 10
-4837.79329033445
 20
-697.831928478151
 30
0.0
  0
POINT
  5
365
330
4D
100
AcDbEntity
  8
1
 62
     3
 60
     1
100
AcDbPoint
 10
-4594.60602749967
 20
-1633.68324723134
 30
0.0
  0
POINT
  5
366
330
4D
100
AcDbEntity
  8
1
 62
     3
 60
     1
100
AcDbPoint
 10
-37.5534110157139
 20
-3061.75528082259
 30
0.0
  0
POINT
  5
367
330
4D
100
AcDbEntity
  8
1
 62
     3
 60
     1
100
AcDbPoint
 10
-6648.9388767134
 20
-1244.23453224395
 30
0.0
  0
POINT
  5
368
330
4D
100
AcDbEntity
  8
1
 62
     3
 60
     1
100
AcDbPoint
 10
-1269.7454921402
 20
-137.757073755681
 30
0.0
  0
POINT
  5
369
330
4D
100
AcDbEntity
  8
1
 62
     3
 60
     1
100
AcDbPoint
 10
-6039.3003373732
 20
-390.712767493497
 30
0.0
  0
POINT
  5
36A
330
4D
100
AcDbEntity
  8
1
 62
     3
 60
     1
100
AcDbPoint
 10
-5796.11307453842
 20
-1326.56408624669
 30
0.0
  0
POINT
  5
36B
330
4D
100
AcDbEntity
  8
1
 62
     3
 60
     1
100
AcDbPoint
 10
-1239.06045805446
 20
-2754.63611983793
 30
0.0
  0
POINT
  5
36C
330
4D
100
AcDbEntity
  8
1
 62
     3
 60
     1
100
AcDbPoint
 10
-7850.44592375215
 20
-937.115371259293
 30
0.0
  0
POINT
  5
36D
330
4D
100
AcDbEntity
  8
1
 62
     3
 60
     1
100
AcDbPoint
 10
-3557.22721096506
 20
-1060.24203600987
 30
0.0
  0
POINT
  5
36E
330
4D
100
AcDbEntity
  8
1
 62
     3
 60
     1
100
AcDbPoint
 10
-4841.18613611531
 20
-1342.47394562359
 30
0.0
  0
POINT
  5
36F
330
4D
100
AcDbEntity
  8
1
 62
     3
 60
     1
100
AcDbPoint
 10
5341.63997355748
 20
-1955.27782233432
 30
0.0
  0
POINT
  5
370
330
4D
100
AcDbEntity
  8
1
 62
     3
 60
     1
100
AcDbPoint
 10
434.312124871047
 20
-1327.50001654734
 30
0.0
  0
POINT
  5
371
330
4D
100
AcDbEntity
  8
1
 62
     3
 60
     1
100
AcDbPoint
 10
-3574.33249203177
 20
-1017.8767301555
 30
0.0
  0
POINT
  5
372
330
4D
100
AcDbEntity
  8
1
 62
     3
 60
     1
100
AcDbPoint
 10
-5039.3003373732
 20
-1290.7127674935
 30
0.0
  0
POINT
  5
373
330
4D
100
AcDbEntity
  8
1
 62
     3
 60
     1
100
AcDbPoint
 10
-4796.11307453842
 20
-2226.56408624669
 30
0.0
  0
POINT
  5
374
330
4D
100
AcDbEntity
  8
1
 62
     3
 60
     1
100
AcDbPoint
 10
-239.060458054463
 20
-3654.63611983793
 30
0.0
  0
POINT
  5
375
330
4D
100
AcDbEntity
  8
1
 62
     3
 60
     1
100
AcDbPoint
 10
-6850.44592375215
 20
-1837.11537125929
 30
0.0
  0
POINT
  5
376
330
4D
100
AcDbEntity
  8
1
 62
     3
 60
     1
100
AcDbPoint
 10
-3837.79329033445
 20
-1597.83192847815
 30
0.0
  0
POINT
  5
377
330
4D
100
AcDbEntity
  8
1
 62
     3
 60
     1
100
AcDbPoint
 10
-3594.60602749967
 20
-2533.68324723134
 30
0.0
  0
POINT
  5
378
330
4D
100
AcDbEntity
  8
1
 62
     3
 60
     1
100
AcDbPoint
 10
962.446588984287
 20
-3961.75528082259
 30
0.0
  0
POINT
  5
379
330
4D
100
AcDbEntity
  8
1
 62
     3
 60
     1
100
AcDbPoint
 10
-5648.93887671339
 20
-2144.23453224395
 30
0.0
  0
POINT
  5
37A
330
4D
100
AcDbEntity
  8
1
 62
     3
 60
     1
100
AcDbPoint
 10
-10924.4371376998
 20
-1259.2084613202
 30
0.0
  0
POINT
  5
37B
330
4D
100
AcDbEntity
  8
1
 62
     3
 60
     1
100
AcDbPoint
 10
-4313.05167200207
 20
-3076.72920989884
 30
0.0
  0
POINT
  5
37C
330
4D
100
AcDbEntity
  8
1
 62
     3
 60
     1
100
AcDbPoint
 10
-8870.10428848603
 20
-1648.65717630759
 30
0.0
  0
POINT
  5
37D
330
4D
100
AcDbEntity
  8
1
 62
     3
 60
     1
100
AcDbPoint
 10
-9113.29155132081
 20
-712.805857554402
 30
0.0
  0
POINT
  5
37E
330
4D
100
AcDbEntity
  8
1
 62
     3
 60
     1
100
AcDbPoint
 10
-12125.9441847385
 20
-952.089300335543
 30
0.0
  0
POINT
  5
37F
330
4D
100
AcDbEntity
  8
1
 62
     3
 60
     1
100
AcDbPoint
 10
-5514.55871904082
 20
-2769.61004891418
 30
0.0
  0
POINT
  5
380
330
4D
100
AcDbEntity
  8
1
 62
     3
 60
     1
100
AcDbPoint
 10
-10071.6113355248
 20
-1341.53801532294
 30
0.0
  0
POINT
  5
381
330
4D
100
AcDbEntity
  8
1
 62
     3
 60
     1
100
AcDbPoint
 10
-10314.7985983596
 20
-405.686696569747
 30
0.0
  0
POINT
  5
382
330
4D
100
AcDbEntity
  8
1
 62
     3
 60
     1
100
AcDbPoint
 10
-3929.2894948718
 20
-1342.47394562359
 30
0.0
  0
POINT
  5
383
330
4D
100
AcDbEntity
  8
1
 62
     3
 60
     1
100
AcDbPoint
 10
1346.20876611397
 20
-1327.50001654733
 30
0.0
  0
POINT
  5
384
330
4D
100
AcDbEntity
  8
0
 62
     3
 60
     1
100
AcDbPoint
 10
3897.12971658419
 20
-3699.46823000218
 30
0.0
  0
POINT
  5
385
330
4D
100
AcDbEntity
  8
0
 62
     3
 60
     1
100
AcDbPoint
 10
3897.12971658419
 20
-3701.46823000218
 30
0.0
  0
POINT
  5
386
330
4D
100
AcDbEntity
  8
0
 62
     3
 60
     1
100
AcDbPoint
 10
3917.12971658419
 20
-3701.46823000218
 30
0.0
  0
POINT
  5
387
330
4D
100
AcDbEntity
  8
0
 62
     3
 60
     1
100
AcDbPoint
 10
3919.12971658419
 20
-3701.46823000218
 30
0.0
  0
POINT
  5
388
330
4D
100
AcDbEntity
  8
1
 62
     3
 60
     1
100
AcDbPoint
 10
2258.10540735748
 20
1172.49998345267
 30
0.0
  0
POINT
  5
389
330
4D
100
AcDbEntity
  8
1
 62
     3
 60
     1
100
AcDbPoint
 10
-3929.2894948718
 20
1157.52605437642
 30
0.0
  0
POINT
  5
38A
330
4D
100
AcDbEntity
  8
1
 62
     3
 60
     1
100
AcDbPoint
 10
-10314.7985983596
 20
2094.31330343026
 30
0.0
  0
POINT
  5
38B
330
4D
100
AcDbEntity
  8
1
 62
     3
 60
     1
100
AcDbPoint
 10
-10071.6113355248
 20
1158.46198467706
 30
0.0
  0
POINT
  5
38C
330
4D
100
AcDbEntity
  8
1
 62
     3
 60
     1
100
AcDbPoint
 10
-5514.55871904082
 20
-269.610048914182
 30
0.0
  0
POINT
  5
38D
330
4D
100
AcDbEntity
  8
1
 62
     3
 60
     1
100
AcDbPoint
 10
-12125.9441847385
 20
1547.91069966446
 30
0.0
  0
POINT
  5
38E
330
4D
100
AcDbEntity
  8
1
 62
     3
 60
     1
100
AcDbPoint
 10
-9113.29155132081
 20
1787.1941424456
 30
0.0
  0
POINT
  5
38F
330
4D
100
AcDbEntity
  8
1
 62
     3
 60
     1
100
AcDbPoint
 10
-8870.10428848603
 20
851.342823692409
 30
0.0
  0
POINT
  5
390
330
4D
100
AcDbEntity
  8
1
 62
     3
 60
     1
100
AcDbPoint
 10
-4313.05167200207
 20
-576.729209898837
 30
0.0
  0
POINT
  5
391
330
4D
100
AcDbEntity
  8
1
 62
     3
 60
     1
100
AcDbPoint
 10
-10924.4371376998
 20
1240.7915386798
 30
0.0
  0
POINT
  5
392
330
4D
100
AcDbEntity
  8
1
 62
     3
 60
     1
100
AcDbPoint
 10
1346.20876611397
 20
-1327.50001654733
 30
0.0
  0
ENDBLK
  5
4F
330
4D
100
AcDbEntity
  8
0
100
AcDbBlockEnd
  0
BLOCK
  5
53
330
50
100
AcDbEntity
  8
0
100
AcDbBlockBegin
  2
060710_3da002689aaa__2006_10_03_15_32_45
 70
     0
 71
     0
 10
-1242.39226230024
 20
-2765.57118206996
 30
0.0
  3
060710_3da002689aaa__2006_10_03_15_32_45
  1

  0
INSERT
  5
51
330
50
100
AcDbEntity
  8
0
100
AcDbBlockReference
  2
YV3_6X2_8_AF_kentou__2006_01_13_14_48_41
 10
-389.143883416194
 20
-2974.64528815413
 30
0.0
  0
INSERT
  5
52
330
50
100
AcDbEntity
  8
0
100
AcDbBlockReference
  2
cf284p_name_label-3pa-a__2006_09_07_20_29_23
 10
-745.792844362037
 20
-2392.6723223633
 30
0.0
  0
ENDBLK
  5
54
330
50
100
AcDbEntity
  8
0
100
AcDbBlockEnd
  0
BLOCK
  5
1D1
330
1CA
100
AcDbEntity
  8
0
100
AcDbBlockBegin
  2
*D10
 70
     1
 71
     0
 10
0.0
 20
0.0
 30
0.0
  3
*D10
  1

  0
LINE
  5
1CB
330
1CA
100
AcDbEntity
  8
1
  6
Continuous
 62
     2
100
AcDbLine
 10
-161.898328413075
 20
-572.702205473595
 30
0.0
 11
-131.7724100965514
 21
-572.702205473595
 31
0.0
  0
LINE
  5
1CC
330
1CA
100
AcDbEntity
  8
1
  6
Continuous
 62
     2
100
AcDbLine
 10
-155.0983284099271
 20
-562.598299953511
 30
0.0
 11
-155.0983284099271
 21
-573.5022054735949
 31
0.0
  0
LINE
  5
1CD
330
1CA
100
AcDbEntity
  8
1
  6
Continuous
 62
     2
100
AcDbLine
 10
-156.898328413075
 20
-562.098299953511
 30
0.0
 11
-156.898328413075
 21
-573.5022054735949
 31
0.0
  0
SOLID
  5
1CE
330
1CA
100
AcDbEntity
  8
1
 62
     2
100
AcDbTrace
 10
-159.398328413075
 20
-573.0313367175635
 30
0.0
 11
-159.398328413075
 21
-572.3730742296265
 31
0.0
 12
-156.898328413075
 22
-572.702205473595
 32
0.0
 13
-156.898328413075
 23
-572.702205473595
 33
0.0
  0
SOLID
  5
1CF
330
1CA
100
AcDbEntity
  8
1
 62
     2
100
AcDbTrace
 10
-152.5983284099271
 20
-572.3730742296265
 30
0.0
 11
-152.5983284099271
 21
-573.0313367175635
 31
0.0
 12
-155.0983284099271
 22
-572.702205473595
 32
0.0
 13
-155.0983284099271
 23
-572.702205473595
 33
0.0
  0
MTEXT
  5
1D0
330
1CA
100
AcDbEntity
  8
1
 62
     2
100
AcDbMText
 10
-162.4240100964614
 20
-571.9834926243782
 30
0.0
 40
3.0
 41
0.0
 71
     7
 72
     1
  1
1.80.3
  7
CONVERTER_11
 11
0.999999999988248
 21
4.848136811095759E-6
 31
0.0
 73
     1
 44
0.60024009603842
  0
ENDBLK
  5
1D2
330
1CA
100
AcDbEntity
  8
0
100
AcDbBlockEnd
  0
BLOCK
  5
1DC
330
1D5
100
AcDbEntity
  8
0
100
AcDbBlockBegin
  2
*D11
 70
     1
 71
     0
 10
0.0
 20
0.0
 30
0.0
  3
*D11
  1

  0
LINE
  5
1D6
330
1D5
100
AcDbEntity
  8
1
  6
Continuous
 62
     2
100
AcDbLine
 10
-204.598328410036
 20
-586.984301338016
 30
0.0
 11
-155.0983284099261
 21
-586.984301338016
 31
0.0
  0
LINE
  5
1D7
330
1D5
100
AcDbEntity
  8
1
  6
Continuous
 62
     2
100
AcDbLine
 10
-204.598328410036
 20
-517.4106196967242
 30
0.0
 11
-204.598328410036
 21
-587.784301338016
 31
0.0
  0
LINE
  5
1D8
330
1D5
100
AcDbEntity
  8
1
  6
Continuous
 62
     2
100
AcDbLine
 10
-155.0983284099261
 20
-562.5982999535112
 30
0.0
 11
-155.0983284099261
 21
-587.784301338016
 31
0.0
  0
SOLID
  5
1D9
330
1D5
100
AcDbEntity
  8
1
 62
     2
100
AcDbTrace
 10
-157.5983284099261
 20
-587.3134325819846
 30
0.0
 11
-157.5983284099261
 21
-586.6551700940475
 31
0.0
 12
-155.0983284099261
 22
-586.984301338016
 32
0.0
 13
-155.0983284099261
 23
-586.984301338016
 33
0.0
  0
SOLID
  5
1DA
330
1D5
100
AcDbEntity
  8
1
 62
     2
100
AcDbTrace
 10
-202.098328410036
 20
-586.6551700940475
 30
0.0
 11
-202.098328410036
 21
-587.3134325819846
 31
0.0
 12
-204.598328410036
 22
-586.984301338016
 32
0.0
 13
-204.598328410036
 23
-586.984301338016
 33
0.0
  0
MTEXT
  5
1DB
330
1D5
100
AcDbEntity
  8
1
 62
     2
100
AcDbMText
 10
-197.3635247738269
 20
-586.2655937960545
 30
0.0
 40
3.0
 41
0.0
 71
     7
 72
     1
  1
49.50.5
  7
CONVERTER_11
 11
0.999999999988248
 21
4.848136811095759E-6
 31
0.0
 73
     1
 44
0.60024009603842
  0
ENDBLK
  5
1DD
330
1D5
100
AcDbEntity
  8
0
100
AcDbBlockEnd
  0
BLOCK
  5
1E8
330
1E0
100
AcDbEntity
  8
0
100
AcDbBlockBegin
  2
*D12
 70
     1
 71
     0
 10
0.0
 20
0.0
 30
0.0
  3
*D12
  1

  0
LINE
  5
1E1
330
1E0
100
AcDbEntity
  8
1
  6
Continuous
 62
     2
100
AcDbLine
 10
-164.5983284100364
 20
-579.985574318002
 30
0.0
 11
-140.8125519770611
 21
-579.985574318002
 31
0.0
  0
LINE
  5
1E2
330
1E0
100
AcDbEntity
  8
1
  6
Continuous
 62
     2
100
AcDbLine
 10
-164.5983284100364
 20
-562.5982999535112
 30
0.0
 11
-164.5983284100364
 21
-580.785574318002
 31
0.0
  0
LINE
  5
1E3
330
1E0
100
AcDbEntity
  8
1
  6
Continuous
 62
     2
100
AcDbLine
 10
-155.0983284099266
 20
-562.5982999535112
 30
0.0
 11
-155.0983284099266
 21
-580.785574318002
 31
0.0
  0
SOLID
  5
1E4
330
1E0
100
AcDbEntity
  8
1
 62
     2
100
AcDbTrace
 10
-157.5983284099266
 20
-580.3147055619705
 30
0.0
 11
-157.5983284099266
 21
-579.6564430740335
 31
0.0
 12
-155.0983284099266
 22
-579.985574318002
 32
0.0
 13
-155.0983284099266
 23
-579.985574318002
 33
0.0
  0
SOLID
  5
1E5
330
1E0
100
AcDbEntity
  8
1
 62
     2
100
AcDbTrace
 10
-162.0983284100364
 20
-579.6564430740335
 30
0.0
 11
-162.0983284100364
 21
-580.3147055619705
 31
0.0
 12
-164.5983284100364
 22
-579.985574318002
 32
0.0
 13
-164.5983284100364
 23
-579.985574318002
 33
0.0
  0
MTEXT
  5
1E7
330
1E0
100
AcDbEntity
  8
1
 62
     2
100
AcDbMText
 10
-158.327751976988
 20
-578.9856023450765
 30
0.0
 40
3.0
 41
0.0
 71
     7
 72
     1
  1
\C2;(\C2;9.5\C2;)
  7
CONVERTER_13
 11
0.999999999988248
 21
4.848136811095759E-6
 31
0.0
 73
     1
 44
0.60024009603842
  0
ENDBLK
  5
1E9
330
1E0
100
AcDbEntity
  8
0
100
AcDbBlockEnd
  0
ENDSEC
  0
SECTION
  2
ENTITIES
  0
INSERT
  5
55
330
1F
100
AcDbEntity
  8
0
100
AcDbBlockReference
  2
060710_3da002689aaa__2006_10_03_15_32_45
 10
-1242.39226230024
 20
-2765.57118206996
 30
0.0
  0
ENDSEC
  0
SECTION
  2
OBJECTS
  0
DICTIONARY
  5
C
330
0
100
AcDbDictionary
281
     1
  3
ACAD_GROUP
350
D
  3
ACAD_LAYOUT
350
1A
  3
ACAD_MLINESTYLE
350
17
  3
ACAD_PLOTSETTINGS
350
19
  3
ACAD_PLOTSTYLENAME
350
E
  0
DICTIONARY
  5
D
102
{ACAD_REACTORS
330
C
102
}
330
C
100
AcDbDictionary
281
     1
  0
DICTIONARY
  5
1A
102
{ACAD_REACTORS
330
C
102
}
330
C
100
AcDbDictionary
281
     1
  3
Layout1
350
1E
  3
Layout2
350
26
  3
Model
350
22
  0
DICTIONARY
  5
17
102
{ACAD_REACTORS
330
C
102
}
330
C
100
AcDbDictionary
281
     1
  3
Standard
350
18
  0
DICTIONARY
  5
19
102
{ACAD_REACTORS
330
C
102
}
330
C
100
AcDbDictionary
281
     1
  0
ACDBDICTIONARYWDFLT
  5
E
102
{ACAD_REACTORS
330
C
102
}
330
C
100
AcDbDictionary
281
     1
  3
Normal
350
F
100
AcDbDictionaryWithDefault
340
F
  0
LAYOUT
  5
1E
102
{ACAD_REACTORS
330
1A
102
}
330
1A
100
AcDbPlotSettings
  1

  2

  4

  6

 40
0.0
 41
0.0
 42
0.0
 43
0.0
 44
0.0
 45
0.0
 46
0.0
 47
0.0
 48
0.0
 49
0.0
140
0.0
141
0.0
142
1.0
143
1.0
 70
   688
 72
     0
 73
     0
 74
     5
  7

 75
    16
147
1.0
148
0.0
149
0.0
100
AcDbLayout
  1
Layout1
 70
     1
 71
     1
 10
0.0
 20
0.0
 11
0.0
 21
0.0
 12
0.0
 22
0.0
 32
0.0
 14
0.0
 24
0.0
 34
0.0
 15
0.0
 25
0.0
 35
0.0
146
0.0
 13
0.0
 23
0.0
 33
0.0
 16
1.0
 26
0.0
 36
0.0
 17
0.0
 27
1.0
 37
0.0
 76
     0
330
1B
  0
LAYOUT
  5
26
102
{ACAD_REACTORS
330
1A
102
}
330
1A
100
AcDbPlotSettings
  1

  2

  4

  6

 40
0.0
 41
0.0
 42
0.0
 43
0.0
 44
0.0
 45
0.0
 46
0.0
 47
0.0
 48
0.0
 49
0.0
140
0.0
141
0.0
142
1.0
143
1.0
 70
   688
 72
     0
 73
     0
 74
     5
  7

 75
    16
147
1.0
148
0.0
149
0.0
100
AcDbLayout
  1
Layout2
 70
     1
 71
     2
 10
0.0
 20
0.0
 11
0.0
 21
0.0
 12
0.0
 22
0.0
 32
0.0
 14
0.0
 24
0.0
 34
0.0
 15
0.0
 25
0.0
 35
0.0
146
0.0
 13
0.0
 23
0.0
 33
0.0
 16
1.0
 26
0.0
 36
0.0
 17
0.0
 27
1.0
 37
0.0
 76
     0
330
23
  0
LAYOUT
  5
22
102
{ACAD_REACTORS
330
1A
102
}
330
1A
100
AcDbPlotSettings
  1

  2

  4

  6

 40
0.0
 41
0.0
 42
0.0
 43
0.0
 44
0.0
 45
0.0
 46
0.0
 47
0.0
 48
0.0
 49
0.0
140
0.0
141
0.0
142
1.0
143
1.0
 70
  1712
 72
     0
 73
     0
 74
     0
  7

 75
     0
147
1.0
148
0.0
149
0.0
100
AcDbLayout
  1
Model
 70
     1
 71
     0
 10
0.0
 20
0.0
 11
0.0
 21
0.0
 12
0.0
 22
0.0
 32
0.0
 14
-353.8313466589
 24
-659.463172693587
 34
0.0
 15
-131.7724100965514
 25
-457.110619700591
 35
0.0
146
0.0
 13
0.0
 23
0.0
 33
0.0
 16
1.0
 26
0.0
 36
0.0
 17
0.0
 27
1.0
 37
0.0
 76
     0
330
1F
  0
MLINESTYLE
  5
18
102
{ACAD_REACTORS
330
17
102
}
330
17
100
AcDbMlineStyle
  2
Standard
 70
     0
  3

 62
   256
 51
90.0
 52
90.0
 71
     2
 49
0.5
 62
   256
  6
BYLAYER
 49
-0.5
 62
   256
  6
BYLAYER
  0
ACDBPLACEHOLDER
  5
F
102
{ACAD_REACTORS
330
E
102
}
330
E
  0
ENDSEC
  0
EOF
