  0
SECTION
  2
HEADER
  9
$ACADVER
  1
AC1015
  9
$ACADMAINTVER
 70
    20
  9
$DWGCODEPAGE
  3
ANSI_932
  9
$INSBASE
 10
129.0
 20
120.4992141396419
 30
0.0
  9
$EXTMIN
 10
130.996656018877
 20
5.492268478779493
 30
-0.0000000349181948
  9
$EXTMAX
 10
256.0075991452117
 20
118.5011591832913
 30
0.0000000814935747
  9
$LIMMIN
 10
109.0336350801651
 20
5.426655719488962
  9
$LIMMAX
 10
278.1125159405424
 20
118.5840378619216
  9
$ORTHOMODE
 70
     1
  9
$REGENMODE
 70
     1
  9
$FILLMODE
 70
     1
  9
$QTEXTMODE
 70
     0
  9
$MIRRTEXT
 70
     1
  9
$LTSCALE
 40
1.0
  9
$ATTMODE
 70
     1
  9
$TEXTSIZE
 40
3.0
  9
$TRACEWID
 40
0.5
  9
$TEXTSTYLE
  7
STANDARD
  9
$CLAYER
  8
0
  9
$CELTYPE
  6
ByLayer
  9
$CECOLOR
 62
   256
  9
$CELTSCALE
 40
1.0
  9
$DISPSILH
 70
     0
  9
$DIMSCALE
 40
1.0
  9
$DIMASZ
 40
2.0
  9
$DIMEXO
 40
2.0
  9
$DIMDLI
 40
8.0
  9
$DIMRND
 40
0.0
  9
$DIMDLE
 40
0.0
  9
$DIMEXE
 40
2.0
  9
$DIMTP
 40
0.0
  9
$DIMTM
 40
0.0
  9
$DIMTXT
 40
2.5
  9
$DIMCEN
 40
0.0
  9
$DIMTSZ
 40
0.0
  9
$DIMTOL
 70
     0
  9
$DIMLIM
 70
     0
  9
$DIMTIH
 70
     0
  9
$DIMTOH
 70
     0
  9
$DIMSE1
 70
     0
  9
$DIMSE2
 70
     0
  9
$DIMTAD
 70
     3
  9
$DIMZIN
 70
     0
  9
$DIMBLK
  1

  9
$DIMASO
 70
     1
  9
$DIMSHO
 70
     1
  9
$DIMPOST
  1

  9
$DIMAPOST
  1

  9
$DIMALT
 70
     0
  9
$DIMALTD
 70
     2
  9
$DIMALTF
 40
25.4
  9
$DIMLFAC
 40
1.0
  9
$DIMTOFL
 70
     1
  9
$DIMTVP
 40
0.0
  9
$DIMTIX
 70
     0
  9
$DIMSOXD
 70
     0
  9
$DIMSAH
 70
     1
  9
$DIMBLK1
  1
OPEN30
  9
$DIMBLK2
  1
OPEN30
  9
$DIMSTYLE
  2
STANDARD
  9
$DIMCLRD
 70
     0
  9
$DIMCLRE
 70
     0
  9
$DIMCLRT
 70
     0
  9
$DIMTFAC
 40
1.0
  9
$DIMGAP
 40
0.5
  9
$DIMJUST
 70
     0
  9
$DIMSD1
 70
     0
  9
$DIMSD2
 70
     0
  9
$DIMTOLJ
 70
     1
  9
$DIMTZIN
 70
     0
  9
$DIMALTZ
 70
     0
  9
$DIMALTTZ
 70
     0
  9
$DIMUPT
 70
     0
  9
$DIMDEC
 70
     4
  9
$DIMTDEC
 70
     4
  9
$DIMALTU
 70
     2
  9
$DIMALTTD
 70
     2
  9
$DIMTXSTY
  7
STANDARD
  9
$DIMAUNIT
 70
     0
  9
$DIMADEC
 70
     0
  9
$DIMALTRND
 40
0.0
  9
$DIMAZIN
 70
     0
  9
$DIMDSEP
 70
    46
  9
$DIMATFIT
 70
     3
  9
$DIMFRAC
 70
     0
  9
$DIMLDRBLK
  1

  9
$DIMLUNIT
 70
     2
  9
$DIMLWD
 70
    -2
  9
$DIMLWE
 70
    -2
  9
$DIMTMOVE
 70
     0
  9
$LUNITS
 70
     2
  9
$LUPREC
 70
     4
  9
$SKETCHINC
 40
0.1
  9
$FILLETRAD
 40
0.0
  9
$AUNITS
 70
     0
  9
$AUPREC
 70
     0
  9
$MENU
  1
ACAD
  9
$ELEVATION
 40
0.0
  9
$PELEVATION
 40
0.0
  9
$THICKNESS
 40
0.0
  9
$LIMCHECK
 70
     0
  9
$CHAMFERA
 40
0.0
  9
$CHAMFERB
 40
0.0
  9
$CHAMFERC
 40
0.0
  9
$CHAMFERD
 40
0.0
  9
$SKPOLY
 70
     0
  9
$TDCREATE
 40
2451814.815532581
  9
$TDUCREATE
 40
2451814.440532581
  9
$TDUPDATE
 40
2453731.695765336
  9
$TDUUPDATE
 40
2453731.320765336
  9
$TDINDWG
 40
0.6847065509
  9
$TDUSRTIMER
 40
0.6847065509
  9
$USRTIMER
 70
     1
  9
$ANGBASE
 50
0.0
  9
$ANGDIR
 70
     0
  9
$PDMODE
 70
     0
  9
$PDSIZE
 40
0.0
  9
$PLINEWID
 40
0.0
  9
$SPLFRAME
 70
     0
  9
$SPLINETYPE
 70
     6
  9
$SPLINESEGS
 70
     8
  9
$HANDSEED
  5
197
  9
$SURFTAB1
 70
     6
  9
$SURFTAB2
 70
     6
  9
$SURFTYPE
 70
     6
  9
$SURFU
 70
     6
  9
$SURFV
 70
     6
  9
$UCSBASE
  2

  9
$UCSNAME
  2

  9
$UCSORG
 10
0.0
 20
0.0
 30
0.0
  9
$UCSXDIR
 10
1.0
 20
0.0
 30
0.0
  9
$UCSYDIR
 10
0.0
 20
1.0
 30
0.0
  9
$UCSORTHOREF
  2

  9
$UCSORTHOVIEW
 70
     0
  9
$UCSORGTOP
 10
0.0
 20
0.0
 30
0.0
  9
$UCSORGBOTTOM
 10
0.0
 20
0.0
 30
0.0
  9
$UCSORGLEFT
 10
0.0
 20
0.0
 30
0.0
  9
$UCSORGRIGHT
 10
0.0
 20
0.0
 30
0.0
  9
$UCSORGFRONT
 10
0.0
 20
0.0
 30
0.0
  9
$UCSORGBACK
 10
0.0
 20
0.0
 30
0.0
  9
$PUCSBASE
  2

  9
$PUCSNAME
  2

  9
$PUCSORG
 10
0.0
 20
0.0
 30
0.0
  9
$PUCSXDIR
 10
1.0
 20
0.0
 30
0.0
  9
$PUCSYDIR
 10
0.0
 20
1.0
 30
0.0
  9
$PUCSORTHOREF
  2

  9
$PUCSORTHOVIEW
 70
     0
  9
$PUCSORGTOP
 10
0.0
 20
0.0
 30
0.0
  9
$PUCSORGBOTTOM
 10
0.0
 20
0.0
 30
0.0
  9
$PUCSORGLEFT
 10
0.0
 20
0.0
 30
0.0
  9
$PUCSORGRIGHT
 10
0.0
 20
0.0
 30
0.0
  9
$PUCSORGFRONT
 10
0.0
 20
0.0
 30
0.0
  9
$PUCSORGBACK
 10
0.0
 20
0.0
 30
0.0
  9
$USERI1
 70
     0
  9
$USERI2
 70
     0
  9
$USERI3
 70
     0
  9
$USERI4
 70
     0
  9
$USERI5
 70
     0
  9
$USERR1
 40
0.0
  9
$USERR2
 40
0.0
  9
$USERR3
 40
0.0
  9
$USERR4
 40
0.0
  9
$USERR5
 40
0.0
  9
$WORLDVIEW
 70
     1
  9
$SHADEDGE
 70
     3
  9
$SHADEDIF
 70
    70
  9
$TILEMODE
 70
     1
  9
$MAXACTVP
 70
    48
  9
$PINSBASE
 10
0.0
 20
0.0
 30
0.0
  9
$PLIMCHECK
 70
     0
  9
$PEXTMIN
 10
1.000000000000000E+20
 20
1.000000000000000E+20
 30
1.000000000000000E+20
  9
$PEXTMAX
 10
-1.000000000000000E+20
 20
-1.000000000000000E+20
 30
-1.000000000000000E+20
  9
$PLIMMIN
 10
0.0
 20
0.0
  9
$PLIMMAX
 10
12.0
 20
9.0
  9
$UNITMODE
 70
     0
  9
$VISRETAIN
 70
     1
  9
$PLINEGEN
 70
     0
  9
$PSLTSCALE
 70
     1
  9
$TREEDEPTH
 70
  3020
  9
$CMLSTYLE
  2
Standard
  9
$CMLJUST
 70
     0
  9
$CMLSCALE
 40
1.0
  9
$PROXYGRAPHICS
 70
     1
  9
$MEASUREMENT
 70
     0
  9
$CELWEIGHT
370
    -1
  9
$ENDCAPS
280
     0
  9
$JOINSTYLE
280
     0
  9
$LWDISPLAY
290
     0
  9
$INSUNITS
 70
     0
  9
$HYPERLINKBASE
  1

  9
$STYLESHEET
  1

  9
$XEDIT
290
     1
  9
$CEPSNTYPE
380
     0
  9
$PSTYLEMODE
290
     1
  9
$FINGERPRINTGUID
  2
{4354C1D9-26AF-4DAE-AF9F-0F9D824306A3}
  9
$VERSIONGUID
  2
{057F17A2-8E1C-4270-B08D-5FB289DE059D}
  9
$EXTNAMES
290
     1
  9
$PSVPSCALE
 40
0.0
  9
$OLESTARTUP
290
     0
  0
ENDSEC
  0
SECTION
  2
CLASSES
  0
CLASS
  1
ACDBDICTIONARYWDFLT
  2
AcDbDictionaryWithDefault
  3
ObjectDBX Classes
 90
        0
280
     0
281
     0
  0
CLASS
  1
DICTIONARYVAR
  2
AcDbDictionaryVar
  3
ObjectDBX Classes
 90
        0
280
     0
281
     0
  0
CLASS
  1
ACDBPLACEHOLDER
  2
AcDbPlaceHolder
  3
ObjectDBX Classes
 90
        0
280
     0
281
     0
  0
CLASS
  1
LAYOUT
  2
AcDbLayout
  3
ObjectDBX Classes
 90
        0
280
     0
281
     0
  0
ENDSEC
  0
SECTION
  2
TABLES
  0
TABLE
  2
VPORT
  5
138
330
0
100
AcDbSymbolTable
 70
     2
  0
VPORT
  5
18E
330
138
100
AcDbSymbolTableRecord
100
AcDbViewportTableRecord
  2
*Active
 70
     0
 10
0.0
 20
0.0
 11
1.0
 21
1.0
 12
193.5021275820444
 22
61.99671383103541
 13
0.0
 23
0.0
 14
1.0
 24
1.0
 15
0.0
 25
0.0
 16
0.0
 26
0.0
 36
1.0
 17
0.0
 27
0.0
 37
0.0
 40
113.9775383391219
 41
1.589413447782546
 42
50.0
 43
0.0
 44
0.0
 50
0.0
 51
0.0
 71
     0
 72
  1000
 73
     1
 74
     0
 75
     0
 76
     0
 77
     0
 78
     0
281
     0
 65
     1
110
0.0
120
0.0
130
0.0
111
1.0
121
0.0
131
0.0
112
0.0
122
1.0
132
0.0
 79
     0
146
0.0
  0
ENDTAB
  0
TABLE
  2
LTYPE
  5
135
330
0
100
AcDbSymbolTable
 70
     1
  0
LTYPE
  5
143
330
135
100
AcDbSymbolTableRecord
100
AcDbLinetypeTableRecord
  2
ByBlock
 70
     0
  3

 72
    65
 73
     0
 40
0.0
  0
LTYPE
  5
144
330
135
100
AcDbSymbolTableRecord
100
AcDbLinetypeTableRecord
  2
ByLayer
 70
     0
  3

 72
    65
 73
     0
 40
0.0
  0
LTYPE
  5
145
330
135
100
AcDbSymbolTableRecord
100
AcDbLinetypeTableRecord
  2
CONTINUOUS
 70
     0
  3
Solid line
 72
    65
 73
     0
 40
0.0
  0
ENDTAB
  0
TABLE
  2
LAYER
  5
132
330
0
100
AcDbSymbolTable
 70
     8
  0
LAYER
  5
140
330
132
100
AcDbSymbolTableRecord
100
AcDbLayerTableRecord
  2
0
 70
     0
 62
     7
  6
CONTINUOUS
370
    -3
390
13F
  0
LAYER
  5
156
330
132
100
AcDbSymbolTableRecord
100
AcDbLayerTableRecord
  2
DEFPOINTS
 70
     0
 62
     7
  6
CONTINUOUS
290
     0
370
    -3
390
13F
  0
LAYER
  5
157
330
132
100
AcDbSymbolTableRecord
100
AcDbLayerTableRecord
  2
WAKU
 70
     0
 62
     4
  6
CONTINUOUS
370
    -3
390
13F
  0
LAYER
  5
158
330
132
100
AcDbSymbolTableRecord
100
AcDbLayerTableRecord
  2
MOJI1
 70
     0
 62
     2
  6
CONTINUOUS
370
    -3
390
13F
  0
LAYER
  5
159
330
132
100
AcDbSymbolTableRecord
100
AcDbLayerTableRecord
  2
GAIKEI
 70
     0
 62
     7
  6
CONTINUOUS
370
    -3
390
13F
  0
LAYER
  5
15A
330
132
100
AcDbSymbolTableRecord
100
AcDbLayerTableRecord
  2
SUNPO
 70
     0
 62
     3
  6
CONTINUOUS
370
    -3
390
13F
  0
LAYER
  5
15B
330
132
100
AcDbSymbolTableRecord
100
AcDbLayerTableRecord
  2
TOUROKU
 70
     0
 62
     1
  6
CONTINUOUS
370
    -3
390
13F
  0
ENDTAB
  0
TABLE
  2
STYLE
  5
133
330
0
100
AcDbSymbolTable
 70
     2
  0
STYLE
  5
141
330
133
100
AcDbSymbolTableRecord
100
AcDbTextStyleTableRecord
  2
STANDARD
 70
     0
 40
0.0
 41
1.0
 50
0.0
 71
     0
 42
3.0
  3
MONOTXT.shx
  4
BIGFONT.shx
  0
ENDTAB
  0
TABLE
  2
VIEW
  5
136
330
0
100
AcDbSymbolTable
 70
     0
  0
ENDTAB
  0
TABLE
  2
UCS
  5
137
330
0
100
AcDbSymbolTable
 70
     0
  0
ENDTAB
  0
TABLE
  2
APPID
  5
139
330
0
100
AcDbSymbolTable
 70
     1
  0
APPID
  5
142
330
139
100
AcDbSymbolTableRecord
100
AcDbRegAppTableRecord
  2
ACAD
 70
     0
  0
ENDTAB
  0
TABLE
  2
DIMSTYLE
  5
13A
330
0
100
AcDbSymbolTable
 70
     1
100
AcDbDimStyleTable
 71
     1
340
15D
  0
DIMSTYLE
105
15D
102
{ACAD_REACTORS
330
4A
330
39
102
}
330
13A
100
AcDbSymbolTableRecord
100
AcDbDimStyleTableRecord
  2
STANDARD
 70
     0
 40
0.0
 41
2.0
 42
2.0
 43
8.0
 44
2.0
 73
     0
 74
     0
 77
     3
140
3.0
141
0.0
173
     1
279
     2
340
141
  0
ENDTAB
  0
TABLE
  2
BLOCK_RECORD
  5
131
330
0
100
AcDbSymbolTable
 70
     7
  0
BLOCK_RECORD
  5
150
330
131
100
AcDbSymbolTableRecord
100
AcDbBlockTableRecord
  2
*Model_Space
340
153
  0
BLOCK_RECORD
  5
14C
330
131
100
AcDbSymbolTableRecord
100
AcDbBlockTableRecord
  2
*Paper_Space
340
14F
  0
BLOCK_RECORD
  5
164
330
131
100
AcDbSymbolTableRecord
100
AcDbBlockTableRecord
  2
_OPEN30
340
0
102
{BLKREFS
331
3F
331
40
331
4F
331
50
331
177
331
178
331
183
331
184
102
}
  0
BLOCK_RECORD
  5
173
330
131
100
AcDbSymbolTableRecord
100
AcDbBlockTableRecord
  2
*D5
340
0
  0
BLOCK_RECORD
  5
17F
330
131
100
AcDbSymbolTableRecord
100
AcDbBlockTableRecord
  2
*D6
340
0
  0
ENDTAB
  0
ENDSEC
  0
SECTION
  2
BLOCKS
  0
BLOCK
  5
151
330
150
100
AcDbEntity
  8
0
100
AcDbBlockBegin
  2
*Model_Space
 70
     0
 10
0.0
 20
0.0
 30
0.0
  3
*Model_Space
  1

  0
ENDBLK
  5
152
330
150
100
AcDbEntity
  8
0
100
AcDbBlockEnd
  0
BLOCK
  5
14D
330
14C
100
AcDbEntity
 67
     1
  8
0
100
AcDbBlockBegin
  2
*Paper_Space
 70
     0
 10
0.0
 20
0.0
 30
0.0
  3
*Paper_Space
  1

  0
ENDBLK
  5
14E
330
14C
100
AcDbEntity
 67
     1
  8
0
100
AcDbBlockEnd
  0
BLOCK
  5
165
330
164
100
AcDbEntity
  8
0
100
AcDbBlockBegin
  2
_OPEN30
 70
     0
 10
0.0
 20
0.0
 30
0.0
  3
_OPEN30
  1

  0
LINE
  5
29
330
164
100
AcDbEntity
  8
0
  6
ByBlock
 62
     0
100
AcDbLine
 10
-1.0
 20
0.26794919
 30
0.0
 11
0.0
 21
0.0
 31
0.0
  0
LINE
  5
2A
330
164
100
AcDbEntity
  8
0
  6
ByBlock
 62
     0
100
AcDbLine
 10
0.0
 20
0.0
 30
0.0
 11
-1.0
 21
-0.26794919
 31
0.0
  0
LINE
  5
2B
330
164
100
AcDbEntity
  8
0
  6
ByBlock
 62
     0
100
AcDbLine
 10
0.0
 20
0.0
 30
0.0
 11
-1.0
 21
0.0
 31
0.0
  0
ENDBLK
  5
2D
330
164
100
AcDbEntity
  8
0
100
AcDbBlockEnd
  0
BLOCK
  5
17D
330
173
100
AcDbEntity
  8
0
100
AcDbBlockBegin
  2
*D5
 70
     1
 10
0.0
 20
0.0
 30
0.0
  3
*D5
  1

  0
LINE
  5
174
330
173
100
AcDbEntity
  8
SUNPO
 62
     0
370
    -2
100
AcDbLine
 10
179.4775545980535
 20
67.44921413964175
 30
0.0
 11
179.4775545980535
 21
59.44921413964175
 31
0.0
  0
LINE
  5
175
330
173
100
AcDbEntity
  8
SUNPO
 62
     0
370
    -2
100
AcDbLine
 10
167.4775545980535
 20
67.44921413964175
 30
0.0
 11
167.4775545980535
 21
59.44921413964175
 31
0.0
  0
LINE
  5
176
330
173
100
AcDbEntity
  8
SUNPO
 62
     0
370
    -2
100
AcDbLine
 10
177.4775545980535
 20
61.44921413964175
 30
0.0
 11
169.4775545980535
 21
61.44921413964175
 31
0.0
  0
INSERT
  5
177
330
173
100
AcDbEntity
  8
SUNPO
 62
     0
370
    -2
100
AcDbBlockReference
  2
_OPEN30
 10
179.4775545980535
 20
61.44921413964175
 30
0.0
 41
2.0
 42
2.0
 43
2.0
  0
INSERT
  5
178
330
173
100
AcDbEntity
  8
SUNPO
 62
     0
370
    -2
100
AcDbBlockReference
  2
_OPEN30
 10
167.4775545980535
 20
61.44921413964175
 30
0.0
 41
2.0
 42
2.0
 43
2.0
 50
180.0
  0
MTEXT
  5
179
330
173
100
AcDbEntity
  8
SUNPO
 62
     0
100
AcDbMText
 10
173.4775545980535
 20
63.19921413964175
 30
0.0
 40
2.5
 41
0.0
 71
     5
 72
     1
  1
\A1;φ120
 73
     1
 44
1.0
1001
ACAD
1000
MTEXTBEGIN
1070
    73
1070
     1
1070
    44
1040
1.0
1070
    74
1070
     0
1000
MTEXTEND
  0
POINT
  5
17A
330
173
100
AcDbEntity
  8
DEFPOINTS
 62
     0
100
AcDbPoint
 10
179.4775545980535
 20
69.44921413964175
 30
0.0
  0
POINT
  5
17B
330
173
100
AcDbEntity
  8
DEFPOINTS
 62
     0
100
AcDbPoint
 10
167.4775545980535
 20
69.44921413964175
 30
0.0
  0
POINT
  5
17C
330
173
100
AcDbEntity
  8
DEFPOINTS
 62
     0
100
AcDbPoint
 10
167.4775545980535
 20
61.44921413964175
 30
0.0
  0
ENDBLK
  5
17E
330
173
100
AcDbEntity
  8
0
100
AcDbBlockEnd
  0
BLOCK
  5
189
330
17F
100
AcDbEntity
  8
0
100
AcDbBlockBegin
  2
*D6
 70
     1
 10
0.0
 20
0.0
 30
0.0
  3
*D6
  1

  0
LINE
  5
180
330
17F
100
AcDbEntity
  8
SUNPO
 62
     0
370
    -2
100
AcDbLine
 10
184.9775545980535
 20
69.44921413964175
 30
0.0
 11
192.977554680331
 21
69.44921413964175
 31
0.0
  0
LINE
  5
181
330
17F
100
AcDbEntity
  8
SUNPO
 62
     0
370
    -2
100
AcDbLine
 10
184.9775545980535
 20
88.5492141396419
 30
0.0
 11
192.977554680331
 21
88.5492141396419
 31
0.0
  0
LINE
  5
182
330
17F
100
AcDbEntity
  8
SUNPO
 62
     0
370
    -2
100
AcDbLine
 10
190.977554680331
 20
71.44921413964175
 30
0.0
 11
190.977554680331
 21
86.54921413964189
 31
0.0
  0
INSERT
  5
183
330
17F
100
AcDbEntity
  8
SUNPO
 62
     0
370
    -2
100
AcDbBlockReference
  2
_OPEN30
 10
190.977554680331
 20
69.44921413964175
 30
0.0
 41
2.0
 42
2.0
 43
2.0
 50
270.0
  0
INSERT
  5
184
330
17F
100
AcDbEntity
  8
SUNPO
 62
     0
370
    -2
100
AcDbBlockReference
  2
_OPEN30
 10
190.977554680331
 20
88.5492141396419
 30
0.0
 41
2.0
 42
2.0
 43
2.0
 50
90.0
  0
MTEXT
  5
185
330
17F
100
AcDbEntity
  8
SUNPO
 62
     0
100
AcDbMText
 10
189.2275546803309
 20
78.99921413964185
 30
0.0
 40
2.5
 41
0.0
 71
     5
 72
     1
  1
\A1;191
 11
0.0000000000000001
 21
1.0
 31
0.0
 73
     1
 44
1.0
1001
ACAD
1000
MTEXTBEGIN
1070
    73
1070
     1
1070
    44
1040
1.0
1070
    74
1070
     0
1000
MTEXTEND
  0
POINT
  5
186
330
17F
100
AcDbEntity
  8
DEFPOINTS
 62
     0
100
AcDbPoint
 10
182.9775545980535
 20
69.44921413964175
 30
0.0
  0
POINT
  5
187
330
17F
100
AcDbEntity
  8
DEFPOINTS
 62
     0
100
AcDbPoint
 10
182.9775545980535
 20
88.5492141396419
 30
0.0
  0
POINT
  5
188
330
17F
100
AcDbEntity
  8
DEFPOINTS
 62
     0
100
AcDbPoint
 10
190.977554680331
 20
88.5492141396419
 30
0.0
  0
ENDBLK
  5
18A
330
17F
100
AcDbEntity
  8
0
100
AcDbBlockEnd
  0
ENDSEC
  0
SECTION
  2
ENTITIES
  0
TEXT
  5
2E
330
150
100
AcDbEntity
  8
MOJI1
100
AcDbText
 10
158.0
 20
114.4992141396417
 30
0.0
 40
4.0
  1
ドーム型コンビネーションカメラ
100
AcDbText
  0
ARC
  5
30
330
150
100
AcDbEntity
  8
GAIKEI
  6
Continuous
100
AcDbCircle
 10
218.4351780640666
 20
74.97076447886595
 30
0.0
 40
5.521550339224268
100
AcDbArc
 50
175.0290106823458
 51
4.970989317654259
  0
ARC
  5
32
330
150
100
AcDbEntity
  8
GAIKEI
  6
Continuous
100
AcDbCircle
 10
218.4351780640666
 20
74.97076447886595
 30
0.0
 40
4.521550339224268
100
AcDbArc
 50
180.0
 51
0.4466505239949095
  0
LINE
  5
33
330
150
100
AcDbEntity
  8
GAIKEI
 62
     7
100
AcDbLine
 10
175.3775545980534
 20
74.94921413964175
 30
0.0
 11
175.3775545980534
 21
70.44921413964175
 31
0.0
  0
ARC
  5
34
330
150
100
AcDbEntity
  8
GAIKEI
  6
Continuous
100
AcDbCircle
 10
173.3456326817751
 20
75.17000572773418
 30
0.0
 40
5.139511639451455
100
AcDbArc
 50
293.2879985146546
 51
3.114175836753406
  0
LINE
  5
35
330
150
100
AcDbEntity
  8
GAIKEI
100
AcDbLine
 10
173.4775545980535
 20
74.94921413964175
 30
0.0
 11
173.4775545980535
 21
73.04921413964189
 31
0.0
  0
LINE
  5
36
330
150
100
AcDbEntity
  8
GAIKEI
 62
     7
100
AcDbLine
 10
171.5775545980534
 20
74.94921413964175
 30
0.0
 11
171.5775545980534
 21
70.44921413964175
 31
0.0
  0
ARC
  5
37
330
150
100
AcDbEntity
  8
GAIKEI
100
AcDbCircle
 10
173.6325507192366
 20
75.18431173477529
 30
0.0
 40
5.161797971009533
100
AcDbArc
 50
177.0583002047221
 51
246.5395254438572
  0
ARC
  5
38
330
150
100
AcDbEntity
  8
GAIKEI
  6
Continuous
100
AcDbCircle
 10
173.4775545157759
 20
74.97076447886616
 30
0.0
 40
5.521550339224268
100
AcDbArc
 50
174.9362119290022
 51
5.063788070997743
  0
DIMENSION
  5
39
330
150
100
AcDbEntity
  8
SUNPO
100
AcDbDimension
  2
*D6
 10
190.977554680331
 20
88.5492141396419
 30
0.0
 11
189.2275546803309
 21
78.99921413964185
 31
0.0
 70
    33
  1
191
 71
     5
 42
19.10000000000013
  3
STANDARD
100
AcDbAlignedDimension
 13
182.9775545980535
 23
69.44921413964175
 33
0.0
 14
182.9775545980535
 24
88.5492141396419
 34
0.0
1001
ACAD
1000
DSTYLE
1002
{
1070
    40
1040
1.0
1070
   140
1040
2.5
1070
   147
1040
0.5
1070
   172
1070
     1
1070
   279
1070
     0
1070
   343
1005
164
1070
   344
1005
164
1002
}
  0
DIMENSION
  5
4A
330
150
100
AcDbEntity
  8
SUNPO
100
AcDbDimension
  2
*D5
 10
167.4775545980535
 20
61.44921413964175
 30
0.0
 11
173.4775545980535
 21
63.19921413964175
 31
0.0
 70
    33
  1
φ120
 71
     5
 42
12.0
  3
STANDARD
100
AcDbAlignedDimension
 13
179.4775545980535
 23
69.44921413964175
 33
0.0
 14
167.4775545980535
 24
69.44921413964175
 34
0.0
1001
ACAD
1000
DSTYLE
1002
{
1070
    40
1040
1.0
1070
   140
1040
2.5
1070
   147
1040
0.5
1070
   172
1070
     1
1070
   279
1070
     0
1070
   343
1005
164
1070
   344
1005
164
1002
}
  0
LWPOLYLINE
  5
57
330
150
100
AcDbEntity
  8
GAIKEI
100
AcDbPolyline
 90
       33
 70
     1
 43
0.0
 10
175.3775545980534
 20
71.79921413964189
 10
175.3432191228526
 20
72.03577819509224
 10
175.241453670784
 20
72.2637922092174
 10
175.0759363104328
 20
72.47501516146144
 10
174.8526492704532
 20
72.6618129039946
 10
174.5796627262386
 20
72.81743407970475
 10
174.2668431227571
 20
72.93625413383506
 10
173.9254965755215
 20
73.01397860004636
 10
173.5679602381185
 20
73.04779831362065
 10
173.2071564053342
 20
73.03649094199295
 10
172.8561254677504
 20
72.98046516303521
 10
172.5275545980535
 20
72.88174589437243
 10
172.2333192035575
 20
72.74390110758464
 10
171.9840537180423
 20
72.57191287241766
 10
171.7887672456093
 20
72.37199729180111
 10
171.6545179481859
 20
72.15137983569366
 10
171.5861579451646
 20
71.91803419377198
 10
171.5861579451646
 20
71.6803940855118
 10
171.6545179481859
 20
71.44704844359011
 10
171.7887672456093
 20
71.22643098748267
 10
171.9840537180423
 20
71.02651540686611
 10
172.2333192035575
 20
70.85452717169914
 10
172.5275545980535
 20
70.71668238491135
 10
172.8561254677504
 20
70.61796311624857
 10
173.2071564053342
 20
70.56193733729083
 10
173.5679602381185
 20
70.55062996566313
 10
173.9254965755215
 20
70.58444967923742
 10
174.2668431227571
 20
70.66217414544872
 10
174.5796627262386
 20
70.78099419957903
 10
174.8526492704532
 20
70.9366153752892
 10
175.0759363104328
 20
71.12341311782234
 10
175.241453670784
 20
71.33463607006638
 10
175.3432191228526
 20
71.56265008419154
  0
ARC
  5
58
330
150
100
AcDbEntity
  8
GAIKEI
100
AcDbCircle
 10
173.4775545980535
 20
74.19722179042469
 30
0.0
 40
3.762918242474203
100
AcDbArc
 50
239.673476121273
 51
300.3265238787269
  0
LINE
  5
59
330
150
100
AcDbEntity
  8
GAIKEI
100
AcDbLine
 10
224.4351781463442
 20
81.94921413964152
 30
0.0
 11
212.4351781463442
 21
81.94921413964152
 31
0.0
  0
LINE
  5
5A
330
150
100
AcDbEntity
  8
GAIKEI
100
AcDbLine
 10
224.4351781463442
 20
81.44921413964153
 30
0.0
 11
212.4351781463442
 21
81.44921413964153
 31
0.0
  0
LINE
  5
5B
330
150
100
AcDbEntity
  8
GAIKEI
100
AcDbLine
 10
224.4351781463442
 20
76.94921413964152
 30
0.0
 11
212.4351781463442
 21
76.94921413964152
 31
0.0
  0
LINE
  5
5C
330
150
100
AcDbEntity
  8
GAIKEI
100
AcDbLine
 10
224.4351781463442
 20
75.44921413964153
 30
0.0
 11
212.4351781463442
 21
75.44921413964153
 31
0.0
  0
LINE
  5
5D
330
150
100
AcDbEntity
  8
GAIKEI
100
AcDbLine
 10
212.235178146344
 20
87.24921413964171
 30
0.0
 11
224.6351781463441
 21
87.24921413964171
 31
0.0
  0
LINE
  5
5E
330
150
100
AcDbEntity
  8
GAIKEI
100
AcDbLine
 10
212.4351781463442
 20
86.04921413964165
 30
0.0
 11
224.4351781463442
 21
86.04921413964165
 31
0.0
  0
LINE
  5
5F
330
150
100
AcDbEntity
  8
GAIKEI
100
AcDbLine
 10
227.9351781463442
 20
88.54921413964165
 30
0.0
 11
208.9351781463442
 21
88.54921413964165
 31
0.0
  0
LINE
  5
60
330
150
100
AcDbEntity
  8
GAIKEI
100
AcDbLine
 10
208.9351781463442
 20
88.54921413964165
 30
0.0
 11
227.9351781463442
 21
88.54921413964165
 31
0.0
  0
LINE
  5
61
330
150
100
AcDbEntity
  8
GAIKEI
100
AcDbLine
 10
204.4351781463442
 20
88.54921413964165
 30
0.0
 11
232.4351781463442
 21
88.54921413964165
 31
0.0
  0
LINE
  5
62
330
150
100
AcDbEntity
  8
GAIKEI
100
AcDbLine
 10
227.9351781463442
 20
87.54921413964165
 30
0.0
 11
208.9351781463442
 21
87.54921413964165
 31
0.0
  0
LINE
  5
63
330
150
100
AcDbEntity
  8
GAIKEI
 62
     1
100
AcDbLine
 10
173.4775545980535
 20
88.5492141396419
 30
0.0
 11
177.0130885039862
 21
92.08474804557456
 31
0.0
  0
LINE
  5
64
330
150
100
AcDbEntity
  8
GAIKEI
 62
     1
100
AcDbLine
 10
174.4775545980535
 20
88.5492141396419
 30
0.0
 11
178.0130885039862
 21
92.08474804557456
 31
0.0
  0
LINE
  5
65
330
150
100
AcDbEntity
  8
GAIKEI
100
AcDbLine
 10
163.9775545980535
 20
88.5492141396419
 30
0.0
 11
182.9775545980535
 21
88.5492141396419
 31
0.0
  0
LINE
  5
66
330
150
100
AcDbEntity
  8
GAIKEI
100
AcDbLine
 10
182.9775545980535
 20
88.5492141396419
 30
0.0
 11
163.9775545980535
 21
88.5492141396419
 31
0.0
  0
LINE
  5
67
330
150
100
AcDbEntity
  8
GAIKEI
100
AcDbLine
 10
182.9775545980535
 20
87.54921413964188
 30
0.0
 11
163.9775545980535
 21
87.54921413964188
 31
0.0
  0
LINE
  5
68
330
150
100
AcDbEntity
  8
GAIKEI
100
AcDbLine
 10
179.4775545980535
 20
75.44921413964175
 30
0.0
 11
167.4775545980535
 21
75.44921413964175
 31
0.0
  0
LINE
  5
69
330
150
100
AcDbEntity
  8
GAIKEI
100
AcDbLine
 10
179.4775545980535
 20
76.94921413964175
 30
0.0
 11
167.4775545980535
 21
76.94921413964175
 31
0.0
  0
LINE
  5
6A
330
150
100
AcDbEntity
  8
GAIKEI
100
AcDbLine
 10
179.4775545980535
 20
81.44921413964175
 30
0.0
 11
167.4775545980535
 21
81.44921413964175
 31
0.0
  0
LINE
  5
6B
330
150
100
AcDbEntity
  8
GAIKEI
100
AcDbLine
 10
179.4775545980535
 20
81.94921413964175
 30
0.0
 11
167.4775545980535
 21
81.94921413964175
 31
0.0
  0
LINE
  5
6C
330
150
100
AcDbEntity
  8
GAIKEI
100
AcDbLine
 10
167.4775545980535
 20
86.0492141396419
 30
0.0
 11
179.4775545980535
 21
86.0492141396419
 31
0.0
  0
LINE
  5
6D
330
150
100
AcDbEntity
  8
GAIKEI
100
AcDbLine
 10
167.2775545980535
 20
87.24921413964171
 30
0.0
 11
179.6775545980535
 21
87.24921413964171
 31
0.0
  0
LINE
  5
6E
330
150
100
AcDbEntity
  8
GAIKEI
100
AcDbLine
 10
159.4775545980535
 20
88.5492141396419
 30
0.0
 11
187.4775545980535
 21
88.5492141396419
 31
0.0
  0
LINE
  5
6F
330
150
100
AcDbEntity
  8
GAIKEI
 62
     1
100
AcDbLine
 10
172.4775545980535
 20
88.5492141396419
 30
0.0
 11
176.0130885039862
 21
92.08474804557456
 31
0.0
  0
LINE
  5
70
330
150
100
AcDbEntity
  8
GAIKEI
 62
     1
100
AcDbLine
 10
164.9775545980535
 20
88.5492141396419
 30
0.0
 11
168.5130885039862
 21
92.08474804557456
 31
0.0
  0
LINE
  5
71
330
150
100
AcDbEntity
  8
GAIKEI
 62
     1
100
AcDbLine
 10
162.9775545980535
 20
88.5492141396419
 30
0.0
 11
166.5130885039862
 21
92.08474804557456
 31
0.0
  0
LINE
  5
72
330
150
100
AcDbEntity
  8
GAIKEI
 62
     1
100
AcDbLine
 10
163.9775545980535
 20
88.5492141396419
 30
0.0
 11
167.5130885039862
 21
92.08474804557456
 31
0.0
  0
LINE
  5
73
330
150
100
AcDbEntity
  8
GAIKEI
100
AcDbLine
 10
164.9775545980535
 20
87.24921413964171
 30
0.0
 11
163.9775545980535
 21
87.54921413964188
 31
0.0
  0
LINE
  5
74
330
150
100
AcDbEntity
  8
GAIKEI
100
AcDbLine
 10
163.9775545980535
 20
88.5492141396419
 30
0.0
 11
163.9775545980535
 21
87.54921413964188
 31
0.0
  0
LINE
  5
75
330
150
100
AcDbEntity
  8
GAIKEI
100
AcDbLine
 10
163.9775545980535
 20
87.54921413964188
 30
0.0
 11
163.9775545980535
 21
88.5492141396419
 31
0.0
  0
LINE
  5
76
330
150
100
AcDbEntity
  8
GAIKEI
 62
     1
100
AcDbLine
 10
173.4775545980535
 20
81.44921413964175
 30
0.0
 11
173.4775545980535
 21
76.94921413964175
 31
0.0
  0
LINE
  5
77
330
150
100
AcDbEntity
  8
GAIKEI
 62
     1
100
AcDbLine
 10
175.1598783912193
 20
76.94921413964175
 30
0.0
 11
175.1598783912193
 21
81.44921413964175
 31
0.0
  0
LINE
  5
78
330
150
100
AcDbEntity
  8
GAIKEI
100
AcDbLine
 10
167.4775545980535
 20
86.0492141396419
 30
0.0
 11
167.4775545980535
 21
75.44921413964175
 31
0.0
  0
LINE
  5
79
330
150
100
AcDbEntity
  8
GAIKEI
 62
     1
100
AcDbLine
 10
171.7952308048864
 20
76.94921413964175
 30
0.0
 11
171.7952308048864
 21
81.44921413964175
 31
0.0
  0
LINE
  5
7A
330
150
100
AcDbEntity
  8
GAIKEI
 62
     1
100
AcDbLine
 10
167.8483894734536
 20
76.94921413964175
 30
0.0
 11
167.8483894734536
 21
81.44921413964175
 31
0.0
  0
LINE
  5
7B
330
150
100
AcDbEntity
  8
GAIKEI
 62
     1
100
AcDbLine
 10
170.2275545980529
 20
76.94921413964175
 30
0.0
 11
170.2275545980529
 21
81.44921413964175
 31
0.0
  0
LINE
  5
7C
330
150
100
AcDbEntity
  8
GAIKEI
 62
     1
100
AcDbLine
 10
169.4275545980529
 20
76.94921413964175
 30
0.0
 11
169.4275545980529
 21
81.44921413964175
 31
0.0
  0
LINE
  5
7D
330
150
100
AcDbEntity
  8
GAIKEI
 62
     1
100
AcDbLine
 10
168.6275545980526
 20
76.94921413964175
 30
0.0
 11
168.6275545980526
 21
81.44921413964175
 31
0.0
  0
LINE
  5
7E
330
150
100
AcDbEntity
  8
GAIKEI
100
AcDbLine
 10
171.5775545980534
 20
74.94921413964175
 30
0.0
 11
175.3775545980534
 21
74.94921413964175
 31
0.0
  0
LINE
  5
7F
330
150
100
AcDbEntity
  8
GAIKEI
100
AcDbLine
 10
167.2775545980535
 20
87.24921413964171
 30
0.0
 11
164.9775545980535
 21
87.24921413964171
 31
0.0
  0
LINE
  5
80
330
150
100
AcDbEntity
  8
GAIKEI
100
AcDbLine
 10
167.4775545980535
 20
86.0492141396419
 30
0.0
 11
167.2775545980535
 21
87.24921413964171
 31
0.0
  0
LINE
  5
81
330
150
100
AcDbEntity
  8
GAIKEI
 62
     1
100
AcDbLine
 10
181.9775545980535
 20
88.5492141396419
 30
0.0
 11
185.5130885039862
 21
92.08474804557456
 31
0.0
  0
LINE
  5
82
330
150
100
AcDbEntity
  8
GAIKEI
 62
     1
100
AcDbLine
 10
183.9775545980535
 20
88.5492141396419
 30
0.0
 11
187.5130885039862
 21
92.08474804557456
 31
0.0
  0
LINE
  5
83
330
150
100
AcDbEntity
  8
GAIKEI
 62
     1
100
AcDbLine
 10
182.9775545980535
 20
88.5492141396419
 30
0.0
 11
186.5130885039862
 21
92.08474804557456
 31
0.0
  0
LINE
  5
84
330
150
100
AcDbEntity
  8
GAIKEI
100
AcDbLine
 10
179.4775545980535
 20
86.0492141396419
 30
0.0
 11
179.4775545980535
 21
75.44921413964175
 31
0.0
  0
LINE
  5
85
330
150
100
AcDbEntity
  8
GAIKEI
 62
     1
100
AcDbLine
 10
179.1067197226514
 20
76.94921413964175
 30
0.0
 11
179.1067197226514
 21
81.44921413964175
 31
0.0
  0
LINE
  5
86
330
150
100
AcDbEntity
  8
GAIKEI
 62
     1
100
AcDbLine
 10
177.5275545980528
 20
76.94921413964175
 30
0.0
 11
177.5275545980528
 21
81.44921413964175
 31
0.0
  0
LINE
  5
87
330
150
100
AcDbEntity
  8
GAIKEI
 62
     1
100
AcDbLine
 10
178.3275545980528
 20
76.94921413964175
 30
0.0
 11
178.3275545980528
 21
81.44921413964175
 31
0.0
  0
LINE
  5
88
330
150
100
AcDbEntity
  8
GAIKEI
 62
     1
100
AcDbLine
 10
176.7275545980529
 20
76.94921413964175
 30
0.0
 11
176.7275545980529
 21
81.44921413964175
 31
0.0
  0
LINE
  5
89
330
150
100
AcDbEntity
  8
GAIKEI
100
AcDbLine
 10
181.9775545980535
 20
87.24921413964171
 30
0.0
 11
182.9775545980535
 21
87.54921413964188
 31
0.0
  0
LINE
  5
8A
330
150
100
AcDbEntity
  8
GAIKEI
100
AcDbLine
 10
179.6775545980535
 20
87.24921413964171
 30
0.0
 11
179.4775545980535
 21
86.0492141396419
 31
0.0
  0
LINE
  5
8B
330
150
100
AcDbEntity
  8
GAIKEI
100
AcDbLine
 10
179.6775545980535
 20
87.24921413964171
 30
0.0
 11
181.9775545980535
 21
87.24921413964171
 31
0.0
  0
LINE
  5
8C
330
150
100
AcDbEntity
  8
GAIKEI
100
AcDbLine
 10
182.9775545980535
 20
87.54921413964188
 30
0.0
 11
182.9775545980535
 21
88.5492141396419
 31
0.0
  0
LINE
  5
8D
330
150
100
AcDbEntity
  8
GAIKEI
100
AcDbLine
 10
182.9775545980535
 20
87.54921413964188
 30
0.0
 11
182.9775545980535
 21
88.5492141396419
 31
0.0
  0
LINE
  5
8E
330
150
100
AcDbEntity
  8
GAIKEI
 62
     1
100
AcDbLine
 10
217.4351781463442
 20
88.54921413964165
 30
0.0
 11
220.9707120522769
 21
92.08474804557431
 31
0.0
  0
LINE
  5
8F
330
150
100
AcDbEntity
  8
GAIKEI
 62
     1
100
AcDbLine
 10
218.4351781463442
 20
88.54921413964165
 30
0.0
 11
221.9707120522769
 21
92.08474804557431
 31
0.0
  0
LINE
  5
90
330
150
100
AcDbEntity
  8
GAIKEI
 62
     1
100
AcDbLine
 10
219.4351781463442
 20
88.54921413964165
 30
0.0
 11
222.9707120522769
 21
92.08474804557431
 31
0.0
  0
LINE
  5
91
330
150
100
AcDbEntity
  8
GAIKEI
 62
     1
100
AcDbLine
 10
207.9351781463442
 20
88.54921413964165
 30
0.0
 11
211.4707120522769
 21
92.08474804557431
 31
0.0
  0
LINE
  5
92
330
150
100
AcDbEntity
  8
GAIKEI
 62
     1
100
AcDbLine
 10
209.9351781463442
 20
88.54921413964165
 30
0.0
 11
213.4707120522769
 21
92.08474804557431
 31
0.0
  0
LINE
  5
93
330
150
100
AcDbEntity
  8
GAIKEI
 62
     1
100
AcDbLine
 10
208.9351781463442
 20
88.54921413964165
 30
0.0
 11
212.4707120522769
 21
92.08474804557431
 31
0.0
  0
LINE
  5
94
330
150
100
AcDbEntity
  8
GAIKEI
100
AcDbLine
 10
212.235178146344
 20
87.24921413964171
 30
0.0
 11
209.9351781463442
 21
87.24921413964171
 31
0.0
  0
LINE
  5
95
330
150
100
AcDbEntity
  8
GAIKEI
100
AcDbLine
 10
212.235178146344
 20
87.24921413964171
 30
0.0
 11
209.9351781463442
 21
87.24921413964171
 31
0.0
  0
LINE
  5
96
330
150
100
AcDbEntity
  8
GAIKEI
100
AcDbLine
 10
208.9351781463442
 20
87.54921413964165
 30
0.0
 11
208.9351781463442
 21
88.54921413964165
 31
0.0
  0
LINE
  5
97
330
150
100
AcDbEntity
  8
GAIKEI
100
AcDbLine
 10
208.9351781463442
 20
88.54921413964165
 30
0.0
 11
208.9351781463442
 21
87.54921413964165
 31
0.0
  0
LINE
  5
98
330
150
100
AcDbEntity
  8
GAIKEI
100
AcDbLine
 10
209.9351781463442
 20
87.24921413964171
 30
0.0
 11
208.9351781463442
 21
87.54921413964165
 31
0.0
  0
LINE
  5
99
330
150
100
AcDbEntity
  8
GAIKEI
100
AcDbLine
 10
209.9351781463442
 20
87.24921413964171
 30
0.0
 11
208.9351781463442
 21
87.54921413964165
 31
0.0
  0
LINE
  5
9A
330
150
100
AcDbEntity
  8
GAIKEI
100
AcDbLine
 10
212.4351781463442
 20
86.04921413964165
 30
0.0
 11
212.4351781463442
 21
75.44921413964153
 31
0.0
  0
LINE
  5
9B
330
150
100
AcDbEntity
  8
GAIKEI
 62
     1
100
AcDbLine
 10
212.8060130217443
 20
76.94921413964152
 30
0.0
 11
212.8060130217443
 21
81.44921413964153
 31
0.0
  0
LINE
  5
9C
330
150
100
AcDbEntity
  8
GAIKEI
 62
     1
100
AcDbLine
 10
213.5851781463434
 20
76.94921413964152
 30
0.0
 11
213.5851781463434
 21
81.44921413964153
 31
0.0
  0
LINE
  5
9D
330
150
100
AcDbEntity
  8
GAIKEI
 62
     1
100
AcDbLine
 10
216.7528543531771
 20
76.94921413964152
 30
0.0
 11
216.7528543531771
 21
81.44921413964153
 31
0.0
  0
LINE
  5
9E
330
150
100
AcDbEntity
  8
GAIKEI
 62
     1
100
AcDbLine
 10
218.4351781463442
 20
81.44921413964153
 30
0.0
 11
218.4351781463442
 21
76.94921413964152
 31
0.0
  0
LINE
  5
9F
330
150
100
AcDbEntity
  8
GAIKEI
 62
     1
100
AcDbLine
 10
220.11750193951
 20
76.94921413964152
 30
0.0
 11
220.11750193951
 21
81.44921413964153
 31
0.0
  0
LINE
  5
A0
330
150
100
AcDbEntity
  8
GAIKEI
 62
     1
100
AcDbLine
 10
215.1851781463433
 20
76.94921413964152
 30
0.0
 11
215.1851781463433
 21
81.44921413964153
 31
0.0
  0
LINE
  5
A1
330
150
100
AcDbEntity
  8
GAIKEI
 62
     1
100
AcDbLine
 10
214.3851781463435
 20
76.94921413964152
 30
0.0
 11
214.3851781463435
 21
81.44921413964153
 31
0.0
  0
LINE
  5
A2
330
150
100
AcDbEntity
  8
GAIKEI
 62
     1
100
AcDbLine
 10
223.2643432709419
 20
76.94921413964152
 30
0.0
 11
223.2643432709419
 21
81.44921413964153
 31
0.0
  0
LINE
  5
A3
330
150
100
AcDbEntity
  8
GAIKEI
 62
     1
100
AcDbLine
 10
222.464343270942
 20
76.94921413964152
 30
0.0
 11
222.464343270942
 21
81.44921413964153
 31
0.0
  0
LINE
  5
A4
330
150
100
AcDbEntity
  8
GAIKEI
 62
     1
100
AcDbLine
 10
221.6851781463433
 20
76.94921413964152
 30
0.0
 11
221.6851781463433
 21
81.44921413964153
 31
0.0
  0
LINE
  5
A5
330
150
100
AcDbEntity
  8
GAIKEI
100
AcDbLine
 10
213.4136277248424
 20
74.97076447886595
 30
0.0
 11
213.9136277248424
 21
74.97076447886595
 31
0.0
  0
ARC
  5
A6
330
150
100
AcDbEntity
  8
GAIKEI
  6
Continuous
100
AcDbCircle
 10
218.4351780640666
 20
74.97076447886595
 30
0.0
 40
5.021550339224268
100
AcDbArc
 50
174.5326061661768
 51
180.0
  0
LINE
  5
A7
330
150
100
AcDbEntity
  8
GAIKEI
100
AcDbLine
 10
223.4566974808795
 20
74.98838707611935
 30
0.0
 11
222.9565910163017
 21
75.00601196813545
 31
0.0
  0
ARC
  5
A8
330
150
100
AcDbEntity
  8
GAIKEI
  6
Continuous
100
AcDbCircle
 10
218.4351780640666
 20
74.97076447886595
 30
0.0
 40
5.021550339224268
100
AcDbArc
 50
0.2010738618608622
 51
5.467393833823158
  0
LINE
  5
A9
330
150
100
AcDbEntity
  8
GAIKEI
100
AcDbLine
 10
212.235178146344
 20
87.24921413964171
 30
0.0
 11
212.4351781463442
 21
87.24921413964171
 31
0.0
  0
LINE
  5
AA
330
150
100
AcDbEntity
  8
GAIKEI
100
AcDbLine
 10
212.4351781463442
 20
86.04921413964165
 30
0.0
 11
212.235178146344
 21
87.24921413964171
 31
0.0
  0
LINE
  5
AB
330
150
100
AcDbEntity
  8
GAIKEI
 62
     1
100
AcDbLine
 10
228.9351781463442
 20
88.54921413964165
 30
0.0
 11
232.4707120522769
 21
92.08474804557431
 31
0.0
  0
LINE
  5
AC
330
150
100
AcDbEntity
  8
GAIKEI
 62
     1
100
AcDbLine
 10
227.9351781463442
 20
88.54921413964165
 30
0.0
 11
231.4707120522769
 21
92.08474804557431
 31
0.0
  0
LINE
  5
AD
330
150
100
AcDbEntity
  8
GAIKEI
 62
     1
100
AcDbLine
 10
226.9351781463442
 20
88.54921413964165
 30
0.0
 11
230.4707120522769
 21
92.08474804557431
 31
0.0
  0
LINE
  5
AE
330
150
100
AcDbEntity
  8
GAIKEI
100
AcDbLine
 10
224.435178146344
 20
86.04921413964165
 30
0.0
 11
224.4351781463442
 21
75.44921413964153
 31
0.0
  0
LINE
  5
AF
330
150
100
AcDbEntity
  8
GAIKEI
 62
     1
100
AcDbLine
 10
224.0643432709421
 20
76.94921413964152
 30
0.0
 11
224.0643432709421
 21
81.44921413964153
 31
0.0
  0
LINE
  5
B0
330
150
100
AcDbEntity
  8
GAIKEI
100
AcDbLine
 10
226.9351781463442
 20
87.24921413964171
 30
0.0
 11
227.9351781463442
 21
87.54921413964165
 31
0.0
  0
LINE
  5
B1
330
150
100
AcDbEntity
  8
GAIKEI
100
AcDbLine
 10
227.9351781463442
 20
87.54921413964165
 30
0.0
 11
227.9351781463442
 21
88.54921413964165
 31
0.0
  0
LINE
  5
B2
330
150
100
AcDbEntity
  8
GAIKEI
100
AcDbLine
 10
227.9351781463442
 20
87.54921413964165
 30
0.0
 11
227.9351781463442
 21
88.54921413964165
 31
0.0
  0
LINE
  5
B3
330
150
100
AcDbEntity
  8
GAIKEI
100
AcDbLine
 10
226.9351781463442
 20
87.24921413964171
 30
0.0
 11
227.9351781463442
 21
87.54921413964165
 31
0.0
  0
LINE
  5
B4
330
150
100
AcDbEntity
  8
GAIKEI
100
AcDbLine
 10
224.4351781463442
 20
87.24921413964171
 30
0.0
 11
224.6351781463441
 21
87.24921413964171
 31
0.0
  0
LINE
  5
B5
330
150
100
AcDbEntity
  8
GAIKEI
100
AcDbLine
 10
224.6351781463441
 20
87.24921413964171
 30
0.0
 11
224.4351781463442
 21
86.04921413964165
 31
0.0
  0
LINE
  5
B6
330
150
100
AcDbEntity
  8
GAIKEI
100
AcDbLine
 10
224.6351781463441
 20
87.24921413964171
 30
0.0
 11
226.9351781463442
 21
87.24921413964171
 31
0.0
  0
LINE
  5
B7
330
150
100
AcDbEntity
  8
GAIKEI
100
AcDbLine
 10
224.6351781463441
 20
87.24921413964171
 30
0.0
 11
226.9351781463442
 21
87.24921413964171
 31
0.0
  0
TEXT
  5
B8
330
150
100
AcDbEntity
  8
TOUROKU
100
AcDbText
 10
240.1332833662606
 20
108.4992141396418
 30
0.0
 40
2.0
  1
ＷＶＣＳ５７０
 72
     2
 11
255.9999500329273
 21
108.4992141396418
 31
0.0
100
AcDbText
  0
LINE
  5
BF
330
150
100
AcDbEntity
  8
WAKU
 62
     1
100
AcDbLine
 10
131.0
 20
10.49921413964171
 30
0.0
 11
256.0
 21
10.49921413964171
 31
0.0
  0
LINE
  5
C1
330
150
100
AcDbEntity
  8
WAKU
 62
     4
100
AcDbLine
 10
131.0
 20
5.499214139641708
 30
0.0
 11
256.0
 21
5.499214139641708
 31
0.0
  0
LINE
  5
C2
330
150
100
AcDbEntity
  8
WAKU
  6
Continuous
 62
     1
100
AcDbLine
 10
131.0
 20
10.49921413964171
 30
0.0
 11
256.0
 21
10.49921413964171
 31
0.0
  0
LINE
  5
C3
330
150
100
AcDbEntity
  8
WAKU
  6
Continuous
 62
     4
100
AcDbLine
 10
256.0
 20
5.499214139641708
 30
0.0
 11
131.0
 21
5.499214139641708
 31
0.0
  0
LINE
  5
C4
330
150
100
AcDbEntity
  8
WAKU
 62
     1
100
AcDbLine
 10
131.0
 20
40.4992141396417
 30
0.0
 11
256.0
 21
40.4992141396417
 31
0.0
  0
LINE
  5
C5
330
150
100
AcDbEntity
  8
WAKU
 62
     1
100
AcDbLine
 10
131.0
 20
35.49921413964171
 30
0.0
 11
256.0
 21
35.49921413964171
 31
0.0
  0
LINE
  5
C6
330
150
100
AcDbEntity
  8
WAKU
 62
     1
100
AcDbLine
 10
131.0
 20
30.49921413964171
 30
0.0
 11
256.0
 21
30.49921413964171
 31
0.0
  0
LINE
  5
C7
330
150
100
AcDbEntity
  8
WAKU
 62
     1
100
AcDbLine
 10
131.0
 20
25.49921413964171
 30
0.0
 11
256.0
 21
25.49921413964171
 31
0.0
  0
LINE
  5
C8
330
150
100
AcDbEntity
  8
WAKU
 62
     1
100
AcDbLine
 10
131.0
 20
20.49921413964171
 30
0.0
 11
256.0
 21
20.49921413964171
 31
0.0
  0
LINE
  5
C9
330
150
100
AcDbEntity
  8
WAKU
 62
     4
100
AcDbLine
 10
256.0
 20
45.49921413964171
 30
0.0
 11
131.0
 21
45.49921413964171
 31
0.0
  0
LINE
  5
CA
330
150
100
AcDbEntity
  8
WAKU
  6
Continuous
 62
     1
100
AcDbLine
 10
131.0
 20
30.49921413964171
 30
0.0
 11
256.0
 21
30.49921413964171
 31
0.0
  0
LINE
  5
CB
330
150
100
AcDbEntity
  8
WAKU
  6
Continuous
 62
     1
100
AcDbLine
 10
131.0
 20
25.49921413964171
 30
0.0
 11
256.0
 21
25.49921413964171
 31
0.0
  0
LINE
  5
CC
330
150
100
AcDbEntity
  8
WAKU
  6
Continuous
 62
     4
100
AcDbLine
 10
131.0
 20
45.49921413964171
 30
0.0
 11
256.0
 21
45.49921413964171
 31
0.0
  0
LINE
  5
CD
330
150
100
AcDbEntity
  8
WAKU
  6
Continuous
 62
     1
100
AcDbLine
 10
131.0
 20
40.4992141396417
 30
0.0
 11
256.0
 21
40.4992141396417
 31
0.0
  0
LINE
  5
CE
330
150
100
AcDbEntity
  8
WAKU
  6
Continuous
 62
     1
100
AcDbLine
 10
131.0
 20
35.49921413964171
 30
0.0
 11
256.0
 21
35.49921413964171
 31
0.0
  0
LINE
  5
CF
330
150
100
AcDbEntity
  8
WAKU
  6
Continuous
 62
     1
100
AcDbLine
 10
131.0
 20
20.49921413964171
 30
0.0
 11
256.0
 21
20.49921413964171
 31
0.0
  0
LINE
  5
D0
330
150
100
AcDbEntity
  8
WAKU
 62
     1
100
AcDbLine
 10
131.0
 20
15.49921413964171
 30
0.0
 11
256.0
 21
15.49921413964171
 31
0.0
  0
TEXT
  5
D1
330
150
100
AcDbEntity
  8
MOJI1
100
AcDbText
 10
133.5
 20
11.49921413964171
 30
0.0
 40
3.0
  1
ダイナミックレンジ
100
AcDbText
  0
LINE
  5
D2
330
150
100
AcDbEntity
  8
WAKU
 62
     4
100
AcDbLine
 10
171.0
 20
5.499214139641708
 30
0.0
 11
171.0
 21
45.49921413964171
 31
0.0
  0
LINE
  5
D3
330
150
100
AcDbEntity
  8
WAKU
 62
     4
100
AcDbLine
 10
131.0
 20
45.49921413964171
 30
0.0
 11
131.0
 21
5.499214139641708
 31
0.0
  0
LINE
  5
D4
330
150
100
AcDbEntity
  8
WAKU
  6
Continuous
 62
     4
100
AcDbLine
 10
131.0
 20
45.49921413964171
 30
0.0
 11
131.0
 21
5.499214139641708
 31
0.0
  0
TEXT
  5
D5
330
150
100
AcDbEntity
  8
MOJI1
100
AcDbText
 10
133.5
 20
6.499214139641707
 30
0.0
 40
3.0
  1
機　能
100
AcDbText
  0
TEXT
  5
D9
330
150
100
AcDbEntity
  8
MOJI1
100
AcDbText
 10
133.5
 20
41.49921413964171
 30
0.0
 40
3.0
  1
電　源
100
AcDbText
  0
TEXT
  5
DA
330
150
100
AcDbEntity
  8
MOJI1
100
AcDbText
 10
133.5
 20
26.49921413964171
 30
0.0
 40
3.0
  1
最低照度
100
AcDbText
  0
TEXT
  5
DB
330
150
100
AcDbEntity
  8
MOJI1
100
AcDbText
 10
133.5
 20
21.49921413964171
 30
0.0
 40
3.0
  1
内蔵レンズ
100
AcDbText
  0
TEXT
  5
DC
330
150
100
AcDbEntity
  8
MOJI1
100
AcDbText
 10
133.5
 20
31.49921413964171
 30
0.0
 40
3.0
  1
解像度
100
AcDbText
  0
TEXT
  5
DD
330
150
100
AcDbEntity
  8
MOJI1
100
AcDbText
 10
133.5
 20
36.49921413964171
 30
0.0
 40
3.0
  1
撮像素子
100
AcDbText
  0
LINE
  5
DE
330
150
100
AcDbEntity
  8
WAKU
 62
     4
100
AcDbLine
 10
256.0
 20
5.499214139641708
 30
0.0
 11
256.0
 21
45.49921413964171
 31
0.0
  0
LINE
  5
DF
330
150
100
AcDbEntity
  8
WAKU
  6
Continuous
 62
     4
100
AcDbLine
 10
256.0
 20
45.49921413964171
 30
0.0
 11
256.0
 21
5.499214139641708
 31
0.0
  0
TEXT
  5
16B
330
150
100
AcDbEntity
  8
MOJI1
100
AcDbText
 10
173.5
 20
6.499214139641707
 30
0.0
 40
3.0
  1
ノイズリダクション搭載、デジタルフリップ搭載
100
AcDbText
  0
TEXT
  5
16C
330
150
100
AcDbEntity
  8
MOJI1
100
AcDbText
 10
173.4999999999999
 20
11.49921413964171
 30
0.0
 40
3.0
  1
４６ｄＢ（ＳＵＰＥＲ－Ｄ２：ＯＮ）
100
AcDbText
  0
TEXT
  5
16D
330
150
100
AcDbEntity
  8
MOJI1
100
AcDbText
 10
173.5
 20
16.49921413964171
 30
0.0
 40
3.0
  1
ｆ＝３．７９～８３．４ｍｍ（２２倍）
100
AcDbText
  0
TEXT
  5
16E
330
150
100
AcDbEntity
  8
MOJI1
100
AcDbText
 10
173.5
 20
21.49921413964171
 30
0.0
 40
3.0
  1
Ｆ＝１：１．６～３．０
100
AcDbText
  0
TEXT
  5
16F
330
150
100
AcDbEntity
  8
MOJI1
100
AcDbText
 10
173.5
 20
26.4992141396417
 30
0.0
 40
3.0
  1
１．０ルクス
100
AcDbText
  0
TEXT
  5
170
330
150
100
AcDbEntity
  8
MOJI1
100
AcDbText
 10
173.5
 20
31.4992141396417
 30
0.0
 40
3.0
  1
水平：４８０本　垂直：３５０ＴＶ本以上（中心部）
 41
0.95
100
AcDbText
  0
TEXT
  5
171
330
150
100
AcDbEntity
  8
MOJI1
100
AcDbText
 10
173.5
 20
36.4992141396417
 30
0.0
 40
3.0
  1
１／４型インターライン転送方式ＣＣＤ
100
AcDbText
  0
TEXT
  5
172
330
150
100
AcDbEntity
  8
MOJI1
100
AcDbText
 10
173.5
 20
41.49921413964171
 30
0.0
 40
3.0
  1
ＡＣ１００Ｖ　５０／６０Ｈｚ
100
AcDbText
  0
ENDSEC
  0
SECTION
  2
OBJECTS
  0
DICTIONARY
  5
13C
330
0
100
AcDbDictionary
281
     1
  3
ACAD_COLOR
350
14B
  3
ACAD_GROUP
350
13D
  3
ACAD_LAYOUT
350
149
  3
ACAD_MATERIAL
350
14A
  3
ACAD_MLINESTYLE
350
146
  3
ACAD_PLOTSETTINGS
350
148
  3
ACAD_PLOTSTYLENAME
350
13E
  3
ACDBHEADERROUNDTRIPXREC
350
190
  3
AcDbVariableDictionary
350
18B
  3
DWGPROPS
350
18F
  0
DICTIONARY
  5
14B
102
{ACAD_REACTORS
330
13C
102
}
330
13C
100
AcDbDictionary
281
     1
  0
DICTIONARY
  5
13D
102
{ACAD_REACTORS
330
13C
102
}
330
13C
100
AcDbDictionary
281
     1
  0
DICTIONARY
  5
149
102
{ACAD_REACTORS
330
13C
102
}
330
13C
100
AcDbDictionary
281
     1
  3
Model
350
153
  3
レイアウト1
350
14F
  0
DICTIONARY
  5
14A
102
{ACAD_REACTORS
330
13C
102
}
330
13C
100
AcDbDictionary
281
     1
  0
DICTIONARY
  5
146
102
{ACAD_REACTORS
330
13C
102
}
330
13C
100
AcDbDictionary
281
     1
  3
Standard
350
147
  0
DICTIONARY
  5
148
102
{ACAD_REACTORS
330
13C
102
}
330
13C
100
AcDbDictionary
281
     1
  0
ACDBDICTIONARYWDFLT
  5
13E
102
{ACAD_REACTORS
330
13C
102
}
330
13C
100
AcDbDictionary
281
     1
  3
Normal
350
13F
100
AcDbDictionaryWithDefault
340
13F
  0
DICTIONARY
  5
190
102
{ACAD_REACTORS
330
13C
102
}
330
13C
100
AcDbDictionary
281
     1
  3
COLORDICT
350
192
  3
MATERIALDICT
350
191
  0
DICTIONARY
  5
18B
102
{ACAD_REACTORS
330
13C
102
}
330
13C
100
AcDbDictionary
281
     1
  3
DIMASSOC
350
18C
  3
PROJECTNAME
350
18D
  0
XRECORD
  5
18F
102
{ACAD_REACTORS
330
13C
102
}
330
13C
100
AcDbXrecord
280
     1
  1
DWGPROPS COOKIE
  2

  3

  4

  6

  7

  8

  9

300
=
301
=
302
=
303
=
304
=
305
=
306
=
307
=
308
=
309
=
 40
0.684706550925926
 41
2451814.815532581
 42
2453731.695765336
  1

 90
        0
  0
LAYOUT
  5
153
102
{ACAD_XDICTIONARY
360
195
102
}
102
{ACAD_REACTORS
330
149
102
}
330
149
100
AcDbPlotSettings
  1

  2
\\Uranus\BFACN02M
  4

  6

 40
0.0
 41
0.0
 42
0.0
 43
0.0
 44
0.0
 45
0.0
 46
0.0
 47
0.0
 48
0.0
 49
0.0
140
0.0
141
0.0
142
1.0
143
1.0
 70
  1712
 72
     0
 73
     0
 74
     0
  7
SSC.ctb
 75
     0
147
1.0
148
0.0
149
0.0
100
AcDbLayout
  1
Model
 70
     1
 71
     0
 10
0.0
 20
0.0
 11
12.0
 21
9.0
 12
0.0
 22
0.0
 32
0.0
 14
0.0
 24
0.0
 34
0.0
 15
0.0
 25
0.0
 35
0.0
146
0.0
 13
0.0
 23
0.0
 33
0.0
 16
1.0
 26
0.0
 36
0.0
 17
0.0
 27
1.0
 37
0.0
 76
     0
330
150
  0
LAYOUT
  5
14F
102
{ACAD_XDICTIONARY
360
193
102
}
102
{ACAD_REACTORS
330
149
102
}
330
149
100
AcDbPlotSettings
  1

  2
\\Uranus\BFACN02M
  4

  6

 40
0.0
 41
0.0
 42
0.0
 43
0.0
 44
0.0
 45
0.0
 46
0.0
 47
0.0
 48
0.0
 49
0.0
140
0.0
141
0.0
142
1.0
143
1.0
 70
   688
 72
     0
 73
     0
 74
     5
  7
SSC.ctb
 75
    16
147
1.0
148
0.0
149
0.0
100
AcDbLayout
  1
レイアウト1
 70
     1
 71
     1
 10
0.0
 20
0.0
 11
12.0
 21
9.0
 12
0.0
 22
0.0
 32
0.0
 14
1.000000000000000E+20
 24
1.000000000000000E+20
 34
1.000000000000000E+20
 15
-1.000000000000000E+20
 25
-1.000000000000000E+20
 35
-1.000000000000000E+20
146
0.0
 13
0.0
 23
0.0
 33
0.0
 16
1.0
 26
0.0
 36
0.0
 17
0.0
 27
1.0
 37
0.0
 76
     0
330
14C
  0
MLINESTYLE
  5
147
102
{ACAD_REACTORS
330
146
102
}
330
146
100
AcDbMlineStyle
  2
STANDARD
 70
     0
  3

 62
   256
 51
90.0
 52
90.0
 71
     2
 49
0.5
 62
   256
  6
BYLAYER
 49
-0.5
 62
   256
  6
BYLAYER
  0
ACDBPLACEHOLDER
  5
13F
102
{ACAD_REACTORS
330
13E
102
}
330
13E
  0
XRECORD
  5
192
102
{ACAD_REACTORS
330
190
102
}
330
190
100
AcDbXrecord
280
     1
340
14B
  0
XRECORD
  5
191
102
{ACAD_REACTORS
330
190
102
}
330
190
100
AcDbXrecord
280
     1
340
14A
  0
DICTIONARYVAR
  5
18C
102
{ACAD_REACTORS
330
18B
102
}
330
18B
100
DictionaryVariables
280
     0
  1
1
  0
DICTIONARYVAR
  5
18D
102
{ACAD_REACTORS
330
18B
102
}
330
18B
100
DictionaryVariables
280
     0
  1

  0
DICTIONARY
  5
195
330
153
100
AcDbDictionary
280
     1
281
     1
  3
ACAD_XREC_ROUNDTRIP
360
196
  0
DICTIONARY
  5
193
330
14F
100
AcDbDictionary
280
     1
281
     1
  3
ACAD_XREC_ROUNDTRIP
360
194
  0
XRECORD
  5
196
102
{ACAD_REACTORS
330
195
102
}
330
195
100
AcDbXrecord
280
     1
102
SHADEPLOT
 70
     0
102
SHADEPLOTRESLEVEL
 70
     2
102
SHADEPLOTCUSTOMDPI
 70
   300
  0
XRECORD
  5
194
102
{ACAD_REACTORS
330
193
102
}
330
193
100
AcDbXrecord
280
     1
102
SHADEPLOT
 70
     0
102
SHADEPLOTRESLEVEL
 70
     2
102
SHADEPLOTCUSTOMDPI
 70
   300
  0
ENDSEC
  0
EOF
