  0
SECTION
  2
HEADER
  9
$ACADVER
  1
AC1015
  9
$ACADMAINTVER
 70
    20
  9
$DWGCODEPAGE
  3
ANSI_932
  9
$INSBASE
 10
129.0
 20
246.4992141396418
 30
0.0
  9
$EXTMIN
 10
130.9949674463913
 20
131.4948068966308
 30
-0.0000000349181948
  9
$EXTMAX
 10
256.0104848519432
 20
244.5032357583347
 30
0.0000000814935747
  9
$LIMMIN
 10
108.7418692376818
 20
131.4206065654286
  9
$LIMMAX
 10
277.966633299711
 20
244.4321673178306
  9
$ORTHOMODE
 70
     1
  9
$REGENMODE
 70
     1
  9
$FILLMODE
 70
     1
  9
$QTEXTMODE
 70
     0
  9
$MIRRTEXT
 70
     1
  9
$LTSCALE
 40
1.0
  9
$ATTMODE
 70
     1
  9
$TEXTSIZE
 40
2.5
  9
$TRACEWID
 40
0.5
  9
$TEXTSTYLE
  7
STANDARD
  9
$CLAYER
  8
0
  9
$CELTYPE
  6
ByLayer
  9
$CECOLOR
 62
   256
  9
$CELTSCALE
 40
1.0
  9
$DISPSILH
 70
     0
  9
$DIMSCALE
 40
1.0
  9
$DIMASZ
 40
2.0
  9
$DIMEXO
 40
2.0
  9
$DIMDLI
 40
8.0
  9
$DIMRND
 40
0.0
  9
$DIMDLE
 40
0.0
  9
$DIMEXE
 40
2.0
  9
$DIMTP
 40
0.0
  9
$DIMTM
 40
0.0
  9
$DIMTXT
 40
2.5
  9
$DIMCEN
 40
0.0
  9
$DIMTSZ
 40
0.0
  9
$DIMTOL
 70
     0
  9
$DIMLIM
 70
     0
  9
$DIMTIH
 70
     0
  9
$DIMTOH
 70
     0
  9
$DIMSE1
 70
     0
  9
$DIMSE2
 70
     0
  9
$DIMTAD
 70
     3
  9
$DIMZIN
 70
     0
  9
$DIMBLK
  1

  9
$DIMASO
 70
     1
  9
$DIMSHO
 70
     1
  9
$DIMPOST
  1

  9
$DIMAPOST
  1

  9
$DIMALT
 70
     0
  9
$DIMALTD
 70
     2
  9
$DIMALTF
 40
25.4
  9
$DIMLFAC
 40
1.0
  9
$DIMTOFL
 70
     1
  9
$DIMTVP
 40
0.0
  9
$DIMTIX
 70
     0
  9
$DIMSOXD
 70
     0
  9
$DIMSAH
 70
     1
  9
$DIMBLK1
  1
OPEN30
  9
$DIMBLK2
  1
OPEN30
  9
$DIMSTYLE
  2
STANDARD
  9
$DIMCLRD
 70
     0
  9
$DIMCLRE
 70
     0
  9
$DIMCLRT
 70
     0
  9
$DIMTFAC
 40
1.0
  9
$DIMGAP
 40
0.5
  9
$DIMJUST
 70
     0
  9
$DIMSD1
 70
     0
  9
$DIMSD2
 70
     0
  9
$DIMTOLJ
 70
     1
  9
$DIMTZIN
 70
     0
  9
$DIMALTZ
 70
     0
  9
$DIMALTTZ
 70
     0
  9
$DIMUPT
 70
     0
  9
$DIMDEC
 70
     4
  9
$DIMTDEC
 70
     4
  9
$DIMALTU
 70
     2
  9
$DIMALTTD
 70
     2
  9
$DIMTXSTY
  7
STANDARD
  9
$DIMAUNIT
 70
     0
  9
$DIMADEC
 70
     0
  9
$DIMALTRND
 40
0.0
  9
$DIMAZIN
 70
     0
  9
$DIMDSEP
 70
    46
  9
$DIMATFIT
 70
     3
  9
$DIMFRAC
 70
     0
  9
$DIMLDRBLK
  1

  9
$DIMLUNIT
 70
     2
  9
$DIMLWD
 70
    -2
  9
$DIMLWE
 70
    -2
  9
$DIMTMOVE
 70
     0
  9
$LUNITS
 70
     2
  9
$LUPREC
 70
     4
  9
$SKETCHINC
 40
0.1
  9
$FILLETRAD
 40
0.0
  9
$AUNITS
 70
     0
  9
$AUPREC
 70
     0
  9
$MENU
  1
ACAD
  9
$ELEVATION
 40
0.0
  9
$PELEVATION
 40
0.0
  9
$THICKNESS
 40
0.0
  9
$LIMCHECK
 70
     0
  9
$CHAMFERA
 40
0.0
  9
$CHAMFERB
 40
0.0
  9
$CHAMFERC
 40
0.0
  9
$CHAMFERD
 40
0.0
  9
$SKPOLY
 70
     0
  9
$TDCREATE
 40
2451814.815532581
  9
$TDUCREATE
 40
2451814.440532581
  9
$TDUPDATE
 40
2453731.696570811
  9
$TDUUPDATE
 40
2453731.321570810
  9
$TDINDWG
 40
0.6844853704
  9
$TDUSRTIMER
 40
0.6844853704
  9
$USRTIMER
 70
     1
  9
$ANGBASE
 50
0.0
  9
$ANGDIR
 70
     0
  9
$PDMODE
 70
     0
  9
$PDSIZE
 40
0.0
  9
$PLINEWID
 40
0.0
  9
$SPLFRAME
 70
     0
  9
$SPLINETYPE
 70
     6
  9
$SPLINESEGS
 70
     8
  9
$HANDSEED
  5
48D
  9
$SURFTAB1
 70
     6
  9
$SURFTAB2
 70
     6
  9
$SURFTYPE
 70
     6
  9
$SURFU
 70
     6
  9
$SURFV
 70
     6
  9
$UCSBASE
  2

  9
$UCSNAME
  2

  9
$UCSORG
 10
0.0
 20
0.0
 30
0.0
  9
$UCSXDIR
 10
1.0
 20
0.0
 30
0.0
  9
$UCSYDIR
 10
0.0
 20
1.0
 30
0.0
  9
$UCSORTHOREF
  2

  9
$UCSORTHOVIEW
 70
     0
  9
$UCSORGTOP
 10
0.0
 20
0.0
 30
0.0
  9
$UCSORGBOTTOM
 10
0.0
 20
0.0
 30
0.0
  9
$UCSORGLEFT
 10
0.0
 20
0.0
 30
0.0
  9
$UCSORGRIGHT
 10
0.0
 20
0.0
 30
0.0
  9
$UCSORGFRONT
 10
0.0
 20
0.0
 30
0.0
  9
$UCSORGBACK
 10
0.0
 20
0.0
 30
0.0
  9
$PUCSBASE
  2

  9
$PUCSNAME
  2

  9
$PUCSORG
 10
0.0
 20
0.0
 30
0.0
  9
$PUCSXDIR
 10
1.0
 20
0.0
 30
0.0
  9
$PUCSYDIR
 10
0.0
 20
1.0
 30
0.0
  9
$PUCSORTHOREF
  2

  9
$PUCSORTHOVIEW
 70
     0
  9
$PUCSORGTOP
 10
0.0
 20
0.0
 30
0.0
  9
$PUCSORGBOTTOM
 10
0.0
 20
0.0
 30
0.0
  9
$PUCSORGLEFT
 10
0.0
 20
0.0
 30
0.0
  9
$PUCSORGRIGHT
 10
0.0
 20
0.0
 30
0.0
  9
$PUCSORGFRONT
 10
0.0
 20
0.0
 30
0.0
  9
$PUCSORGBACK
 10
0.0
 20
0.0
 30
0.0
  9
$USERI1
 70
     0
  9
$USERI2
 70
     0
  9
$USERI3
 70
     0
  9
$USERI4
 70
     0
  9
$USERI5
 70
     0
  9
$USERR1
 40
0.0
  9
$USERR2
 40
0.0
  9
$USERR3
 40
0.0
  9
$USERR4
 40
0.0
  9
$USERR5
 40
0.0
  9
$WORLDVIEW
 70
     1
  9
$SHADEDGE
 70
     3
  9
$SHADEDIF
 70
    70
  9
$TILEMODE
 70
     1
  9
$MAXACTVP
 70
    48
  9
$PINSBASE
 10
0.0
 20
0.0
 30
0.0
  9
$PLIMCHECK
 70
     0
  9
$PEXTMIN
 10
1.000000000000000E+20
 20
1.000000000000000E+20
 30
1.000000000000000E+20
  9
$PEXTMAX
 10
-1.000000000000000E+20
 20
-1.000000000000000E+20
 30
-1.000000000000000E+20
  9
$PLIMMIN
 10
0.0
 20
0.0
  9
$PLIMMAX
 10
12.0
 20
9.0
  9
$UNITMODE
 70
     0
  9
$VISRETAIN
 70
     1
  9
$PLINEGEN
 70
     0
  9
$PSLTSCALE
 70
     1
  9
$TREEDEPTH
 70
  3020
  9
$CMLSTYLE
  2
Standard
  9
$CMLJUST
 70
     0
  9
$CMLSCALE
 40
1.0
  9
$PROXYGRAPHICS
 70
     1
  9
$MEASUREMENT
 70
     0
  9
$CELWEIGHT
370
    -1
  9
$ENDCAPS
280
     0
  9
$JOINSTYLE
280
     0
  9
$LWDISPLAY
290
     0
  9
$INSUNITS
 70
     0
  9
$HYPERLINKBASE
  1

  9
$STYLESHEET
  1

  9
$XEDIT
290
     1
  9
$CEPSNTYPE
380
     0
  9
$PSTYLEMODE
290
     1
  9
$FINGERPRINTGUID
  2
{A5E52241-80B2-47C0-B8FB-4EFE6365E453}
  9
$VERSIONGUID
  2
{8A2B822A-1865-4405-A32A-6F6BEFA88445}
  9
$EXTNAMES
290
     1
  9
$PSVPSCALE
 40
0.0
  9
$OLESTARTUP
290
     0
  0
ENDSEC
  0
SECTION
  2
CLASSES
  0
CLASS
  1
ACDBDICTIONARYWDFLT
  2
AcDbDictionaryWithDefault
  3
ObjectDBX Classes
 90
        0
280
     0
281
     0
  0
CLASS
  1
DICTIONARYVAR
  2
AcDbDictionaryVar
  3
ObjectDBX Classes
 90
        0
280
     0
281
     0
  0
CLASS
  1
ACDBPLACEHOLDER
  2
AcDbPlaceHolder
  3
ObjectDBX Classes
 90
        0
280
     0
281
     0
  0
CLASS
  1
LAYOUT
  2
AcDbLayout
  3
ObjectDBX Classes
 90
        0
280
     0
281
     0
  0
ENDSEC
  0
SECTION
  2
TABLES
  0
TABLE
  2
VPORT
  5
427
330
0
100
AcDbSymbolTable
 70
     2
  0
VPORT
  5
484
330
427
100
AcDbSymbolTableRecord
100
AcDbViewportTableRecord
  2
*Active
 70
     0
 10
0.0
 20
0.0
 11
1.0
 21
1.0
 12
193.5027261491672
 22
187.9990213274827
 13
0.0
 23
0.0
 14
1.0
 24
1.0
 15
0.0
 25
0.0
 16
0.0
 26
0.0
 36
1.0
 17
0.0
 27
0.0
 37
0.0
 40
113.9770725376613
 41
1.589413447782546
 42
50.0
 43
0.0
 44
0.0
 50
0.0
 51
0.0
 71
     0
 72
  1000
 73
     1
 74
     0
 75
     0
 76
     0
 77
     0
 78
     0
281
     0
 65
     1
110
0.0
120
0.0
130
0.0
111
1.0
121
0.0
131
0.0
112
0.0
122
1.0
132
0.0
 79
     0
146
0.0
  0
ENDTAB
  0
TABLE
  2
LTYPE
  5
424
330
0
100
AcDbSymbolTable
 70
     1
  0
LTYPE
  5
432
330
424
100
AcDbSymbolTableRecord
100
AcDbLinetypeTableRecord
  2
ByBlock
 70
     0
  3

 72
    65
 73
     0
 40
0.0
  0
LTYPE
  5
433
330
424
100
AcDbSymbolTableRecord
100
AcDbLinetypeTableRecord
  2
ByLayer
 70
     0
  3

 72
    65
 73
     0
 40
0.0
  0
LTYPE
  5
434
330
424
100
AcDbSymbolTableRecord
100
AcDbLinetypeTableRecord
  2
CONTINUOUS
 70
     0
  3
Solid line
 72
    65
 73
     0
 40
0.0
  0
ENDTAB
  0
TABLE
  2
LAYER
  5
421
330
0
100
AcDbSymbolTable
 70
     8
  0
LAYER
  5
42F
330
421
100
AcDbSymbolTableRecord
100
AcDbLayerTableRecord
  2
0
 70
     0
 62
     7
  6
CONTINUOUS
370
    -3
390
42E
  0
LAYER
  5
445
330
421
100
AcDbSymbolTableRecord
100
AcDbLayerTableRecord
  2
DEFPOINTS
 70
     0
 62
     7
  6
CONTINUOUS
290
     0
370
    -3
390
42E
  0
LAYER
  5
446
330
421
100
AcDbSymbolTableRecord
100
AcDbLayerTableRecord
  2
WAKU
 70
     0
 62
     4
  6
CONTINUOUS
370
    -3
390
42E
  0
LAYER
  5
447
330
421
100
AcDbSymbolTableRecord
100
AcDbLayerTableRecord
  2
MOJI1
 70
     0
 62
     2
  6
CONTINUOUS
370
    -3
390
42E
  0
LAYER
  5
448
330
421
100
AcDbSymbolTableRecord
100
AcDbLayerTableRecord
  2
GAIKEI
 70
     0
 62
     7
  6
CONTINUOUS
370
    -3
390
42E
  0
LAYER
  5
449
330
421
100
AcDbSymbolTableRecord
100
AcDbLayerTableRecord
  2
SUNPO
 70
     0
 62
     3
  6
CONTINUOUS
370
    -3
390
42E
  0
LAYER
  5
44A
330
421
100
AcDbSymbolTableRecord
100
AcDbLayerTableRecord
  2
TOUROKU
 70
     0
 62
     1
  6
CONTINUOUS
370
    -3
390
42E
  0
ENDTAB
  0
TABLE
  2
STYLE
  5
422
330
0
100
AcDbSymbolTable
 70
     2
  0
STYLE
  5
430
330
422
100
AcDbSymbolTableRecord
100
AcDbTextStyleTableRecord
  2
STANDARD
 70
     0
 40
0.0
 41
1.0
 50
0.0
 71
     0
 42
2.5
  3
MONOTXT.shx
  4
BIGFONT.shx
  0
ENDTAB
  0
TABLE
  2
VIEW
  5
425
330
0
100
AcDbSymbolTable
 70
     0
  0
ENDTAB
  0
TABLE
  2
UCS
  5
426
330
0
100
AcDbSymbolTable
 70
     0
  0
ENDTAB
  0
TABLE
  2
APPID
  5
428
330
0
100
AcDbSymbolTable
 70
     1
  0
APPID
  5
431
330
428
100
AcDbSymbolTableRecord
100
AcDbRegAppTableRecord
  2
ACAD
 70
     0
  0
ENDTAB
  0
TABLE
  2
DIMSTYLE
  5
429
330
0
100
AcDbSymbolTable
 70
     1
100
AcDbDimStyleTable
 71
     1
340
44C
  0
DIMSTYLE
105
44C
102
{ACAD_REACTORS
330
79
330
54
330
43
102
}
330
429
100
AcDbSymbolTableRecord
100
AcDbDimStyleTableRecord
  2
STANDARD
 70
     0
 40
0.0
 41
2.0
 42
2.0
 43
8.0
 44
2.0
 73
     0
 74
     0
 77
     3
140
3.0
141
0.0
173
     1
279
     2
340
430
  0
ENDTAB
  0
TABLE
  2
BLOCK_RECORD
  5
420
330
0
100
AcDbSymbolTable
 70
     9
  0
BLOCK_RECORD
  5
43F
330
420
100
AcDbSymbolTableRecord
100
AcDbBlockTableRecord
  2
*Model_Space
340
442
  0
BLOCK_RECORD
  5
43B
330
420
100
AcDbSymbolTableRecord
100
AcDbBlockTableRecord
  2
*Paper_Space
340
43E
  0
BLOCK_RECORD
  5
453
330
420
100
AcDbSymbolTableRecord
100
AcDbBlockTableRecord
  2
_OPEN30
340
0
102
{BLKREFS
331
7E
331
7F
331
49
331
4A
331
5A
331
5B
331
460
331
461
331
46D
331
46E
331
479
331
47A
102
}
  0
BLOCK_RECORD
  5
45C
330
420
100
AcDbSymbolTableRecord
100
AcDbBlockTableRecord
  2
*D6
340
0
  0
BLOCK_RECORD
  5
468
330
420
100
AcDbSymbolTableRecord
100
AcDbBlockTableRecord
  2
*D7
340
0
  0
BLOCK_RECORD
  5
475
330
420
100
AcDbSymbolTableRecord
100
AcDbBlockTableRecord
  2
*D8
340
0
  0
ENDTAB
  0
ENDSEC
  0
SECTION
  2
BLOCKS
  0
BLOCK
  5
440
330
43F
100
AcDbEntity
  8
0
100
AcDbBlockBegin
  2
*Model_Space
 70
     0
 10
0.0
 20
0.0
 30
0.0
  3
*Model_Space
  1

  0
ENDBLK
  5
441
330
43F
100
AcDbEntity
  8
0
100
AcDbBlockEnd
  0
BLOCK
  5
43C
330
43B
100
AcDbEntity
 67
     1
  8
0
100
AcDbBlockBegin
  2
*Paper_Space
 70
     0
 10
0.0
 20
0.0
 30
0.0
  3
*Paper_Space
  1

  0
ENDBLK
  5
43D
330
43B
100
AcDbEntity
 67
     1
  8
0
100
AcDbBlockEnd
  0
BLOCK
  5
454
330
453
100
AcDbEntity
  8
0
100
AcDbBlockBegin
  2
_OPEN30
 70
     0
 10
0.0
 20
0.0
 30
0.0
  3
_OPEN30
  1

  0
LINE
  5
29
330
453
100
AcDbEntity
  8
0
  6
ByBlock
 62
     0
100
AcDbLine
 10
-1.0
 20
0.26794919
 30
0.0
 11
0.0
 21
0.0
 31
0.0
  0
LINE
  5
2A
330
453
100
AcDbEntity
  8
0
  6
ByBlock
 62
     0
100
AcDbLine
 10
0.0
 20
0.0
 30
0.0
 11
-1.0
 21
-0.26794919
 31
0.0
  0
LINE
  5
2B
330
453
100
AcDbEntity
  8
0
  6
ByBlock
 62
     0
100
AcDbLine
 10
0.0
 20
0.0
 30
0.0
 11
-1.0
 21
0.0
 31
0.0
  0
ENDBLK
  5
2D
330
453
100
AcDbEntity
  8
0
100
AcDbBlockEnd
  0
BLOCK
  5
466
330
45C
100
AcDbEntity
  8
0
100
AcDbBlockBegin
  2
*D6
 70
     1
 10
0.0
 20
0.0
 30
0.0
  3
*D6
  1

  0
LINE
  5
45D
330
45C
100
AcDbEntity
  8
SUNPO
 62
     0
370
    -2
100
AcDbLine
 10
160.0495740137648
 20
216.77184861214
 30
0.0
 11
160.0495740137648
 21
224.77184861214
 31
0.0
  0
LINE
  5
45E
330
45C
100
AcDbEntity
  8
SUNPO
 62
     0
370
    -2
100
AcDbLine
 10
179.0499708974229
 20
216.77184861214
 30
0.0
 11
179.0499708974229
 21
224.77184861214
 31
0.0
  0
LINE
  5
45F
330
45C
100
AcDbEntity
  8
SUNPO
 62
     0
370
    -2
100
AcDbLine
 10
162.0495740137648
 20
222.77184861214
 30
0.0
 11
177.0499708974229
 21
222.77184861214
 31
0.0
  0
INSERT
  5
460
330
45C
100
AcDbEntity
  8
SUNPO
 62
     0
370
    -2
100
AcDbBlockReference
  2
_OPEN30
 10
160.0495740137648
 20
222.77184861214
 30
0.0
 41
2.0
 42
2.0
 43
2.0
 50
180.0
  0
INSERT
  5
461
330
45C
100
AcDbEntity
  8
SUNPO
 62
     0
370
    -2
100
AcDbBlockReference
  2
_OPEN30
 10
179.0499708974229
 20
222.77184861214
 30
0.0
 41
2.0
 42
2.0
 43
2.0
  0
MTEXT
  5
462
330
45C
100
AcDbEntity
  8
SUNPO
 62
     0
100
AcDbMText
 10
169.5497724555938
 20
224.52184861214
 30
0.0
 40
2.5
 41
0.0
 71
     5
 72
     1
  1
\A1;φ190
 73
     1
 44
1.0
1001
ACAD
1000
MTEXTBEGIN
1070
    73
1070
     1
1070
    44
1040
1.0
1070
    74
1070
     0
1000
MTEXTEND
  0
POINT
  5
463
330
45C
100
AcDbEntity
  8
DEFPOINTS
 62
     0
100
AcDbPoint
 10
160.0495740137648
 20
214.77184861214
 30
0.0
  0
POINT
  5
464
330
45C
100
AcDbEntity
  8
DEFPOINTS
 62
     0
100
AcDbPoint
 10
179.0499708974229
 20
214.77184861214
 30
0.0
  0
POINT
  5
465
330
45C
100
AcDbEntity
  8
DEFPOINTS
 62
     0
100
AcDbPoint
 10
179.0499708974229
 20
222.77184861214
 30
0.0
  0
ENDBLK
  5
467
330
45C
100
AcDbEntity
  8
0
100
AcDbBlockEnd
  0
BLOCK
  5
473
330
468
100
AcDbEntity
  8
0
100
AcDbBlockBegin
  2
*D7
 70
     1
 10
0.0
 20
0.0
 30
0.0
  3
*D7
  1

  0
LINE
  5
469
330
468
100
AcDbEntity
  8
SUNPO
 62
     0
370
    -2
100
AcDbLine
 10
161.8243988080168
 20
191.3525275440822
 30
0.0
 11
161.8243988080168
 21
183.3525275440822
 31
0.0
  0
LINE
  5
46A
330
468
100
AcDbEntity
  8
SUNPO
 62
     0
370
    -2
100
AcDbLine
 10
177.2743988080168
 20
191.3525275440822
 30
0.0
 11
177.2743988080168
 21
183.3525275440822
 31
0.0
  0
LINE
  5
46B
330
468
100
AcDbEntity
  8
SUNPO
 62
     0
370
    -2
100
AcDbLine
 10
163.8243988080168
 20
185.3525275440822
 30
0.0
 11
175.2743988080168
 21
185.3525275440822
 31
0.0
  0
LINE
  5
46C
330
468
100
AcDbEntity
  8
SUNPO
 62
     0
370
    -2
100
AcDbLine
 10
177.2743988080168
 20
185.3525275440822
 30
0.0
 11
194.9410654746835
 21
185.3525275440822
 31
0.0
  0
INSERT
  5
46D
330
468
100
AcDbEntity
  8
SUNPO
 62
     0
370
    -2
100
AcDbBlockReference
  2
_OPEN30
 10
161.8243988080168
 20
185.3525275440822
 30
0.0
 41
2.0
 42
2.0
 43
2.0
 50
180.0
  0
INSERT
  5
46E
330
468
100
AcDbEntity
  8
SUNPO
 62
     0
370
    -2
100
AcDbBlockReference
  2
_OPEN30
 10
177.2743988080168
 20
185.3525275440822
 30
0.0
 41
2.0
 42
2.0
 43
2.0
  0
MTEXT
  5
46F
330
468
100
AcDbEntity
  8
SUNPO
 62
     0
100
AcDbMText
 10
187.1077321413501
 20
187.1025275440821
 30
0.0
 40
2.5
 41
0.0
 71
     5
 72
     1
  1
\A1;φ154.5
 73
     1
 44
1.0
1001
ACAD
1000
MTEXTBEGIN
1070
    73
1070
     1
1070
    44
1040
1.0
1070
    74
1070
     0
1000
MTEXTEND
  0
POINT
  5
470
330
468
100
AcDbEntity
  8
DEFPOINTS
 62
     0
100
AcDbPoint
 10
161.8243988080168
 20
193.3525275440821
 30
0.0
  0
POINT
  5
471
330
468
100
AcDbEntity
  8
DEFPOINTS
 62
     0
100
AcDbPoint
 10
177.2743988080168
 20
193.3525275440821
 30
0.0
  0
POINT
  5
472
330
468
100
AcDbEntity
  8
DEFPOINTS
 62
     0
100
AcDbPoint
 10
177.2743988080168
 20
185.3525275440822
 30
0.0
  0
ENDBLK
  5
474
330
468
100
AcDbEntity
  8
0
100
AcDbBlockEnd
  0
BLOCK
  5
47F
330
475
100
AcDbEntity
  8
0
100
AcDbBlockBegin
  2
*D8
 70
     1
 10
0.0
 20
0.0
 30
0.0
  3
*D8
  1

  0
LINE
  5
476
330
475
100
AcDbEntity
  8
SUNPO
 62
     0
370
    -2
100
AcDbLine
 10
181.0827721724608
 20
191.4725653131161
 30
0.0
 11
189.0827721724608
 21
191.4725653131161
 31
0.0
  0
LINE
  5
477
330
475
100
AcDbEntity
  8
SUNPO
 62
     0
370
    -2
100
AcDbLine
 10
181.0827721724608
 20
214.77184861214
 30
0.0
 11
189.0827721724608
 21
214.77184861214
 31
0.0
  0
LINE
  5
478
330
475
100
AcDbEntity
  8
SUNPO
 62
     0
370
    -2
100
AcDbLine
 10
187.0827721724608
 20
193.4725653131161
 30
0.0
 11
187.0827721724608
 21
212.77184861214
 31
0.0
  0
INSERT
  5
479
330
475
100
AcDbEntity
  8
SUNPO
 62
     0
370
    -2
100
AcDbBlockReference
  2
_OPEN30
 10
187.0827721724608
 20
191.4725653131161
 30
0.0
 41
2.0
 42
2.0
 43
2.0
 50
270.0
  0
INSERT
  5
47A
330
475
100
AcDbEntity
  8
SUNPO
 62
     0
370
    -2
100
AcDbBlockReference
  2
_OPEN30
 10
187.0827721724608
 20
214.77184861214
 30
0.0
 41
2.0
 42
2.0
 43
2.0
 50
90.0
  0
MTEXT
  5
47B
330
475
100
AcDbEntity
  8
SUNPO
 62
     0
100
AcDbMText
 10
185.3327721724608
 20
203.1222069626281
 30
0.0
 40
2.5
 41
0.0
 71
     5
 72
     1
  1
\A1;233
 11
0.0000000000000001
 21
1.0
 31
0.0
 73
     1
 44
1.0
1001
ACAD
1000
MTEXTBEGIN
1070
    73
1070
     1
1070
    44
1040
1.0
1070
    74
1070
     0
1000
MTEXTEND
  0
POINT
  5
47C
330
475
100
AcDbEntity
  8
DEFPOINTS
 62
     0
100
AcDbPoint
 10
179.0827721724608
 20
191.4725653131161
 30
0.0
  0
POINT
  5
47D
330
475
100
AcDbEntity
  8
DEFPOINTS
 62
     0
100
AcDbPoint
 10
179.0827721724608
 20
214.77184861214
 30
0.0
  0
POINT
  5
47E
330
475
100
AcDbEntity
  8
DEFPOINTS
 62
     0
100
AcDbPoint
 10
187.0827721724608
 20
214.77184861214
 30
0.0
  0
ENDBLK
  5
480
330
475
100
AcDbEntity
  8
0
100
AcDbBlockEnd
  0
ENDSEC
  0
SECTION
  2
ENTITIES
  0
TEXT
  5
2E
330
43F
100
AcDbEntity
  8
MOJI1
100
AcDbText
 10
157.9999999999999
 20
240.4992141396419
 30
0.0
 40
4.0
  1
カラーテレビカメラ
100
AcDbText
  0
TEXT
  5
30
330
43F
100
AcDbEntity
  8
TOUROKU
100
AcDbText
 10
240.1332833662605
 20
234.4992141396419
 30
0.0
 40
2.0
  1
ＷＶＣＳ９５０
 72
     2
 11
255.9999500329272
 21
234.4992141396419
 31
0.0
100
AcDbText
  0
LINE
  5
32
330
43F
100
AcDbEntity
  8
GAIKEI
 62
     1
100
AcDbLine
 10
166.9993887284065
 20
198.5222569045165
 30
0.0
 11
166.9993887284065
 21
195.750314611643
 31
0.0
  0
LINE
  5
34
330
43F
100
AcDbEntity
  8
GAIKEI
 62
     1
100
AcDbLine
 10
172.0492191963003
 20
193.1628593688473
 30
0.0
 11
172.0492191963003
 21
198.5222569045165
 31
0.0
  0
LINE
  5
35
330
43F
100
AcDbEntity
  8
GAIKEI
 62
     1
100
AcDbLine
 10
167.0491475805061
 20
198.5222569045165
 30
0.0
 11
167.0491475805061
 21
193.1628288845145
 31
0.0
  0
LWPOLYLINE
  5
36
330
43F
100
AcDbEntity
  8
GAIKEI
 62
     1
100
AcDbPolyline
 90
       17
 70
     0
 43
0.0
 10
163.0108494318979
 20
197.4544513430235
 10
163.1256531386664
 20
197.0913911432313
 10
163.2597793185912
 20
196.7372780104942
 10
163.4126613058191
 20
196.3927590118398
 10
163.5837324344971
 20
196.0584812142955
 10
163.7724260387719
 20
195.735091684889
 10
163.9781754527909
 20
195.4232374906477
 10
164.2004140107005
 20
195.1235656985991
 10
164.4385750466477
 20
194.8367233757707
 10
164.6920918947796
 20
194.5633575891903
 10
164.9603978892429
 20
194.3041154058851
 10
165.2429263641846
 20
194.0596438928828
 10
165.5391106537515
 20
193.8305901172109
 10
165.8483840920906
 20
193.6176011458968
 10
166.1701800133489
 20
193.4213240459681
 10
166.5039317516729
 20
193.2424058844525
 10
166.8490726412101
 20
193.0814937283774
  0
LWPOLYLINE
  5
37
330
43F
100
AcDbEntity
  8
GAIKEI
 62
     1
100
AcDbPolyline
 90
       17
 70
     0
 43
0.0
 10
172.2493634370579
 20
193.0814937281347
 10
172.5944487462554
 20
193.2424058841805
 10
172.9281622635853
 20
193.4213240456679
 10
173.2499351913454
 20
193.6176011455692
 10
173.5591987318332
 20
193.830590116857
 10
173.8553840873461
 20
194.0596438925038
 10
174.137922460182
 20
194.3041154054819
 10
174.4062450526382
 20
194.563357588764
 10
174.6597830670125
 20
194.8367233753224
 10
174.8979677056023
 20
195.1235656981296
 10
175.1202301707052
 20
195.4232374901583
 10
175.3260016646188
 20
195.7350916843806
 10
175.5147133896408
 20
196.0584812137693
 10
175.6857965480686
 20
196.3927590112966
 10
175.8386823421998
 20
196.7372780099352
 10
175.9728019743322
 20
197.0913911426574
 10
176.0875866467632
 20
197.4544513424358
  0
LINE
  5
38
330
43F
100
AcDbEntity
  8
GAIKEI
 62
     1
100
AcDbLine
 10
172.0991859544673
 20
198.5222569045165
 30
0.0
 11
172.0991859544673
 21
195.750314611643
 31
0.0
  0
ARC
  5
39
330
43F
100
AcDbEntity
  8
GAIKEI
100
AcDbCircle
 10
169.5682173277079
 20
198.7630546300923
 30
0.0
 40
7.290514254295032
100
AcDbArc
 50
178.1983645017889
 51
269.8501407508505
  0
ARC
  5
3A
330
43F
100
AcDbEntity
  8
GAIKEI
100
AcDbCircle
 10
169.5300801470762
 20
198.7630546300923
 30
0.0
 40
7.290514254295032
100
AcDbArc
 50
270.1498592491495
 51
1.801635498211134
  0
ARC
  5
3B
330
43F
100
AcDbEntity
  8
GAIKEI
100
AcDbCircle
 10
208.2532818899231
 20
198.7630546300923
 30
0.0
 40
7.290514254295032
100
AcDbArc
 50
270.1498592491495
 51
1.801635498211134
  0
ARC
  5
3C
330
43F
100
AcDbEntity
  8
GAIKEI
100
AcDbCircle
 10
208.2914190705548
 20
198.7630546300923
 30
0.0
 40
7.290514254295032
100
AcDbArc
 50
178.1983645017889
 51
269.8501407508505
  0
LINE
  5
3D
330
43F
100
AcDbEntity
  8
GAIKEI
 62
     1
100
AcDbLine
 10
210.8223876973142
 20
198.5222569045165
 30
0.0
 11
210.8223876973142
 21
195.750314611643
 31
0.0
  0
LWPOLYLINE
  5
3E
330
43F
100
AcDbEntity
  8
GAIKEI
 62
     1
100
AcDbPolyline
 90
       17
 70
     0
 43
0.0
 10
210.9725651799047
 20
193.0814937281347
 10
211.3176504891022
 20
193.2424058841805
 10
211.6513640064322
 20
193.4213240456679
 10
211.9731369341923
 20
193.6176011455692
 10
212.2824004746801
 20
193.830590116857
 10
212.5785858301931
 20
194.0596438925038
 10
212.8611242030289
 20
194.3041154054819
 10
213.1294467954851
 20
194.563357588764
 10
213.3829848098594
 20
194.8367233753224
 10
213.6211694484491
 20
195.1235656981296
 10
213.8434319135521
 20
195.4232374901583
 10
214.0492034074657
 20
195.7350916843806
 10
214.2379151324877
 20
196.0584812137693
 10
214.4089982909155
 20
196.3927590112966
 10
214.5618840850468
 20
196.7372780099352
 10
214.6960037171791
 20
197.0913911426574
 10
214.8107883896101
 20
197.4544513424358
  0
LWPOLYLINE
  5
3F
330
43F
100
AcDbEntity
  8
GAIKEI
 62
     1
100
AcDbPolyline
 90
       17
 70
     0
 43
0.0
 10
201.7340511747448
 20
197.4544513430235
 10
201.8488548815133
 20
197.0913911432313
 10
201.982981061438
 20
196.7372780104942
 10
202.135863048666
 20
196.3927590118398
 10
202.306934177344
 20
196.0584812142955
 10
202.4956277816189
 20
195.735091684889
 10
202.7013771956378
 20
195.4232374906477
 10
202.9236157535474
 20
195.1235656985991
 10
203.1617767894946
 20
194.8367233757707
 10
203.4152936376265
 20
194.5633575891903
 10
203.6835996320898
 20
194.3041154058851
 10
203.9661281070315
 20
194.0596438928828
 10
204.2623123965985
 20
193.8305901172109
 10
204.5715858349375
 20
193.6176011458968
 10
204.8933817561958
 20
193.4213240459681
 10
205.2271334945199
 20
193.2424058844525
 10
205.572274384057
 20
193.0814937283774
  0
LINE
  5
40
330
43F
100
AcDbEntity
  8
GAIKEI
 62
     1
100
AcDbLine
 10
205.7723493233531
 20
198.5222569045165
 30
0.0
 11
205.7723493233531
 21
193.1628288845145
 31
0.0
  0
LINE
  5
41
330
43F
100
AcDbEntity
  8
GAIKEI
 62
     1
100
AcDbLine
 10
210.7724209391472
 20
193.1628593688473
 30
0.0
 11
210.7724209391472
 21
198.5222569045165
 31
0.0
  0
LINE
  5
42
330
43F
100
AcDbEntity
  8
GAIKEI
 62
     1
100
AcDbLine
 10
205.7225904712533
 20
198.5222569045165
 30
0.0
 11
205.7225904712533
 21
195.750314611643
 31
0.0
  0
DIMENSION
  5
43
330
43F
100
AcDbEntity
  8
SUNPO
100
AcDbDimension
  2
*D8
 10
187.0827721724608
 20
214.77184861214
 30
0.0
 11
185.3327721724608
 21
203.1222069626281
 31
0.0
 70
    33
  1
233
 71
     5
 42
23.2992832990239
  3
STANDARD
100
AcDbAlignedDimension
 13
179.0827721724608
 23
191.4725653131161
 33
0.0
 14
179.0827721724608
 24
214.77184861214
 34
0.0
1001
ACAD
1000
DSTYLE
1002
{
1070
    40
1040
1.0
1070
   140
1040
2.5
1070
   147
1040
0.5
1070
   172
1070
     1
1070
   279
1070
     0
1070
   343
1005
453
1070
   344
1005
453
1002
}
  0
DIMENSION
  5
54
330
43F
100
AcDbEntity
  8
SUNPO
100
AcDbDimension
  2
*D7
 10
177.2743988080168
 20
185.3525275440822
 30
0.0
 11
187.1077321413501
 21
187.1025275440821
 31
0.0
 70
    33
  1
φ154.5
 71
     5
 42
15.45000000000001
  3
STANDARD
100
AcDbAlignedDimension
 13
161.8243988080168
 23
193.3525275440821
 33
0.0
 14
177.2743988080168
 24
193.3525275440821
 34
0.0
1001
ACAD
1000
DSTYLE
1002
{
1070
    40
1040
1.0
1070
   140
1040
2.5
1070
   147
1040
0.5
1070
   172
1070
     1
1070
   279
1070
     0
1070
   343
1005
453
1070
   344
1005
453
1002
}
  0
LWPOLYLINE
  5
62
330
43F
100
AcDbEntity
  8
GAIKEI
 62
     1
100
AcDbPolyline
 90
       17
 70
     0
 43
0.0
 10
167.1062836933848
 20
193.072481293618
 10
167.3989532097088
 20
192.9435459314709
 10
167.6967066073226
 20
192.8318022341422
 10
167.9988171518504
 20
192.737250201632
 10
168.3045581089164
 20
192.6598898339402
 10
168.6132027441447
 20
192.5997211310669
 10
168.9240243231594
 20
192.556744093012
 10
169.2362961115848
 20
192.5309587197756
 10
169.5492913750448
 20
192.5223650113577
 10
169.8622833791638
 20
192.5309629677581
 10
170.1745453895658
 20
192.5567525889771
 10
170.485350671875
 20
192.5997338750145
 10
170.7939724917155
 20
192.6599068258703
 10
171.0996841147115
 20
192.7372714415446
 10
171.4017588064871
 20
192.8318277220374
 10
171.6994698326665
 20
192.9435756673485
 10
171.9920904588738
 20
193.0725152774781
  0
LWPOLYLINE
  5
63
330
43F
100
AcDbEntity
  8
GAIKEI
 62
     1
100
AcDbPolyline
 90
      199
 70
     1
 43
0.0
 10
171.218814867743
 20
194.4127855788798
 10
171.217982687988
 20
194.4500694588245
 10
171.2154869782578
 20
194.4873161733868
 10
171.2113302263301
 20
194.5244885942316
 10
171.2055165757458
 20
194.5615496670815
 10
171.1980518216781
 20
194.5984624486529
 10
171.1889434051561
 20
194.6351901434826
 10
171.1782004056477
 20
194.6716961406054
 10
171.1658335320083
 20
194.7079440500496
 10
171.1518551118065
 20
194.7438977391108
 10
171.1362790790355
 20
194.7795213683698
 10
171.1191209602238
 20
194.8147794274181
 10
171.1003978589571
 20
194.8496367702558
 10
171.08012843883
 20
194.8840586503254
 10
171.0583329048412
 20
194.9180107551484
 10
171.0350329832531
 20
194.9514592405282
 10
171.0102518999343
 20
194.9843707642871
 10
170.9840143572075
 20
195.0167125195026
 10
170.9563465092259
 20
195.0484522672097
 10
170.9272759359021
 20
195.0795583685376
 10
170.8968316154157
 20
195.1099998162481
 10
170.8650438953275
 20
195.139746265644
 10
170.8319444623285
 20
195.1687680648176
 10
170.7975663106529
 20
195.1970362842084
 10
170.7619437091902
 20
195.2245227454405
 10
170.7251121673241
 20
195.2512000494116
 10
170.6871083995365
 20
195.2770416036049
 10
170.64797028881
 20
195.3020216485972
 10
170.6077368488641
 20
195.3261152837364
 10
170.5664481852669
 20
195.3492984919631
 10
170.5241454554562
 20
195.371548163751
 10
170.480870827713
 20
195.3928421201435
 10
170.4366674391274
 20
195.4131591348618
 10
170.3915793525984
 20
195.4324789554636
 10
170.3456515129115
 20
195.4507823235318
 10
170.2989297019357
 20
195.4680509938709
 10
170.2514604929885
 20
195.4842677526948
 10
170.2032912044097
 20
195.4994164347856
 10
170.1544698523937
 20
195.5134819396075
 10
170.105045103126
 20
195.5264502463596
 10
170.0550662242715
 20
195.5383084279515
 10
170.0045830358635
 20
195.5490446638899
 10
169.9536458606422
 20
195.5586482520615
 10
169.9023054738915
 20
195.5671096194006
 10
169.8506130528256
 20
195.5744203314321
 10
169.798620125574
 20
195.5805731006797
 10
169.7463785198171
 20
195.5855617939289
 10
169.6939403111239
 20
195.5893814383416
 10
169.6413577710411
 20
195.5920282264137
 10
169.5886833149883
 20
195.5934995197688
 10
169.5359694500087
 20
195.5937938517898
 10
169.4832687224293
 20
195.5929109290803
 10
169.4306336654817
 20
195.5908516317568
 10
169.3781167469351
 20
195.5876180125715
 10
169.3257703167961
 20
195.5832132948664
 10
169.2736465551248
 20
195.5776418693602
 10
169.2217974200203
 20
195.5709092897706
 10
169.170274595828
 20
195.5630222672796
 10
169.1191294416197
 20
195.5539886638425
 10
169.0684129399973
 20
195.543817484352
 10
169.0181756462727
 20
195.5325188676607
 10
168.9684676380727
 20
195.5201040764756
 10
168.9193384654209
 20
195.5065854861306
 10
168.8708371013451
 20
195.4919765722504
 10
168.8230118930599
 20
195.476291897318
 10
168.7759105137728
 20
195.4595470961589
 10
168.7295799151632
 20
195.4417588603546
 10
168.6840662805793
 20
195.4229449216057
 10
168.6394149790018
 20
195.4031240340551
 10
168.5956705198192
 20
195.3823159555952
 10
168.5528765084599
 20
195.3605414281705
 10
168.5110756029249
 20
195.3378221571039
 10
168.470309471266
 20
195.3141807894587
 10
168.4306187500499
 20
195.2896408914644
 10
168.3920430038505
 20
195.2642269250249
 10
168.3546206858105
 20
195.2379642233348
 10
168.3183890993106
 20
195.2108789656262
 10
168.2833843607842
 20
195.182998151073
 10
168.2496413637157
 20
195.1543495718775
 10
168.2171937438585
 20
195.1249617855665
 10
168.1860738457058
 20
195.0948640865246
 10
168.1563126902488
 20
195.0640864767926
 10
168.1279399440545
 20
195.0326596361613
 10
168.1009838896934
 20
195.0006148915889
 10
168.0754713975466
 20
194.9679841859737
 10
168.0514278990212
 20
194.9348000463127
 10
168.0288773611994
 20
194.9010955512779
 10
168.0078422629478
 20
194.8669042982431
 10
167.9883435725096
 20
194.8322603697928
 10
167.9704007266037
 20
194.7971982997483
 10
167.954031611049
 20
194.7617530387436
 10
167.9392525429358
 20
194.7259599193857
 10
167.9260782543608
 20
194.6898546210343
 10
167.9145218777412
 20
194.6534731342362
 10
167.9045949327246
 20
194.6168517248485
 10
167.8963073147057
 20
194.5800268978885
 10
167.8896672849623
 20
194.5430353611446
 10
167.8846814624206
 20
194.5059139885851
 10
167.8813548170568
 20
194.4686997836015
 10
167.8796906649434
 20
194.4314298421226
 10
167.8796906649434
 20
194.3941413156366
 10
167.8813548170568
 20
194.3568713741578
 10
167.8846814624206
 20
194.3196571691742
 10
167.8896672849624
 20
194.2825357966148
 10
167.8963073147058
 20
194.2455442598709
 10
167.9045949327246
 20
194.2087194329108
 10
167.9145218777413
 20
194.1720980235231
 10
167.9260782543609
 20
194.135716536725
 10
167.9392525429359
 20
194.0996112383736
 10
167.9540316110491
 20
194.0638181190157
 10
167.9704007266038
 20
194.028372858011
 10
167.9883435725098
 20
193.9933107879665
 10
168.0078422629479
 20
193.9586668595161
 10
168.0288773611996
 20
193.9244756064814
 10
168.0514278990214
 20
193.8907711114466
 10
168.0754713975468
 20
193.8575869717856
 10
168.1009838896936
 20
193.8249562661703
 10
168.1279399440548
 20
193.7929115215981
 10
168.1563126902491
 20
193.7614846809668
 10
168.1860738457062
 20
193.7307070712348
 10
168.2171937438589
 20
193.7006093721929
 10
168.249641363716
 20
193.6712215858819
 10
168.2833843607846
 20
193.6425730066865
 10
168.318389099311
 20
193.6146921921333
 10
168.3546206858109
 20
193.5876069344247
 10
168.3920430038508
 20
193.5613442327344
 10
168.4306187500501
 20
193.5359302662951
 10
168.4703094712664
 20
193.5113903683008
 10
168.5110756029253
 20
193.4877490006556
 10
168.5528765084602
 20
193.465029729589
 10
168.5956705198196
 20
193.4432552021644
 10
168.6394149790021
 20
193.4224471237043
 10
168.6840662805796
 20
193.4026262361539
 10
168.7295799151635
 20
193.3838122974049
 10
168.7759105137732
 20
193.3660240616007
 10
168.8230118930602
 20
193.3492792604414
 10
168.8708371013455
 20
193.3335945855091
 10
168.9193384654213
 20
193.3189856716289
 10
168.968467638073
 20
193.3054670812839
 10
169.018175646273
 20
193.2930522900988
 10
169.0684129399976
 20
193.2817536734076
 10
169.1191294416199
 20
193.271582493917
 10
169.1702745958283
 20
193.26254889048
 10
169.2217974200205
 20
193.254661867989
 10
169.273646555125
 20
193.2479292883994
 10
169.3257703167963
 20
193.242357862893
 10
169.3781167469353
 20
193.237953145188
 10
169.4306336654819
 20
193.2347195260028
 10
169.4832687224295
 20
193.2326602286792
 10
169.5359694500089
 20
193.2317773059697
 10
169.5886833149885
 20
193.2320716379908
 10
169.6413577710413
 20
193.2335429313459
 10
169.6939403111241
 20
193.2361897194178
 10
169.7463785198174
 20
193.2400093638307
 10
169.7986201255742
 20
193.2449980570798
 10
169.8506130528259
 20
193.2511508263273
 10
169.9023054738918
 20
193.258461538359
 10
169.9536458606424
 20
193.2669229056981
 10
170.0045830358637
 20
193.2765264938697
 10
170.0550662242717
 20
193.287262729808
 10
170.1050451031262
 20
193.2991209114
 10
170.1544698523939
 20
193.312089218152
 10
170.2032912044099
 20
193.326154722974
 10
170.2514604929887
 20
193.3413034050648
 10
170.2989297019358
 20
193.3575201638887
 10
170.3456515129116
 20
193.3747888342278
 10
170.3915793525986
 20
193.393092202296
 10
170.4366674391276
 20
193.4124120228979
 10
170.4808708277131
 20
193.4327290376161
 10
170.5241454554563
 20
193.4540229940086
 10
170.566448185267
 20
193.4762726657966
 10
170.6077368488642
 20
193.4994558740233
 10
170.6479702888101
 20
193.5235495091625
 10
170.6871083995368
 20
193.5485295541548
 10
170.7251121673242
 20
193.5743711083482
 10
170.7619437091903
 20
193.6010484123192
 10
170.797566310653
 20
193.6285348735513
 10
170.8319444623286
 20
193.6568030929421
 10
170.8650438953277
 20
193.6858248921156
 10
170.8968316154158
 20
193.7155713415116
 10
170.9272759359021
 20
193.746012789222
 10
170.9563465092259
 20
193.7771188905499
 10
170.9840143572075
 20
193.8088586382571
 10
171.0102518999344
 20
193.8412003934726
 10
171.0350329832532
 20
193.8741119172315
 10
171.0583329048413
 20
193.9075604026113
 10
171.08012843883
 20
193.9415125074342
 10
171.1003978589571
 20
193.9759343875039
 10
171.1191209602239
 20
194.0107917303416
 10
171.1362790790357
 20
194.0460497893899
 10
171.1518551118066
 20
194.0816734186489
 10
171.1658335320083
 20
194.11762710771
 10
171.1782004056477
 20
194.1538750171543
 10
171.1889434051562
 20
194.190381014277
 10
171.1980518216781
 20
194.2271087091068
 10
171.2055165757459
 20
194.2640214906782
 10
171.2113302263301
 20
194.3010825635281
 10
171.2154869782578
 20
194.3382549843729
 10
171.217982687988
 20
194.3755016989352
  0
LWPOLYLINE
  5
64
330
43F
100
AcDbEntity
  8
GAIKEI
 62
     1
100
AcDbPolyline
 90
      199
 70
     1
 43
0.0
 10
171.4492029301221
 20
194.4480429887704
 10
171.4482559224516
 20
194.4902991098823
 10
171.4454158434379
 20
194.5325131091738
 10
171.4406855241336
 20
194.5746429068121
 10
171.4340696798237
 20
194.6166465068991
 10
171.4255749053258
 20
194.6584820393324
 10
171.4152096684158
 20
194.7001078015435
 10
171.4029843013873
 20
194.7414823000674
 10
171.3889109907521
 20
194.7825642919042
 10
171.3730037650922
 20
194.823312825631
 10
171.3552784810761
 20
194.8636872822232
 10
171.3357528076525
 20
194.9036474155444
 10
171.3144462084371
 20
194.9431533924646
 10
171.2913799223116
 20
194.9821658325669
 10
171.2665769422515
 20
195.0206458474027
 10
171.2400619924067
 20
195.0585550792562
 10
171.211861503456
 20
195.0958557393807
 10
171.1820035862599
 20
195.1325106456669
 10
171.1505180038397
 20
195.1684832597072
 10
171.1174361417087
 20
195.2037377232175
 10
171.0827909765865
 20
195.238238893782
 10
171.0466170435272
 20
195.2719523798834
 10
171.0089504014939
 20
195.3048445751857
 10
170.9698285974146
 20
195.3368826920332
 10
170.9292906287543
 20
195.3680347941343
 10
170.8873769046419
 20
195.3982698283962
 10
170.844129205589
 20
195.4275576558791
 10
170.7995906418427
 20
195.4558690818398
 10
170.7538056104118
 20
195.483175884833
 10
170.7068197508114
 20
195.5094508448437
 10
170.6586798995682
 20
195.5346677704203
 10
170.6094340435329
 20
195.558801524783
 10
170.5591312720456
 20
195.5818280508807
 10
170.5078217280032
 20
195.6037243953711
 10
170.4555565578748
 20
195.6244687315024
 10
170.4023878607186
 20
195.6440403808686
 10
170.3483686362484
 20
195.6624198340243
 10
170.2935527320019
 20
195.6795887699308
 10
170.2379947896644
 20
195.6955300742194
 10
170.1817501906014
 20
195.7102278562513
 10
170.124875000652
 20
195.7236674649577
 10
170.0674259142429
 20
195.7358355034445
 10
170.0094601978725
 20
195.7467198423462
 10
169.9510356330277
 20
195.756309631917
 10
169.8922104585851
 20
195.7645953128461
 10
169.8330433127581
 20
195.7715686257869
 10
169.7735931746443
 20
195.777222619589
 10
169.7139193054344
 20
195.7815516582286
 10
169.6540811893388
 20
195.7845514264257
 10
169.5941384742931
 20
195.7862189339463
 10
169.5341509124991
 20
195.7865525185826
 10
169.4741783008633
 20
195.7855518478101
 10
169.4142804213891
 20
195.7832179191192
 10
169.3545169815852
 20
195.7795530590209
 10
169.2949475549484
 20
195.7745609207273
 10
169.2356315215784
 20
195.7682464805104
 10
169.1766280089875
 20
195.7606160327417
 10
169.1179958331601
 20
195.7516771836174
 10
169.0597934399242
 20
195.7414388435767
 10
169.0020788466911
 20
195.7299112184195
 10
168.9449095846225
 20
195.7171057991334
 10
168.8883426412822
 20
195.7030353504388
 10
168.8324344038296
 20
195.687713898065
 10
168.7772406028114
 20
195.6711567147688
 10
168.722816256609
 20
195.6533803051107
 10
168.6692156165942
 20
195.6344023890025
 10
168.6164921130507
 20
195.6142418840435
 10
168.5646983019135
 20
195.5929188866637
 10
168.5138858123798
 20
195.5704546520904
 10
168.4641052954443
 20
195.5468715731614
 10
168.4154063734089
 20
195.5221931580025
 10
168.3678375904182
 20
195.4964440065946
 10
168.3214463640695
 20
195.4696497862519
 10
168.2762789381461
 20
195.441837206036
 10
168.2323803365206
 20
195.4130339901315
 10
168.1897943182737
 20
195.3832688502107
 10
168.1485633340745
 20
195.3525714568121
 10
168.1087284838649
 20
195.3209724097654
 10
168.0703294758897
 20
195.2885032076875
 10
168.0334045871152
 20
195.2551962165854
 10
167.9979906250735
 20
195.2210846375921
 10
167.9641228911723
 20
195.1862024738715
 10
167.9318351455052
 20
195.1505844967228
 10
167.9011595731992
 20
195.1142662109204
 10
167.872126752332
 20
195.0772838193214
 10
167.8447656234508
 20
195.039674186778
 10
167.8191034607239
 20
195.0014748033898
 10
167.7951658447532
 20
194.9627237471329
 10
167.7729766370749
 20
194.9234596459031
 10
167.7525579563738
 20
194.8837216390102
 10
167.7339301564348
 20
194.8435493381636
 10
167.7171118058541
 20
194.8029827879869
 10
167.7021196695292
 20
194.762062426099
 10
167.6889686919477
 20
194.7208290428069
 10
167.6776719822901
 20
194.6793237404436
 10
167.6682408013621
 20
194.6375878923973
 10
167.6606845503702
 20
194.5956631018688
 10
167.6550107615495
 20
194.5535911604012
 10
167.6512250906562
 20
194.5114140062208
 10
167.6493313113293
 20
194.4691736824319
 10
167.6493313113293
 20
194.4269122951081
 10
167.6512250906562
 20
194.3846719713192
 10
167.6550107615495
 20
194.3424948171387
 10
167.6606845503702
 20
194.3004228756712
 10
167.6682408013622
 20
194.2584980851426
 10
167.6776719822901
 20
194.2167622370964
 10
167.6889686919478
 20
194.1752569347331
 10
167.7021196695293
 20
194.134023551441
 10
167.7171118058542
 20
194.0931031895532
 10
167.733930156435
 20
194.0525366393763
 10
167.752557956374
 20
194.0123643385298
 10
167.7729766370751
 20
193.972626331637
 10
167.7951658447534
 20
193.9333622304071
 10
167.8191034607241
 20
193.8946111741503
 10
167.844765623451
 20
193.8564117907621
 10
167.8721267523322
 20
193.8188021582187
 10
167.9011595731995
 20
193.7818197666197
 10
167.9318351455054
 20
193.7455014808173
 10
167.9641228911726
 20
193.7098835036686
 10
167.9979906250738
 20
193.675001339948
 10
168.0334045871154
 20
193.6408897609547
 10
168.0703294758899
 20
193.6075827698527
 10
168.1087284838651
 20
193.5751135677748
 10
168.1485633340749
 20
193.543514520728
 10
168.1897943182741
 20
193.5128171273295
 10
168.232380336521
 20
193.4830519874086
 10
168.2762789381465
 20
193.4542487715042
 10
168.3214463640699
 20
193.4264361912883
 10
168.3678375904186
 20
193.3996419709456
 10
168.4154063734093
 20
193.3738928195378
 10
168.4641052954447
 20
193.3492144043789
 10
168.5138858123802
 20
193.3256313254499
 10
168.5646983019139
 20
193.3031670908767
 10
168.6164921130512
 20
193.2818440934968
 10
168.6692156165946
 20
193.2616835885379
 10
168.7228162566094
 20
193.2427056724296
 10
168.7772406028118
 20
193.2249292627716
 10
168.83243440383
 20
193.2083720794754
 10
168.8883426412826
 20
193.1930506271016
 10
168.9449095846229
 20
193.178980178407
 10
169.0020788466915
 20
193.1661747591209
 10
169.0597934399245
 20
193.1546471339638
 10
169.1179958331604
 20
193.1444087939231
 10
169.1766280089878
 20
193.1354699447987
 10
169.2356315215788
 20
193.12783949703
 10
169.2949475549487
 20
193.1215250568132
 10
169.3545169815855
 20
193.1165329185196
 10
169.4142804213894
 20
193.1128680584212
 10
169.4741783008636
 20
193.1105341297304
 10
169.5341509124995
 20
193.1095334589579
 10
169.5941384742934
 20
193.1098670435941
 10
169.6540811893391
 20
193.1115345511147
 10
169.7139193054345
 20
193.1145343193119
 10
169.7735931746446
 20
193.1188633579515
 10
169.8330433127584
 20
193.1245173517535
 10
169.8922104585854
 20
193.1314906646943
 10
169.9510356330279
 20
193.1397763456236
 10
170.0094601978728
 20
193.1493661351943
 10
170.0674259142431
 20
193.1602504740961
 10
170.1248750006523
 20
193.1724185125828
 10
170.1817501906016
 20
193.1858581212893
 10
170.2379947896646
 20
193.2005559033212
 10
170.293552732002
 20
193.2164972076098
 10
170.3483686362486
 20
193.2336661435163
 10
170.4023878607188
 20
193.252045596672
 10
170.4555565578749
 20
193.2716172460383
 10
170.5078217280033
 20
193.2923615821694
 10
170.5591312720458
 20
193.31425792666
 10
170.609434043533
 20
193.3372844527576
 10
170.6586798995683
 20
193.3614182071204
 10
170.7068197508114
 20
193.386635132697
 10
170.7538056104118
 20
193.4129100927077
 10
170.7995906418426
 20
193.4402168957009
 10
170.844129205589
 20
193.4685283216615
 10
170.8873769046418
 20
193.4978161491445
 10
170.9292906287542
 20
193.5280511834064
 10
170.9698285974145
 20
193.5592032855075
 10
171.0089504014938
 20
193.591241402355
 10
171.0466170435271
 20
193.6241335976573
 10
171.0827909765864
 20
193.6578470837587
 10
171.1174361417086
 20
193.6923482543232
 10
171.1505180038396
 20
193.7276027178335
 10
171.1820035862598
 20
193.7635753318738
 10
171.2118615034558
 20
193.8002302381601
 10
171.2400619924065
 20
193.8375308982845
 10
171.2665769422513
 20
193.875440130138
 10
171.2913799223114
 20
193.9139201449737
 10
171.3144462084369
 20
193.9529325850761
 10
171.3357528076522
 20
193.9924385619963
 10
171.3552784810759
 20
194.0323986953175
 10
171.3730037650919
 20
194.0727731519096
 10
171.3889109907518
 20
194.1135216856364
 10
171.402984301387
 20
194.1546036774731
 10
171.4152096684155
 20
194.1959781759971
 10
171.4255749053254
 20
194.2376039382082
 10
171.4340696798233
 20
194.2794394706415
 10
171.4406855241332
 20
194.3214430707284
 10
171.4454158434376
 20
194.3635728683668
 10
171.4482559224513
 20
194.4057868676583
  0
LINE
  5
65
330
43F
100
AcDbEntity
  8
GAIKEI
 62
     1
100
AcDbLine
 10
166.9993887284065
 20
195.750314611643
 30
0.0
 11
166.8490726417711
 21
193.0814937281347
 31
0.0
  0
ARC
  5
66
330
43F
100
AcDbEntity
  8
GAIKEI
 62
     1
100
AcDbCircle
 10
167.1491475805061
 20
193.1628288845145
 30
0.0
 40
0.1
100
AcDbArc
 50
179.9999999999935
 51
244.6187895369139
  0
ARC
  5
67
330
43F
100
AcDbEntity
  8
GAIKEI
 62
     1
100
AcDbCircle
 10
171.9492191963004
 20
193.1628593688473
 30
0.0
 40
0.1
100
AcDbArc
 50
295.3858881455356
 51
0.0000000000162844
  0
LINE
  5
68
330
43F
100
AcDbEntity
  8
GAIKEI
 62
     1
100
AcDbLine
 10
172.0989087463776
 20
195.750314611643
 30
0.0
 11
172.249224833013
 21
193.0814937281347
 31
0.0
  0
LWPOLYLINE
  5
69
330
43F
100
AcDbEntity
  8
GAIKEI
 62
     1
100
AcDbPolyline
 90
       17
 70
     0
 43
0.0
 10
205.8294854362317
 20
193.072481293618
 10
206.1221549525556
 20
192.9435459314709
 10
206.4199083501695
 20
192.8318022341422
 10
206.7220188946973
 20
192.737250201632
 10
207.0277598517633
 20
192.6598898339402
 10
207.3364044869915
 20
192.5997211310669
 10
207.6472260660063
 20
192.556744093012
 10
207.9594978544316
 20
192.5309587197756
 10
208.2724931178917
 20
192.5223650113577
 10
208.5854851220107
 20
192.5309629677581
 10
208.8977471324127
 20
192.5567525889771
 10
209.2085524147219
 20
192.5997338750145
 10
209.5171742345624
 20
192.6599068258703
 10
209.8228858575584
 20
192.7372714415446
 10
210.124960549334
 20
192.8318277220374
 10
210.4226715755134
 20
192.9435756673485
 10
210.7152922017207
 20
193.0725152774781
  0
ARC
  5
6A
330
43F
100
AcDbEntity
  8
GAIKEI
 62
     1
100
AcDbCircle
 10
208.2724890842838
 20
202.1115119941697
 30
0.0
 40
7.917304994011889
100
AcDbArc
 50
251.5935770045405
 51
288.4064229954594
  0
ARC
  5
6B
330
43F
100
AcDbEntity
  8
GAIKEI
 62
     1
100
AcDbCircle
 10
205.872349323353
 20
193.1628288845145
 30
0.0
 40
0.1
100
AcDbArc
 50
179.9999999999935
 51
244.6187895369139
  0
LINE
  5
6C
330
43F
100
AcDbEntity
  8
GAIKEI
 62
     1
100
AcDbLine
 10
205.7225904712533
 20
195.750314611643
 30
0.0
 11
205.572274384618
 21
193.0814937281347
 31
0.0
  0
LINE
  5
6D
330
43F
100
AcDbEntity
  8
GAIKEI
 62
     1
100
AcDbLine
 10
210.8221104892245
 20
195.750314611643
 30
0.0
 11
210.9724265758599
 21
193.0814937281347
 31
0.0
  0
ARC
  5
6E
330
43F
100
AcDbEntity
  8
GAIKEI
 62
     1
100
AcDbCircle
 10
210.6724209391472
 20
193.1628593688473
 30
0.0
 40
0.1
100
AcDbArc
 50
295.3858881455356
 51
0.0000000000162844
  0
LWPOLYLINE
  5
6F
330
43F
100
AcDbEntity
  8
GAIKEI
100
AcDbPolyline
 90
        9
 70
     0
 43
0.0
 10
175.726938922242
 20
206.5455599464898
 10
175.7906194948669
 20
206.2598679086557
 10
175.8589300381529
 20
205.9753006751306
 10
175.9318486245071
 20
205.691917531629
 10
176.0093533263364
 20
205.4097777638653
 10
176.0914222160479
 20
205.1289406575541
 10
176.1780333660484
 20
204.8494654984099
 10
176.269164848745
 20
204.571411572147
 10
176.3647947365446
 20
204.29483816448
  0
LINE
  5
70
330
43F
100
AcDbEntity
  8
GAIKEI
 62
     1
100
AcDbLine
 10
179.0113696709333
 20
213.6718869122428
 30
0.0
 11
160.0877594281199
 21
213.6718869122428
 31
0.0
  0
LINE
  5
71
330
43F
100
AcDbEntity
  8
GAIKEI
100
AcDbLine
 10
163.0030183033641
 20
213.2719449408399
 30
0.0
 11
176.9495652018278
 21
213.2719449408399
 31
0.0
  0
LINE
  5
72
330
43F
100
AcDbEntity
  8
GAIKEI
 62
     1
100
AcDbLine
 10
177.10722730284
 20
199.106472953542
 30
0.0
 11
161.9914859840786
 21
199.106472953542
 31
0.0
  0
LINE
  5
73
330
43F
100
AcDbEntity
  8
GAIKEI
 62
     1
100
AcDbLine
 10
177.2244863247797
 20
200.6721442441215
 30
0.0
 11
161.8742269621389
 21
200.6721442441215
 31
0.0
  0
LINE
  5
74
330
43F
100
AcDbEntity
  8
GAIKEI
 62
     1
100
AcDbLine
 10
161.8243988080168
 20
200.5221746675983
 30
0.0
 11
177.2743837809243
 21
200.5221746675983
 31
0.0
  0
LINE
  5
75
330
43F
100
AcDbEntity
  8
GAIKEI
 62
     1
100
AcDbLine
 10
177.2244863247797
 20
200.3723436951198
 30
0.0
 11
161.8742269621389
 21
200.3723436951198
 31
0.0
  0
LINE
  5
76
330
43F
100
AcDbEntity
  8
GAIKEI
100
AcDbLine
 10
176.8672343991893
 20
198.9921246165442
 30
0.0
 11
176.0992293866981
 21
198.9921246165442
 31
0.0
  0
LINE
  5
77
330
43F
100
AcDbEntity
  8
GAIKEI
100
AcDbLine
 10
179.0499708974229
 20
214.77184861214
 30
0.0
 11
160.0495740137648
 21
214.77184861214
 31
0.0
  0
LINE
  5
78
330
43F
100
AcDbEntity
  8
GAIKEI
100
AcDbLine
 10
176.9490107856484
 20
213.2719449408399
 30
0.0
 11
176.1273743478908
 21
213.2719449408399
 31
0.0
  0
DIMENSION
  5
79
330
43F
100
AcDbEntity
  8
SUNPO
100
AcDbDimension
  2
*D6
 10
179.0499708974229
 20
222.77184861214
 30
0.0
 11
169.5497724555938
 21
224.52184861214
 31
0.0
 70
    33
  1
φ190
 71
     5
 42
19.00039688365808
  3
STANDARD
100
AcDbAlignedDimension
 13
160.0495740137648
 23
214.77184861214
 33
0.0
 14
179.0499708974229
 24
214.77184861214
 34
0.0
1001
ACAD
1000
DSTYLE
1002
{
1070
    40
1040
1.0
1070
   140
1040
2.5
1070
   147
1040
0.5
1070
   172
1070
     1
1070
   279
1070
     0
1070
   343
1005
453
1070
   344
1005
453
1002
}
  0
LINE
  5
86
330
43F
100
AcDbEntity
  8
GAIKEI
100
AcDbLine
 10
163.0681309345416
 20
213.1959776209185
 30
0.0
 11
163.2899621391695
 21
212.2999902280309
 31
0.0
  0
LINE
  5
87
330
43F
100
AcDbEntity
  8
GAIKEI
100
AcDbLine
 10
176.0303051442872
 20
213.1959776209185
 30
0.0
 11
175.8084739396594
 21
212.2999902280309
 31
0.0
  0
LINE
  5
88
330
43F
100
AcDbEntity
  8
GAIKEI
 62
     1
100
AcDbLine
 10
169.5533698342887
 20
212.2620065680701
 30
0.0
 11
169.5533698342887
 21
214.77184861214
 31
0.0
  0
LINE
  5
89
330
43F
100
AcDbEntity
  8
GAIKEI
100
AcDbLine
 10
175.768242927606
 20
212.2620065680701
 30
0.0
 11
163.3384967409713
 21
212.2620065680701
 31
0.0
  0
LINE
  5
8A
330
43F
100
AcDbEntity
  8
GAIKEI
100
AcDbLine
 10
163.5493261461243
 20
208.2419348513591
 30
0.0
 11
175.5491099327047
 21
208.2419348513591
 31
0.0
  0
LINE
  5
8B
330
43F
100
AcDbEntity
  8
GAIKEI
 62
     1
100
AcDbLine
 10
168.0492450660919
 20
198.9921246165442
 30
0.0
 11
162.2318946998638
 21
198.9921246165442
 31
0.0
  0
LWPOLYLINE
  5
8C
330
43F
100
AcDbEntity
  8
GAIKEI
100
AcDbPolyline
 90
        9
 70
     0
 43
0.0
 10
162.7337799462509
 20
204.2948381642594
 10
162.8294979504928
 20
204.5714115719252
 10
162.9206875007079
 20
204.8494654981869
 10
163.0073291057024
 20
205.12894065733
 10
163.0894032742824
 20
205.4097777636401
 10
163.1668905152543
 20
205.6919175314027
 10
163.2397713374241
 20
205.9753006749034
 10
163.3080262495983
 20
206.2598679084276
 10
163.3716357605828
 20
206.5455599462609
  0
LWPOLYLINE
  5
8D
330
43F
100
AcDbEntity
  8
GAIKEI
100
AcDbPolyline
 90
        9
 70
     0
 43
0.0
 10
162.7337799462509
 20
204.2948381642594
 10
162.5475643291563
 20
203.742130712866
 10
162.3794300428495
 20
203.1837708152688
 10
162.2294745432996
 20
202.6202912307652
 10
162.0977952864754
 20
202.0522247186526
 10
162.0362897415806
 20
201.7349449002148
 10
161.9876743728538
 20
201.415599015234
 10
161.952001156812
 20
201.0945638934568
 10
161.9293220699719
 20
200.7722163646302
  0
LWPOLYLINE
  5
8E
330
43F
100
AcDbEntity
  8
GAIKEI
100
AcDbPolyline
 90
       17
 70
     0
 43
0.0
 10
161.9480336160194
 20
199.1394607162154
 10
161.9484011062359
 20
199.1341505841033
 10
161.9491576081954
 20
199.1289387200932
 10
161.9502909399017
 20
199.1238421789798
 10
161.9517889193588
 20
199.1188780155576
 10
161.9536393645705
 20
199.1140632846214
 10
161.9558300935406
 20
199.1094150409654
 10
161.9583489242731
 20
199.1049503393845
 10
161.9611836747718
 20
199.1006862346731
 10
161.9643221630406
 20
199.0966397816256
 10
161.9677522070834
 20
199.0928280350371
 10
161.971461624904
 20
199.0892680497017
 10
161.9754382345064
 20
199.0859768804142
 10
161.9796698538943
 20
199.0829715819691
 10
161.9841443010717
 20
199.080269209161
 10
161.9888493940425
 20
199.0778868167845
 10
161.9937729508105
 20
199.0758414596341
  0
LINE
  5
8F
330
43F
100
AcDbEntity
  8
GAIKEI
100
AcDbLine
 10
162.2076389920158
 20
198.996698550024
 30
0.0
 11
162.2318946998638
 21
198.9921246165442
 31
0.0
  0
LINE
  5
90
330
43F
100
AcDbEntity
  8
GAIKEI
 62
     1
100
AcDbLine
 10
162.9993452961756
 20
198.9921246165442
 30
0.0
 11
162.9993452961756
 21
197.5369207497068
 31
0.0
  0
LINE
  5
91
330
43F
100
AcDbEntity
  8
GAIKEI
 62
     1
100
AcDbLine
 10
162.9993452961756
 20
197.5369207497068
 30
0.0
 11
163.0108494318979
 21
197.4544513430235
 31
0.0
  0
LINE
  5
92
330
43F
100
AcDbEntity
  8
GAIKEI
100
AcDbLine
 10
161.9937729508185
 20
199.075841459631
 30
0.0
 11
162.2076389920158
 21
198.996698550024
 31
0.0
  0
LWPOLYLINE
  5
93
330
43F
100
AcDbEntity
  8
GAIKEI
100
AcDbPolyline
 90
        3
 70
     0
 43
0.0
 10
161.8742269621389
 20
200.6721442441215
 10
161.8243988080168
 20
200.5221746675983
 10
161.8742269621389
 20
200.3723436951198
  0
LINE
  5
94
330
43F
100
AcDbEntity
  8
GAIKEI
100
AcDbLine
 10
161.9250253445749
 20
200.6721442441215
 30
0.0
 11
161.9293220699652
 21
200.7722163645003
 31
0.0
  0
LINE
  5
95
330
43F
100
AcDbEntity
  8
GAIKEI
100
AcDbLine
 10
161.9194118807586
 20
200.3723436951198
 30
0.0
 11
161.9480336160194
 21
199.1394607162153
 31
0.0
  0
LWPOLYLINE
  5
96
330
43F
100
AcDbEntity
  8
GAIKEI
100
AcDbPolyline
 90
        9
 70
     0
 43
0.0
 10
163.3716357606318
 20
206.5455599464898
 10
163.4131758260059
 20
206.752684606364
 10
163.4492193747276
 20
206.9607212916816
 10
163.4797534126679
 20
207.1695619887435
 10
163.5047649456975
 20
207.3790986838509
 10
163.5242409796871
 20
207.5892233633046
 10
163.5381685205075
 20
207.7998280134058
 10
163.5465345740297
 20
208.0108046204554
 10
163.5493261461243
 20
208.2220451707546
  0
LINE
  5
97
330
43F
100
AcDbEntity
  8
GAIKEI
100
AcDbLine
 10
163.5155067591819
 20
212.2620065680701
 30
0.0
 11
163.5494934707011
 21
208.2220451709236
 31
0.0
  0
ARC
  5
98
330
43F
100
AcDbEntity
  8
GAIKEI
100
AcDbCircle
 10
163.3384967409713
 20
212.3120065680701
 30
0.0
 40
0.05
100
AcDbArc
 50
193.9058292051177
 51
270.0
  0
LINE
  5
99
330
43F
100
AcDbEntity
  8
GAIKEI
 62
     1
100
AcDbLine
 10
171.0490524086921
 20
198.7222625412291
 30
0.0
 11
168.0492450660919
 21
198.7222625412291
 31
0.0
  0
LINE
  5
9A
330
43F
100
AcDbEntity
  8
GAIKEI
 62
     1
100
AcDbLine
 10
166.9993887284065
 20
198.5222569045165
 30
0.0
 11
172.0991859544673
 21
198.5222569045165
 31
0.0
  0
LINE
  5
9B
330
43F
100
AcDbEntity
  8
GAIKEI
 62
     1
100
AcDbLine
 10
171.0490524086921
 20
198.9921246165442
 30
0.0
 11
168.0492450660919
 21
198.9921246165442
 31
0.0
  0
LINE
  5
9C
330
43F
100
AcDbEntity
  8
GAIKEI
 62
     1
100
AcDbLine
 10
168.0492450660919
 20
198.7222625412291
 30
0.0
 11
168.0492450660919
 21
198.8223346616079
 31
0.0
  0
LINE
  5
9D
330
43F
100
AcDbEntity
  8
GAIKEI
 62
     1
100
AcDbLine
 10
166.9993887284065
 20
198.8223346616079
 30
0.0
 11
166.9993887284065
 21
198.5222569045165
 31
0.0
  0
LINE
  5
9E
330
43F
100
AcDbEntity
  8
GAIKEI
 62
     1
100
AcDbLine
 10
166.9993887284065
 20
198.8223346616079
 30
0.0
 11
168.0492450660919
 21
198.8223346616079
 31
0.0
  0
LINE
  5
9F
330
43F
100
AcDbEntity
  8
GAIKEI
 62
     1
100
AcDbLine
 10
168.0492450660919
 20
198.8223346616079
 30
0.0
 11
168.0492450660919
 21
198.9921246165442
 31
0.0
  0
LINE
  5
A0
330
43F
100
AcDbEntity
  8
GAIKEI
 62
     1
100
AcDbLine
 10
172.0991859544673
 20
198.8223346616079
 30
0.0
 11
172.0991859544673
 21
198.5222569045165
 31
0.0
  0
LINE
  5
A1
330
43F
100
AcDbEntity
  8
GAIKEI
 62
     1
100
AcDbLine
 10
171.0490524086921
 20
198.9921246165442
 30
0.0
 11
171.0490524086921
 21
198.8223346616079
 31
0.0
  0
LINE
  5
A2
330
43F
100
AcDbEntity
  8
GAIKEI
 62
     1
100
AcDbLine
 10
171.0490524086921
 20
198.8223346616079
 30
0.0
 11
172.0991859544673
 21
198.8223346616079
 31
0.0
  0
LINE
  5
A3
330
43F
100
AcDbEntity
  8
GAIKEI
 62
     1
100
AcDbLine
 10
171.0490524086921
 20
198.8223346616079
 30
0.0
 11
171.0490524086921
 21
198.7222625412291
 31
0.0
  0
LINE
  5
A4
330
43F
100
AcDbEntity
  8
GAIKEI
 62
     1
100
AcDbLine
 10
176.0992293866981
 20
198.9921246165442
 30
0.0
 11
171.0490524086921
 21
198.9921246165442
 31
0.0
  0
LINE
  5
A5
330
43F
100
AcDbEntity
  8
GAIKEI
 62
     1
100
AcDbLine
 10
176.0992293866981
 20
198.9921246165442
 30
0.0
 11
176.0992293866981
 21
197.5369207497069
 31
0.0
  0
LINE
  5
A6
330
43F
100
AcDbEntity
  8
GAIKEI
 62
     1
100
AcDbLine
 10
176.0992293866981
 20
197.5369207497069
 30
0.0
 11
176.087586646931
 21
197.4544513430235
 31
0.0
  0
LWPOLYLINE
  5
A7
330
43F
100
AcDbEntity
  8
GAIKEI
100
AcDbPolyline
 90
        9
 70
     0
 43
0.0
 10
175.5491099327047
 20
208.2419348513591
 10
175.5518847207113
 20
208.0241291526353
 10
175.5602112504193
 20
207.808218972509
 10
175.5740927703611
 20
207.5940792424863
 10
175.5935325290689
 20
207.3815848940739
 10
175.618533775075
 20
207.1706108587781
 10
175.6490997569118
 20
206.9610320681055
 10
175.6852337231115
 20
206.7527234535623
 10
175.7269389222064
 20
206.5455599466552
  0
LINE
  5
A8
330
43F
100
AcDbEntity
  8
GAIKEI
100
AcDbLine
 10
175.5491099327047
 20
208.2419348513591
 30
0.0
 11
175.5828600176246
 21
212.2620065680702
 31
0.0
  0
ARC
  5
A9
330
43F
100
AcDbEntity
  8
GAIKEI
100
AcDbCircle
 10
175.7599393378576
 20
212.3120065680701
 30
0.0
 40
0.05
100
AcDbArc
 50
270.0
 51
346.0941707948824
  0
LINE
  5
AA
330
43F
100
AcDbEntity
  8
GAIKEI
100
AcDbLine
 10
160.0495740137648
 20
214.77184861214
 30
0.0
 11
160.0877594281199
 21
213.6718869122428
 31
0.0
  0
LINE
  5
AB
330
43F
100
AcDbEntity
  8
GAIKEI
100
AcDbLine
 10
160.0877594281199
 20
213.6718869122428
 30
0.0
 11
162.1494252931805
 21
213.2719449408399
 31
0.0
  0
LINE
  5
AC
330
43F
100
AcDbEntity
  8
GAIKEI
100
AcDbLine
 10
162.1494252931805
 20
213.2719449408399
 30
0.0
 11
162.971061730938
 21
213.2719449408399
 31
0.0
  0
ARC
  5
AD
330
43F
100
AcDbEntity
  8
GAIKEI
100
AcDbCircle
 10
162.971061730938
 20
213.1719449408399
 30
0.0
 40
0.1
100
AcDbArc
 50
13.90582920511764
 51
90.0
  0
ARC
  5
AE
330
43F
100
AcDbEntity
  8
GAIKEI
100
AcDbCircle
 10
176.1273743478908
 20
213.1719449408399
 30
0.0
 40
0.1
100
AcDbArc
 50
90.0
 51
166.0941707948823
  0
LINE
  5
AF
330
43F
100
AcDbEntity
  8
GAIKEI
100
AcDbLine
 10
198.8109611709667
 20
213.6718869122428
 30
0.0
 11
200.8726270360274
 21
213.2719449408399
 31
0.0
  0
LINE
  5
B0
330
43F
100
AcDbEntity
  8
GAIKEI
100
AcDbLine
 10
217.7731726402698
 20
214.77184861214
 30
0.0
 11
198.7727757566116
 21
214.77184861214
 31
0.0
  0
LINE
  5
B1
330
43F
100
AcDbEntity
  8
GAIKEI
 62
     1
100
AcDbLine
 10
217.7345714137802
 20
213.6718869122428
 30
0.0
 11
198.8109611709667
 21
213.6718869122428
 31
0.0
  0
LWPOLYLINE
  5
B2
330
43F
100
AcDbEntity
  8
GAIKEI
100
AcDbPolyline
 90
        9
 70
     0
 43
0.0
 10
177.0010566044881
 20
202.0522247186524
 10
176.9375013710678
 20
202.3367980431754
 10
176.8693535251079
 20
202.6202912307086
 10
176.7966268728704
 20
202.9026376863397
 10
176.7193352206178
 20
203.1837708151567
 10
176.6374923746123
 20
203.4636240222473
 10
176.5511121411161
 20
203.7421307126994
 10
176.4602083263916
 20
204.0192242916008
 10
176.364794736701
 20
204.2948381640394
  0
LWPOLYLINE
  5
B3
330
43F
100
AcDbEntity
  8
GAIKEI
100
AcDbPolyline
 90
        9
 70
     0
 43
0.0
 10
177.1693912169535
 20
200.7722163645003
 10
177.1597306233133
 20
200.9335306279359
 10
177.1468117517757
 20
201.0945638933275
 10
177.1306378508731
 20
201.2552690569568
 10
177.1112121691378
 20
201.4155990151054
 10
177.0885379551021
 20
201.5755066640549
 10
177.0626184572982
 20
201.7349449000871
 10
177.0334569242585
 20
201.8938666194835
 10
177.0010566045153
 20
202.0522247185259
  0
LWPOLYLINE
  5
B4
330
43F
100
AcDbEntity
  8
GAIKEI
100
AcDbPolyline
 90
       17
 70
     0
 43
0.0
 10
177.1049403361
 20
199.075841459631
 10
177.1098882906995
 20
199.0778868167809
 10
177.1146147360028
 20
199.0802692091569
 10
177.119107693047
 20
199.0829715819645
 10
177.1233551828691
 20
199.0859768804092
 10
177.1273452265065
 20
199.0892680496962
 10
177.1310658449963
 20
199.0928280350312
 10
177.1345050593755
 20
199.0966397816194
 10
177.1376508906814
 20
199.1006862346663
 10
177.140491359951
 20
199.1049503393775
 10
177.1430144882215
 20
199.1094150409581
 10
177.1452082965301
 20
199.1140632846138
 10
177.1470608059139
 20
199.1188780155498
 10
177.14856003741
 20
199.1238421789718
 10
177.1496940120556
 20
199.128938720085
 10
177.1504507508877
 20
199.1341505840948
 10
177.1508182749438
 20
199.1394607162068
  0
LINE
  5
B5
330
43F
100
AcDbEntity
  8
GAIKEI
100
AcDbLine
 10
177.2743837809242
 20
200.5221746675983
 30
0.0
 11
177.2244863247797
 21
200.3723436951198
 31
0.0
  0
LINE
  5
B6
330
43F
100
AcDbEntity
  8
GAIKEI
100
AcDbLine
 10
177.1795786142496
 20
200.3723436951198
 30
0.0
 11
177.1508182749441
 21
199.1394607162153
 31
0.0
  0
LINE
  5
B7
330
43F
100
AcDbEntity
  8
GAIKEI
100
AcDbLine
 10
177.1737572443661
 20
200.6721442441215
 30
0.0
 11
177.1693912169534
 21
200.7722163645003
 31
0.0
  0
LINE
  5
B8
330
43F
100
AcDbEntity
  8
GAIKEI
100
AcDbLine
 10
177.2244863247797
 20
200.6721442441215
 30
0.0
 11
177.2743837809242
 21
200.5221746675983
 31
0.0
  0
LINE
  5
B9
330
43F
100
AcDbEntity
  8
GAIKEI
100
AcDbLine
 10
177.1049403361
 20
199.075841459631
 30
0.0
 11
176.8913515029925
 21
198.996698550024
 31
0.0
  0
LINE
  5
BA
330
43F
100
AcDbEntity
  8
GAIKEI
100
AcDbLine
 10
179.0106766507091
 20
213.6718869122428
 30
0.0
 11
176.9490107856484
 21
213.2719449408399
 31
0.0
  0
LINE
  5
BB
330
43F
100
AcDbEntity
  8
GAIKEI
100
AcDbLine
 10
179.0488620650641
 20
214.77184861214
 30
0.0
 11
179.0106766507091
 21
213.6718869122428
 31
0.0
  0
LINE
  5
BC
330
43F
100
AcDbEntity
  8
GAIKEI
100
AcDbLine
 10
198.7727757566116
 20
214.77184861214
 30
0.0
 11
198.8109611709667
 21
213.6718869122428
 31
0.0
  0
LINE
  5
BD
330
43F
100
AcDbEntity
  8
GAIKEI
 62
     1
100
AcDbLine
 10
208.2765715771355
 20
212.2620065680701
 30
0.0
 11
208.2765715771355
 21
214.77184861214
 31
0.0
  0
LINE
  5
BE
330
43F
100
AcDbEntity
  8
GAIKEI
100
AcDbLine
 10
214.7535068871341
 20
213.1959776209185
 30
0.0
 11
214.5316756825063
 21
212.2999902280309
 31
0.0
  0
LINE
  5
BF
330
43F
100
AcDbEntity
  8
GAIKEI
100
AcDbLine
 10
201.7913326773885
 20
213.1959776209185
 30
0.0
 11
202.0131638820163
 21
212.2999902280309
 31
0.0
  0
LINE
  5
C0
330
43F
100
AcDbEntity
  8
GAIKEI
 62
     1
100
AcDbLine
 10
214.822431129545
 20
198.9921246165442
 30
0.0
 11
209.7722541515391
 21
198.9921246165442
 31
0.0
  0
LINE
  5
C1
330
43F
100
AcDbEntity
  8
GAIKEI
 62
     1
100
AcDbLine
 10
215.9476880676266
 20
200.3723436951198
 30
0.0
 11
200.5974287049858
 21
200.3723436951198
 31
0.0
  0
LINE
  5
C2
330
43F
100
AcDbEntity
  8
GAIKEI
 62
     1
100
AcDbLine
 10
200.5476005508637
 20
200.5221746675983
 30
0.0
 11
215.9975855237711
 21
200.5221746675983
 31
0.0
  0
LINE
  5
C3
330
43F
100
AcDbEntity
  8
GAIKEI
 62
     1
100
AcDbLine
 10
215.9476880676266
 20
200.6721442441215
 30
0.0
 11
200.5974287049858
 21
200.6721442441215
 31
0.0
  0
LINE
  5
C4
330
43F
100
AcDbEntity
  8
GAIKEI
100
AcDbLine
 10
202.2725278889711
 20
208.2419348513591
 30
0.0
 11
214.2723116755516
 21
208.2419348513591
 31
0.0
  0
LINE
  5
C5
330
43F
100
AcDbEntity
  8
GAIKEI
 62
     1
100
AcDbLine
 10
215.830429045687
 20
199.106472953542
 30
0.0
 11
200.7146877269254
 21
199.106472953542
 31
0.0
  0
LINE
  5
C6
330
43F
100
AcDbEntity
  8
GAIKEI
100
AcDbLine
 10
214.4914446704529
 20
212.2620065680701
 30
0.0
 11
202.0616984838182
 21
212.2620065680701
 31
0.0
  0
LWPOLYLINE
  5
C7
330
43F
100
AcDbEntity
  8
GAIKEI
100
AcDbPolyline
 90
        9
 70
     0
 43
0.0
 10
201.4569816890978
 20
204.2948381642594
 10
201.5526996933397
 20
204.5714115719252
 10
201.6438892435548
 20
204.8494654981869
 10
201.7305308485492
 20
205.12894065733
 10
201.8126050171293
 20
205.4097777636401
 10
201.8900922581012
 20
205.6919175314027
 10
201.9629730802711
 20
205.9753006749034
 10
202.0312279924452
 20
206.2598679084276
 10
202.0948375034297
 20
206.5455599462609
  0
LINE
  5
C8
330
43F
100
AcDbEntity
  8
GAIKEI
 62
     1
100
AcDbLine
 10
206.7724468089388
 20
198.9921246165442
 30
0.0
 11
200.9550964427107
 21
198.9921246165442
 31
0.0
  0
LINE
  5
C9
330
43F
100
AcDbEntity
  8
GAIKEI
 62
     1
100
AcDbLine
 10
205.7225904712533
 20
198.5222569045165
 30
0.0
 11
210.8223876973142
 21
198.5222569045165
 31
0.0
  0
LINE
  5
CA
330
43F
100
AcDbEntity
  8
GAIKEI
 62
     1
100
AcDbLine
 10
205.7225904712533
 20
198.8223346616079
 30
0.0
 11
206.7724468089388
 21
198.8223346616079
 31
0.0
  0
LINE
  5
CB
330
43F
100
AcDbEntity
  8
GAIKEI
100
AcDbLine
 10
200.6426136236055
 20
200.3723436951198
 30
0.0
 11
200.6712353588662
 21
199.1394607162153
 31
0.0
  0
LINE
  5
CC
330
43F
100
AcDbEntity
  8
GAIKEI
100
AcDbLine
 10
200.6482270874218
 20
200.6721442441215
 30
0.0
 11
200.652523812812
 21
200.7722163645003
 31
0.0
  0
LWPOLYLINE
  5
CD
330
43F
100
AcDbEntity
  8
GAIKEI
100
AcDbPolyline
 90
        3
 70
     0
 43
0.0
 10
200.5974287049858
 20
200.6721442441215
 10
200.5476005508637
 20
200.5221746675983
 10
200.5974287049858
 20
200.3723436951198
  0
LINE
  5
CE
330
43F
100
AcDbEntity
  8
GAIKEI
100
AcDbLine
 10
200.7169746936654
 20
199.075841459631
 30
0.0
 11
200.9308407348627
 21
198.996698550024
 31
0.0
  0
LINE
  5
CF
330
43F
100
AcDbEntity
  8
GAIKEI
 62
     1
100
AcDbLine
 10
201.7225470390225
 20
197.5369207497068
 30
0.0
 11
201.7340511747448
 21
197.4544513430235
 31
0.0
  0
LINE
  5
D0
330
43F
100
AcDbEntity
  8
GAIKEI
 62
     1
100
AcDbLine
 10
201.7225470390225
 20
198.9921246165442
 30
0.0
 11
201.7225470390225
 21
197.5369207497068
 31
0.0
  0
LINE
  5
D1
330
43F
100
AcDbEntity
  8
GAIKEI
 62
     1
100
AcDbLine
 10
205.7225904712533
 20
198.8223346616079
 30
0.0
 11
205.7225904712533
 21
198.5222569045165
 31
0.0
  0
LINE
  5
D2
330
43F
100
AcDbEntity
  8
GAIKEI
100
AcDbLine
 10
200.9308407348626
 20
198.996698550024
 30
0.0
 11
200.9550964427107
 21
198.9921246165442
 31
0.0
  0
LWPOLYLINE
  5
D3
330
43F
100
AcDbEntity
  8
GAIKEI
100
AcDbPolyline
 90
       17
 70
     0
 43
0.0
 10
200.6712353588663
 20
199.1394607162154
 10
200.6716028490828
 20
199.1341505841033
 10
200.6723593510423
 20
199.1289387200932
 10
200.6734926827486
 20
199.1238421789798
 10
200.6749906622057
 20
199.1188780155576
 10
200.6768411074173
 20
199.1140632846214
 10
200.6790318363874
 20
199.1094150409654
 10
200.6815506671199
 20
199.1049503393845
 10
200.6843854176186
 20
199.1006862346731
 10
200.6875239058874
 20
199.0966397816256
 10
200.6909539499303
 20
199.0928280350371
 10
200.6946633677509
 20
199.0892680497017
 10
200.6986399773531
 20
199.0859768804142
 10
200.7028715967412
 20
199.0829715819691
 10
200.7073460439186
 20
199.080269209161
 10
200.7120511368894
 20
199.0778868167845
 10
200.7169746936574
 20
199.0758414596341
  0
LWPOLYLINE
  5
D4
330
43F
100
AcDbEntity
  8
GAIKEI
100
AcDbPolyline
 90
        9
 70
     0
 43
0.0
 10
201.4569816890978
 20
204.2948381642594
 10
201.2707660720032
 20
203.742130712866
 10
201.1026317856964
 20
203.1837708152688
 10
200.9526762861464
 20
202.6202912307652
 10
200.8209970293224
 20
202.0522247186526
 10
200.7594914844276
 20
201.7349449002148
 10
200.7108761157008
 20
201.415599015234
 10
200.675202899659
 20
201.0945638934568
 10
200.6525238128188
 20
200.7722163646302
  0
LINE
  5
D5
330
43F
100
AcDbEntity
  8
GAIKEI
 62
     1
100
AcDbLine
 10
206.7724468089388
 20
198.8223346616079
 30
0.0
 11
206.7724468089388
 21
198.9921246165442
 31
0.0
  0
LINE
  5
D6
330
43F
100
AcDbEntity
  8
GAIKEI
 62
     1
100
AcDbLine
 10
209.7722541515391
 20
198.9921246165442
 30
0.0
 11
206.7724468089388
 21
198.9921246165442
 31
0.0
  0
LINE
  5
D7
330
43F
100
AcDbEntity
  8
GAIKEI
 62
     1
100
AcDbLine
 10
209.7722541515391
 20
198.8223346616079
 30
0.0
 11
209.7722541515391
 21
198.7222625412291
 31
0.0
  0
LINE
  5
D8
330
43F
100
AcDbEntity
  8
GAIKEI
 62
     1
100
AcDbLine
 10
209.772254151539
 20
198.7222625412291
 30
0.0
 11
206.7724468089388
 21
198.7222625412291
 31
0.0
  0
LINE
  5
D9
330
43F
100
AcDbEntity
  8
GAIKEI
 62
     1
100
AcDbLine
 10
209.772254151539
 20
198.8223346616079
 30
0.0
 11
210.8223876973142
 21
198.8223346616079
 31
0.0
  0
LINE
  5
DA
330
43F
100
AcDbEntity
  8
GAIKEI
 62
     1
100
AcDbLine
 10
206.7724468089388
 20
198.7222625412291
 30
0.0
 11
206.7724468089388
 21
198.8223346616079
 31
0.0
  0
LINE
  5
DB
330
43F
100
AcDbEntity
  8
GAIKEI
 62
     1
100
AcDbLine
 10
209.772254151539
 20
198.9921246165442
 30
0.0
 11
209.772254151539
 21
198.8223346616079
 31
0.0
  0
LINE
  5
DC
330
43F
100
AcDbEntity
  8
GAIKEI
 62
     1
100
AcDbLine
 10
210.8223876973142
 20
198.8223346616079
 30
0.0
 11
210.8223876973142
 21
198.5222569045165
 31
0.0
  0
ARC
  5
DD
330
43F
100
AcDbEntity
  8
GAIKEI
100
AcDbCircle
 10
202.0616984838182
 20
212.3120065680701
 30
0.0
 40
0.05
100
AcDbArc
 50
193.9058292051177
 51
270.0
  0
LINE
  5
DE
330
43F
100
AcDbEntity
  8
GAIKEI
100
AcDbLine
 10
202.2387085020288
 20
212.2620065680701
 30
0.0
 11
202.272695213548
 21
208.2220451709236
 31
0.0
  0
LWPOLYLINE
  5
DF
330
43F
100
AcDbEntity
  8
GAIKEI
100
AcDbPolyline
 90
        9
 70
     0
 43
0.0
 10
202.0948375034787
 20
206.5455599464898
 10
202.1363775688529
 20
206.752684606364
 10
202.1724211175745
 20
206.9607212916816
 10
202.2029551555148
 20
207.1695619887435
 10
202.2279666885443
 20
207.3790986838509
 10
202.2474427225339
 20
207.5892233633046
 10
202.2613702633544
 20
207.7998280134058
 10
202.2697363168766
 20
208.0108046204554
 10
202.2725278889712
 20
208.2220451707546
  0
LWPOLYLINE
  5
E0
330
43F
100
AcDbEntity
  8
GAIKEI
100
AcDbPolyline
 90
        9
 70
     0
 43
0.0
 10
214.450140665089
 20
206.5455599464898
 10
214.5138212377138
 20
206.2598679086557
 10
214.5821317809998
 20
205.9753006751306
 10
214.655050367354
 20
205.691917531629
 10
214.7325550691834
 20
205.4097777638653
 10
214.8146239588948
 20
205.1289406575541
 10
214.9012351088954
 20
204.8494654984099
 10
214.9923665915919
 20
204.571411572147
 10
215.0879964793915
 20
204.29483816448
  0
LINE
  5
E1
330
43F
100
AcDbEntity
  8
GAIKEI
 62
     1
100
AcDbLine
 10
214.822431129545
 20
197.5369207497069
 30
0.0
 11
214.8107883897779
 21
197.4544513430235
 31
0.0
  0
LINE
  5
E2
330
43F
100
AcDbEntity
  8
GAIKEI
 62
     1
100
AcDbLine
 10
214.822431129545
 20
198.9921246165442
 30
0.0
 11
214.822431129545
 21
197.5369207497069
 31
0.0
  0
LINE
  5
E3
330
43F
100
AcDbEntity
  8
GAIKEI
100
AcDbLine
 10
215.8281420789469
 20
199.075841459631
 30
0.0
 11
215.6145532458394
 21
198.996698550024
 31
0.0
  0
LINE
  5
E4
330
43F
100
AcDbEntity
  8
GAIKEI
100
AcDbLine
 10
215.9476880676266
 20
200.6721442441215
 30
0.0
 11
215.9975855237711
 21
200.5221746675983
 31
0.0
  0
LINE
  5
E5
330
43F
100
AcDbEntity
  8
GAIKEI
100
AcDbLine
 10
215.896958987213
 20
200.6721442441215
 30
0.0
 11
215.8925929598004
 21
200.7722163645003
 31
0.0
  0
LINE
  5
E6
330
43F
100
AcDbEntity
  8
GAIKEI
100
AcDbLine
 10
215.9027803570965
 20
200.3723436951198
 30
0.0
 11
215.8740200177909
 21
199.1394607162153
 31
0.0
  0
LINE
  5
E7
330
43F
100
AcDbEntity
  8
GAIKEI
100
AcDbLine
 10
215.9975855237711
 20
200.5221746675983
 30
0.0
 11
215.9476880676266
 21
200.3723436951198
 31
0.0
  0
LINE
  5
E8
330
43F
100
AcDbEntity
  8
GAIKEI
100
AcDbLine
 10
215.5904361420362
 20
198.9921246165442
 30
0.0
 11
214.822431129545
 21
198.9921246165442
 31
0.0
  0
LWPOLYLINE
  5
E9
330
43F
100
AcDbEntity
  8
GAIKEI
100
AcDbPolyline
 90
       17
 70
     0
 43
0.0
 10
215.8281420789471
 20
199.075841459631
 10
215.8330900335465
 20
199.0778868167809
 10
215.8378164788497
 20
199.0802692091569
 10
215.8423094358939
 20
199.0829715819645
 10
215.8465569257161
 20
199.0859768804092
 10
215.8505469693535
 20
199.0892680496962
 10
215.8542675878432
 20
199.0928280350312
 10
215.8577068022224
 20
199.0966397816194
 10
215.8608526335283
 20
199.1006862346663
 10
215.8636931027979
 20
199.1049503393775
 10
215.8662162310685
 20
199.1094150409581
 10
215.868410039377
 20
199.1140632846138
 10
215.8702625487608
 20
199.1188780155498
 10
215.8717617802569
 20
199.1238421789718
 10
215.8728957549025
 20
199.128938720085
 10
215.8736524937348
 20
199.1341505840948
 10
215.8740200177908
 20
199.1394607162068
  0
LWPOLYLINE
  5
EA
330
43F
100
AcDbEntity
  8
GAIKEI
100
AcDbPolyline
 90
        9
 70
     0
 43
0.0
 10
215.8925929598004
 20
200.7722163645003
 10
215.8829323661602
 20
200.9335306279359
 10
215.8700134946226
 20
201.0945638933275
 10
215.85383959372
 20
201.2552690569568
 10
215.8344139119847
 20
201.4155990151054
 10
215.811739697949
 20
201.5755066640549
 10
215.7858202001451
 20
201.7349449000871
 10
215.7566586671054
 20
201.8938666194835
 10
215.7242583473621
 20
202.0522247185259
  0
LWPOLYLINE
  5
EB
330
43F
100
AcDbEntity
  8
GAIKEI
100
AcDbPolyline
 90
        9
 70
     0
 43
0.0
 10
215.724258347335
 20
202.0522247186524
 10
215.6607031139147
 20
202.3367980431754
 10
215.5925552679548
 20
202.6202912307086
 10
215.5198286157173
 20
202.9026376863397
 10
215.4425369634647
 20
203.1837708151567
 10
215.3606941174592
 20
203.4636240222473
 10
215.274313883963
 20
203.7421307126994
 10
215.1834100692385
 20
204.0192242916008
 10
215.0879964795479
 20
204.2948381640394
  0
ARC
  5
EC
330
43F
100
AcDbEntity
  8
GAIKEI
100
AcDbCircle
 10
214.4831410807045
 20
212.3120065680701
 30
0.0
 40
0.05
100
AcDbArc
 50
270.0
 51
346.0941707948824
  0
LINE
  5
ED
330
43F
100
AcDbEntity
  8
GAIKEI
100
AcDbLine
 10
214.2723116755516
 20
208.2419348513591
 30
0.0
 11
214.3060617604716
 21
212.2620065680702
 31
0.0
  0
LWPOLYLINE
  5
EE
330
43F
100
AcDbEntity
  8
GAIKEI
100
AcDbPolyline
 90
        9
 70
     0
 43
0.0
 10
214.2723116755516
 20
208.2419348513591
 10
214.2750864635582
 20
208.0241291526353
 10
214.2834129932662
 20
207.808218972509
 10
214.297294513208
 20
207.5940792424863
 10
214.3167342719158
 20
207.3815848940739
 10
214.341735517922
 20
207.1706108587781
 10
214.3723014997587
 20
206.9610320681055
 10
214.4084354659584
 20
206.7527234535623
 10
214.4501406650534
 20
206.5455599466552
  0
LINE
  5
EF
330
43F
100
AcDbEntity
  8
GAIKEI
100
AcDbLine
 10
201.7262200462109
 20
213.2719449408399
 30
0.0
 11
215.6727669446747
 21
213.2719449408399
 31
0.0
  0
ARC
  5
F0
330
43F
100
AcDbEntity
  8
GAIKEI
100
AcDbCircle
 10
201.6942634737849
 20
213.1719449408399
 30
0.0
 40
0.1
100
AcDbArc
 50
13.90582920511764
 51
90.0
  0
LINE
  5
F1
330
43F
100
AcDbEntity
  8
GAIKEI
100
AcDbLine
 10
200.8726270360274
 20
213.2719449408399
 30
0.0
 11
201.6942634737849
 21
213.2719449408399
 31
0.0
  0
LINE
  5
F2
330
43F
100
AcDbEntity
  8
GAIKEI
100
AcDbLine
 10
217.733878393556
 20
213.6718869122428
 30
0.0
 11
215.6722125284953
 21
213.2719449408399
 31
0.0
  0
LINE
  5
F3
330
43F
100
AcDbEntity
  8
GAIKEI
100
AcDbLine
 10
215.6722125284953
 20
213.2719449408399
 30
0.0
 11
214.8505760907377
 21
213.2719449408399
 31
0.0
  0
ARC
  5
F4
330
43F
100
AcDbEntity
  8
GAIKEI
100
AcDbCircle
 10
214.8505760907377
 20
213.1719449408399
 30
0.0
 40
0.1
100
AcDbArc
 50
90.0
 51
166.0941707948823
  0
LINE
  5
F5
330
43F
100
AcDbEntity
  8
GAIKEI
100
AcDbLine
 10
217.772063807911
 20
214.77184861214
 30
0.0
 11
217.733878393556
 21
213.6718869122428
 31
0.0
  0
LINE
  5
F6
330
43F
100
AcDbEntity
  8
WAKU
 62
     1
100
AcDbLine
 10
130.9999999999999
 20
161.499214139642
 30
0.0
 11
255.9999999999999
 21
161.499214139642
 31
0.0
  0
LINE
  5
F8
330
43F
100
AcDbEntity
  8
WAKU
 62
     1
100
AcDbLine
 10
130.9999999999999
 20
156.499214139642
 30
0.0
 11
255.9999999999999
 21
156.499214139642
 31
0.0
  0
LINE
  5
F9
330
43F
100
AcDbEntity
  8
WAKU
 62
     1
100
AcDbLine
 10
130.9999999999999
 20
146.4992141396421
 30
0.0
 11
255.9999999999999
 21
146.4992141396421
 31
0.0
  0
LINE
  5
FA
330
43F
100
AcDbEntity
  8
WAKU
 62
     1
100
AcDbLine
 10
130.9999999999999
 20
141.4992141396421
 30
0.0
 11
255.9999999999999
 21
141.4992141396421
 31
0.0
  0
LINE
  5
FB
330
43F
100
AcDbEntity
  8
WAKU
 62
     1
100
AcDbLine
 10
130.9999999999999
 20
136.499214139642
 30
0.0
 11
255.9999999999999
 21
136.499214139642
 31
0.0
  0
LINE
  5
FC
330
43F
100
AcDbEntity
  8
WAKU
 62
     4
100
AcDbLine
 10
255.9999999999999
 20
166.4992141396421
 30
0.0
 11
130.9999999999999
 21
166.4992141396421
 31
0.0
  0
LINE
  5
FD
330
43F
100
AcDbEntity
  8
WAKU
 62
     4
100
AcDbLine
 10
130.9999999999999
 20
131.499214139642
 30
0.0
 11
255.9999999999999
 21
131.499214139642
 31
0.0
  0
LINE
  5
FE
330
43F
100
AcDbEntity
  8
WAKU
 62
     1
100
AcDbLine
 10
130.9999999999999
 20
151.499214139642
 30
0.0
 11
255.9999999999999
 21
151.4992141396421
 31
0.0
  0
TEXT
  5
FF
330
43F
100
AcDbEntity
  8
MOJI1
100
AcDbText
 10
173.4999999999999
 20
157.499214139642
 30
0.0
 40
3.0
  1
１／４型インターライン転送方式ＣＣＤ
100
AcDbText
  0
TEXT
  5
100
330
43F
100
AcDbEntity
  8
MOJI1
100
AcDbText
 10
173.4999999999999
 20
152.499214139642
 30
0.0
 40
3.0
  1
水平：５４０本　垂直：３５０本以上（中心部）
100
AcDbText
  0
TEXT
  5
101
330
43F
100
AcDbEntity
  8
MOJI1
100
AcDbText
 10
173.4999999999999
 20
137.4992141396421
 30
0.0
 40
3.0
  1
カメラ・ズームレンズ・回転台一体型
100
AcDbText
  0
LINE
  5
102
330
43F
100
AcDbEntity
  8
WAKU
 62
     4
100
AcDbLine
 10
130.9999999999999
 20
166.4992141396421
 30
0.0
 11
130.9999999999999
 21
131.499214139642
 31
0.0
  0
LINE
  5
103
330
43F
100
AcDbEntity
  8
WAKU
 62
     4
100
AcDbLine
 10
170.9999999999999
 20
131.499214139642
 30
0.0
 11
170.9999999999999
 21
166.4992141396421
 31
0.0
  0
TEXT
  5
104
330
43F
100
AcDbEntity
  8
MOJI1
100
AcDbText
 10
173.4999999999999
 20
162.4992141396421
 30
0.0
 40
3.0
  1
ＡＣ１００Ｖ　５０／６０Ｈｚ
100
AcDbText
  0
TEXT
  5
105
330
43F
100
AcDbEntity
  8
MOJI1
100
AcDbText
 10
173.4999999999999
 20
147.4992141396421
 30
0.0
 40
3.0
  1
０．５ルクス
100
AcDbText
  0
TEXT
  5
106
330
43F
100
AcDbEntity
  8
MOJI1
100
AcDbText
 10
173.4999999999999
 20
142.4992141396421
 30
0.0
 40
3.0
  1
５２ｄＢ／ｔｙｐ
100
AcDbText
  0
TEXT
  5
107
330
43F
100
AcDbEntity
  8
MOJI1
100
AcDbText
 10
133.4999999999999
 20
142.4992141396421
 30
0.0
 40
3.0
  1
ダイナミックレンジ
100
AcDbText
  0
TEXT
  5
108
330
43F
100
AcDbEntity
  8
MOJI1
100
AcDbText
 10
133.4999999999999
 20
147.4992141396421
 30
0.0
 40
3.0
  1
最低照度
100
AcDbText
  0
TEXT
  5
109
330
43F
100
AcDbEntity
  8
MOJI1
100
AcDbText
 10
133.4999999999999
 20
137.4992141396421
 30
0.0
 40
3.0
  1
機　能
100
AcDbText
  0
TEXT
  5
10A
330
43F
100
AcDbEntity
  8
MOJI1
100
AcDbText
 10
133.4999999999999
 20
162.4992141396421
 30
0.0
 40
3.0
  1
電　源
100
AcDbText
  0
TEXT
  5
10B
330
43F
100
AcDbEntity
  8
MOJI1
100
AcDbText
 10
133.4999999999999
 20
157.499214139642
 30
0.0
 40
3.0
  1
撮像素子
100
AcDbText
  0
TEXT
  5
10C
330
43F
100
AcDbEntity
  8
MOJI1
100
AcDbText
 10
133.4999999999999
 20
152.499214139642
 30
0.0
 40
3.0
  1
解像度
100
AcDbText
  0
LINE
  5
10D
330
43F
100
AcDbEntity
  8
WAKU
 62
     4
100
AcDbLine
 10
255.9999999999999
 20
131.499214139642
 30
0.0
 11
255.9999999999999
 21
166.4992141396421
 31
0.0
  0
ENDSEC
  0
SECTION
  2
OBJECTS
  0
DICTIONARY
  5
42B
330
0
100
AcDbDictionary
281
     1
  3
ACAD_COLOR
350
43A
  3
ACAD_GROUP
350
42C
  3
ACAD_LAYOUT
350
438
  3
ACAD_MATERIAL
350
439
  3
ACAD_MLINESTYLE
350
435
  3
ACAD_PLOTSETTINGS
350
437
  3
ACAD_PLOTSTYLENAME
350
42D
  3
ACDBHEADERROUNDTRIPXREC
350
486
  3
AcDbVariableDictionary
350
481
  3
DWGPROPS
350
485
  0
DICTIONARY
  5
43A
102
{ACAD_REACTORS
330
42B
102
}
330
42B
100
AcDbDictionary
281
     1
  0
DICTIONARY
  5
42C
102
{ACAD_REACTORS
330
42B
102
}
330
42B
100
AcDbDictionary
281
     1
  0
DICTIONARY
  5
438
102
{ACAD_REACTORS
330
42B
102
}
330
42B
100
AcDbDictionary
281
     1
  3
Model
350
442
  3
レイアウト1
350
43E
  0
DICTIONARY
  5
439
102
{ACAD_REACTORS
330
42B
102
}
330
42B
100
AcDbDictionary
281
     1
  0
DICTIONARY
  5
435
102
{ACAD_REACTORS
330
42B
102
}
330
42B
100
AcDbDictionary
281
     1
  3
Standard
350
436
  0
DICTIONARY
  5
437
102
{ACAD_REACTORS
330
42B
102
}
330
42B
100
AcDbDictionary
281
     1
  0
ACDBDICTIONARYWDFLT
  5
42D
102
{ACAD_REACTORS
330
42B
102
}
330
42B
100
AcDbDictionary
281
     1
  3
Normal
350
42E
100
AcDbDictionaryWithDefault
340
42E
  0
DICTIONARY
  5
486
102
{ACAD_REACTORS
330
42B
102
}
330
42B
100
AcDbDictionary
281
     1
  3
COLORDICT
350
488
  3
MATERIALDICT
350
487
  0
DICTIONARY
  5
481
102
{ACAD_REACTORS
330
42B
102
}
330
42B
100
AcDbDictionary
281
     1
  3
DIMASSOC
350
482
  3
PROJECTNAME
350
483
  0
XRECORD
  5
485
102
{ACAD_REACTORS
330
42B
102
}
330
42B
100
AcDbXrecord
280
     1
  1
DWGPROPS COOKIE
  2

  3

  4

  6

  7

  8

  9

300
=
301
=
302
=
303
=
304
=
305
=
306
=
307
=
308
=
309
=
 40
0.6844853703703704
 41
2451814.815532581
 42
2453731.696570811
  1

 90
        0
  0
LAYOUT
  5
442
102
{ACAD_XDICTIONARY
360
48B
102
}
102
{ACAD_REACTORS
330
438
102
}
330
438
100
AcDbPlotSettings
  1

  2
\\Uranus\BFACN02M
  4

  6

 40
0.0
 41
0.0
 42
0.0
 43
0.0
 44
0.0
 45
0.0
 46
0.0
 47
0.0
 48
0.0
 49
0.0
140
0.0
141
0.0
142
1.0
143
1.0
 70
  1712
 72
     0
 73
     0
 74
     0
  7
SSC.ctb
 75
     0
147
1.0
148
0.0
149
0.0
100
AcDbLayout
  1
Model
 70
     1
 71
     0
 10
0.0
 20
0.0
 11
12.0
 21
9.0
 12
0.0
 22
0.0
 32
0.0
 14
0.0
 24
0.0
 34
0.0
 15
0.0
 25
0.0
 35
0.0
146
0.0
 13
0.0
 23
0.0
 33
0.0
 16
1.0
 26
0.0
 36
0.0
 17
0.0
 27
1.0
 37
0.0
 76
     0
330
43F
  0
LAYOUT
  5
43E
102
{ACAD_XDICTIONARY
360
489
102
}
102
{ACAD_REACTORS
330
438
102
}
330
438
100
AcDbPlotSettings
  1

  2
\\Uranus\BFACN02M
  4

  6

 40
0.0
 41
0.0
 42
0.0
 43
0.0
 44
0.0
 45
0.0
 46
0.0
 47
0.0
 48
0.0
 49
0.0
140
0.0
141
0.0
142
1.0
143
1.0
 70
   688
 72
     0
 73
     0
 74
     5
  7
SSC.ctb
 75
    16
147
1.0
148
0.0
149
0.0
100
AcDbLayout
  1
レイアウト1
 70
     1
 71
     1
 10
0.0
 20
0.0
 11
12.0
 21
9.0
 12
0.0
 22
0.0
 32
0.0
 14
1.000000000000000E+20
 24
1.000000000000000E+20
 34
1.000000000000000E+20
 15
-1.000000000000000E+20
 25
-1.000000000000000E+20
 35
-1.000000000000000E+20
146
0.0
 13
0.0
 23
0.0
 33
0.0
 16
1.0
 26
0.0
 36
0.0
 17
0.0
 27
1.0
 37
0.0
 76
     0
330
43B
  0
MLINESTYLE
  5
436
102
{ACAD_REACTORS
330
435
102
}
330
435
100
AcDbMlineStyle
  2
STANDARD
 70
     0
  3

 62
   256
 51
90.0
 52
90.0
 71
     2
 49
0.5
 62
   256
  6
BYLAYER
 49
-0.5
 62
   256
  6
BYLAYER
  0
ACDBPLACEHOLDER
  5
42E
102
{ACAD_REACTORS
330
42D
102
}
330
42D
  0
XRECORD
  5
488
102
{ACAD_REACTORS
330
486
102
}
330
486
100
AcDbXrecord
280
     1
340
43A
  0
XRECORD
  5
487
102
{ACAD_REACTORS
330
486
102
}
330
486
100
AcDbXrecord
280
     1
340
439
  0
DICTIONARYVAR
  5
482
102
{ACAD_REACTORS
330
481
102
}
330
481
100
DictionaryVariables
280
     0
  1
1
  0
DICTIONARYVAR
  5
483
102
{ACAD_REACTORS
330
481
102
}
330
481
100
DictionaryVariables
280
     0
  1

  0
DICTIONARY
  5
48B
330
442
100
AcDbDictionary
280
     1
281
     1
  3
ACAD_XREC_ROUNDTRIP
360
48C
  0
DICTIONARY
  5
489
330
43E
100
AcDbDictionary
280
     1
281
     1
  3
ACAD_XREC_ROUNDTRIP
360
48A
  0
XRECORD
  5
48C
102
{ACAD_REACTORS
330
48B
102
}
330
48B
100
AcDbXrecord
280
     1
102
SHADEPLOT
 70
     0
102
SHADEPLOTRESLEVEL
 70
     2
102
SHADEPLOTCUSTOMDPI
 70
   300
  0
XRECORD
  5
48A
102
{ACAD_REACTORS
330
489
102
}
330
489
100
AcDbXrecord
280
     1
102
SHADEPLOT
 70
     0
102
SHADEPLOTRESLEVEL
 70
     2
102
SHADEPLOTCUSTOMDPI
 70
   300
  0
ENDSEC
  0
EOF
