  0
SECTION
  2
HEADER
  9
$ACADVER
  1
AC1015
  9
$ACADMAINTVER
 70
    20
  9
$DWGCODEPAGE
  3
ANSI_932
  9
$INSBASE
 10
0.0
 20
372.4992141396417
 30
0.0
  9
$EXTMIN
 10
-65.67612046715954
 20
-55.49943505328918
 30
0.0
  9
$EXTMAX
 10
59.32387953284046
 20
57.50056494670746
 30
0.0
  9
$LIMMIN
 10
-1101.784450318844
 20
-1579.160531687244
  9
$LIMMAX
 10
-508.2420711400536
 20
-1161.440814074914
  9
$ORTHOMODE
 70
     1
  9
$REGENMODE
 70
     1
  9
$FILLMODE
 70
     1
  9
$QTEXTMODE
 70
     0
  9
$MIRRTEXT
 70
     1
  9
$LTSCALE
 40
1.0
  9
$ATTMODE
 70
     1
  9
$TEXTSIZE
 40
3.0
  9
$TRACEWID
 40
0.5
  9
$TEXTSTYLE
  7
STANDARD
  9
$CLAYER
  8
MOJI1
  9
$CELTYPE
  6
BYLAYER
  9
$CECOLOR
 62
   256
  9
$CELTSCALE
 40
1.0
  9
$DISPSILH
 70
     0
  9
$DIMSCALE
 40
1.0
  9
$DIMASZ
 40
2.0
  9
$DIMEXO
 40
2.0
  9
$DIMDLI
 40
8.0
  9
$DIMRND
 40
0.0
  9
$DIMDLE
 40
0.0
  9
$DIMEXE
 40
2.0
  9
$DIMTP
 40
0.0
  9
$DIMTM
 40
0.0
  9
$DIMTXT
 40
2.5
  9
$DIMCEN
 40
0.0
  9
$DIMTSZ
 40
0.0
  9
$DIMTOL
 70
     0
  9
$DIMLIM
 70
     0
  9
$DIMTIH
 70
     0
  9
$DIMTOH
 70
     0
  9
$DIMSE1
 70
     0
  9
$DIMSE2
 70
     0
  9
$DIMTAD
 70
     3
  9
$DIMZIN
 70
     0
  9
$DIMBLK
  1

  9
$DIMASO
 70
     1
  9
$DIMSHO
 70
     1
  9
$DIMPOST
  1

  9
$DIMAPOST
  1

  9
$DIMALT
 70
     0
  9
$DIMALTD
 70
     2
  9
$DIMALTF
 40
25.4
  9
$DIMLFAC
 40
1.0
  9
$DIMTOFL
 70
     1
  9
$DIMTVP
 40
0.0
  9
$DIMTIX
 70
     0
  9
$DIMSOXD
 70
     0
  9
$DIMSAH
 70
     1
  9
$DIMBLK1
  1
OPEN30
  9
$DIMBLK2
  1
OPEN30
  9
$DIMSTYLE
  2
STANDARD
  9
$DIMCLRD
 70
     0
  9
$DIMCLRE
 70
     0
  9
$DIMCLRT
 70
     0
  9
$DIMTFAC
 40
1.0
  9
$DIMGAP
 40
0.5
  9
$DIMJUST
 70
     0
  9
$DIMSD1
 70
     0
  9
$DIMSD2
 70
     0
  9
$DIMTOLJ
 70
     1
  9
$DIMTZIN
 70
     0
  9
$DIMALTZ
 70
     0
  9
$DIMALTTZ
 70
     0
  9
$DIMUPT
 70
     0
  9
$DIMDEC
 70
     4
  9
$DIMTDEC
 70
     4
  9
$DIMALTU
 70
     2
  9
$DIMALTTD
 70
     2
  9
$DIMTXSTY
  7
STANDARD
  9
$DIMAUNIT
 70
     0
  9
$DIMADEC
 70
     0
  9
$DIMALTRND
 40
0.0
  9
$DIMAZIN
 70
     0
  9
$DIMDSEP
 70
    46
  9
$DIMATFIT
 70
     3
  9
$DIMFRAC
 70
     0
  9
$DIMLDRBLK
  1
OPEN30
  9
$DIMLUNIT
 70
     2
  9
$DIMLWD
 70
    -2
  9
$DIMLWE
 70
    -2
  9
$DIMTMOVE
 70
     0
  9
$LUNITS
 70
     2
  9
$LUPREC
 70
     4
  9
$SKETCHINC
 40
0.1
  9
$FILLETRAD
 40
0.0
  9
$AUNITS
 70
     0
  9
$AUPREC
 70
     0
  9
$MENU
  1
ACAD
  9
$ELEVATION
 40
0.0
  9
$PELEVATION
 40
0.0
  9
$THICKNESS
 40
0.0
  9
$LIMCHECK
 70
     0
  9
$CHAMFERA
 40
0.0
  9
$CHAMFERB
 40
0.0
  9
$CHAMFERC
 40
0.0
  9
$CHAMFERD
 40
0.0
  9
$SKPOLY
 70
     0
  9
$TDCREATE
 40
2451815.565532581
  9
$TDUCREATE
 40
2451815.190532581
  9
$TDUPDATE
 40
2453733.489445891
  9
$TDUUPDATE
 40
2453733.114445892
  9
$TDINDWG
 40
0.9222371759
  9
$TDUSRTIMER
 40
0.9222371759
  9
$USRTIMER
 70
     1
  9
$ANGBASE
 50
0.0
  9
$ANGDIR
 70
     0
  9
$PDMODE
 70
     0
  9
$PDSIZE
 40
0.0
  9
$PLINEWID
 40
0.0
  9
$SPLFRAME
 70
     0
  9
$SPLINETYPE
 70
     6
  9
$SPLINESEGS
 70
     8
  9
$HANDSEED
  5
2A7
  9
$SURFTAB1
 70
     6
  9
$SURFTAB2
 70
     6
  9
$SURFTYPE
 70
     6
  9
$SURFU
 70
     6
  9
$SURFV
 70
     6
  9
$UCSBASE
  2

  9
$UCSNAME
  2

  9
$UCSORG
 10
0.0
 20
0.0
 30
0.0
  9
$UCSXDIR
 10
1.0
 20
0.0
 30
0.0
  9
$UCSYDIR
 10
0.0
 20
1.0
 30
0.0
  9
$UCSORTHOREF
  2

  9
$UCSORTHOVIEW
 70
     0
  9
$UCSORGTOP
 10
0.0
 20
0.0
 30
0.0
  9
$UCSORGBOTTOM
 10
0.0
 20
0.0
 30
0.0
  9
$UCSORGLEFT
 10
0.0
 20
0.0
 30
0.0
  9
$UCSORGRIGHT
 10
0.0
 20
0.0
 30
0.0
  9
$UCSORGFRONT
 10
0.0
 20
0.0
 30
0.0
  9
$UCSORGBACK
 10
0.0
 20
0.0
 30
0.0
  9
$PUCSBASE
  2

  9
$PUCSNAME
  2

  9
$PUCSORG
 10
0.0
 20
0.0
 30
0.0
  9
$PUCSXDIR
 10
1.0
 20
0.0
 30
0.0
  9
$PUCSYDIR
 10
0.0
 20
1.0
 30
0.0
  9
$PUCSORTHOREF
  2

  9
$PUCSORTHOVIEW
 70
     0
  9
$PUCSORGTOP
 10
0.0
 20
0.0
 30
0.0
  9
$PUCSORGBOTTOM
 10
0.0
 20
0.0
 30
0.0
  9
$PUCSORGLEFT
 10
0.0
 20
0.0
 30
0.0
  9
$PUCSORGRIGHT
 10
0.0
 20
0.0
 30
0.0
  9
$PUCSORGFRONT
 10
0.0
 20
0.0
 30
0.0
  9
$PUCSORGBACK
 10
0.0
 20
0.0
 30
0.0
  9
$USERI1
 70
     0
  9
$USERI2
 70
     0
  9
$USERI3
 70
     0
  9
$USERI4
 70
     0
  9
$USERI5
 70
     0
  9
$USERR1
 40
0.0
  9
$USERR2
 40
0.0
  9
$USERR3
 40
0.0
  9
$USERR4
 40
0.0
  9
$USERR5
 40
0.0
  9
$WORLDVIEW
 70
     1
  9
$SHADEDGE
 70
     3
  9
$SHADEDIF
 70
    70
  9
$TILEMODE
 70
     1
  9
$MAXACTVP
 70
    48
  9
$PINSBASE
 10
0.0
 20
0.0
 30
0.0
  9
$PLIMCHECK
 70
     0
  9
$PEXTMIN
 10
1.000000000000000E+20
 20
1.000000000000000E+20
 30
1.000000000000000E+20
  9
$PEXTMAX
 10
-1.000000000000000E+20
 20
-1.000000000000000E+20
 30
-1.000000000000000E+20
  9
$PLIMMIN
 10
0.0
 20
0.0
  9
$PLIMMAX
 10
12.0
 20
9.0
  9
$UNITMODE
 70
     0
  9
$VISRETAIN
 70
     1
  9
$PLINEGEN
 70
     0
  9
$PSLTSCALE
 70
     1
  9
$TREEDEPTH
 70
  3020
  9
$CMLSTYLE
  2
STANDARD
  9
$CMLJUST
 70
     0
  9
$CMLSCALE
 40
1.0
  9
$PROXYGRAPHICS
 70
     1
  9
$MEASUREMENT
 70
     0
  9
$CELWEIGHT
370
    -1
  9
$ENDCAPS
280
     0
  9
$JOINSTYLE
280
     0
  9
$LWDISPLAY
290
     0
  9
$INSUNITS
 70
     0
  9
$HYPERLINKBASE
  1

  9
$STYLESHEET
  1

  9
$XEDIT
290
     1
  9
$CEPSNTYPE
380
     0
  9
$PSTYLEMODE
290
     1
  9
$FINGERPRINTGUID
  2
{1754B7AB-9B3C-11D4-AD9E-00104B1004F2}
  9
$VERSIONGUID
  2
{37B8B110-3570-4C95-B55B-06453B7AB401}
  9
$EXTNAMES
290
     1
  9
$PSVPSCALE
 40
0.0
  9
$OLESTARTUP
290
     0
  0
ENDSEC
  0
SECTION
  2
CLASSES
  0
CLASS
  1
ACDBDICTIONARYWDFLT
  2
AcDbDictionaryWithDefault
  3
ObjectDBX Classes
 90
        0
280
     0
281
     0
  0
CLASS
  1
ACDBPLACEHOLDER
  2
AcDbPlaceHolder
  3
ObjectDBX Classes
 90
        0
280
     0
281
     0
  0
CLASS
  1
LAYOUT
  2
AcDbLayout
  3
ObjectDBX Classes
 90
        0
280
     0
281
     0
  0
CLASS
  1
DICTIONARYVAR
  2
AcDbDictionaryVar
  3
ObjectDBX Classes
 90
        0
280
     0
281
     0
  0
ENDSEC
  0
SECTION
  2
TABLES
  0
TABLE
  2
VPORT
  5
20
330
0
100
AcDbSymbolTable
 70
     2
  0
VPORT
  5
29F
330
20
100
AcDbSymbolTableRecord
100
AcDbViewportTableRecord
  2
*Active
 70
     0
 10
0.0
 20
0.0
 11
1.0
 21
1.0
 12
-3.176120467159542
 22
1.000564946709147
 13
0.0
 23
0.0
 14
1.0
 24
1.0
 15
0.0
 25
0.0
 16
0.0
 26
0.0
 36
1.0
 17
0.0
 27
0.0
 37
0.0
 40
113.8771021992204
 41
1.433937823834196
 42
50.0
 43
0.0
 44
0.0
 50
0.0
 51
0.0
 71
     0
 72
  1000
 73
     1
 74
     0
 75
     0
 76
     1
 77
     0
 78
     1
281
     0
 65
     1
110
0.0
120
0.0
130
0.0
111
1.0
121
0.0
131
0.0
112
0.0
122
1.0
132
0.0
 79
     0
146
0.0
  0
ENDTAB
  0
TABLE
  2
LTYPE
  5
1B
330
0
100
AcDbSymbolTable
 70
     1
  0
LTYPE
  5
1C
330
1B
100
AcDbSymbolTableRecord
100
AcDbLinetypeTableRecord
  2
BYBLOCK
 70
     0
  3

 72
    65
 73
     0
 40
0.0
  0
LTYPE
  5
1D
330
1B
100
AcDbSymbolTableRecord
100
AcDbLinetypeTableRecord
  2
BYLAYER
 70
     0
  3

 72
    65
 73
     0
 40
0.0
  0
LTYPE
  5
A
330
1B
100
AcDbSymbolTableRecord
100
AcDbLinetypeTableRecord
  2
CONTINUOUS
 70
     0
  3
Solid line
 72
    65
 73
     0
 40
0.0
  0
ENDTAB
  0
TABLE
  2
LAYER
  5
14
102
{ACAD_XDICTIONARY
360
15
102
}
330
0
100
AcDbSymbolTable
 70
     7
  0
LAYER
  5
6
330
14
100
AcDbSymbolTableRecord
100
AcDbLayerTableRecord
  2
0
 70
     0
 62
     7
  6
CONTINUOUS
370
    -3
390
7
  0
LAYER
  5
44
330
14
100
AcDbSymbolTableRecord
100
AcDbLayerTableRecord
  2
DEFPOINTS
 70
     0
 62
     7
  6
CONTINUOUS
290
     0
370
    -3
390
7
  0
LAYER
  5
37
330
14
100
AcDbSymbolTableRecord
100
AcDbLayerTableRecord
  2
WAKU
 70
     0
 62
     4
  6
CONTINUOUS
370
    -3
390
7
  0
LAYER
  5
32
330
14
100
AcDbSymbolTableRecord
100
AcDbLayerTableRecord
  2
MOJI1
 70
     0
 62
     2
  6
CONTINUOUS
370
    -3
390
7
  0
LAYER
  5
91
330
14
100
AcDbSymbolTableRecord
100
AcDbLayerTableRecord
  2
GAIKEI
 70
     0
 62
     7
  6
CONTINUOUS
370
    -3
390
7
  0
LAYER
  5
208
330
14
100
AcDbSymbolTableRecord
100
AcDbLayerTableRecord
  2
TOUROKU
 70
     0
 62
     1
  6
CONTINUOUS
370
    -3
390
7
  0
LAYER
  5
3A
330
14
100
AcDbSymbolTableRecord
100
AcDbLayerTableRecord
  2
SUNPO
 70
     0
 62
     3
  6
CONTINUOUS
370
    -3
390
7
  0
ENDTAB
  0
TABLE
  2
STYLE
  5
18
330
0
100
AcDbSymbolTable
 70
     1
  0
STYLE
  5
19
330
18
100
AcDbSymbolTableRecord
100
AcDbTextStyleTableRecord
  2
STANDARD
 70
     0
 40
0.0
 41
1.0
 50
0.0
 71
     0
 42
3.0
  3
MONOTXT.shx
  4
BIGFONT.shx
  0
ENDTAB
  0
TABLE
  2
VIEW
  5
1E
330
0
100
AcDbSymbolTable
 70
     0
  0
ENDTAB
  0
TABLE
  2
UCS
  5
1F
330
0
100
AcDbSymbolTable
 70
     0
  0
ENDTAB
  0
TABLE
  2
APPID
  5
22
330
0
100
AcDbSymbolTable
 70
     1
  0
APPID
  5
23
330
22
100
AcDbSymbolTableRecord
100
AcDbRegAppTableRecord
  2
ACAD
 70
     0
  0
ENDTAB
  0
TABLE
  2
DIMSTYLE
  5
24
330
0
100
AcDbSymbolTable
 70
     1
100
AcDbDimStyleTable
 71
     0
  0
DIMSTYLE
105
25
102
{ACAD_REACTORS
330
63
330
55
330
48
330
39
102
}
330
24
100
AcDbSymbolTableRecord
100
AcDbDimStyleTableRecord
  2
STANDARD
 70
     0
 40
0.0
 41
2.0
 42
2.0
 43
8.0
 44
2.0
 73
     0
 74
     0
 77
     3
140
3.0
141
0.0
173
     1
279
     2
288
     1
340
19
341
26
343
26
344
26
  0
ENDTAB
  0
TABLE
  2
BLOCK_RECORD
  5
1
330
0
100
AcDbSymbolTable
 70
     9
  0
BLOCK_RECORD
  5
2
102
{ACAD_XDICTIONARY
360
3
102
}
330
1
100
AcDbSymbolTableRecord
100
AcDbBlockTableRecord
  2
*MODEL_SPACE
340
C
  0
BLOCK_RECORD
  5
E
102
{ACAD_XDICTIONARY
360
F
102
}
330
1
100
AcDbSymbolTableRecord
100
AcDbBlockTableRecord
  2
*PAPER_SPACE
340
13
  0
BLOCK_RECORD
  5
26
330
1
100
AcDbSymbolTableRecord
100
AcDbBlockTableRecord
  2
_OPEN30
340
0
102
{BLKREFS
331
69
331
6A
331
5C
331
5D
331
4E
331
4F
331
40
331
41
331
27C
331
27D
331
286
331
287
331
28F
331
290
331
298
331
299
102
}
  0
BLOCK_RECORD
  5
242
330
1
100
AcDbSymbolTableRecord
100
AcDbBlockTableRecord
  2
*D5
340
0
  0
BLOCK_RECORD
  5
250
330
1
100
AcDbSymbolTableRecord
100
AcDbBlockTableRecord
  2
*D6
340
0
  0
BLOCK_RECORD
  5
25C
330
1
100
AcDbSymbolTableRecord
100
AcDbBlockTableRecord
  2
*D7
340
0
  0
BLOCK_RECORD
  5
269
330
1
100
AcDbSymbolTableRecord
100
AcDbBlockTableRecord
  2
*D8
340
0
  0
ENDTAB
  0
ENDSEC
  0
SECTION
  2
BLOCKS
  0
BLOCK
  5
5
330
2
100
AcDbEntity
  8
0
100
AcDbBlockBegin
  2
*MODEL_SPACE
 70
     0
 10
0.0
 20
0.0
 30
0.0
  3
*MODEL_SPACE
  1

  0
ENDBLK
  5
B
330
2
100
AcDbEntity
  8
0
100
AcDbBlockEnd
  0
BLOCK
  5
11
330
E
100
AcDbEntity
 67
     1
  8
0
100
AcDbBlockBegin
  2
*PAPER_SPACE
 70
     0
 10
0.0
 20
0.0
 30
0.0
  3
*PAPER_SPACE
  1

  0
ENDBLK
  5
12
330
E
100
AcDbEntity
 67
     1
  8
0
100
AcDbBlockEnd
  0
BLOCK
  5
27
330
26
100
AcDbEntity
  8
0
100
AcDbBlockBegin
  2
_OPEN30
 70
     0
 10
0.0
 20
0.0
 30
0.0
  3
_OPEN30
  1

  0
LINE
  5
28
330
26
100
AcDbEntity
  8
0
  6
ByBlock
 62
     0
100
AcDbLine
 10
-1.0
 20
0.26794919
 30
0.0
 11
0.0
 21
0.0
 31
0.0
  0
LINE
  5
29
330
26
100
AcDbEntity
  8
0
  6
ByBlock
 62
     0
100
AcDbLine
 10
0.0
 20
0.0
 30
0.0
 11
-1.0
 21
-0.26794919
 31
0.0
  0
LINE
  5
2A
330
26
100
AcDbEntity
  8
0
  6
ByBlock
 62
     0
100
AcDbLine
 10
0.0
 20
0.0
 30
0.0
 11
-1.0
 21
0.0
 31
0.0
  0
ENDBLK
  5
2B
330
26
100
AcDbEntity
  8
0
100
AcDbBlockEnd
  0
BLOCK
  5
24C
330
242
100
AcDbEntity
  8
0
100
AcDbBlockBegin
  2
*D5
 70
     1
 10
0.0
 20
0.0
 30
0.0
  3
*D5
  1

  0
LINE
  5
295
330
242
100
AcDbEntity
  8
SUNPO
 62
     0
370
    -2
100
AcDbLine
 10
15.14515717957773
 20
0.5671338742955073
 30
0.0
 11
15.14515717957773
 21
-7.432866125704492
 31
0.0
  0
LINE
  5
296
330
242
100
AcDbEntity
  8
SUNPO
 62
     0
370
    -2
100
AcDbLine
 10
31.1692527899106
 20
0.5671338742955073
 30
0.0
 11
31.1692527899106
 21
-7.432866125704492
 31
0.0
  0
LINE
  5
297
330
242
100
AcDbEntity
  8
SUNPO
 62
     0
370
    -2
100
AcDbLine
 10
17.14515717957773
 20
-5.432866125704492
 30
0.0
 11
29.1692527899106
 21
-5.432866125704492
 31
0.0
  0
INSERT
  5
298
330
242
100
AcDbEntity
  8
SUNPO
 62
     0
370
    -2
100
AcDbBlockReference
  2
_OPEN30
 10
15.14515717957773
 20
-5.432866125704492
 30
0.0
 41
2.0
 42
2.0
 43
2.0
 50
180.0
  0
INSERT
  5
299
330
242
100
AcDbEntity
  8
SUNPO
 62
     0
370
    -2
100
AcDbBlockReference
  2
_OPEN30
 10
31.1692527899106
 20
-5.432866125704492
 30
0.0
 41
2.0
 42
2.0
 43
2.0
  0
MTEXT
  5
29A
330
242
100
AcDbEntity
  8
SUNPO
 62
     0
100
AcDbMText
 10
23.15720498474417
 20
-3.682866125704492
 30
0.0
 40
2.5
 41
0.0
 71
     5
 72
     1
  1
\A1;160
 73
     1
 44
1.0
1001
ACAD
1000
MTEXTBEGIN
1070
    73
1070
     1
1070
    44
1040
1.0
1070
    74
1070
     0
1000
MTEXTEND
  0
POINT
  5
29B
330
242
100
AcDbEntity
  8
DEFPOINTS
 62
     0
100
AcDbPoint
 10
15.14515717957773
 20
2.567133874295507
 30
0.0
  0
POINT
  5
29C
330
242
100
AcDbEntity
  8
DEFPOINTS
 62
     0
100
AcDbPoint
 10
31.1692527899106
 20
2.567133874295507
 30
0.0
  0
POINT
  5
29D
330
242
100
AcDbEntity
  8
DEFPOINTS
 62
     0
100
AcDbPoint
 10
31.1692527899106
 20
-5.432866125704492
 30
0.0
  0
ENDBLK
  5
24D
330
242
100
AcDbEntity
  8
0
100
AcDbBlockEnd
  0
BLOCK
  5
25A
330
250
100
AcDbEntity
  8
0
100
AcDbBlockBegin
  2
*D6
 70
     1
 10
0.0
 20
0.0
 30
0.0
  3
*D6
  1

  0
LINE
  5
28C
330
250
100
AcDbEntity
  8
SUNPO
 62
     0
370
    -2
100
AcDbLine
 10
-10.56847452169609
 20
39.10936298220122
 30
0.0
 11
-2.568474521696082
 21
39.10936298220122
 31
0.0
  0
LINE
  5
28D
330
250
100
AcDbEntity
  8
SUNPO
 62
     0
370
    -2
100
AcDbLine
 10
-10.56847452169608
 20
11.90834419845424
 30
0.0
 11
-2.568474521696088
 21
11.90834419845424
 31
0.0
  0
LINE
  5
28E
330
250
100
AcDbEntity
  8
SUNPO
 62
     0
370
    -2
100
AcDbLine
 10
-4.568474521696083
 20
37.10936298220122
 30
0.0
 11
-4.568474521696089
 21
13.90834419845424
 31
0.0
  0
INSERT
  5
28F
330
250
100
AcDbEntity
  8
SUNPO
 62
     0
370
    -2
100
AcDbBlockReference
  2
_OPEN30
 10
-4.568474521696082
 20
39.10936298220122
 30
0.0
 41
2.0
 42
2.0
 43
2.0
 50
90.0
  0
INSERT
  5
290
330
250
100
AcDbEntity
  8
SUNPO
 62
     0
370
    -2
100
AcDbBlockReference
  2
_OPEN30
 10
-4.568474521696089
 20
11.90834419845424
 30
0.0
 41
2.0
 42
2.0
 43
2.0
 50
270.0
  0
MTEXT
  5
291
330
250
100
AcDbEntity
  8
SUNPO
 62
     0
100
AcDbMText
 10
-6.31847452169609
 20
25.50885359032773
 30
0.0
 40
2.5
 41
0.0
 71
     5
 72
     1
  1
\A1;272
 11
0.0000000000000001
 21
1.0
 31
0.0
 73
     1
 44
1.0
1001
ACAD
1000
MTEXTBEGIN
1070
    73
1070
     1
1070
    44
1040
1.0
1070
    74
1070
     0
1000
MTEXTEND
  0
POINT
  5
292
330
250
100
AcDbEntity
  8
DEFPOINTS
 62
     0
100
AcDbPoint
 10
-12.56847452169609
 20
39.10936298220122
 30
0.0
  0
POINT
  5
293
330
250
100
AcDbEntity
  8
DEFPOINTS
 62
     0
100
AcDbPoint
 10
-12.56847452169608
 20
11.90834419845424
 30
0.0
  0
POINT
  5
294
330
250
100
AcDbEntity
  8
DEFPOINTS
 62
     0
100
AcDbPoint
 10
-4.568474521696089
 20
11.90834419845424
 30
0.0
  0
ENDBLK
  5
25B
330
250
100
AcDbEntity
  8
0
100
AcDbBlockEnd
  0
BLOCK
  5
267
330
25C
100
AcDbEntity
  8
0
100
AcDbBlockBegin
  2
*D7
 70
     1
 10
0.0
 20
0.0
 30
0.0
  3
*D7
  1

  0
LINE
  5
282
330
25C
100
AcDbEntity
  8
SUNPO
 62
     0
370
    -2
100
AcDbLine
 10
-10.56847452169608
 20
11.90834419845424
 30
0.0
 11
-2.568474521696081
 21
11.90834419845424
 31
0.0
  0
LINE
  5
283
330
25C
100
AcDbEntity
  8
SUNPO
 62
     0
370
    -2
100
AcDbLine
 10
-10.56847452169608
 20
3.059367817454471
 30
0.0
 11
-2.568474521696081
 21
3.059367817454469
 31
0.0
  0
LINE
  5
284
330
25C
100
AcDbEntity
  8
SUNPO
 62
     0
370
    -2
100
AcDbLine
 10
-4.568474521696081
 20
9.908344198454242
 30
0.0
 11
-4.568474521696082
 21
5.059367817454469
 31
0.0
  0
LINE
  5
285
330
25C
100
AcDbEntity
  8
SUNPO
 62
     0
370
    -2
100
AcDbLine
 10
-4.568474521696082
 20
3.059367817454469
 30
0.0
 11
-4.568474521696084
 21
-9.107298849212194
 31
0.0
  0
INSERT
  5
286
330
25C
100
AcDbEntity
  8
SUNPO
 62
     0
370
    -2
100
AcDbBlockReference
  2
_OPEN30
 10
-4.56847452169608
 20
11.90834419845424
 30
0.0
 41
2.0
 42
2.0
 43
2.0
 50
90.0
  0
INSERT
  5
287
330
25C
100
AcDbEntity
  8
SUNPO
 62
     0
370
    -2
100
AcDbBlockReference
  2
_OPEN30
 10
-4.568474521696082
 20
3.059367817454469
 30
0.0
 41
2.0
 42
2.0
 43
2.0
 50
270.0
  0
MTEXT
  5
288
330
25C
100
AcDbEntity
  8
SUNPO
 62
     0
100
AcDbMText
 10
-6.318474521696082
 20
-4.023965515878863
 30
0.0
 40
2.5
 41
0.0
 71
     5
 72
     1
  1
\A1;88.5
 11
0.0000000000000001
 21
1.0
 31
0.0
 73
     1
 44
1.0
1001
ACAD
1000
MTEXTBEGIN
1070
    73
1070
     1
1070
    44
1040
1.0
1070
    74
1070
     0
1000
MTEXTEND
  0
POINT
  5
289
330
25C
100
AcDbEntity
  8
DEFPOINTS
 62
     0
100
AcDbPoint
 10
-12.56847452169608
 20
11.90834419845424
 30
0.0
  0
POINT
  5
28A
330
25C
100
AcDbEntity
  8
DEFPOINTS
 62
     0
100
AcDbPoint
 10
-12.56847452169608
 20
3.059367817454472
 30
0.0
  0
POINT
  5
28B
330
25C
100
AcDbEntity
  8
DEFPOINTS
 62
     0
100
AcDbPoint
 10
-4.568474521696082
 20
3.059367817454469
 30
0.0
  0
ENDBLK
  5
268
330
25C
100
AcDbEntity
  8
0
100
AcDbBlockEnd
  0
BLOCK
  5
273
330
269
100
AcDbEntity
  8
0
100
AcDbBlockBegin
  2
*D8
 70
     1
 10
0.0
 20
0.0
 30
0.0
  3
*D8
  1

  0
LINE
  5
279
330
269
100
AcDbEntity
  8
SUNPO
 62
     0
370
    -2
100
AcDbLine
 10
-36.52649524873567
 20
0.8530515820384607
 30
0.0
 11
-36.52649524873567
 21
-7.146948417961539
 31
0.0
  0
LINE
  5
27A
330
269
100
AcDbEntity
  8
SUNPO
 62
     0
370
    -2
100
AcDbLine
 10
-12.62646657743158
 20
0.8530515820384607
 30
0.0
 11
-12.62646657743158
 21
-7.146948417961539
 31
0.0
  0
LINE
  5
27B
330
269
100
AcDbEntity
  8
SUNPO
 62
     0
370
    -2
100
AcDbLine
 10
-34.52649524873567
 20
-5.146948417961539
 30
0.0
 11
-14.62646657743158
 21
-5.146948417961539
 31
0.0
  0
INSERT
  5
27C
330
269
100
AcDbEntity
  8
SUNPO
 62
     0
370
    -2
100
AcDbBlockReference
  2
_OPEN30
 10
-36.52649524873567
 20
-5.146948417961539
 30
0.0
 41
2.0
 42
2.0
 43
2.0
 50
180.0
  0
INSERT
  5
27D
330
269
100
AcDbEntity
  8
SUNPO
 62
     0
370
    -2
100
AcDbBlockReference
  2
_OPEN30
 10
-12.62646657743158
 20
-5.146948417961539
 30
0.0
 41
2.0
 42
2.0
 43
2.0
  0
MTEXT
  5
27E
330
269
100
AcDbEntity
  8
SUNPO
 62
     0
100
AcDbMText
 10
-24.57648091308363
 20
-3.396948417961538
 30
0.0
 40
2.5
 41
0.0
 71
     5
 72
     1
  1
\A1;φ239
 73
     1
 44
1.0
1001
ACAD
1000
MTEXTBEGIN
1070
    73
1070
     1
1070
    44
1040
1.0
1070
    74
1070
     0
1000
MTEXTEND
  0
POINT
  5
27F
330
269
100
AcDbEntity
  8
DEFPOINTS
 62
     0
100
AcDbPoint
 10
-36.52649524873567
 20
2.85305158203846
 30
0.0
  0
POINT
  5
280
330
269
100
AcDbEntity
  8
DEFPOINTS
 62
     0
100
AcDbPoint
 10
-12.62646657743158
 20
2.85305158203846
 30
0.0
  0
POINT
  5
281
330
269
100
AcDbEntity
  8
DEFPOINTS
 62
     0
100
AcDbPoint
 10
-12.62646657743158
 20
-5.146948417961539
 30
0.0
  0
ENDBLK
  5
274
330
269
100
AcDbEntity
  8
0
100
AcDbBlockEnd
  0
ENDSEC
  0
SECTION
  2
ENTITIES
  0
TEXT
  5
34
330
2
100
AcDbEntity
  8
MOJI1
100
AcDbText
 10
-38.67612046715954
 20
53.50056494670742
 30
0.0
 40
4.0
  1
屋外ハウジング一体型カメラ
100
AcDbText
  0
TEXT
  5
35
330
2
100
AcDbEntity
  8
MOJI1
100
AcDbText
 10
-23.17612046715954
 20
-54.49943505328917
 30
0.0
 40
3.0
  1
電子感度アップ　最大３２倍
100
AcDbText
  0
LINE
  5
36
330
2
100
AcDbEntity
  8
WAKU
  6
Continuous
 62
     1
100
AcDbLine
 10
-65.67612046715954
 20
-50.49943505328918
 30
0.0
 11
59.32387953284046
 21
-50.49943505328918
 31
0.0
  0
TEXT
  5
38
330
2
100
AcDbEntity
  8
MOJI1
100
AcDbText
 10
-63.17612046715954
 20
-44.49943505328917
 30
0.0
 40
3.0
  1
ダイナミックレンジ
100
AcDbText
  0
DIMENSION
  5
39
330
2
100
AcDbEntity
  8
SUNPO
100
AcDbDimension
  2
*D5
 10
31.1692527899106
 20
-5.432866125704492
 30
0.0
 11
23.15720498474417
 21
-3.682866125704492
 31
0.0
 70
    33
  1
160
 71
     5
 42
16.02409561033286
  3
STANDARD
100
AcDbAlignedDimension
 13
15.14515717957773
 23
2.567133874295507
 33
0.0
 14
31.1692527899106
 24
2.567133874295507
 34
0.0
1001
ACAD
1000
DSTYLE
1002
{
1070
   287
1070
     3
1070
    40
1040
1.0
1070
   140
1040
2.5
1070
   147
1040
0.5
1070
   172
1070
     1
1070
   279
1070
     0
1070
   288
1070
     0
1002
}
  0
DIMENSION
  5
48
330
2
100
AcDbEntity
  8
SUNPO
100
AcDbDimension
  2
*D6
 10
-4.568474521696089
 20
11.90834419845424
 30
0.0
 11
-6.31847452169609
 21
25.50885359032773
 31
0.0
 70
    33
  1
272
 71
     5
 42
27.20101878374698
  3
STANDARD
100
AcDbAlignedDimension
 13
-12.56847452169609
 23
39.10936298220122
 33
0.0
 14
-12.56847452169608
 24
11.90834419845424
 34
0.0
1001
ACAD
1000
DSTYLE
1002
{
1070
   287
1070
     3
1070
    40
1040
1.0
1070
   140
1040
2.5
1070
   147
1040
0.5
1070
   172
1070
     1
1070
   279
1070
     0
1070
   288
1070
     0
1002
}
  0
DIMENSION
  5
55
330
2
100
AcDbEntity
  8
SUNPO
100
AcDbDimension
  2
*D7
 10
-4.568474521696082
 20
3.059367817454469
 30
0.0
 11
-6.318474521696082
 21
-4.023965515878863
 31
0.0
 70
    33
  1
88.5
 71
     5
 42
8.848976380999772
  3
STANDARD
100
AcDbAlignedDimension
 13
-12.56847452169608
 23
11.90834419845424
 33
0.0
 14
-12.56847452169608
 24
3.059367817454472
 34
0.0
1001
ACAD
1000
DSTYLE
1002
{
1070
   287
1070
     3
1070
    40
1040
1.0
1070
   140
1040
2.5
1070
   147
1040
0.5
1070
   172
1070
     1
1070
   279
1070
     0
1070
   288
1070
     0
1002
}
  0
DIMENSION
  5
63
330
2
100
AcDbEntity
  8
SUNPO
100
AcDbDimension
  2
*D8
 10
-12.62646657743158
 20
-5.146948417961539
 30
0.0
 11
-24.57648091308363
 21
-3.396948417961538
 31
0.0
 70
    33
  1
φ239
 71
     5
 42
23.90002867130409
  3
STANDARD
100
AcDbAlignedDimension
 13
-36.52649524873567
 23
2.85305158203846
 33
0.0
 14
-12.62646657743158
 24
2.85305158203846
 34
0.0
1001
ACAD
1000
DSTYLE
1002
{
1070
   287
1070
     3
1070
    40
1040
1.0
1070
   140
1040
2.5
1070
   147
1040
0.5
1070
   172
1070
     1
1070
   279
1070
     0
1070
   288
1070
     0
1002
}
  0
TEXT
  5
70
330
2
100
AcDbEntity
  8
MOJI1
100
AcDbText
 10
-23.17612046715954
 20
-49.49943505328917
 30
0.0
 40
3.0
  1
カメラタイトル　最大１６文字
100
AcDbText
  0
TEXT
  5
71
330
2
100
AcDbEntity
  8
MOJI1
100
AcDbText
 10
-23.17612046715954
 20
-29.49943505328917
 30
0.0
 40
3.0
  1
水平：５４０本ｔｙｐ 垂直：３５０本以上（中心部）
 41
0.95
100
AcDbText
  0
TEXT
  5
72
330
2
100
AcDbEntity
  8
MOJI1
100
AcDbText
 10
-22.17612046715954
 20
-19.49943505328917
 30
0.0
 40
3.0
  1
ＡＣ１００Ｖ　５０／６０Ｈｚ
100
AcDbText
  0
TEXT
  5
73
330
2
100
AcDbEntity
  8
MOJI1
100
AcDbText
 10
-23.17612046715954
 20
-24.49943505328918
 30
0.0
 40
3.0
  1
１／４型インターライン転送方式ＣＣＤ
100
AcDbText
  0
TEXT
  5
74
330
2
100
AcDbEntity
  8
MOJI1
100
AcDbText
 10
-23.17612046715954
 20
-44.49943505328917
 30
0.0
 40
3.0
  1
５２ｄＢ／ｔｙｐ（ＳＵＰＥＲ－Ｄ３：ＯＮ）
100
AcDbText
  0
LINE
  5
75
330
2
100
AcDbEntity
  8
WAKU
  6
Continuous
 62
     1
100
AcDbLine
 10
-65.67612046715954
 20
-40.49943505328918
 30
0.0
 11
59.32387953284046
 21
-40.49943505328918
 31
0.0
  0
LINE
  5
76
330
2
100
AcDbEntity
  8
WAKU
  6
Continuous
 62
     1
100
AcDbLine
 10
-65.67612046715954
 20
-25.49943505328918
 30
0.0
 11
59.32387953284046
 21
-25.49943505328918
 31
0.0
  0
LINE
  5
77
330
2
100
AcDbEntity
  8
WAKU
  6
Continuous
 62
     1
100
AcDbLine
 10
-65.67612046715954
 20
-20.49943505328918
 30
0.0
 11
59.32387953284046
 21
-20.49943505328918
 31
0.0
  0
LINE
  5
78
330
2
100
AcDbEntity
  8
WAKU
  6
Continuous
 62
     4
100
AcDbLine
 10
-65.67612046715954
 20
-15.49943505328917
 30
0.0
 11
59.32387953284046
 21
-15.49943505328917
 31
0.0
  0
LINE
  5
79
330
2
100
AcDbEntity
  8
WAKU
  6
Continuous
 62
     1
100
AcDbLine
 10
-65.67612046715954
 20
-35.49943505328918
 30
0.0
 11
59.32387953284046
 21
-35.49943505328918
 31
0.0
  0
LINE
  5
7A
330
2
100
AcDbEntity
  8
WAKU
  6
Continuous
 62
     1
100
AcDbLine
 10
-65.67612046715954
 20
-30.49943505328918
 30
0.0
 11
59.32387953284046
 21
-30.49943505328918
 31
0.0
  0
LINE
  5
7B
330
2
100
AcDbEntity
  8
WAKU
 62
     4
100
AcDbLine
 10
59.32387953284046
 20
-15.49943505328917
 30
0.0
 11
-65.67612046715954
 21
-15.49943505328917
 31
0.0
  0
LINE
  5
7C
330
2
100
AcDbEntity
  8
WAKU
 62
     1
100
AcDbLine
 10
-65.67612046715954
 20
-40.49943505328918
 30
0.0
 11
59.32387953284046
 21
-40.49943505328918
 31
0.0
  0
LINE
  5
7D
330
2
100
AcDbEntity
  8
WAKU
 62
     1
100
AcDbLine
 10
-65.67612046715954
 20
-35.49943505328918
 30
0.0
 11
59.32387953284046
 21
-35.49943505328918
 31
0.0
  0
LINE
  5
7E
330
2
100
AcDbEntity
  8
WAKU
 62
     1
100
AcDbLine
 10
-65.67612046715954
 20
-30.49943505328918
 30
0.0
 11
59.32387953284046
 21
-30.49943505328918
 31
0.0
  0
LINE
  5
7F
330
2
100
AcDbEntity
  8
WAKU
 62
     1
100
AcDbLine
 10
-65.67612046715954
 20
-25.49943505328918
 30
0.0
 11
59.32387953284046
 21
-25.49943505328918
 31
0.0
  0
LINE
  5
80
330
2
100
AcDbEntity
  8
WAKU
 62
     1
100
AcDbLine
 10
-65.67612046715954
 20
-20.49943505328918
 30
0.0
 11
59.32387953284046
 21
-20.49943505328918
 31
0.0
  0
LINE
  5
81
330
2
100
AcDbEntity
  8
WAKU
  6
Continuous
 62
     4
100
AcDbLine
 10
59.32387953284046
 20
-55.49943505328918
 30
0.0
 11
-65.67612046715954
 21
-55.49943505328918
 31
0.0
  0
LINE
  5
82
330
2
100
AcDbEntity
  8
WAKU
  6
Continuous
 62
     1
100
AcDbLine
 10
-65.67612046715954
 20
-45.49943505328918
 30
0.0
 11
59.32387953284046
 21
-45.49943505328918
 31
0.0
  0
LINE
  5
83
330
2
100
AcDbEntity
  8
WAKU
 62
     1
100
AcDbLine
 10
-65.67612046715954
 20
-45.49943505328918
 30
0.0
 11
59.32387953284046
 21
-45.49943505328918
 31
0.0
  0
TEXT
  5
84
330
2
100
AcDbEntity
  8
MOJI1
100
AcDbText
 10
-63.17612046715954
 20
-34.49943505328918
 30
0.0
 40
3.0
  1
画 角
100
AcDbText
  0
TEXT
  5
85
330
2
100
AcDbEntity
  8
MOJI1
100
AcDbText
 10
-63.17612046715954
 20
-29.49943505328917
 30
0.0
 40
3.0
  1
解像度
100
AcDbText
  0
TEXT
  5
86
330
2
100
AcDbEntity
  8
MOJI1
100
AcDbText
 10
-63.17612046715954
 20
-19.49943505328917
 30
0.0
 40
3.0
  1
電　源
100
AcDbText
  0
TEXT
  5
87
330
2
100
AcDbEntity
  8
MOJI1
100
AcDbText
 10
-63.17612046715954
 20
-24.49943505328918
 30
0.0
 40
3.0
  1
撮像素子
100
AcDbText
  0
TEXT
  5
88
330
2
100
AcDbEntity
  8
MOJI1
100
AcDbText
 10
-63.17612046715954
 20
-39.49943505328917
 30
0.0
 40
3.0
  1
最低照度
100
AcDbText
  0
TEXT
  5
89
330
2
100
AcDbEntity
  8
MOJI1
100
AcDbText
 10
-63.17612046715954
 20
-49.49943505328917
 30
0.0
 40
3.0
  1
機　能
100
AcDbText
  0
LINE
  5
8A
330
2
100
AcDbEntity
  8
WAKU
  6
Continuous
 62
     4
100
AcDbLine
 10
-65.67612046715954
 20
-15.49943505328917
 30
0.0
 11
-65.67612046715954
 21
-55.49943505328918
 31
0.0
  0
LINE
  5
8B
330
2
100
AcDbEntity
  8
WAKU
 62
     4
100
AcDbLine
 10
-65.67612046715954
 20
-15.49943505328917
 30
0.0
 11
-65.67612046715954
 21
-55.49943505328918
 31
0.0
  0
TEXT
  5
8C
330
2
100
AcDbEntity
  8
MOJI1
100
AcDbText
 10
-23.17612046715954
 20
-39.49943505328917
 30
0.0
 40
3.0
  1
０．５ｌｘ
100
AcDbText
  0
TEXT
  5
8D
330
2
100
AcDbEntity
  8
MOJI1
100
AcDbText
 10
-23.17612046715954
 20
-34.49943505328918
 30
0.0
 40
3.0
  1
水平：１．８°～５２°、垂直：１．４°～４０°
100
AcDbText
  0
LINE
  5
8E
330
2
100
AcDbEntity
  8
WAKU
 62
     4
100
AcDbLine
 10
-25.67612046715954
 20
-55.49943505328918
 30
0.0
 11
-25.67612046715954
 21
-15.49943505328917
 31
0.0
  0
LINE
  5
8F
330
2
100
AcDbEntity
  8
WAKU
 62
     4
100
AcDbLine
 10
59.32387953284046
 20
-55.49943505328918
 30
0.0
 11
59.32387953284046
 21
-15.49943505328917
 31
0.0
  0
ARC
  5
90
330
2
100
AcDbEntity
  8
GAIKEI
 62
     1
100
AcDbCircle
 10
32.65841913140377
 20
43.81201754309626
 30
0.0
 40
1.147014473285058
100
AcDbArc
 50
34.99410476730651
 51
235.0058952326931
  0
ARC
  5
92
330
2
100
AcDbEntity
  8
GAIKEI
 62
     1
100
AcDbCircle
 10
32.65840522677064
 20
43.81235888021712
 30
0.0
 40
0.7976788644665152
100
AcDbArc
 50
34.97212619753996
 51
235.0213492019418
  0
ARC
  5
93
330
2
100
AcDbEntity
  8
GAIKEI
 62
     1
100
AcDbCircle
 10
34.44460642619993
 20
42.95702970165598
 30
0.0
 40
0.1745447041906593
100
AcDbArc
 50
215.0924014477986
 51
35.01750761426857
  0
ARC
  5
94
330
2
100
AcDbEntity
  8
GAIKEI
 62
     1
100
AcDbCircle
 10
33.27143237665337
 20
40.9486261450134
 30
0.0
 40
1.196233414442227
100
AcDbArc
 50
44.36140689904961
 51
54.99158789799787
  0
ARC
  5
95
330
2
100
AcDbEntity
  8
GAIKEI
 62
     1
100
AcDbCircle
 10
35.2800324517732
 20
42.75810311954507
 30
0.0
 40
0.3958288777396075
100
AcDbArc
 50
214.8424871915185
 51
246.831185380762
  0
ARC
  5
96
330
2
100
AcDbEntity
  8
GAIKEI
 62
     1
100
AcDbCircle
 10
35.52085036696406
 20
43.19755319550558
 30
0.0
 40
1.194293473109997
100
AcDbArc
 50
214.9663875717979
 51
245.1749662203264
  0
ARC
  5
97
330
2
100
AcDbEntity
  8
GAIKEI
 62
     1
100
AcDbCircle
 10
33.29164834130222
 20
40.96319199738553
 30
0.0
 40
1.171601863741605
100
AcDbArc
 50
24.62587282864964
 51
44.54337194440713
  0
ARC
  5
98
330
2
100
AcDbEntity
  8
GAIKEI
 62
     1
100
AcDbCircle
 10
33.70477564434106
 20
41.1843859321346
 30
0.0
 40
0.4055516200892335
100
AcDbArc
 50
23.52572962033541
 51
54.76822853994633
  0
ARC
  5
99
330
2
100
AcDbEntity
  8
GAIKEI
 62
     1
100
AcDbCircle
 10
35.04475331924226
 20
41.20741732290071
 30
0.0
 40
0.7079106191913358
100
AcDbArc
 50
181.027858337605
 51
187.8093825963761
  0
ARC
  5
9A
330
2
100
AcDbEntity
  8
GAIKEI
 62
     1
100
AcDbCircle
 10
34.86556516234322
 20
41.19329600049115
 30
0.0
 40
0.408941372858246
100
AcDbArc
 50
179.800706065456
 51
188.9111247060067
  0
ARC
  5
9B
330
2
100
AcDbEntity
  8
GAIKEI
 62
     1
100
AcDbCircle
 10
34.87344971882431
 20
41.19488565165613
 30
0.0
 40
0.5364931358318317
100
AcDbArc
 50
51.70912468745511
 51
180.0178584427528
  0
ARC
  5
9C
330
2
100
AcDbEntity
  8
GAIKEI
 62
     1
100
AcDbCircle
 10
34.87327022141256
 20
41.19504213772415
 30
0.0
 40
0.4166440838253731
100
AcDbArc
 50
44.766912927592
 51
180.044515032454
  0
ARC
  5
9D
330
2
100
AcDbEntity
  8
GAIKEI
 62
     1
100
AcDbCircle
 10
34.88399016532537
 20
41.19270419686341
 30
0.0
 40
0.5252854940321458
100
AcDbArc
 50
341.3181540747227
 51
352.5689689835047
  0
ARC
  5
9E
330
2
100
AcDbEntity
  8
GAIKEI
 62
     1
100
AcDbCircle
 10
34.8116313812605
 20
41.65968663715756
 30
0.0
 40
0.7987885814692177
100
AcDbArc
 50
246.5325821179467
 51
235.648563817246
  0
ARC
  5
9F
330
2
100
AcDbEntity
  8
GAIKEI
 62
     1
100
AcDbCircle
 10
34.80626929850866
 20
41.65774453643161
 30
0.0
 40
0.3989621721123702
100
AcDbArc
 50
221.4168066028803
 51
202.2387875179893
  0
ARC
  5
A0
330
2
100
AcDbEntity
  8
GAIKEI
 62
     1
100
AcDbCircle
 10
34.8116313812605
 20
41.65968663715756
 30
0.0
 40
0.4987885814692176
100
AcDbArc
 50
226.6500748166214
 51
210.3086396481678
  0
ARC
  5
A1
330
2
100
AcDbEntity
  8
GAIKEI
 62
     1
100
AcDbCircle
 10
35.54947536446253
 20
39.38146568952987
 30
0.0
 40
0.8
100
AcDbArc
 50
161.5085046575517
 51
180.0
  0
ARC
  5
A2
330
2
100
AcDbEntity
  8
GAIKEI
 62
     1
100
AcDbCircle
 10
35.66939802012911
 20
39.36240797002716
 30
0.0
 40
0.8
100
AcDbArc
 50
161.5115568545118
 51
180.0
  0
ARC
  5
A3
330
2
100
AcDbEntity
  8
GAIKEI
 62
     1
100
AcDbCircle
 10
33.94947536446256
 20
39.23943378460263
 30
0.0
 40
0.8
100
AcDbArc
 50
0.000000000000007
 51
8.951222656083706
  0
ARC
  5
A4
330
2
100
AcDbEntity
  8
GAIKEI
 62
     1
100
AcDbCircle
 10
33.83132371847882
 20
39.22138751668956
 30
0.0
 40
0.8
100
AcDbArc
 50
0.000000000000007
 51
8.954593975827638
  0
ARC
  5
A5
330
2
100
AcDbEntity
  8
GAIKEI
 62
     1
100
AcDbCircle
 10
33.94655200565984
 20
30.40662844521376
 30
0.0
 40
0.9228460181991385
100
AcDbArc
 50
270.181499836621
 51
0.0051513080017533
  0
ARC
  5
A6
330
2
100
AcDbEntity
  8
GAIKEI
 62
     1
100
AcDbCircle
 10
33.94947536446256
 20
30.40320705728226
 30
0.0
 40
0.8
100
AcDbArc
 50
269.9999999999992
 51
0.000000000000007
  0
ARC
  5
A7
330
2
100
AcDbEntity
  8
GAIKEI
 62
     1
100
AcDbCircle
 10
32.3336549424273
 20
29.28379040438222
 30
0.0
 40
0.2
100
AcDbArc
 50
90.0
 51
135.0209032385845
  0
ARC
  5
A8
330
2
100
AcDbEntity
  8
GAIKEI
 62
     1
100
AcDbCircle
 10
32.28396164402255
 20
29.40320705728226
 30
0.0
 40
0.2
100
AcDbArc
 50
89.99999999999982
 51
135.0000000000019
  0
ARC
  5
A9
330
2
100
AcDbEntity
  8
GAIKEI
 62
     1
100
AcDbCircle
 10
23.12981298199708
 20
9.668693038965727
 30
0.0
 40
6.022677305431433
100
AcDbArc
 50
226.2122228980883
 51
270.2605903456387
  0
ARC
  5
AA
330
2
100
AcDbEntity
  8
GAIKEI
 62
     1
100
AcDbCircle
 10
23.1527150176812
 20
10.58036067430549
 30
0.0
 40
6.376162993194777
100
AcDbArc
 50
239.1959207598977
 51
270.0403465508008
  0
LINE
  5
AB
330
2
100
AcDbEntity
  8
GAIKEI
 62
     1
100
AcDbLine
 10
16.42458517473767
 20
11.52707111387718
 30
0.0
 11
16.42458517473767
 21
10.4535862446931
 31
0.0
  0
LINE
  5
AC
330
2
100
AcDbEntity
  8
GAIKEI
 62
     1
100
AcDbLine
 10
16.52477372250973
 20
9.901284225030337
 30
0.0
 11
16.52477372250973
 21
10.23043902465525
 31
0.0
  0
LINE
  5
AD
330
2
100
AcDbEntity
  8
GAIKEI
 62
     1
100
AcDbLine
 10
16.59308409599072
 20
10.62967520744399
 30
0.0
 11
16.59308409599072
 21
10.4535862446931
 31
0.0
  0
LINE
  5
AE
330
2
100
AcDbEntity
  8
GAIKEI
 62
     1
100
AcDbLine
 10
16.69554965621216
 20
9.936198415920614
 30
0.0
 11
16.69554965621216
 21
10.23043902465525
 31
0.0
  0
LINE
  5
AF
330
2
100
AcDbEntity
  8
GAIKEI
 62
     1
100
AcDbLine
 10
16.69706766451173
 20
10.62967520744399
 30
0.0
 11
16.69706766451173
 21
10.4535862446931
 31
0.0
  0
LINE
  5
B0
330
2
100
AcDbEntity
  8
GAIKEI
 62
     1
100
AcDbLine
 10
16.76892005735834
 20
10.4535862446931
 30
0.0
 11
16.76892005735834
 21
11.52707111387718
 31
0.0
  0
LINE
  5
B1
330
2
100
AcDbEntity
  8
GAIKEI
 62
     1
100
AcDbLine
 10
16.80054523026621
 20
9.936198415920614
 30
0.0
 11
16.80054523026621
 21
10.23043902465525
 31
0.0
  0
LINE
  5
B2
330
2
100
AcDbEntity
  8
GAIKEI
 62
     1
100
AcDbLine
 10
16.95234606022387
 20
10.23043902465525
 30
0.0
 11
16.95234606022387
 21
11.52707111387718
 31
0.0
  0
LINE
  5
B3
330
2
100
AcDbEntity
  8
GAIKEI
 62
     1
100
AcDbLine
 10
16.69706766451173
 20
10.62967520744399
 30
0.0
 11
16.59308409599072
 21
10.62967520744399
 31
0.0
  0
LINE
  5
B4
330
2
100
AcDbEntity
  8
GAIKEI
 62
     1
100
AcDbLine
 10
17.03178849456839
 20
9.609578793422031
 30
0.0
 11
17.03178849456839
 21
11.52707111387718
 31
0.0
  0
LINE
  5
B5
330
2
100
AcDbEntity
  8
GAIKEI
 62
     1
100
AcDbLine
 10
16.42458517473767
 20
10.4535862446931
 30
0.0
 11
16.59308409599072
 21
10.4535862446931
 31
0.0
  0
LINE
  5
B6
330
2
100
AcDbEntity
  8
GAIKEI
 62
     1
100
AcDbLine
 10
16.95234606022387
 20
10.23043902465525
 30
0.0
 11
16.80054523026621
 21
10.23043902465525
 31
0.0
  0
LINE
  5
B7
330
2
100
AcDbEntity
  8
GAIKEI
 62
     1
100
AcDbLine
 10
16.69554965621216
 20
10.23043902465525
 30
0.0
 11
16.52477372250973
 21
10.23043902465525
 31
0.0
  0
LINE
  5
B8
330
2
100
AcDbEntity
  8
GAIKEI
 62
     1
100
AcDbLine
 10
16.69554965621216
 20
9.936198415920614
 30
0.0
 11
16.80054523026621
 21
9.936198415920614
 31
0.0
  0
LINE
  5
B9
330
2
100
AcDbEntity
  8
GAIKEI
 62
     1
100
AcDbLine
 10
16.52477372250973
 20
9.901284225030337
 30
0.0
 11
16.73400586646806
 21
9.901284225030337
 31
0.0
  0
LINE
  5
BA
330
2
100
AcDbEntity
  8
GAIKEI
 62
     1
100
AcDbLine
 10
16.57436199362928
 20
9.852707959443932
 30
0.0
 11
16.78359413758761
 21
9.852707959443932
 31
0.0
  0
LINE
  5
BB
330
2
100
AcDbEntity
  8
GAIKEI
 62
     1
100
AcDbLine
 10
16.52477372250973
 20
9.901284225030337
 30
0.0
 11
16.57436199362928
 21
9.852707959443932
 31
0.0
  0
LINE
  5
BC
330
2
100
AcDbEntity
  8
GAIKEI
 62
     1
100
AcDbLine
 10
16.73400586646806
 20
9.901284225030337
 30
0.0
 11
17.03178849456839
 21
9.609578793422031
 31
0.0
  0
LINE
  5
BD
330
2
100
AcDbEntity
  8
GAIKEI
 62
     1
100
AcDbLine
 10
16.69706766451173
 20
10.4535862446931
 30
0.0
 11
16.76892005735834
 21
10.4535862446931
 31
0.0
  0
LINE
  5
BE
330
2
100
AcDbEntity
  8
GAIKEI
 62
     1
100
AcDbLine
 10
17.13982008522163
 20
11.52707111387718
 30
0.0
 11
17.14774394013813
 21
8.59558735842603
 31
0.0
  0
ARC
  5
BF
330
2
100
AcDbEntity
  8
GAIKEI
 62
     1
100
AcDbCircle
 10
24.59282743829084
 20
10.58070779360724
 30
0.0
 40
7.705191200524453
100
AcDbArc
 50
194.929727541215
 51
223.0498927489375
  0
ARC
  5
C0
330
2
100
AcDbEntity
  8
GAIKEI
 62
     1
100
AcDbCircle
 10
22.96542104127519
 20
10.33941261325032
 30
0.0
 40
6.073408711132298
100
AcDbArc
 50
196.6858901306182
 51
239.7603062496747
  0
ARC
  5
C1
330
2
100
AcDbEntity
  8
GAIKEI
 62
     1
100
AcDbCircle
 10
23.16169495180708
 20
10.58036067430549
 30
0.0
 40
6.376162993194777
100
AcDbArc
 50
269.9596534491992
 51
300.8040792401022
  0
ARC
  5
C2
330
2
100
AcDbEntity
  8
GAIKEI
 62
     1
100
AcDbCircle
 10
23.34898892821309
 20
10.33941261325032
 30
0.0
 40
6.073408711132298
100
AcDbArc
 50
300.2396937503254
 51
343.3141098693818
  0
ARC
  5
C3
330
2
100
AcDbEntity
  8
GAIKEI
 62
     1
100
AcDbCircle
 10
23.18459698749121
 20
9.668693038965727
 30
0.0
 40
6.022677305431433
100
AcDbArc
 50
269.7394096543613
 51
313.7877771019117
  0
ARC
  5
C4
330
2
100
AcDbEntity
  8
GAIKEI
 62
     1
100
AcDbCircle
 10
21.7215825311975
 20
10.58070779360724
 30
0.0
 40
7.705191200524453
100
AcDbArc
 50
316.9501072510625
 51
345.070272458785
  0
LINE
  5
C5
330
2
100
AcDbEntity
  8
GAIKEI
 62
     1
100
AcDbLine
 10
29.61734230497654
 20
10.4535862446931
 30
0.0
 11
29.54548991212994
 21
10.4535862446931
 31
0.0
  0
LINE
  5
C6
330
2
100
AcDbEntity
  8
GAIKEI
 62
     1
100
AcDbLine
 10
29.58040410302022
 20
9.901284225030337
 30
0.0
 11
29.28262147491989
 21
9.609578793422031
 31
0.0
  0
LINE
  5
C7
330
2
100
AcDbEntity
  8
GAIKEI
 62
     1
100
AcDbLine
 10
29.17466032261172
 20
11.5531302563532
 30
0.0
 11
29.16666602935015
 21
8.59558735842603
 31
0.0
  0
LINE
  5
C8
330
2
100
AcDbEntity
  8
GAIKEI
100
AcDbLine
 10
12.48548013802747
 20
12.4321835624998
 30
0.0
 11
12.48548013802747
 21
12.59170093464701
 31
0.0
  0
LINE
  5
C9
330
2
100
AcDbEntity
  8
GAIKEI
100
AcDbLine
 10
12.48548013802747
 20
12.4321835624998
 30
0.0
 11
12.67586367893273
 21
12.4321835624998
 31
0.0
  0
ARC
  5
CA
330
2
100
AcDbEntity
  8
GAIKEI
100
AcDbCircle
 10
15.5913641303884
 20
13.19748684139659
 30
0.0
 40
3.007909361672164
100
AcDbArc
 50
194.7398303351648
 51
204.6385653967519
  0
ARC
  5
CB
330
2
100
AcDbEntity
  8
GAIKEI
100
AcDbCircle
 10
30.72304583909988
 20
13.19748684139659
 30
0.0
 40
3.007909361672164
100
AcDbArc
 50
335.361434603248
 51
345.2601696648351
  0
ARC
  5
CC
330
2
100
AcDbEntity
  8
GAIKEI
100
AcDbCircle
 10
-34.16433140494741
 20
15.36620681996902
 30
0.0
 40
65.44476126189625
100
AcDbArc
 50
355.3066281732155
 51
356.6598244457539
  0
ARC
  5
CD
330
2
100
AcDbEntity
  8
GAIKEI
100
AcDbCircle
 10
23.18747865547647
 20
11.0929680611801
 30
0.0
 40
7.947457734105853
100
AcDbArc
 50
314.195790337602
 51
352.1776735796046
  0
ARC
  5
CE
330
2
100
AcDbEntity
  8
GAIKEI
100
AcDbCircle
 10
23.16755959005815
 20
11.08090370394217
 30
0.0
 40
7.952726251192598
100
AcDbArc
 50
269.9253997519968
 51
314.3592719522809
  0
ARC
  5
CF
330
2
100
AcDbEntity
  8
GAIKEI
100
AcDbCircle
 10
23.14685037943013
 20
11.08090370394217
 30
0.0
 40
7.952726251192598
100
AcDbArc
 50
225.6407280477191
 51
270.0746002480032
  0
ARC
  5
D0
330
2
100
AcDbEntity
  8
GAIKEI
100
AcDbCircle
 10
23.12693131401187
 20
11.0929680611801
 30
0.0
 40
7.947457734105853
100
AcDbArc
 50
187.8223264203955
 51
225.804209662398
  0
ARC
  5
D1
330
2
100
AcDbEntity
  8
GAIKEI
100
AcDbCircle
 10
80.47874137443574
 20
15.36620681996902
 30
0.0
 40
65.44476126189625
100
AcDbArc
 50
183.3401755542461
 51
184.6933718267845
  0
LINE
  5
D2
330
2
100
AcDbEntity
  8
GAIKEI
100
AcDbLine
 10
13.71181860875697
 20
11.94351139072773
 30
0.0
 11
14.2318208673185
 21
11.74025918347496
 31
0.0
  0
LINE
  5
D3
330
2
100
AcDbEntity
  8
GAIKEI
100
AcDbLine
 10
14.2318208673185
 20
11.74025918347496
 30
0.0
 11
14.8065875729398
 21
11.5531302563532
 31
0.0
  0
ARC
  5
D4
330
2
100
AcDbEntity
  8
GAIKEI
 62
     1
100
AcDbCircle
 10
17.11310635958421
 20
13.42463196511329
 30
0.0
 40
1.79962810126059
100
AcDbArc
 50
235.3877362671013
 51
267.8696783105258
  0
ARC
  5
D5
330
2
100
AcDbEntity
  8
GAIKEI
 62
     1
100
AcDbCircle
 10
17.22726429360034
 20
11.68864158392108
 30
0.0
 40
0.036588548234881
100
AcDbArc
 50
319.1378988560371
 51
10.10959864636815
  0
ARC
  5
D6
330
2
100
AcDbEntity
  8
GAIKEI
 62
     1
100
AcDbCircle
 10
17.07688735251446
 20
12.38706429184089
 30
0.0
 40
0.7614348818684209
100
AcDbArc
 50
267.6909605975899
 51
277.7188783424553
  0
ARC
  5
D7
330
2
100
AcDbEntity
  8
GAIKEI
 62
     1
100
AcDbCircle
 10
17.18557529126679
 20
11.73587844602065
 30
0.0
 40
0.0993815330630986
100
AcDbArc
 50
297.7411536814935
 51
314.2604139571854
  0
ARC
  5
D8
330
2
100
AcDbEntity
  8
GAIKEI
 62
     1
100
AcDbCircle
 10
17.15088980472495
 20
11.82712065571155
 30
0.0
 40
0.1966343723822126
100
AcDbArc
 50
278.265410217104
 51
294.3087998455157
  0
ARC
  5
D9
330
2
100
AcDbEntity
  8
GAIKEI
 62
     1
100
AcDbCircle
 10
17.17596313997347
 20
11.67565521196189
 30
0.0
 40
0.0894526001733724
100
AcDbArc
 50
12.53131869959049
 51
39.67218746992347
  0
ARC
  5
DA
330
2
100
AcDbEntity
  8
GAIKEI
 62
     1
100
AcDbCircle
 10
17.01163970202685
 20
11.5386579233147
 30
0.0
 40
0.3033926894193737
100
AcDbArc
 50
39.7751070812308
 51
54.2487028944855
  0
ARC
  5
DB
330
2
100
AcDbEntity
  8
GAIKEI
 62
     1
100
AcDbCircle
 10
16.37594507570344
 20
10.61799433337461
 30
0.0
 40
1.422153501699292
100
AcDbArc
 50
55.13545790331275
 51
68.7565373458429
  0
ARC
  5
DC
330
2
100
AcDbEntity
  8
GAIKEI
 62
     1
100
AcDbCircle
 10
29.93846489378484
 20
10.61799433337461
 30
0.0
 40
1.422153501699292
100
AcDbArc
 50
111.2434626541573
 51
124.8645420966872
  0
ARC
  5
DD
330
2
100
AcDbEntity
  8
GAIKEI
 62
     1
100
AcDbCircle
 10
29.30277026746143
 20
11.5386579233147
 30
0.0
 40
0.3033926894193737
100
AcDbArc
 50
125.7512971055145
 51
140.2248929187692
  0
ARC
  5
DE
330
2
100
AcDbEntity
  8
GAIKEI
 62
     1
100
AcDbCircle
 10
29.13844682951481
 20
11.67565521196189
 30
0.0
 40
0.0894526001733724
100
AcDbArc
 50
140.3278125300765
 51
167.4686813004095
  0
ARC
  5
DF
330
2
100
AcDbEntity
  8
GAIKEI
 62
     1
100
AcDbCircle
 10
29.16352016476333
 20
11.82712065571155
 30
0.0
 40
0.1966343723822126
100
AcDbArc
 50
245.6912001544843
 51
261.734589782896
  0
ARC
  5
E0
330
2
100
AcDbEntity
  8
GAIKEI
 62
     1
100
AcDbCircle
 10
29.1288346782215
 20
11.73587844602065
 30
0.0
 40
0.0993815330630986
100
AcDbArc
 50
225.7395860428146
 51
242.2588463185065
  0
ARC
  5
E1
330
2
100
AcDbEntity
  8
GAIKEI
 62
     1
100
AcDbCircle
 10
29.23752261697382
 20
12.38706429184089
 30
0.0
 40
0.7614348818684209
100
AcDbArc
 50
262.2811216575447
 51
272.3090394024101
  0
ARC
  5
E2
330
2
100
AcDbEntity
  8
GAIKEI
 62
     1
100
AcDbCircle
 10
29.08714567588794
 20
11.68864158392108
 30
0.0
 40
0.036588548234881
100
AcDbArc
 50
169.8904013536318
 51
220.862101143963
  0
ARC
  5
E3
330
2
100
AcDbEntity
  8
GAIKEI
 62
     1
100
AcDbCircle
 10
29.20130360990408
 20
13.42463196511329
 30
0.0
 40
1.79962810126059
100
AcDbArc
 50
272.1303216894741
 51
304.6122637328986
  0
LINE
  5
E4
330
2
100
AcDbEntity
  8
GAIKEI
100
AcDbLine
 10
14.8065875729398
 20
11.5531302563532
 30
0.0
 11
31.4919536370208
 21
11.5531302563532
 31
0.0
  0
ARC
  5
E5
330
2
100
AcDbEntity
  8
GAIKEI
100
AcDbCircle
 10
31.4919536370208
 20
11.65313025635322
 30
0.0
 40
0.1
100
AcDbArc
 50
270.0
 51
288.033887286446
  0
LINE
  5
E6
330
2
100
AcDbEntity
  8
GAIKEI
100
AcDbLine
 10
32.08258910216983
 20
11.74025918347496
 30
0.0
 11
31.522911580786
 21
11.55804289800397
 31
0.0
  0
LINE
  5
E7
330
2
100
AcDbEntity
  8
GAIKEI
100
AcDbLine
 10
32.60259136073137
 20
11.94351139072773
 30
0.0
 11
32.08258910216983
 21
11.74025918347496
 31
0.0
  0
ARC
  5
E8
330
2
100
AcDbEntity
  8
GAIKEI
100
AcDbCircle
 10
-8.429827739579252
 20
13.18909313415298
 30
0.0
 40
43.21724979929718
100
AcDbArc
 50
10.00554855145592
 51
12.03168114390537
  0
LINE
  5
E9
330
2
100
AcDbEntity
  8
GAIKEI
 62
     1
100
AcDbLine
 10
27.60041527760552
 20
26.28471441371568
 30
0.0
 11
31.94495503099438
 21
26.28471441371568
 31
0.0
  0
LINE
  5
EA
330
2
100
AcDbEntity
  8
GAIKEI
 62
     1
100
AcDbLine
 10
28.11780310637795
 20
24.38986055376893
 30
0.0
 11
27.60041527760552
 21
26.28471441371568
 31
0.0
  0
LINE
  5
EB
330
2
100
AcDbEntity
  8
GAIKEI
 62
     1
100
AcDbLine
 10
32.46512587498268
 20
24.38986055376893
 30
0.0
 11
28.11780310637795
 21
24.38986055376893
 31
0.0
  0
LINE
  5
EC
330
2
100
AcDbEntity
  8
GAIKEI
 62
     1
100
AcDbLine
 10
31.94495503099438
 20
26.28471441371568
 30
0.0
 11
32.46512587498268
 21
24.38986055376893
 31
0.0
  0
LINE
  5
ED
330
2
100
AcDbEntity
  8
GAIKEI
100
AcDbLine
 10
33.3610037731163
 20
22.74446605771931
 30
0.0
 11
33.83804662610874
 21
22.19783759835377
 31
0.0
  0
LINE
  5
EE
330
2
100
AcDbEntity
  8
GAIKEI
100
AcDbLine
 10
32.2338826106805
 20
26.86590491889217
 30
0.0
 11
33.3610037731163
 21
22.74446605771925
 31
0.0
  0
LINE
  5
EF
330
2
100
AcDbEntity
  8
GAIKEI
100
AcDbLine
 10
32.2338826106805
 20
27.84434144083923
 30
0.0
 11
32.2338826106805
 21
26.86590491889217
 31
0.0
  0
ARC
  5
F0
330
2
100
AcDbEntity
  8
GAIKEI
100
AcDbCircle
 10
-8.429827739579252
 20
13.18909313415298
 30
0.0
 40
43.21724979929718
100
AcDbArc
 50
19.79439805495944
 51
21.01806772075424
  0
ARC
  5
F1
330
2
100
AcDbEntity
  8
GAIKEI
100
AcDbCircle
 10
34.79141099591414
 20
12.77296168900381
 30
0.0
 40
0.181796169136783
100
AcDbArc
 50
274.3984239779265
 51
350.2762361205045
  0
LINE
  5
F2
330
2
100
AcDbEntity
  8
GAIKEI
100
AcDbLine
 10
35.05408902991098
 20
13.00257518106582
 30
0.0
 11
34.97059539075065
 21
12.74225664446925
 31
0.0
  0
ARC
  5
F3
330
2
100
AcDbEntity
  8
GAIKEI
100
AcDbCircle
 10
-4.246135024442594
 20
11.47645083381388
 30
0.0
 40
39.32984447268598
100
AcDbArc
 50
2.223818659797981
 51
5.969910613616061
  0
ARC
  5
F4
330
2
100
AcDbEntity
  8
GAIKEI
100
AcDbCircle
 10
-19.72098478491131
 20
10.3092753487877
 30
0.0
 40
54.84399717788395
100
AcDbArc
 50
5.501215020595557
 51
10.91892318781764
  0
ARC
  5
F5
330
2
100
AcDbEntity
  8
GAIKEI
100
AcDbCircle
 10
54.74423770906753
 20
13.18909313415298
 30
0.0
 40
43.21724979929718
100
AcDbArc
 50
158.9819322792457
 51
169.9944514485441
  0
ARC
  5
F6
330
2
100
AcDbEntity
  8
GAIKEI
100
AcDbCircle
 10
66.03539475439959
 20
10.3092753487877
 30
0.0
 40
54.84399717788395
100
AcDbArc
 50
169.0810768121824
 51
174.4987849794044
  0
ARC
  5
F7
330
2
100
AcDbEntity
  8
GAIKEI
100
AcDbCircle
 10
50.56054499393088
 20
11.47645083381388
 30
0.0
 40
39.32984447268598
100
AcDbArc
 50
174.0300893863839
 51
177.776181340202
  0
LINE
  5
F8
330
2
100
AcDbEntity
  8
GAIKEI
100
AcDbLine
 10
11.26032093957729
 20
13.00257518106582
 30
0.0
 11
11.34337135896368
 21
12.73061858083912
 31
0.0
  0
ARC
  5
F9
330
2
100
AcDbEntity
  8
GAIKEI
100
AcDbCircle
 10
11.53381543488439
 20
12.79170093464705
 30
0.0
 40
0.2
100
AcDbArc
 50
197.7829386262079
 51
270.0
  0
ARC
  5
FA
330
2
100
AcDbEntity
  8
GAIKEI
 62
     1
100
AcDbCircle
 10
23.85548880254948
 20
30.12438990680363
 30
0.0
 40
0.7481250904305538
100
AcDbArc
 50
270.0193828746027
 51
89.98062040340739
  0
ARC
  5
FB
330
2
100
AcDbEntity
  8
GAIKEI
 62
     1
100
AcDbCircle
 10
23.87809609243216
 20
30.12361406500196
 30
0.0
 40
0.5499903235198174
100
AcDbArc
 50
263.1114230812007
 51
92.32942152366344
  0
ARC
  5
FC
330
2
100
AcDbEntity
  8
GAIKEI
 62
     1
100
AcDbCircle
 10
23.40729925863019
 20
29.7760094085815
 30
0.0
 40
0.2
100
AcDbArc
 50
180.0000000000009
 51
270.0000000000007
  0
ARC
  5
FD
330
2
100
AcDbEntity
  8
GAIKEI
 62
     1
100
AcDbCircle
 10
23.40729925863019
 20
30.47314990710066
 30
0.0
 40
0.2
100
AcDbArc
 50
90.0
 51
180.0000000000005
  0
LINE
  5
FE
330
2
100
AcDbEntity
  8
GAIKEI
 62
     1
100
AcDbLine
 10
24.23473787606042
 20
38.96009216607632
 30
0.0
 11
24.15478943894931
 21
38.96009216607632
 31
0.0
  0
LINE
  5
FF
330
2
100
AcDbEntity
  8
GAIKEI
 62
     1
100
AcDbLine
 10
25.5384540040136
 20
38.96009216607632
 30
0.0
 11
25.29911469544703
 21
38.96009216607632
 31
0.0
  0
LINE
  5
100
330
2
100
AcDbEntity
  8
GAIKEI
 62
     1
100
AcDbLine
 10
24.40399580146323
 20
38.91531092123882
 30
0.0
 11
24.23473787606042
 21
38.91531092123882
 31
0.0
  0
LINE
  5
101
330
2
100
AcDbEntity
  8
GAIKEI
 62
     1
100
AcDbLine
 10
24.50165433540269
 20
38.91012439288193
 30
0.0
 11
24.40399580146323
 21
38.91012439288193
 31
0.0
  0
LINE
  5
102
330
2
100
AcDbEntity
  8
GAIKEI
 62
     1
100
AcDbLine
 10
24.50165433540269
 20
38.21209357645983
 30
0.0
 11
24.40399580146323
 21
38.21209357645983
 31
0.0
  0
LINE
  5
103
330
2
100
AcDbEntity
  8
GAIKEI
 62
     1
100
AcDbLine
 10
24.40399580146323
 20
38.20716004948622
 30
0.0
 11
24.23473787606042
 21
38.20716004948622
 31
0.0
  0
LINE
  5
104
330
2
100
AcDbEntity
  8
GAIKEI
 62
     1
100
AcDbLine
 10
24.23473787606042
 20
38.16212580326544
 30
0.0
 11
24.15478943894931
 21
38.16212580326544
 31
0.0
  0
LINE
  5
105
330
2
100
AcDbEntity
  8
GAIKEI
 62
     1
100
AcDbLine
 10
24.95408044922618
 20
38.11241103145432
 30
0.0
 11
24.15478943894931
 21
38.11241103145432
 31
0.0
  0
LINE
  5
106
330
2
100
AcDbEntity
  8
GAIKEI
 62
     1
100
AcDbLine
 10
24.15478943894931
 20
38.11241103145432
 30
0.0
 11
24.15478943894931
 21
39.05977471108185
 31
0.0
  0
LINE
  5
107
330
2
100
AcDbEntity
  8
GAIKEI
 62
     1
100
AcDbLine
 10
24.23473787606037
 20
38.96009216607632
 30
0.0
 11
24.23473787606037
 21
38.16212580326544
 31
0.0
  0
LINE
  5
108
330
2
100
AcDbEntity
  8
GAIKEI
 62
     1
100
AcDbLine
 10
24.40399580146323
 20
38.91531092123882
 30
0.0
 11
24.40399580146323
 21
38.20716004948622
 31
0.0
  0
LINE
  5
109
330
2
100
AcDbEntity
  8
GAIKEI
 62
     1
100
AcDbLine
 10
25.25408044922625
 20
39.00456207337203
 30
0.0
 11
25.25408044922619
 21
38.41241103145433
 31
0.0
  0
LINE
  5
10A
330
2
100
AcDbEntity
  8
GAIKEI
100
AcDbLine
 10
25.5384540040136
 20
35.7097749444049
 30
0.0
 11
25.5384540040136
 21
38.96009216607632
 31
0.0
  0
ARC
  5
10B
330
2
100
AcDbEntity
  8
GAIKEI
 62
     1
100
AcDbCircle
 10
24.95408044922618
 20
38.41241103145433
 30
0.0
 40
0.3
100
AcDbArc
 50
270.0
 51
0.0000000000011266
  0
ARC
  5
10C
330
2
100
AcDbEntity
  8
GAIKEI
 62
     1
100
AcDbCircle
 10
24.50159290464938
 20
38.34185099030185
 30
0.0
 40
0.1297574283835351
100
AcDbArc
 50
270.0271254067693
 51
343.3008085153687
  0
ARC
  5
10D
330
2
100
AcDbEntity
  8
GAIKEI
 62
     1
100
AcDbCircle
 10
23.68163266446032
 20
38.56912473469657
 30
0.0
 40
0.9806073763156025
100
AcDbArc
 50
344.3481629309512
 51
356.6249193728231
  0
ARC
  5
10E
330
2
100
AcDbEntity
  8
GAIKEI
 62
     1
100
AcDbCircle
 10
23.85042577372764
 20
38.56123548536249
 30
0.0
 40
0.794979278166566
100
AcDbArc
 50
356.405480300818
 51
3.59451969918283
  0
ARC
  5
10F
330
2
100
AcDbEntity
  8
GAIKEI
 62
     1
100
AcDbCircle
 10
23.68163266446032
 20
38.55334623602846
 30
0.0
 40
0.9806073763156025
100
AcDbArc
 50
3.375080627176922
 51
15.65183706904878
  0
ARC
  5
110
330
2
100
AcDbEntity
  8
GAIKEI
 62
     1
100
AcDbCircle
 10
24.50159290464938
 20
38.78061998042318
 30
0.0
 40
0.1297574283835351
100
AcDbArc
 50
16.69919148463131
 51
89.97287459323066
  0
LINE
  5
111
330
2
100
AcDbEntity
  8
GAIKEI
 62
     1
100
AcDbLine
 10
24.66053920409172
 20
38.51139421285973
 30
0.0
 11
24.64384111279634
 21
38.51139421285973
 31
0.0
  0
LINE
  5
112
330
2
100
AcDbEntity
  8
GAIKEI
 62
     1
100
AcDbLine
 10
24.66053920409172
 20
38.61107675786531
 30
0.0
 11
24.64384111279634
 21
38.61107675786531
 31
0.0
  0
LINE
  5
113
330
2
100
AcDbEntity
  8
GAIKEI
100
AcDbLine
 10
25.5384540040136
 20
38.96009216607632
 30
0.0
 11
25.42623312142036
 21
39.07090677194543
 31
0.0
  0
LINE
  5
114
330
2
100
AcDbEntity
  8
GAIKEI
 62
     1
100
AcDbLine
 10
25.29911469544703
 20
38.96009216607632
 30
0.0
 11
25.19816714352515
 21
39.05977471108185
 31
0.0
  0
LINE
  5
115
330
2
100
AcDbEntity
  8
GAIKEI
 62
     1
100
AcDbLine
 10
23.75555325616062
 20
35.7097749444049
 30
0.0
 11
23.75555325616062
 21
39.05977471108185
 31
0.0
  0
LINE
  5
116
330
2
100
AcDbEntity
  8
GAIKEI
100
AcDbLine
 10
31.40150805974594
 20
28.93895192552577
 30
0.0
 11
31.91206485117027
 21
28.68949256162864
 31
0.0
  0
LINE
  5
117
330
2
100
AcDbEntity
  8
GAIKEI
100
AcDbLine
 10
31.73236373874255
 20
28.93895192552577
 30
0.0
 11
31.36912388268826
 21
28.93895192552577
 31
0.0
  0
ARC
  5
118
330
2
100
AcDbEntity
  8
GAIKEI
100
AcDbCircle
 10
14.35676137076467
 20
22.24250724691405
 30
0.0
 40
18.69128479927947
100
AcDbArc
 50
21.22378437568546
 51
45.87146134481359
  0
ARC
  5
119
330
2
100
AcDbEntity
  8
GAIKEI
100
AcDbCircle
 10
31.73236373874255
 20
28.99035861918577
 30
0.0
 40
0.05140669366
100
AcDbArc
 50
269.9999999999535
 51
21.22378437569525
  0
ARC
  5
11A
330
2
100
AcDbEntity
  8
GAIKEI
100
AcDbCircle
 10
27.21755139731664
 20
35.50059260386849
 30
0.0
 40
0.2203144014
100
AcDbArc
 50
45.87146134481523
 51
89.99999999998916
  0
ARC
  5
11B
330
2
100
AcDbEntity
  8
GAIKEI
100
AcDbCircle
 10
19.09685857217169
 20
35.50059260386849
 30
0.0
 40
0.2203144014
100
AcDbArc
 50
90.00000000001085
 51
134.1285386551847
  0
ARC
  5
11C
330
2
100
AcDbEntity
  8
GAIKEI
100
AcDbCircle
 10
14.58204623074579
 20
28.99035861918577
 30
0.0
 40
0.05140669366
100
AcDbArc
 50
158.7762156243047
 51
270.0000000000465
  0
ARC
  5
11D
330
2
100
AcDbEntity
  8
GAIKEI
100
AcDbCircle
 10
31.95764859872372
 20
22.24250724691405
 30
0.0
 40
18.69128479927947
100
AcDbArc
 50
134.1285386551864
 51
158.7762156243145
  0
LINE
  5
11E
330
2
100
AcDbEntity
  8
GAIKEI
100
AcDbLine
 10
20.85084437492043
 20
38.9717302297064
 30
0.0
 11
20.79442506645285
 21
35.72090700526849
 31
0.0
  0
LINE
  5
11F
330
2
100
AcDbEntity
  8
GAIKEI
 62
     1
100
AcDbLine
 10
21.02060830308977
 20
38.9717302297064
 30
0.0
 11
21.02060830308977
 21
35.72090700526849
 31
0.0
  0
LINE
  5
120
330
2
100
AcDbEntity
  8
GAIKEI
100
AcDbLine
 10
14.94528608680008
 20
28.93895192552577
 30
0.0
 11
31.40479707772829
 21
28.93895192552577
 31
0.0
  0
LINE
  5
121
330
2
100
AcDbEntity
  8
GAIKEI
100
AcDbLine
 10
14.58204623074584
 20
28.93895192552577
 30
0.0
 11
14.94528608680008
 21
28.93895192552577
 31
0.0
  0
LINE
  5
122
330
2
100
AcDbEntity
  8
GAIKEI
100
AcDbLine
 10
25.52808094729988
 20
35.72090700526849
 30
0.0
 11
27.2264792331431
 21
35.72090700526849
 31
0.0
  0
LINE
  5
123
330
2
100
AcDbEntity
  8
GAIKEI
100
AcDbLine
 10
20.79265405677
 20
35.72090700526849
 30
0.0
 11
25.52808094729988
 21
35.72090700526849
 31
0.0
  0
LINE
  5
124
330
2
100
AcDbEntity
  8
GAIKEI
100
AcDbLine
 10
25.42623312142036
 20
39.07090677194543
 30
0.0
 11
20.95229792960879
 21
39.07090677194543
 31
0.0
  0
LINE
  5
125
330
2
100
AcDbEntity
  8
GAIKEI
100
AcDbLine
 10
19.09685857217164
 20
35.72090700526849
 30
0.0
 11
20.79265405677
 21
35.72090700526849
 31
0.0
  0
LINE
  5
126
330
2
100
AcDbEntity
  8
GAIKEI
100
AcDbLine
 10
20.95229792960879
 20
39.07090677194543
 30
0.0
 11
20.85084437492048
 21
38.9717302297064
 31
0.0
  0
LINE
  5
127
330
2
100
AcDbEntity
  8
GAIKEI
100
AcDbLine
 10
14.9129019097424
 20
28.93895192552577
 30
0.0
 11
14.40234511831812
 21
28.68949256162864
 31
0.0
  0
LINE
  5
128
330
2
100
AcDbEntity
  8
GAIKEI
100
AcDbLine
 10
14.40234511831812
 20
28.68949256162864
 30
0.0
 11
31.91206485117021
 21
28.68949256162864
 31
0.0
  0
LINE
  5
129
330
2
100
AcDbEntity
  8
GAIKEI
 62
     1
100
AcDbLine
 10
20.85084437492048
 20
38.9717302297064
 30
0.0
 11
22.07815408512829
 21
38.9717302297064
 31
0.0
  0
LINE
  5
12A
330
2
100
AcDbEntity
  8
GAIKEI
 62
     1
100
AcDbLine
 10
22.07815408512829
 20
38.9717302297064
 30
0.0
 11
24.15478943894931
 21
38.9717302297064
 31
0.0
  0
LINE
  5
12B
330
2
100
AcDbEntity
  8
GAIKEI
 62
     1
100
AcDbLine
 10
22.07815408512829
 20
38.9717302297064
 30
0.0
 11
22.07815408512829
 21
35.72090700526849
 31
0.0
  0
ELLIPSE
  5
12C
330
2
100
AcDbEntity
  8
GAIKEI
 62
     1
100
AcDbEllipse
 10
-24.57268589233468
 20
6.158303705225421
 30
0.0
 11
0.1579401784426798
 21
-0.0000000000000137
 31
0.0
210
0.0
220
0.0
230
1.0
 40
0.8275887111205866
 41
0.0
 42
6.283185307179586
  0
ARC
  5
12D
330
2
100
AcDbEntity
  8
GAIKEI
 62
     1
100
AcDbCircle
 10
-22.32888107778803
 20
10.33651105785355
 30
0.0
 40
0.1
100
AcDbArc
 50
270.0
 51
0.0
  0
ARC
  5
12E
330
2
100
AcDbEntity
  8
GAIKEI
 62
     1
100
AcDbCircle
 10
-22.54747427292711
 20
10.55991127927461
 30
0.0
 40
0.1
100
AcDbArc
 50
270.0
 51
0.0
  0
ARC
  5
12F
330
2
100
AcDbEntity
  8
GAIKEI
 62
     1
100
AcDbCircle
 10
-26.81649070688127
 20
10.33651105785355
 30
0.0
 40
0.1
100
AcDbArc
 50
180.0
 51
270.0
  0
ARC
  5
130
330
2
100
AcDbEntity
  8
GAIKEI
 62
     1
100
AcDbCircle
 10
-26.59764451035897
 20
10.55991127927461
 30
0.0
 40
0.1
100
AcDbArc
 50
180.0
 51
269.9999999999975
  0
LINE
  5
131
330
2
100
AcDbEntity
  8
GAIKEI
 62
     1
100
AcDbLine
 10
-22.91764102773305
 20
9.907356258228674
 30
0.0
 11
-22.31616655501375
 21
9.688257060323053
 31
0.0
  0
LINE
  5
132
330
2
100
AcDbEntity
  8
GAIKEI
 62
     1
100
AcDbLine
 10
-26.22680893610692
 20
9.907356258228674
 30
0.0
 11
-26.83095870458908
 21
9.688257060323053
 31
0.0
  0
ARC
  5
133
330
2
100
AcDbEntity
  8
GAIKEI
 62
     1
100
AcDbCircle
 10
-24.57600042109607
 20
9.342073223039506
 30
0.0
 40
1.898572452507345
100
AcDbArc
 50
359.9812238542486
 51
13.59933239350455
  0
ARC
  5
134
330
2
100
AcDbEntity
  8
GAIKEI
 62
     1
100
AcDbCircle
 10
-24.57223377172528
 20
9.341298398549156
 30
0.0
 40
1.894805729110204
100
AcDbArc
 50
251.8823579343346
 51
0.0078406162313326
  0
ARC
  5
135
330
2
100
AcDbEntity
  8
GAIKEI
 62
     1
100
AcDbCircle
 10
-24.57347291861442
 20
9.341117698495338
 30
0.0
 40
1.894249029568701
100
AcDbArc
 50
166.3411422755556
 51
251.9209586851503
  0
ARC
  5
136
330
2
100
AcDbEntity
  8
GAIKEI
 62
     1
100
AcDbCircle
 10
-24.57600042109607
 20
9.342073223039506
 30
0.0
 40
1.828822452507345
100
AcDbArc
 50
359.9812238542486
 51
15.06159663674329
  0
ARC
  5
137
330
2
100
AcDbEntity
  8
GAIKEI
 62
     1
100
AcDbCircle
 10
-24.57347291861442
 20
9.341117698495338
 30
0.0
 40
1.824499029568701
100
AcDbArc
 50
164.8738756380137
 51
251.9209586851503
  0
ARC
  5
138
330
2
100
AcDbEntity
  8
GAIKEI
 62
     1
100
AcDbCircle
 10
-24.57223377172528
 20
9.341298398549156
 30
0.0
 40
1.825055729110204
100
AcDbArc
 50
251.8823579343346
 51
0.0078406162313326
  0
ARC
  5
139
330
2
100
AcDbEntity
  8
GAIKEI
 62
     1
100
AcDbCircle
 10
-24.57600042109607
 20
9.342073223039506
 30
0.0
 40
1.669012452507345
100
AcDbArc
 50
359.9812238542486
 51
18.05269189884069
  0
ARC
  5
13A
330
2
100
AcDbEntity
  8
GAIKEI
 62
     1
100
AcDbCircle
 10
-24.57223377172528
 20
9.341298398549156
 30
0.0
 40
1.665245729110204
100
AcDbArc
 50
251.8823579343346
 51
0.0078406162313326
  0
ARC
  5
13B
330
2
100
AcDbEntity
  8
GAIKEI
 62
     1
100
AcDbCircle
 10
-24.57347291861442
 20
9.341117698495338
 30
0.0
 40
1.664689029568701
100
AcDbArc
 50
161.8641970863853
 51
251.9209586851503
  0
LINE
  5
13C
330
2
100
AcDbEntity
  8
GAIKEI
 62
     1
100
AcDbLine
 10
-18.04019017648909
 20
11.55313025635314
 30
0.0
 11
-18.04019017648915
 21
8.61732311789558
 31
0.0
  0
ARC
  5
13D
330
2
100
AcDbEntity
  8
GAIKEI
100
AcDbCircle
 10
-81.89422228202625
 20
15.36620681996896
 30
0.0
 40
65.44476126189625
100
AcDbArc
 50
355.3066281732155
 51
356.6598244457539
  0
ARC
  5
13E
330
2
100
AcDbEntity
  8
GAIKEI
100
AcDbCircle
 10
-24.54241222160238
 20
11.09296806118004
 30
0.0
 40
7.947457734105853
100
AcDbArc
 50
314.195790337602
 51
352.1776735796046
  0
ARC
  5
13F
330
2
100
AcDbEntity
  8
GAIKEI
100
AcDbCircle
 10
-24.5623312870207
 20
11.08090370394211
 30
0.0
 40
7.952726251192598
100
AcDbArc
 50
269.9253997519968
 51
314.3592719522809
  0
LINE
  5
140
330
2
100
AcDbEntity
  8
GAIKEI
 62
     1
100
AcDbLine
 10
-21.87973916888535
 20
4.214572133432284
 30
0.0
 11
-22.02926298639369
 21
6.566142136951498
 31
0.0
  0
ARC
  5
141
330
2
100
AcDbEntity
  8
GAIKEI
 62
     1
100
AcDbCircle
 10
-24.57105260227064
 20
10.43718300244518
 30
0.0
 40
6.779679492710411
100
AcDbArc
 50
293.3887479610207
 51
344.4292191404104
  0
ARC
  5
142
330
2
100
AcDbEntity
  8
GAIKEI
 62
     1
100
AcDbCircle
 10
-24.57281239302637
 20
9.339115930381012
 30
0.0
 40
5.681842591081675
100
AcDbArc
 50
243.9782290675584
 51
296.0274492172368
  0
LINE
  5
143
330
2
100
AcDbEntity
  8
GAIKEI
 62
     1
100
AcDbLine
 10
-27.265632615784
 20
4.214572133432284
 30
0.0
 11
-27.11610879827566
 21
6.566142136951839
 31
0.0
  0
ARC
  5
144
330
2
100
AcDbEntity
  8
GAIKEI
100
AcDbCircle
 10
-24.58304049764871
 20
11.08090370394211
 30
0.0
 40
7.952726251192598
100
AcDbArc
 50
225.6407280477191
 51
270.0746002480032
  0
ARC
  5
145
330
2
100
AcDbEntity
  8
GAIKEI
100
AcDbCircle
 10
-24.60295956306698
 20
11.09296806118004
 30
0.0
 40
7.947457734105853
100
AcDbArc
 50
187.8223264203955
 51
225.804209662398
  0
ARC
  5
146
330
2
100
AcDbEntity
  8
GAIKEI
100
AcDbCircle
 10
32.7488504973569
 20
15.36620681996896
 30
0.0
 40
65.44476126189625
100
AcDbArc
 50
183.3401755542461
 51
184.6933718267845
  0
ARC
  5
147
330
2
100
AcDbEntity
  8
GAIKEI
 62
     1
100
AcDbCircle
 10
-24.57431918239871
 20
10.43718300244518
 30
0.0
 40
6.779679492710411
100
AcDbArc
 50
195.5707808595895
 51
246.6112520389793
  0
LINE
  5
148
330
2
100
AcDbEntity
  8
GAIKEI
100
AcDbLine
 10
-15.10335011957448
 20
11.95287244190842
 30
0.0
 11
-15.64730177490901
 21
11.7402591834749
 31
0.0
  0
LINE
  5
149
330
2
100
AcDbEntity
  8
GAIKEI
100
AcDbLine
 10
-15.64730177490901
 20
11.7402591834749
 30
0.0
 11
-16.20697929629278
 21
11.55804289800397
 31
0.0
  0
ARC
  5
14A
330
2
100
AcDbEntity
  8
GAIKEI
100
AcDbCircle
 10
-32.90743454461136
 20
11.65313025635316
 30
0.0
 40
0.1
100
AcDbArc
 50
251.966112713554
 51
270.0
  0
LINE
  5
14B
330
2
100
AcDbEntity
  8
GAIKEI
100
AcDbLine
 10
-33.49807000976034
 20
11.7402591834749
 30
0.0
 11
-32.93839248837656
 21
11.55804289800392
 31
0.0
  0
LINE
  5
14C
330
2
100
AcDbEntity
  8
GAIKEI
100
AcDbLine
 10
-34.04202166509487
 20
11.95287244190842
 30
0.0
 11
-33.49807000976034
 21
11.7402591834749
 31
0.0
  0
ARC
  5
14D
330
2
100
AcDbEntity
  8
GAIKEI
 62
     1
100
AcDbCircle
 10
-18.52858726717477
 20
13.42463196511323
 30
0.0
 40
1.79962810126059
100
AcDbArc
 50
272.1303216894741
 51
305.2313822029132
  0
ARC
  5
14E
330
2
100
AcDbEntity
  8
GAIKEI
 62
     1
100
AcDbCircle
 10
-18.6427452011909
 20
11.68864158392102
 30
0.0
 40
0.036588548234881
100
AcDbArc
 50
169.8904013536318
 51
220.862101143963
  0
ARC
  5
14F
330
2
100
AcDbEntity
  8
GAIKEI
 62
     1
100
AcDbCircle
 10
-18.49236826010502
 20
12.38706429184083
 30
0.0
 40
0.7614348818684209
100
AcDbArc
 50
262.2811216575447
 51
272.3090394024101
  0
ARC
  5
150
330
2
100
AcDbEntity
  8
GAIKEI
 62
     1
100
AcDbCircle
 10
-18.60105619885729
 20
11.73587844602059
 30
0.0
 40
0.0993815330630986
100
AcDbArc
 50
225.7395860428146
 51
242.2588463185065
  0
ARC
  5
151
330
2
100
AcDbEntity
  8
GAIKEI
 62
     1
100
AcDbCircle
 10
-18.56637071231552
 20
11.82712065571149
 30
0.0
 40
0.1966343723822126
100
AcDbArc
 50
245.6912001544843
 51
261.734589782896
  0
ARC
  5
152
330
2
100
AcDbEntity
  8
GAIKEI
 62
     1
100
AcDbCircle
 10
-18.59144404756404
 20
11.67565521196184
 30
0.0
 40
0.0894526001733724
100
AcDbArc
 50
140.3278125300765
 51
167.4686813004095
  0
ARC
  5
153
330
2
100
AcDbEntity
  8
GAIKEI
 62
     1
100
AcDbCircle
 10
-18.42712060961742
 20
11.53865792331464
 30
0.0
 40
0.3033926894193737
100
AcDbArc
 50
125.7512971055145
 51
140.2248929187692
  0
ARC
  5
154
330
2
100
AcDbEntity
  8
GAIKEI
 62
     1
100
AcDbCircle
 10
-17.791425983294
 20
10.61799433337455
 30
0.0
 40
1.422153501699292
100
AcDbArc
 50
109.969118895009
 51
124.8645420966872
  0
ARC
  5
155
330
2
100
AcDbEntity
  8
GAIKEI
 62
     1
100
AcDbCircle
 10
-31.35394580137535
 20
10.61799433337455
 30
0.0
 40
1.422153501699292
100
AcDbArc
 50
55.13545790331274
 51
70.03088110499103
  0
ARC
  5
156
330
2
100
AcDbEntity
  8
GAIKEI
 62
     1
100
AcDbCircle
 10
-30.71825117505199
 20
11.53865792331464
 30
0.0
 40
0.3033926894193737
100
AcDbArc
 50
39.77510708123079
 51
54.2487028944855
  0
ARC
  5
157
330
2
100
AcDbEntity
  8
GAIKEI
 62
     1
100
AcDbCircle
 10
-30.55392773710531
 20
11.67565521196184
 30
0.0
 40
0.0894526001733724
100
AcDbArc
 50
12.53131869959048
 51
39.67218746992347
  0
ARC
  5
158
330
2
100
AcDbEntity
  8
GAIKEI
 62
     1
100
AcDbCircle
 10
-30.57900107235383
 20
11.82712065571149
 30
0.0
 40
0.1966343723822126
100
AcDbArc
 50
278.265410217104
 51
294.3087998455157
  0
ARC
  5
159
330
2
100
AcDbEntity
  8
GAIKEI
 62
     1
100
AcDbCircle
 10
-30.54431558581206
 20
11.73587844602059
 30
0.0
 40
0.0993815330630986
100
AcDbArc
 50
297.7411536814935
 51
314.2604139571854
  0
ARC
  5
15A
330
2
100
AcDbEntity
  8
GAIKEI
 62
     1
100
AcDbCircle
 10
-30.65300352456433
 20
12.38706429184083
 30
0.0
 40
0.7614348818684209
100
AcDbArc
 50
267.6909605975899
 51
277.7188783424553
  0
ARC
  5
15B
330
2
100
AcDbEntity
  8
GAIKEI
 62
     1
100
AcDbCircle
 10
-30.5026265834785
 20
11.68864158392102
 30
0.0
 40
0.036588548234881
100
AcDbArc
 50
319.1378988560371
 51
10.10959864636813
  0
ARC
  5
15C
330
2
100
AcDbEntity
  8
GAIKEI
 62
     1
100
AcDbCircle
 10
-30.61678451749464
 20
13.42463196511323
 30
0.0
 40
1.79962810126059
100
AcDbArc
 50
234.7686177970869
 51
267.8696783105258
  0
ARC
  5
15D
330
2
100
AcDbEntity
  8
GAIKEI
100
AcDbCircle
 10
-17.01396854675141
 20
13.20706811271577
 30
0.0
 40
3.01381982527136
100
AcDbArc
 50
336.702647599347
 51
348.44431351209
  0
ARC
  5
15E
330
2
100
AcDbEntity
  8
GAIKEI
100
AcDbCircle
 10
-14.3377280167212
 20
12.05464345159123
 30
0.0
 40
0.1
100
AcDbArc
 50
270.0
 51
336.7026475993472
  0
ARC
  5
15F
330
2
100
AcDbEntity
  8
GAIKEI
100
AcDbCircle
 10
-34.80764376794815
 20
12.05464345159123
 30
0.0
 40
0.1
100
AcDbArc
 50
203.2973524006528
 51
270.0
  0
ARC
  5
160
330
2
100
AcDbEntity
  8
GAIKEI
100
AcDbCircle
 10
-32.131403237918
 20
13.20706811271577
 30
0.0
 40
3.01381982527136
100
AcDbArc
 50
191.5556864879099
 51
203.297352400653
  0
ARC
  5
161
330
2
100
AcDbEntity
  8
GAIKEI
100
AcDbCircle
 10
-56.15971861665809
 20
13.18909313415292
 30
0.0
 40
43.21724979929718
100
AcDbArc
 50
10.00554855145592
 51
21.01806772075424
  0
ARC
  5
162
330
2
100
AcDbEntity
  8
GAIKEI
100
AcDbCircle
 10
-67.45087566199015
 20
10.30927534878765
 30
0.0
 40
54.84399717788395
100
AcDbArc
 50
5.501215020595557
 51
10.91892318781764
  0
ARC
  5
163
330
2
100
AcDbEntity
  8
GAIKEI
100
AcDbCircle
 10
-51.97602590152143
 20
11.47645083381383
 30
0.0
 40
39.32984447268598
100
AcDbArc
 50
2.223818659797981
 51
5.969910613616061
  0
LINE
  5
164
330
2
100
AcDbEntity
  8
GAIKEI
100
AcDbLine
 10
-12.67580184716786
 20
13.00257518106576
 30
0.0
 11
-12.7592954863282
 21
12.74225664446919
 31
0.0
  0
ARC
  5
165
330
2
100
AcDbEntity
  8
GAIKEI
100
AcDbCircle
 10
-12.94973956224885
 20
12.80333899827707
 30
0.0
 40
0.2
100
AcDbArc
 50
270.0
 51
342.2170613737921
  0
ARC
  5
166
330
2
100
AcDbEntity
  8
GAIKEI
100
AcDbCircle
 10
-36.1956322224205
 20
12.80333899827707
 30
0.0
 40
0.2
100
AcDbArc
 50
197.7829386262079
 51
270.0
  0
LINE
  5
167
330
2
100
AcDbEntity
  8
GAIKEI
100
AcDbLine
 10
-36.46956993750155
 20
13.00257518106576
 30
0.0
 11
-36.38607629834121
 21
12.74225664446919
 31
0.0
  0
ARC
  5
168
330
2
100
AcDbEntity
  8
GAIKEI
100
AcDbCircle
 10
2.830654116852031
 20
11.47645083381383
 30
0.0
 40
39.32984447268598
100
AcDbArc
 50
174.0300893863839
 51
177.776181340202
  0
ARC
  5
169
330
2
100
AcDbEntity
  8
GAIKEI
100
AcDbCircle
 10
18.30550387732074
 20
10.30927534878765
 30
0.0
 40
54.84399717788395
100
AcDbArc
 50
169.0810768121824
 51
174.4987849794044
  0
ARC
  5
16A
330
2
100
AcDbEntity
  8
GAIKEI
100
AcDbCircle
 10
7.014346831988689
 20
13.18909313415292
 30
0.0
 40
43.21724979929718
100
AcDbArc
 50
158.9819322792457
 51
169.9944514485441
  0
ELLIPSE
  5
16B
330
2
100
AcDbEntity
  8
GAIKEI
 62
     1
100
AcDbEllipse
 10
-22.88893317708915
 20
36.58365027222101
 30
0.0
 11
-0.0065625378484242
 21
-0.3342148079461028
 31
0.0
210
0.0
220
0.0
230
-1.0
 40
0.6563062739214747
 41
0.0
 42
6.283185307179586
  0
ELLIPSE
  5
16C
330
2
100
AcDbEntity
  8
GAIKEI
 62
     1
100
AcDbEllipse
 10
-26.25643860758021
 20
36.58365027222101
 30
0.0
 11
0.0065625378484242
 21
-0.3342148079461028
 31
0.0
210
0.0
220
0.0
230
1.0
 40
0.6563062739214747
 41
0.0
 42
6.283185307179586
  0
LINE
  5
16D
330
2
100
AcDbEntity
  8
GAIKEI
100
AcDbLine
 10
-32.81698896733644
 20
28.93895192552572
 30
0.0
 11
-33.32754575876078
 21
28.68949256162859
 31
0.0
  0
LINE
  5
16E
330
2
100
AcDbEntity
  8
GAIKEI
100
AcDbLine
 10
-33.14784464633306
 20
28.93895192552572
 30
0.0
 11
-32.78460479027876
 21
28.93895192552572
 31
0.0
  0
ARC
  5
16F
330
2
100
AcDbEntity
  8
GAIKEI
100
AcDbCircle
 10
-15.77224227835518
 20
22.24250724691399
 30
0.0
 40
18.69128479927947
100
AcDbArc
 50
134.1285386551864
 51
158.7762156243145
  0
ARC
  5
170
330
2
100
AcDbEntity
  8
GAIKEI
100
AcDbCircle
 10
-33.14784464633311
 20
28.99035861918572
 30
0.0
 40
0.05140669366
100
AcDbArc
 50
158.7762156243047
 51
270.0000000000465
  0
ARC
  5
171
330
2
100
AcDbEntity
  8
GAIKEI
100
AcDbCircle
 10
-28.6330323049072
 20
35.50059260386843
 30
0.0
 40
0.2203144014
100
AcDbArc
 50
90.00000000001085
 51
134.1285386551847
  0
ARC
  5
172
330
2
100
AcDbEntity
  8
GAIKEI
100
AcDbCircle
 10
-20.5123394797622
 20
35.50059260386843
 30
0.0
 40
0.2203144014
100
AcDbArc
 50
45.87146134481523
 51
89.99999999998914
  0
ARC
  5
173
330
2
100
AcDbEntity
  8
GAIKEI
100
AcDbCircle
 10
-15.99752713833635
 20
28.99035861918572
 30
0.0
 40
0.05140669366
100
AcDbArc
 50
269.9999999999535
 51
21.22378437569524
  0
ARC
  5
174
330
2
100
AcDbEntity
  8
GAIKEI
100
AcDbCircle
 10
-33.37312950631423
 20
22.24250724691399
 30
0.0
 40
18.69128479927947
100
AcDbArc
 50
21.22378437568544
 51
45.87146134481359
  0
LINE
  5
175
330
2
100
AcDbEntity
  8
GAIKEI
 62
     1
100
AcDbLine
 10
23.15720498474411
 20
4.203440072568753
 30
0.0
 11
23.15720498474411
 21
3.646078025240797
 31
0.0
  0
LINE
  5
176
330
2
100
AcDbEntity
  8
GAIKEI
 62
     1
100
AcDbLine
 10
23.15720498474414
 20
30.87238849642012
 30
0.0
 11
23.15720498474413
 21
29.37651781787883
 31
0.0
  0
LINE
  5
177
330
2
100
AcDbEntity
  8
GAIKEI
100
AcDbLine
 10
11.53381543488439
 20
12.59170093464701
 30
0.0
 11
12.65182854752271
 21
12.59170093464701
 31
0.0
  0
LINE
  5
178
330
2
100
AcDbEntity
  8
GAIKEI
100
AcDbLine
 10
35.05383602852771
 20
12.99093711743575
 30
0.0
 11
11.26057394096057
 21
12.99093711743575
 31
0.0
  0
LINE
  5
179
330
2
100
AcDbEntity
  8
GAIKEI
100
AcDbLine
 10
12.65182854752277
 20
12.59170093464701
 30
0.0
 11
34.8053532354341
 21
12.59170093464701
 31
0.0
  0
LINE
  5
17A
330
2
100
AcDbEntity
  8
GAIKEI
100
AcDbLine
 10
34.42740460356902
 20
12.53186610750538
 30
0.0
 11
33.82892983146081
 21
12.53186610750538
 31
0.0
  0
LINE
  5
17B
330
2
100
AcDbEntity
  8
GAIKEI
100
AcDbLine
 10
33.82892983146081
 20
12.4321835624998
 30
0.0
 11
33.63854629055561
 21
12.4321835624998
 31
0.0
  0
LINE
  5
17C
330
2
100
AcDbEntity
  8
GAIKEI
100
AcDbLine
 10
34.67686396746609
 20
12.4321835624998
 30
0.0
 11
34.42892261186859
 21
12.4321835624998
 31
0.0
  0
LINE
  5
17D
330
2
100
AcDbEntity
  8
GAIKEI
100
AcDbLine
 10
33.82892983146081
 20
12.4321835624998
 30
0.0
 11
33.82892983146081
 21
12.53186610750538
 31
0.0
  0
LINE
  5
17E
330
2
100
AcDbEntity
  8
GAIKEI
100
AcDbLine
 10
34.42740460356902
 20
12.43218356249986
 30
0.0
 11
34.42740460356902
 21
12.53186610750538
 31
0.0
  0
LINE
  5
17F
330
2
100
AcDbEntity
  8
GAIKEI
100
AcDbLine
 10
34.52734014995781
 20
12.59170093464701
 30
0.0
 11
34.52734014995781
 21
12.4321835624998
 31
0.0
  0
LINE
  5
180
330
2
100
AcDbEntity
  8
GAIKEI
 62
     1
100
AcDbLine
 10
23.90533007505229
 20
30.30427389030348
 30
0.0
 11
23.80590053142999
 21
30.30427389030348
 31
0.0
  0
LINE
  5
181
330
2
100
AcDbEntity
  8
GAIKEI
 62
     1
100
AcDbLine
 10
23.80590053142999
 20
30.1749901834562
 30
0.0
 11
23.6758578204329
 21
30.1749901834562
 31
0.0
  0
LINE
  5
182
330
2
100
AcDbEntity
  8
GAIKEI
 62
     1
100
AcDbLine
 10
24.03486678328284
 20
30.1749901834562
 30
0.0
 11
23.90533007505229
 21
30.1749901834562
 31
0.0
  0
LINE
  5
183
330
2
100
AcDbEntity
  8
GAIKEI
 62
     1
100
AcDbLine
 10
23.90533007505229
 20
30.0746751349925
 30
0.0
 11
24.03486678328284
 21
30.0746751349925
 31
0.0
  0
LINE
  5
184
330
2
100
AcDbEntity
  8
GAIKEI
 62
     1
100
AcDbLine
 10
23.6758578204329
 20
30.0746751349925
 30
0.0
 11
23.80590053142999
 21
30.0746751349925
 31
0.0
  0
LINE
  5
185
330
2
100
AcDbEntity
  8
GAIKEI
 62
     1
100
AcDbLine
 10
23.80590053142999
 20
29.94488542537869
 30
0.0
 11
23.90533007505229
 21
29.94488542537869
 31
0.0
  0
LINE
  5
186
330
2
100
AcDbEntity
  8
GAIKEI
 62
     1
100
AcDbLine
 10
23.6758578204329
 20
30.1749901834562
 30
0.0
 11
23.6758578204329
 21
30.0746751349925
 31
0.0
  0
LINE
  5
187
330
2
100
AcDbEntity
  8
GAIKEI
 62
     1
100
AcDbLine
 10
23.80590053142999
 20
30.0746751349925
 30
0.0
 11
23.80590053142999
 21
29.94488542537869
 31
0.0
  0
LINE
  5
188
330
2
100
AcDbEntity
  8
GAIKEI
 62
     1
100
AcDbLine
 10
23.80590053142999
 20
30.30427389030348
 30
0.0
 11
23.80590053142999
 21
30.1749901834562
 31
0.0
  0
LINE
  5
189
330
2
100
AcDbEntity
  8
GAIKEI
 62
     1
100
AcDbLine
 10
23.90533007505229
 20
30.1749901834562
 30
0.0
 11
23.90533007505229
 21
30.30427389030348
 31
0.0
  0
LINE
  5
18A
330
2
100
AcDbEntity
  8
GAIKEI
 62
     1
100
AcDbLine
 10
23.90533007505229
 20
29.94488542537869
 30
0.0
 11
23.90533007505229
 21
30.0746751349925
 31
0.0
  0
LINE
  5
18B
330
2
100
AcDbEntity
  8
GAIKEI
 62
     1
100
AcDbLine
 10
24.03486678328284
 20
30.0746751349925
 30
0.0
 11
24.03486678328284
 21
30.1749901834562
 31
0.0
  0
LINE
  5
18C
330
2
100
AcDbEntity
  8
GAIKEI
 62
     1
100
AcDbLine
 10
35.38159932054464
 20
41.024448501915
 30
0.0
 11
34.91068790980774
 21
39.61609866456695
 31
0.0
  0
LINE
  5
18D
330
2
100
AcDbEntity
  8
GAIKEI
 62
     1
100
AcDbLine
 10
34.46155979030948
 20
41.12995007873559
 30
0.0
 11
34.73973229188136
 21
39.36390863614525
 31
0.0
  0
LINE
  5
18E
330
2
100
AcDbEntity
  8
GAIKEI
 62
     1
100
AcDbLine
 10
34.34340814432573
 20
41.11122797637415
 30
0.0
 11
34.62157332035099
 21
39.34590886723191
 31
0.0
  0
LINE
  5
18F
330
2
100
AcDbEntity
  8
GAIKEI
 62
     1
100
AcDbLine
 10
34.63132371847883
 20
39.22138751668956
 30
0.0
 11
34.63132371847883
 21
39.1228901053118
 31
0.0
  0
LINE
  5
190
330
2
100
AcDbEntity
  8
GAIKEI
 62
     1
100
AcDbLine
 10
34.63132371847883
 20
37.99247992489353
 30
0.0
 11
34.74947536446257
 21
37.99247992489353
 31
0.0
  0
LINE
  5
191
330
2
100
AcDbEntity
  8
GAIKEI
 62
     1
100
AcDbLine
 10
34.55023677514311
 20
39.1228901053118
 30
0.0
 11
34.74947536446257
 21
39.1228901053118
 31
0.0
  0
LINE
  5
192
330
2
100
AcDbEntity
  8
GAIKEI
 62
     1
100
AcDbLine
 10
34.94884045447367
 20
39.1228901053118
 30
0.0
 11
34.94884045447367
 21
38.62435087959244
 31
0.0
  0
LINE
  5
193
330
2
100
AcDbEntity
  8
GAIKEI
 62
     1
100
AcDbLine
 10
34.94884045447367
 20
38.62435087959244
 30
0.0
 11
34.68103849028995
 21
38.62435087959244
 31
0.0
  0
LINE
  5
194
330
2
100
AcDbEntity
  8
GAIKEI
 62
     1
100
AcDbLine
 10
34.55023677514311
 20
38.62435087959244
 30
0.0
 11
34.55023677514311
 21
39.1228901053118
 31
0.0
  0
LINE
  5
195
330
2
100
AcDbEntity
  8
GAIKEI
 62
     1
100
AcDbLine
 10
34.74947536446257
 20
39.1228901053118
 30
0.0
 11
34.94884045447367
 21
39.1228901053118
 31
0.0
  0
LINE
  5
196
330
2
100
AcDbEntity
  8
GAIKEI
 62
     1
100
AcDbLine
 10
34.68103849028995
 20
38.62435087959244
 30
0.0
 11
34.55023677514311
 21
38.62435087959244
 31
0.0
  0
LINE
  5
197
330
2
100
AcDbEntity
  8
GAIKEI
 62
     1
100
AcDbLine
 10
34.63132371847883
 20
38.62435087959244
 30
0.0
 11
34.63132371847883
 21
37.99247992489353
 31
0.0
  0
LINE
  5
198
330
2
100
AcDbEntity
  8
GAIKEI
 62
     1
100
AcDbLine
 10
34.74947536446257
 20
39.1228901053118
 30
0.0
 11
34.74947536446257
 21
39.38146568952987
 31
0.0
  0
LINE
  5
199
330
2
100
AcDbEntity
  8
GAIKEI
 62
     1
100
AcDbLine
 10
34.8693980201291
 20
39.1228901053118
 30
0.0
 11
34.8693980201291
 21
39.36240797002716
 31
0.0
  0
LINE
  5
19A
330
2
100
AcDbEntity
  8
GAIKEI
 62
     1
100
AcDbLine
 10
35.24472557219946
 20
40.99257032762387
 30
0.0
 11
34.79077876954586
 21
39.63519680086978
 31
0.0
  0
LINE
  5
19B
330
2
100
AcDbEntity
  8
GAIKEI
 62
     1
100
AcDbLine
 10
31.98948327444862
 20
29.22231347478009
 30
0.0
 11
32.19218200080167
 21
29.42516015640786
 31
0.0
  0
LINE
  5
19C
330
2
100
AcDbEntity
  8
GAIKEI
 62
     1
100
AcDbLine
 10
31.89359575019205
 20
29.29568387592633
 30
0.0
 11
32.14254028778527
 21
29.54462841351955
 31
0.0
  0
LINE
  5
19D
330
2
100
AcDbEntity
  8
GAIKEI
 62
     1
100
AcDbLine
 10
32.3336549424273
 20
29.48379040438221
 30
0.0
 11
33.95195624537291
 21
29.48379040438221
 31
0.0
  0
LINE
  5
19E
330
2
100
AcDbEntity
  8
GAIKEI
 62
     1
100
AcDbLine
 10
32.28396164402255
 20
29.60320705728225
 30
0.0
 11
33.94947536446256
 21
29.60320705728225
 31
0.0
  0
LINE
  5
19F
330
2
100
AcDbEntity
  8
GAIKEI
 62
     1
100
AcDbLine
 10
34.95516548905522
 20
42.53195724408641
 30
0.0
 11
33.59806606923354
 21
44.46982133918789
 31
0.0
  0
LINE
  5
1A0
330
2
100
AcDbEntity
  8
GAIKEI
 62
     1
100
AcDbLine
 10
32.00061533531215
 20
42.87237060526655
 30
0.0
 11
33.93873243179689
 21
41.51565068751972
 31
0.0
  0
LINE
  5
1A1
330
2
100
AcDbEntity
  8
GAIKEI
 62
     1
100
AcDbLine
 10
34.54214073087866
 20
42.51310864103333
 30
0.0
 11
33.31204800545493
 21
44.26957074433533
 31
0.0
  0
LINE
  5
1A2
330
2
100
AcDbEntity
  8
GAIKEI
 62
     1
100
AcDbLine
 10
32.20111893154791
 20
43.15876817112001
 30
0.0
 11
33.9577075355416
 21
41.92842244431301
 31
0.0
  0
LINE
  5
1A3
330
2
100
AcDbEntity
  8
GAIKEI
 62
     1
100
AcDbLine
 10
34.7017846037175
 20
42.89362272146059
 30
0.0
 11
34.41576653993895
 21
42.6933721266081
 31
0.0
  0
LINE
  5
1A4
330
2
100
AcDbEntity
  8
GAIKEI
 62
     1
100
AcDbLine
 10
33.7859195963062
 20
44.20062786739623
 30
0.0
 11
33.64322681614595
 21
44.10043931962417
 31
0.0
  0
LINE
  5
1A5
330
2
100
AcDbEntity
  8
GAIKEI
 62
     1
100
AcDbLine
 10
33.40047198890528
 20
44.14344955477884
 30
0.0
 11
33.64322681614595
 21
44.10043931962417
 31
0.0
  0
LINE
  5
1A6
330
2
100
AcDbEntity
  8
GAIKEI
 62
     1
100
AcDbLine
 10
34.74947536446257
 20
38.62435087959244
 30
0.0
 11
34.74947536446257
 21
30.40320705728226
 31
0.0
  0
LINE
  5
1A7
330
2
100
AcDbEntity
  8
GAIKEI
 62
     1
100
AcDbLine
 10
34.8693980201291
 20
38.62435087959244
 30
0.0
 11
34.8693980201291
 21
30.40671141579395
 31
0.0
  0
LINE
  5
1A8
330
2
100
AcDbEntity
  8
GAIKEI
 62
     1
100
AcDbLine
 10
31.72446432548083
 20
28.77007350219782
 30
0.0
 11
31.97341768661142
 21
29.20194686342745
 31
0.0
  0
LINE
  5
1A9
330
2
100
AcDbEntity
  8
GAIKEI
 62
     1
100
AcDbLine
 10
31.75406548732258
 20
29.06102509295005
 30
0.0
 11
31.87765666304642
 21
29.27493776249878
 31
0.0
  0
LINE
  5
1AA
330
2
100
AcDbEntity
  8
GAIKEI
 62
     1
100
AcDbLine
 10
23.15720498474417
 20
29.37651781787878
 30
0.0
 11
23.85574180393275
 21
29.37651781787878
 31
0.0
  0
LINE
  5
1AB
330
2
100
AcDbEntity
  8
GAIKEI
 62
     1
100
AcDbLine
 10
23.85574180393275
 20
30.87238849642012
 30
0.0
 11
23.15720498474417
 21
30.87238849642012
 31
0.0
  0
LINE
  5
1AC
330
2
100
AcDbEntity
  8
GAIKEI
 62
     1
100
AcDbLine
 10
23.40729925863019
 20
30.67314990710065
 30
0.0
 11
23.85574180393275
 21
30.67314990710065
 31
0.0
  0
LINE
  5
1AD
330
2
100
AcDbEntity
  8
GAIKEI
 62
     1
100
AcDbLine
 10
23.85574180393275
 20
29.57600940858151
 30
0.0
 11
23.40729925863019
 21
29.57600940858146
 31
0.0
  0
LINE
  5
1AE
330
2
100
AcDbEntity
  8
GAIKEI
 62
     1
100
AcDbLine
 10
23.20729925863014
 20
29.77600940858144
 30
0.0
 11
23.20729925863014
 21
30.47314990710066
 31
0.0
  0
LINE
  5
1AF
330
2
100
AcDbEntity
  8
GAIKEI
 62
     1
100
AcDbLine
 10
29.78963624697854
 20
9.901284225030337
 30
0.0
 11
29.740047975859
 21
9.852707959443932
 31
0.0
  0
LINE
  5
1B0
330
2
100
AcDbEntity
  8
GAIKEI
 62
     1
100
AcDbLine
 10
29.740047975859
 20
9.852707959443932
 30
0.0
 11
29.53081583190073
 21
9.852707959443932
 31
0.0
  0
LINE
  5
1B1
330
2
100
AcDbEntity
  8
GAIKEI
 62
     1
100
AcDbLine
 10
29.78963624697854
 20
9.901284225030337
 30
0.0
 11
29.58040410302022
 21
9.901284225030337
 31
0.0
  0
LINE
  5
1B2
330
2
100
AcDbEntity
  8
GAIKEI
 62
     1
100
AcDbLine
 10
29.61886031327617
 20
9.936198415920614
 30
0.0
 11
29.51386473922207
 21
9.936198415920614
 31
0.0
  0
LINE
  5
1B3
330
2
100
AcDbEntity
  8
GAIKEI
 62
     1
100
AcDbLine
 10
29.61886031327617
 20
10.23043902465525
 30
0.0
 11
29.78963624697854
 21
10.23043902465525
 31
0.0
  0
LINE
  5
1B4
330
2
100
AcDbEntity
  8
GAIKEI
 62
     1
100
AcDbLine
 10
29.36206390926441
 20
10.23043902465525
 30
0.0
 11
29.51386473922207
 21
10.23043902465525
 31
0.0
  0
LINE
  5
1B5
330
2
100
AcDbEntity
  8
GAIKEI
 62
     1
100
AcDbLine
 10
29.88982479475061
 20
10.4535862446931
 30
0.0
 11
29.72132587349756
 21
10.4535862446931
 31
0.0
  0
LINE
  5
1B6
330
2
100
AcDbEntity
  8
GAIKEI
 62
     1
100
AcDbLine
 10
29.28262147491989
 20
9.609578793422031
 30
0.0
 11
29.28262147491989
 21
11.5531302563532
 31
0.0
  0
LINE
  5
1B7
330
2
100
AcDbEntity
  8
GAIKEI
 62
     1
100
AcDbLine
 10
29.61734230497654
 20
10.62967520744399
 30
0.0
 11
29.72132587349756
 21
10.62967520744399
 31
0.0
  0
LINE
  5
1B8
330
2
100
AcDbEntity
  8
GAIKEI
 62
     1
100
AcDbLine
 10
29.36206390926441
 20
10.23043902465525
 30
0.0
 11
29.36206390926441
 21
11.5531302563532
 31
0.0
  0
LINE
  5
1B9
330
2
100
AcDbEntity
  8
GAIKEI
 62
     1
100
AcDbLine
 10
29.51386473922207
 20
9.936198415920614
 30
0.0
 11
29.51386473922207
 21
10.23043902465525
 31
0.0
  0
LINE
  5
1BA
330
2
100
AcDbEntity
  8
GAIKEI
 62
     1
100
AcDbLine
 10
29.54548991212994
 20
10.4535862446931
 30
0.0
 11
29.54548991212994
 21
11.5531302563532
 31
0.0
  0
LINE
  5
1BB
330
2
100
AcDbEntity
  8
GAIKEI
 62
     1
100
AcDbLine
 10
29.61734230497654
 20
10.62967520744399
 30
0.0
 11
29.61734230497654
 21
10.4535862446931
 31
0.0
  0
LINE
  5
1BC
330
2
100
AcDbEntity
  8
GAIKEI
 62
     1
100
AcDbLine
 10
29.61886031327617
 20
9.936198415920614
 30
0.0
 11
29.61886031327617
 21
10.23043902465525
 31
0.0
  0
LINE
  5
1BD
330
2
100
AcDbEntity
  8
GAIKEI
 62
     1
100
AcDbLine
 10
29.72132587349756
 20
10.62967520744399
 30
0.0
 11
29.72132587349756
 21
10.4535862446931
 31
0.0
  0
LINE
  5
1BE
330
2
100
AcDbEntity
  8
GAIKEI
 62
     1
100
AcDbLine
 10
29.78963624697854
 20
9.901284225030337
 30
0.0
 11
29.78963624697854
 21
10.23043902465525
 31
0.0
  0
LINE
  5
1BF
330
2
100
AcDbEntity
  8
GAIKEI
 62
     1
100
AcDbLine
 10
29.88982479475061
 20
11.5531302563532
 30
0.0
 11
29.88982479475061
 21
10.4535862446931
 31
0.0
  0
CIRCLE
  5
1C0
330
2
100
AcDbEntity
  8
GAIKEI
 62
     1
100
AcDbCircle
 10
23.85548880254948
 20
30.12438990680363
 30
0.0
 40
0.3987301800221789
  0
CIRCLE
  5
1C1
330
2
100
AcDbEntity
  8
GAIKEI
 62
     1
100
AcDbCircle
 10
34.44422919555598
 20
42.95687306727631
 30
0.0
 40
0.0746354080625271
  0
SPLINE
  5
1C2
330
2
100
AcDbEntity
  8
GAIKEI
 62
     1
100
AcDbSpline
210
0.0
220
0.0
230
1.0
 70
     8
 71
     3
 72
     8
 73
     4
 74
     0
 42
0.0000000001
 43
0.0000000001
 40
0.0
 40
0.0
 40
0.0
 40
0.0
 40
1.0
 40
1.0
 40
1.0
 40
1.0
 10
31.97341768661142
 20
29.20194686342745
 30
0.0
 10
31.97784521081854
 20
29.20915740285039
 30
0.0
 10
31.98303173917537
 20
29.21586193950691
 30
0.0
 10
31.98948327444856
 20
29.22231347478009
 30
0.0
  0
SPLINE
  5
1C3
330
2
100
AcDbEntity
  8
GAIKEI
 62
     1
100
AcDbSpline
210
0.0
220
0.0
230
1.0
 70
     8
 71
     3
 72
     8
 73
     4
 74
     0
 42
0.0000000001
 43
0.0000000001
 40
0.0
 40
0.0
 40
0.0
 40
0.0
 40
1.0
 40
1.0
 40
1.0
 40
1.0
 10
31.87765666304642
 20
29.27493776249873
 30
0.0
 10
31.88195768656192
 20
29.28265430468826
 30
0.0
 10
31.88739721630208
 20
29.28948534203636
 30
0.0
 10
31.89359575019199
 20
29.29568387592627
 30
0.0
  0
LINE
  5
1C4
330
2
100
AcDbEntity
  8
GAIKEI
100
AcDbLine
 10
34.67686396746615
 20
12.59170093464701
 30
0.0
 11
34.67686396746609
 21
12.4321835624998
 31
0.0
  0
LINE
  5
1C5
330
2
100
AcDbEntity
  8
GAIKEI
100
AcDbLine
 10
12.85730774890044
 20
11.94351139072773
 30
0.0
 11
33.45710222058784
 21
11.94351139072773
 31
0.0
  0
LINE
  5
1C6
330
2
100
AcDbEntity
  8
GAIKEI
100
AcDbLine
 10
-16.23793724005799
 20
11.55313025635314
 30
0.0
 11
-32.90743454461136
 21
11.55313025635314
 31
0.0
  0
LINE
  5
1C7
330
2
100
AcDbEntity
  8
GAIKEI
100
AcDbLine
 10
-36.1956322224205
 20
12.60333899827708
 30
0.0
 11
-12.94973956224885
 21
12.60333899827708
 31
0.0
  0
LINE
  5
1C8
330
2
100
AcDbEntity
  8
GAIKEI
100
AcDbLine
 10
-36.46956993750149
 20
13.00257518106582
 30
0.0
 11
-12.67630784993434
 21
13.00257518106582
 31
0.0
  0
LINE
  5
1C9
330
2
100
AcDbEntity
  8
GAIKEI
100
AcDbLine
 10
-26.87854049939188
 20
38.97173022970634
 30
0.0
 11
-26.93521280924273
 21
35.72090700526843
 31
0.0
  0
LINE
  5
1CA
330
2
100
AcDbEntity
  8
GAIKEI
100
AcDbLine
 10
-22.26632528251093
 20
38.97173022970634
 30
0.0
 11
-22.20990597404335
 21
35.72090700526843
 31
0.0
  0
LINE
  5
1CB
330
2
100
AcDbEntity
  8
GAIKEI
 62
     1
100
AcDbLine
 10
-22.43608921068028
 20
38.97173022970634
 30
0.0
 11
-22.43608921068028
 21
35.72090700526843
 31
0.0
  0
LINE
  5
1CC
330
2
100
AcDbEntity
  8
GAIKEI
100
AcDbLine
 10
-16.36076699439064
 20
28.93895192552572
 30
0.0
 11
-32.8202779853188
 21
28.93895192552572
 31
0.0
  0
LINE
  5
1CD
330
2
100
AcDbEntity
  8
GAIKEI
100
AcDbLine
 10
-15.99752713833635
 20
28.93895192552572
 30
0.0
 11
-16.36076699439064
 21
28.93895192552572
 31
0.0
  0
LINE
  5
1CE
330
2
100
AcDbEntity
  8
GAIKEI
100
AcDbLine
 10
-26.94356185489039
 20
35.72090700526843
 30
0.0
 11
-28.6419601407336
 21
35.72090700526843
 31
0.0
  0
LINE
  5
1CF
330
2
100
AcDbEntity
  8
GAIKEI
100
AcDbLine
 10
-22.20813496436051
 20
35.72090700526843
 30
0.0
 11
-26.94356185489039
 21
35.72090700526843
 31
0.0
  0
LINE
  5
1D0
330
2
100
AcDbEntity
  8
GAIKEI
100
AcDbLine
 10
-26.77759294747005
 20
39.07090677194537
 30
0.0
 11
-22.3677788371993
 21
39.07090677194537
 31
0.0
  0
ELLIPSE
  5
1D1
330
2
100
AcDbEntity
  8
GAIKEI
100
AcDbEllipse
 10
-24.57243289095141
 20
12.60333899827708
 30
0.0
 11
-0.0002530013832628
 21
-0.0092345504890923
 31
0.0
210
0.0
220
0.0
230
1.0
 40
0.9859314143474241
 41
0.0
 42
6.283185307179586
  0
LINE
  5
1D2
330
2
100
AcDbEntity
  8
GAIKEI
100
AcDbLine
 10
-26.77759294747005
 20
39.07090677194537
 30
0.0
 11
-26.87854049939188
 21
38.97173022970634
 31
0.0
  0
LINE
  5
1D3
330
2
100
AcDbEntity
  8
GAIKEI
100
AcDbLine
 10
-20.51233947976215
 20
35.72090700526843
 30
0.0
 11
-22.20813496436051
 21
35.72090700526843
 31
0.0
  0
LINE
  5
1D4
330
2
100
AcDbEntity
  8
GAIKEI
100
AcDbLine
 10
-22.3677788371993
 20
39.07090677194537
 30
0.0
 11
-22.26632528251099
 21
38.97173022970634
 31
0.0
  0
LINE
  5
1D5
330
2
100
AcDbEntity
  8
GAIKEI
100
AcDbLine
 10
-16.32838281733296
 20
28.93895192552572
 30
0.0
 11
-15.81782602590863
 21
28.68949256162859
 31
0.0
  0
LINE
  5
1D6
330
2
100
AcDbEntity
  8
GAIKEI
 62
     1
100
AcDbLine
 10
-22.07961026166305
 20
9.640692800269675
 30
0.0
 11
-22.07961026166299
 21
4.233503492876934
 31
0.0
  0
LINE
  5
1D7
330
2
100
AcDbEntity
  8
GAIKEI
 62
     1
100
AcDbLine
 10
-22.02926298639369
 20
6.566142136951498
 30
0.0
 11
-22.02926298639369
 21
9.940246438052781
 31
0.0
  0
LINE
  5
1D8
330
2
100
AcDbEntity
  8
GAIKEI
100
AcDbLine
 10
-15.81782602590863
 20
28.68949256162859
 30
0.0
 11
-33.32754575876072
 21
28.68949256162859
 31
0.0
  0
LINE
  5
1D9
330
2
100
AcDbEntity
  8
GAIKEI
 62
     1
100
AcDbLine
 10
-24.77205098234577
 20
38.57249404691766
 30
0.0
 11
-24.37357380370685
 21
38.57249404691766
 31
0.0
  0
LINE
  5
1DA
330
2
100
AcDbEntity
  8
GAIKEI
 62
     1
100
AcDbLine
 10
-24.37357380370685
 20
38.82170040943151
 30
0.0
 11
-24.77205098234577
 21
38.82170040943151
 31
0.0
  0
LINE
  5
1DB
330
2
100
AcDbEntity
  8
GAIKEI
 62
     1
100
AcDbLine
 10
-22.26632528251099
 20
38.97173022970634
 30
0.0
 11
-23.4936349927188
 21
38.97173022970634
 31
0.0
  0
LINE
  5
1DC
330
2
100
AcDbEntity
  8
GAIKEI
 62
     1
100
AcDbLine
 10
-23.55865634821737
 20
38.97173022970634
 30
0.0
 11
-24.32347952982082
 21
38.97173022970634
 31
0.0
  0
LINE
  5
1DD
330
2
100
AcDbEntity
  8
GAIKEI
 62
     1
100
AcDbLine
 10
-24.82214525623181
 20
38.97173022970634
 30
0.0
 11
-25.5862094336855
 21
38.97173022970634
 31
0.0
  0
LINE
  5
1DE
330
2
100
AcDbEntity
  8
GAIKEI
 62
     1
100
AcDbLine
 10
-25.65148379056728
 20
38.97173022970634
 30
0.0
 11
-26.87854049939188
 21
38.97173022970634
 31
0.0
  0
LINE
  5
1DF
330
2
100
AcDbEntity
  8
GAIKEI
 62
     1
100
AcDbLine
 10
-25.65148379056728
 20
38.97173022970634
 30
0.0
 11
-25.65148379056728
 21
35.72090700526843
 31
0.0
  0
LINE
  5
1E0
330
2
100
AcDbEntity
  8
GAIKEI
 62
     1
100
AcDbLine
 10
-24.82214525623175
 20
35.72090700526843
 30
0.0
 11
-24.82214525623175
 21
39.07090677194537
 31
0.0
  0
LINE
  5
1E1
330
2
100
AcDbEntity
  8
GAIKEI
 62
     1
100
AcDbLine
 10
-24.77205098234577
 20
38.82170040943151
 30
0.0
 11
-24.77205098234577
 21
38.57249404691766
 31
0.0
  0
LINE
  5
1E2
330
2
100
AcDbEntity
  8
GAIKEI
 62
     1
100
AcDbLine
 10
-24.37357380370685
 20
38.57249404691766
 30
0.0
 11
-24.37357380370685
 21
38.82170040943151
 31
0.0
  0
LINE
  5
1E3
330
2
100
AcDbEntity
  8
GAIKEI
 62
     1
100
AcDbLine
 10
-24.32347952982082
 20
39.07090677194537
 30
0.0
 11
-24.32347952982082
 21
35.72090700526843
 31
0.0
  0
LINE
  5
1E4
330
2
100
AcDbEntity
  8
GAIKEI
 62
     1
100
AcDbLine
 10
-23.4936349927188
 20
38.97173022970634
 30
0.0
 11
-23.4936349927188
 21
35.72090700526843
 31
0.0
  0
LINE
  5
1E5
330
2
100
AcDbEntity
  8
GAIKEI
100
AcDbLine
 10
-14.3377280167212
 20
11.95464345159126
 30
0.0
 11
-34.80764376794815
 21
11.95464345159121
 31
0.0
  0
LINE
  5
1E6
330
2
100
AcDbEntity
  8
GAIKEI
 62
     1
100
AcDbLine
 10
-26.82161518815775
 20
9.640692800269675
 30
0.0
 11
-27.11610879827566
 21
9.640692800269675
 31
0.0
  0
LINE
  5
1E7
330
2
100
AcDbEntity
  8
GAIKEI
 62
     1
100
AcDbLine
 10
-27.11610879827566
 20
11.53339614845868
 30
0.0
 11
-27.11610879827566
 21
9.640692800269675
 31
0.0
  0
LINE
  5
1E8
330
2
100
AcDbEntity
  8
GAIKEI
 62
     1
100
AcDbLine
 10
-26.91649070688129
 20
10.33651105785355
 30
0.0
 11
-26.91649070688129
 21
11.53339614845868
 31
0.0
  0
LINE
  5
1E9
330
2
100
AcDbEntity
  8
GAIKEI
 62
     1
100
AcDbLine
 10
-26.697644510359
 20
11.53339614845868
 30
0.0
 11
-26.697644510359
 21
10.55991127927461
 31
0.0
  0
LINE
  5
1EA
330
2
100
AcDbEntity
  8
GAIKEI
 62
     1
100
AcDbLine
 10
-26.46741325158979
 20
9.942017447735679
 30
0.0
 11
-26.46741325158979
 21
10.63574724064221
 31
0.0
  0
LINE
  5
1EB
330
2
100
AcDbEntity
  8
GAIKEI
 62
     1
100
AcDbLine
 10
-26.06817706880117
 20
9.942017447735679
 30
0.0
 11
-26.06817706880117
 21
10.63574724064221
 31
0.0
  0
LINE
  5
1EC
330
2
100
AcDbEntity
  8
GAIKEI
 62
     1
100
AcDbLine
 10
-22.02926298639369
 20
9.640692800269675
 30
0.0
 11
-22.3237565965116
 21
9.640692800269675
 31
0.0
  0
LINE
  5
1ED
330
2
100
AcDbEntity
  8
GAIKEI
 62
     1
100
AcDbLine
 10
-22.02926298639369
 20
9.688257060323053
 30
0.0
 11
-22.31616655501369
 21
9.688257060323053
 31
0.0
  0
LINE
  5
1EE
330
2
100
AcDbEntity
  8
GAIKEI
 62
     1
100
AcDbLine
 10
-26.83095870458908
 20
9.688257060323053
 30
0.0
 11
-27.11610879827566
 21
9.688257060323053
 31
0.0
  0
LINE
  5
1EF
330
2
100
AcDbEntity
  8
GAIKEI
 62
     1
100
AcDbLine
 10
-26.21871289184247
 20
9.859285995408697
 30
0.0
 11
-22.93095991634232
 21
9.859285995408697
 31
0.0
  0
LINE
  5
1F0
330
2
100
AcDbEntity
  8
GAIKEI
 62
     1
100
AcDbLine
 10
-26.22680893610692
 20
9.907356258228674
 30
0.0
 11
-22.91764102773305
 21
9.907356258228674
 31
0.0
  0
LINE
  5
1F1
330
2
100
AcDbEntity
  8
GAIKEI
 62
     1
100
AcDbLine
 10
-26.46741325158979
 20
9.942017447735679
 30
0.0
 11
-26.06817706880117
 21
9.942017447735679
 31
0.0
  0
LINE
  5
1F2
330
2
100
AcDbEntity
  8
GAIKEI
 62
     1
100
AcDbLine
 10
-23.0766887131017
 20
9.942017447735679
 30
0.0
 11
-22.67795853307956
 21
9.942017447735679
 31
0.0
  0
LINE
  5
1F3
330
2
100
AcDbEntity
  8
GAIKEI
 62
     1
100
AcDbLine
 10
-22.32888107778803
 20
10.23651105785359
 30
0.0
 11
-22.67795853307956
 21
10.23651105785359
 31
0.0
  0
LINE
  5
1F4
330
2
100
AcDbEntity
  8
GAIKEI
 62
     1
100
AcDbLine
 10
-23.0766887131017
 20
10.23651105785359
 30
0.0
 11
-26.06817706880117
 21
10.23651105785359
 31
0.0
  0
LINE
  5
1F5
330
2
100
AcDbEntity
  8
GAIKEI
 62
     1
100
AcDbLine
 10
-26.46741325158979
 20
10.23651105785359
 30
0.0
 11
-26.81649070688127
 21
10.23651105785359
 31
0.0
  0
LINE
  5
1F6
330
2
100
AcDbEntity
  8
GAIKEI
 62
     1
100
AcDbLine
 10
-26.06817706880117
 20
10.45991127927459
 30
0.0
 11
-23.0766887131017
 21
10.45991127927459
 31
0.0
  0
LINE
  5
1F7
330
2
100
AcDbEntity
  8
GAIKEI
 62
     1
100
AcDbLine
 10
-26.59764451035897
 20
10.45991127927459
 30
0.0
 11
-26.46741325158979
 21
10.45991127927459
 31
0.0
  0
LINE
  5
1F8
330
2
100
AcDbEntity
  8
GAIKEI
 62
     1
100
AcDbLine
 10
-22.67795853307956
 20
10.45991127927459
 30
0.0
 11
-22.54747427292711
 21
10.45991127927459
 31
0.0
  0
LINE
  5
1F9
330
2
100
AcDbEntity
  8
GAIKEI
 62
     1
100
AcDbLine
 10
-22.92767089835996
 20
9.860044999558454
 30
0.0
 11
-22.3237565965116
 21
9.640692800269675
 31
0.0
  0
LINE
  5
1FA
330
2
100
AcDbEntity
  8
GAIKEI
 62
     1
100
AcDbLine
 10
-26.82161518815775
 20
9.640692800269675
 30
0.0
 11
-26.21871289184247
 21
9.859285995408697
 31
0.0
  0
LINE
  5
1FB
330
2
100
AcDbEntity
  8
GAIKEI
 62
     1
100
AcDbLine
 10
-22.67795853307956
 20
10.63574724064221
 30
0.0
 11
-23.0766887131017
 21
10.63574724064221
 31
0.0
  0
LINE
  5
1FC
330
2
100
AcDbEntity
  8
GAIKEI
 62
     1
100
AcDbLine
 10
-26.06817706880117
 20
10.63574724064221
 30
0.0
 11
-26.46741325158979
 21
10.63574724064221
 31
0.0
  0
LINE
  5
1FD
330
2
100
AcDbEntity
  8
GAIKEI
100
AcDbLine
 10
-27.11610879827566
 20
11.53339614845868
 30
0.0
 11
-22.02926298639369
 21
11.53339614845868
 31
0.0
  0
LINE
  5
1FE
330
2
100
AcDbEntity
  8
GAIKEI
 62
     1
100
AcDbLine
 10
-23.0766887131017
 20
9.942017447735679
 30
0.0
 11
-23.0766887131017
 21
10.63574724064221
 31
0.0
  0
LINE
  5
1FF
330
2
100
AcDbEntity
  8
GAIKEI
 62
     1
100
AcDbLine
 10
-22.67795853307956
 20
9.942017447735679
 30
0.0
 11
-22.67795853307956
 21
10.63574724064221
 31
0.0
  0
LINE
  5
200
330
2
100
AcDbEntity
  8
GAIKEI
 62
     1
100
AcDbLine
 10
-22.44747427292714
 20
10.55991127927461
 30
0.0
 11
-22.44747427292714
 21
11.53339614845868
 31
0.0
  0
LINE
  5
201
330
2
100
AcDbEntity
  8
GAIKEI
 62
     1
100
AcDbLine
 10
-22.22888107778806
 20
10.33651105785355
 30
0.0
 11
-22.22888107778806
 21
11.53339614845868
 31
0.0
  0
LINE
  5
202
330
2
100
AcDbEntity
  8
GAIKEI
 62
     1
100
AcDbLine
 10
-22.02926298639369
 20
9.640692800269675
 30
0.0
 11
-22.02926298639369
 21
11.53339614845868
 31
0.0
  0
LINE
  5
203
330
2
100
AcDbEntity
  8
GAIKEI
 62
     1
100
AcDbLine
 10
-31.10518160818026
 20
11.55313025635314
 30
0.0
 11
-31.10518160818026
 21
8.61732311789558
 31
0.0
  0
LINE
  5
204
330
2
100
AcDbEntity
  8
GAIKEI
 62
     1
100
AcDbLine
 10
-27.11610879827566
 20
9.940246438052781
 30
0.0
 11
-27.11610879827566
 21
6.566142136951839
 31
0.0
  0
LINE
  5
205
330
2
100
AcDbEntity
  8
GAIKEI
 62
     1
100
AcDbLine
 10
-27.06550852162309
 20
9.640692800269675
 30
0.0
 11
-27.06550852162309
 21
4.233256429737707
 31
0.0
  0
LINE
  5
206
330
2
100
AcDbEntity
  8
GAIKEI
 62
     1
100
AcDbLine
 10
-26.70928257398907
 20
38.97173022970634
 30
0.0
 11
-26.70928257398907
 21
35.72090700526843
 31
0.0
  0
TEXT
  5
207
330
2
100
AcDbEntity
  8
TOUROKU
100
AcDbText
 10
43.45716289910108
 20
47.50056494671105
 30
0.0
 40
2.0
  1
ＷＶＣＷ９６０
 72
     2
 11
59.32382956576775
 21
47.50056494671105
 31
0.0
100
AcDbText
  0
ENDSEC
  0
SECTION
  2
OBJECTS
  0
DICTIONARY
  5
9
330
0
100
AcDbDictionary
281
     1
  3
ACAD_COLOR
350
31
  3
ACAD_GROUP
350
2D
  3
ACAD_LAYOUT
350
D
  3
ACAD_MATERIAL
350
30
  3
ACAD_MLINESTYLE
350
2E
  3
ACAD_PLOTSETTINGS
350
2F
  3
ACAD_PLOTSTYLENAME
350
8
  3
ACDBHEADERROUNDTRIPXREC
350
2A0
  3
AcDbVariableDictionary
350
20D
  0
DICTIONARY
  5
15
330
14
100
AcDbDictionary
280
     1
281
     1
  3
ACAD_LAYERFILTERS
360
16
  3
ACAD_LAYERSTATES
360
17
  0
DICTIONARY
  5
3
330
2
100
AcDbDictionary
280
     1
281
     1
  3
ACAD_LAYOUTSELFREF
360
23A
  0
DICTIONARY
  5
F
330
E
100
AcDbDictionary
280
     1
281
     1
  3
ACAD_LAYOUTSELFREF
360
23F
  0
DICTIONARY
  5
31
102
{ACAD_REACTORS
330
9
102
}
330
9
100
AcDbDictionary
281
     1
  0
DICTIONARY
  5
2D
102
{ACAD_REACTORS
330
9
102
}
330
9
100
AcDbDictionary
281
     1
  0
DICTIONARY
  5
D
102
{ACAD_REACTORS
330
9
102
}
330
9
100
AcDbDictionary
281
     1
  3
Model
350
C
  3
ﾚｲｱｳﾄ1
350
13
  0
DICTIONARY
  5
30
102
{ACAD_REACTORS
330
9
102
}
330
9
100
AcDbDictionary
281
     1
  0
DICTIONARY
  5
2E
102
{ACAD_REACTORS
330
9
102
}
330
9
100
AcDbDictionary
281
     1
  3
STANDARD
350
33
  0
DICTIONARY
  5
2F
102
{ACAD_REACTORS
330
9
102
}
330
9
100
AcDbDictionary
281
     1
  0
ACDBDICTIONARYWDFLT
  5
8
102
{ACAD_REACTORS
330
9
102
}
330
9
100
AcDbDictionary
281
     1
  3
Normal
350
7
100
AcDbDictionaryWithDefault
340
7
  0
DICTIONARY
  5
2A0
102
{ACAD_REACTORS
330
9
102
}
330
9
100
AcDbDictionary
281
     1
  3
COLORDICT
350
2A2
  3
MATERIALDICT
350
2A1
  0
DICTIONARY
  5
20D
102
{ACAD_REACTORS
330
9
102
}
330
9
100
AcDbDictionary
281
     1
  3
DIMASSOC
350
20E
  3
PROJECTNAME
350
29E
  0
DICTIONARY
  5
16
102
{ACAD_REACTORS
330
15
102
}
330
15
100
AcDbDictionary
280
     1
281
     1
  0
DICTIONARY
  5
17
102
{ACAD_REACTORS
330
15
102
}
330
15
100
AcDbDictionary
281
     1
  0
XRECORD
  5
23A
102
{ACAD_REACTORS
330
3
102
}
330
3
100
AcDbXrecord
280
     1
340
2
  0
XRECORD
  5
23F
102
{ACAD_REACTORS
330
F
102
}
330
F
100
AcDbXrecord
280
     1
340
E
  0
LAYOUT
  5
C
102
{ACAD_XDICTIONARY
360
2A3
102
}
102
{ACAD_REACTORS
330
D
102
}
330
D
100
AcDbPlotSettings
  1

  2
\\URANUS\8FPAM09
  4
A4
  6

 40
4.180416584014892
 41
4.349743366241455
 42
4.222747802734375
 43
4.349761962890625
 44
210.0156707763672
 45
297.0106506347656
 46
6.07
 47
0.0
 48
0.0
 49
0.0
140
0.0
141
0.0
142
1.0
143
1.367740805731249
 70
 11956
 72
     1
 73
     0
 74
     1
  7
tmsacad.ctb
 75
     0
147
0.7311326793861061
148
0.5795976123417859
149
0.0742682085437991
100
AcDbLayout
  1
Model
 70
     1
 71
     0
 10
0.0
 20
0.0
 11
12.0
 21
9.0
 12
0.0
 22
0.0
 32
0.0
 14
0.0
 24
0.0
 34
0.0
 15
0.0
 25
0.0
 35
0.0
146
0.0
 13
0.0
 23
0.0
 33
0.0
 16
1.0
 26
0.0
 36
0.0
 17
0.0
 27
1.0
 37
0.0
 76
     0
330
2
  0
LAYOUT
  5
13
102
{ACAD_XDICTIONARY
360
2A5
102
}
102
{ACAD_REACTORS
330
D
102
}
330
D
100
AcDbPlotSettings
  1

  2
C:\Program Files\ACAD2000\plotters\DWF ePlot.pc3
  4

  6

 40
0.0
 41
0.0
 42
0.0
 43
0.0
 44
0.0
 45
0.0
 46
0.0
 47
0.0
 48
0.0
 49
0.0
140
0.0
141
0.0
142
1.0
143
1.0
 70
   688
 72
     0
 73
     0
 74
     5
  7
tmsacad.ctb
 75
    16
147
1.0
148
0.0
149
0.0
100
AcDbLayout
  1
ﾚｲｱｳﾄ1
 70
     1
 71
     1
 10
0.0
 20
0.0
 11
12.0
 21
9.0
 12
0.0
 22
0.0
 32
0.0
 14
1.000000000000000E+20
 24
1.000000000000000E+20
 34
1.000000000000000E+20
 15
-1.000000000000000E+20
 25
-1.000000000000000E+20
 35
-1.000000000000000E+20
146
0.0
 13
0.0
 23
0.0
 33
0.0
 16
1.0
 26
0.0
 36
0.0
 17
0.0
 27
1.0
 37
0.0
 76
     0
330
E
  0
MLINESTYLE
  5
33
102
{ACAD_REACTORS
330
2E
102
}
330
2E
100
AcDbMlineStyle
  2
STANDARD
 70
     0
  3

 62
   256
 51
90.0
 52
90.0
 71
     2
 49
0.5
 62
   256
  6
BYLAYER
 49
-0.5
 62
   256
  6
BYLAYER
  0
ACDBPLACEHOLDER
  5
7
102
{ACAD_REACTORS
330
8
102
}
330
8
  0
XRECORD
  5
2A2
102
{ACAD_REACTORS
330
2A0
102
}
330
2A0
100
AcDbXrecord
280
     1
340
31
  0
XRECORD
  5
2A1
102
{ACAD_REACTORS
330
2A0
102
}
330
2A0
100
AcDbXrecord
280
     1
340
30
  0
DICTIONARYVAR
  5
20E
102
{ACAD_REACTORS
330
20D
102
}
330
20D
100
DictionaryVariables
280
     0
  1
1
  0
DICTIONARYVAR
  5
29E
102
{ACAD_REACTORS
330
20D
102
}
330
20D
100
DictionaryVariables
280
     0
  1

  0
DICTIONARY
  5
2A3
330
C
100
AcDbDictionary
280
     1
281
     1
  3
ACAD_XREC_ROUNDTRIP
360
2A4
  0
DICTIONARY
  5
2A5
330
13
100
AcDbDictionary
280
     1
281
     1
  3
ACAD_XREC_ROUNDTRIP
360
2A6
  0
XRECORD
  5
2A4
102
{ACAD_REACTORS
330
2A3
102
}
330
2A3
100
AcDbXrecord
280
     1
102
SHADEPLOT
 70
     0
102
SHADEPLOTRESLEVEL
 70
     2
102
SHADEPLOTCUSTOMDPI
 70
   300
  0
XRECORD
  5
2A6
102
{ACAD_REACTORS
330
2A5
102
}
330
2A5
100
AcDbXrecord
280
     1
102
SHADEPLOT
 70
     0
102
SHADEPLOTRESLEVEL
 70
     2
102
SHADEPLOTCUSTOMDPI
 70
   300
  0
ENDSEC
  0
EOF
