  0
SECTION
  2
HEADER
  9
$ACADVER
  1
AC1015
  9
$ACADMAINTVER
 70
    20
  9
$DWGCODEPAGE
  3
ANSI_932
  9
$INSBASE
 10
129.0
 20
372.4992141396417
 30
0.0
  9
$EXTMIN
 10
-63.34722231225533
 20
-49.58972193229056
 30
-0.0015258207003583
  9
$EXTMAX
 10
61.73328665770942
 20
63.54135998333458
 30
0.0000000349246037
  9
$LIMMIN
 10
-1101.784450318844
 20
-1579.160531687244
  9
$LIMMAX
 10
-508.2420711400536
 20
-1161.440814074914
  9
$ORTHOMODE
 70
     1
  9
$REGENMODE
 70
     1
  9
$FILLMODE
 70
     1
  9
$QTEXTMODE
 70
     0
  9
$MIRRTEXT
 70
     1
  9
$LTSCALE
 40
1.0
  9
$ATTMODE
 70
     1
  9
$TEXTSIZE
 40
3.0
  9
$TRACEWID
 40
0.5
  9
$TEXTSTYLE
  7
STANDARD
  9
$CLAYER
  8
MOJI1
  9
$CELTYPE
  6
BYLAYER
  9
$CECOLOR
 62
   256
  9
$CELTSCALE
 40
1.0
  9
$DISPSILH
 70
     0
  9
$DIMSCALE
 40
1.0
  9
$DIMASZ
 40
2.0
  9
$DIMEXO
 40
2.0
  9
$DIMDLI
 40
8.0
  9
$DIMRND
 40
0.0
  9
$DIMDLE
 40
0.0
  9
$DIMEXE
 40
2.0
  9
$DIMTP
 40
0.0
  9
$DIMTM
 40
0.0
  9
$DIMTXT
 40
2.5
  9
$DIMCEN
 40
0.0
  9
$DIMTSZ
 40
0.0
  9
$DIMTOL
 70
     0
  9
$DIMLIM
 70
     0
  9
$DIMTIH
 70
     0
  9
$DIMTOH
 70
     0
  9
$DIMSE1
 70
     0
  9
$DIMSE2
 70
     0
  9
$DIMTAD
 70
     3
  9
$DIMZIN
 70
     0
  9
$DIMBLK
  1

  9
$DIMASO
 70
     1
  9
$DIMSHO
 70
     1
  9
$DIMPOST
  1

  9
$DIMAPOST
  1

  9
$DIMALT
 70
     0
  9
$DIMALTD
 70
     2
  9
$DIMALTF
 40
25.4
  9
$DIMLFAC
 40
1.0
  9
$DIMTOFL
 70
     1
  9
$DIMTVP
 40
0.0
  9
$DIMTIX
 70
     0
  9
$DIMSOXD
 70
     0
  9
$DIMSAH
 70
     1
  9
$DIMBLK1
  1
OPEN30
  9
$DIMBLK2
  1
OPEN30
  9
$DIMSTYLE
  2
STANDARD
  9
$DIMCLRD
 70
     0
  9
$DIMCLRE
 70
     0
  9
$DIMCLRT
 70
     0
  9
$DIMTFAC
 40
1.0
  9
$DIMGAP
 40
0.5
  9
$DIMJUST
 70
     0
  9
$DIMSD1
 70
     0
  9
$DIMSD2
 70
     0
  9
$DIMTOLJ
 70
     1
  9
$DIMTZIN
 70
     0
  9
$DIMALTZ
 70
     0
  9
$DIMALTTZ
 70
     0
  9
$DIMUPT
 70
     0
  9
$DIMDEC
 70
     4
  9
$DIMTDEC
 70
     4
  9
$DIMALTU
 70
     2
  9
$DIMALTTD
 70
     2
  9
$DIMTXSTY
  7
STANDARD
  9
$DIMAUNIT
 70
     0
  9
$DIMADEC
 70
     0
  9
$DIMALTRND
 40
0.0
  9
$DIMAZIN
 70
     0
  9
$DIMDSEP
 70
    46
  9
$DIMATFIT
 70
     3
  9
$DIMFRAC
 70
     0
  9
$DIMLDRBLK
  1
OPEN30
  9
$DIMLUNIT
 70
     2
  9
$DIMLWD
 70
    -2
  9
$DIMLWE
 70
    -2
  9
$DIMTMOVE
 70
     0
  9
$LUNITS
 70
     2
  9
$LUPREC
 70
     4
  9
$SKETCHINC
 40
0.1
  9
$FILLETRAD
 40
0.0
  9
$AUNITS
 70
     0
  9
$AUPREC
 70
     0
  9
$MENU
  1
ACAD
  9
$ELEVATION
 40
0.0
  9
$PELEVATION
 40
0.0
  9
$THICKNESS
 40
0.0
  9
$LIMCHECK
 70
     0
  9
$CHAMFERA
 40
0.0
  9
$CHAMFERB
 40
0.0
  9
$CHAMFERC
 40
0.0
  9
$CHAMFERD
 40
0.0
  9
$SKPOLY
 70
     0
  9
$TDCREATE
 40
2451815.565532581
  9
$TDUCREATE
 40
2451815.190532581
  9
$TDUPDATE
 40
2454287.354805764
  9
$TDUUPDATE
 40
2454286.979805764
  9
$TDINDWG
 40
0.7282171759
  9
$TDUSRTIMER
 40
0.7282171759
  9
$USRTIMER
 70
     1
  9
$ANGBASE
 50
0.0
  9
$ANGDIR
 70
     0
  9
$PDMODE
 70
     0
  9
$PDSIZE
 40
0.0
  9
$PLINEWID
 40
0.0
  9
$SPLFRAME
 70
     0
  9
$SPLINETYPE
 70
     6
  9
$SPLINESEGS
 70
     8
  9
$HANDSEED
  5
259
  9
$SURFTAB1
 70
     6
  9
$SURFTAB2
 70
     6
  9
$SURFTYPE
 70
     6
  9
$SURFU
 70
     6
  9
$SURFV
 70
     6
  9
$UCSBASE
  2

  9
$UCSNAME
  2

  9
$UCSORG
 10
0.0
 20
0.0
 30
0.0
  9
$UCSXDIR
 10
1.0
 20
0.0
 30
0.0
  9
$UCSYDIR
 10
0.0
 20
1.0
 30
0.0
  9
$UCSORTHOREF
  2

  9
$UCSORTHOVIEW
 70
     0
  9
$UCSORGTOP
 10
0.0
 20
0.0
 30
0.0
  9
$UCSORGBOTTOM
 10
0.0
 20
0.0
 30
0.0
  9
$UCSORGLEFT
 10
0.0
 20
0.0
 30
0.0
  9
$UCSORGRIGHT
 10
0.0
 20
0.0
 30
0.0
  9
$UCSORGFRONT
 10
0.0
 20
0.0
 30
0.0
  9
$UCSORGBACK
 10
0.0
 20
0.0
 30
0.0
  9
$PUCSBASE
  2

  9
$PUCSNAME
  2

  9
$PUCSORG
 10
0.0
 20
0.0
 30
0.0
  9
$PUCSXDIR
 10
1.0
 20
0.0
 30
0.0
  9
$PUCSYDIR
 10
0.0
 20
1.0
 30
0.0
  9
$PUCSORTHOREF
  2

  9
$PUCSORTHOVIEW
 70
     0
  9
$PUCSORGTOP
 10
0.0
 20
0.0
 30
0.0
  9
$PUCSORGBOTTOM
 10
0.0
 20
0.0
 30
0.0
  9
$PUCSORGLEFT
 10
0.0
 20
0.0
 30
0.0
  9
$PUCSORGRIGHT
 10
0.0
 20
0.0
 30
0.0
  9
$PUCSORGFRONT
 10
0.0
 20
0.0
 30
0.0
  9
$PUCSORGBACK
 10
0.0
 20
0.0
 30
0.0
  9
$USERI1
 70
     0
  9
$USERI2
 70
     0
  9
$USERI3
 70
     0
  9
$USERI4
 70
     0
  9
$USERI5
 70
     0
  9
$USERR1
 40
0.0
  9
$USERR2
 40
0.0
  9
$USERR3
 40
0.0
  9
$USERR4
 40
0.0
  9
$USERR5
 40
0.0
  9
$WORLDVIEW
 70
     1
  9
$SHADEDGE
 70
     3
  9
$SHADEDIF
 70
    70
  9
$TILEMODE
 70
     1
  9
$MAXACTVP
 70
    48
  9
$PINSBASE
 10
0.0
 20
0.0
 30
0.0
  9
$PLIMCHECK
 70
     0
  9
$PEXTMIN
 10
1.000000000000000E+20
 20
1.000000000000000E+20
 30
1.000000000000000E+20
  9
$PEXTMAX
 10
-1.000000000000000E+20
 20
-1.000000000000000E+20
 30
-1.000000000000000E+20
  9
$PLIMMIN
 10
0.0
 20
0.0
  9
$PLIMMAX
 10
12.0
 20
9.0
  9
$UNITMODE
 70
     0
  9
$VISRETAIN
 70
     1
  9
$PLINEGEN
 70
     0
  9
$PSLTSCALE
 70
     1
  9
$TREEDEPTH
 70
  3020
  9
$CMLSTYLE
  2
STANDARD
  9
$CMLJUST
 70
     0
  9
$CMLSCALE
 40
1.0
  9
$PROXYGRAPHICS
 70
     1
  9
$MEASUREMENT
 70
     0
  9
$CELWEIGHT
370
    -1
  9
$ENDCAPS
280
     0
  9
$JOINSTYLE
280
     0
  9
$LWDISPLAY
290
     0
  9
$INSUNITS
 70
     0
  9
$HYPERLINKBASE
  1

  9
$STYLESHEET
  1

  9
$XEDIT
290
     1
  9
$CEPSNTYPE
380
     0
  9
$PSTYLEMODE
290
     1
  9
$FINGERPRINTGUID
  2
{1754B7AB-9B3C-11D4-AD9E-00104B1004F2}
  9
$VERSIONGUID
  2
{820FEEBB-8A0F-4E13-82E8-89BD7A5591B4}
  9
$EXTNAMES
290
     1
  9
$PSVPSCALE
 40
0.0
  9
$OLESTARTUP
290
     0
  0
ENDSEC
  0
SECTION
  2
CLASSES
  0
CLASS
  1
ACDBDICTIONARYWDFLT
  2
AcDbDictionaryWithDefault
  3
ObjectDBX Classes
 90
        0
280
     0
281
     0
  0
CLASS
  1
ACDBPLACEHOLDER
  2
AcDbPlaceHolder
  3
ObjectDBX Classes
 90
        0
280
     0
281
     0
  0
CLASS
  1
LAYOUT
  2
AcDbLayout
  3
ObjectDBX Classes
 90
        0
280
     0
281
     0
  0
CLASS
  1
DICTIONARYVAR
  2
AcDbDictionaryVar
  3
ObjectDBX Classes
 90
        0
280
     0
281
     0
  0
ENDSEC
  0
SECTION
  2
TABLES
  0
TABLE
  2
VPORT
  5
20
330
0
100
AcDbSymbolTable
 70
     3
  0
VPORT
  5
251
330
20
100
AcDbSymbolTableRecord
100
AcDbViewportTableRecord
  2
*Active
 70
     0
 10
0.0
 20
0.0
 11
1.0
 21
1.0
 12
-0.8069678272729561
 22
6.975819025522014
 13
0.0
 23
0.0
 14
1.0
 24
1.0
 15
0.0
 25
0.0
 16
0.0
 26
0.0
 36
1.0
 17
0.0
 27
0.0
 37
0.0
 40
114.0035581257713
 41
1.405405405405405
 42
50.0
 43
0.0
 44
0.0
 50
0.0
 51
0.0
 71
     0
 72
 10000
 73
     1
 74
     0
 75
     0
 76
     1
 77
     0
 78
     0
281
     0
 65
     1
110
0.0
120
0.0
130
0.0
111
1.0
121
0.0
131
0.0
112
0.0
122
1.0
132
0.0
 79
     0
146
0.0
  0
ENDTAB
  0
TABLE
  2
LTYPE
  5
1B
330
0
100
AcDbSymbolTable
 70
     1
  0
LTYPE
  5
1C
330
1B
100
AcDbSymbolTableRecord
100
AcDbLinetypeTableRecord
  2
BYBLOCK
 70
     0
  3

 72
    65
 73
     0
 40
0.0
  0
LTYPE
  5
1D
330
1B
100
AcDbSymbolTableRecord
100
AcDbLinetypeTableRecord
  2
BYLAYER
 70
     0
  3

 72
    65
 73
     0
 40
0.0
  0
LTYPE
  5
A
330
1B
100
AcDbSymbolTableRecord
100
AcDbLinetypeTableRecord
  2
CONTINUOUS
 70
     0
  3
Solid line
 72
    65
 73
     0
 40
0.0
  0
ENDTAB
  0
TABLE
  2
LAYER
  5
14
102
{ACAD_XDICTIONARY
360
15
102
}
330
0
100
AcDbSymbolTable
 70
     7
  0
LAYER
  5
6
330
14
100
AcDbSymbolTableRecord
100
AcDbLayerTableRecord
  2
0
 70
     0
 62
     7
  6
CONTINUOUS
370
    -3
390
7
  0
LAYER
  5
1B9
330
14
100
AcDbSymbolTableRecord
100
AcDbLayerTableRecord
  2
DEFPOINTS
 70
     0
 62
     7
  6
CONTINUOUS
290
     0
370
    -3
390
7
  0
LAYER
  5
1E6
330
14
100
AcDbSymbolTableRecord
100
AcDbLayerTableRecord
  2
WAKU
 70
     0
 62
     4
  6
CONTINUOUS
370
    -3
390
7
  0
LAYER
  5
2B
330
14
100
AcDbSymbolTableRecord
100
AcDbLayerTableRecord
  2
MOJI1
 70
     0
 62
     2
  6
CONTINUOUS
370
    -3
390
7
  0
LAYER
  5
38
330
14
100
AcDbSymbolTableRecord
100
AcDbLayerTableRecord
  2
GAIKEI
 70
     0
 62
     7
  6
CONTINUOUS
370
    -3
390
7
  0
LAYER
  5
36
330
14
100
AcDbSymbolTableRecord
100
AcDbLayerTableRecord
  2
TOUROKU
 70
     0
 62
     1
  6
CONTINUOUS
370
    -3
390
7
  0
LAYER
  5
1AF
330
14
100
AcDbSymbolTableRecord
100
AcDbLayerTableRecord
  2
SUNPO
 70
     0
 62
     3
  6
CONTINUOUS
370
    -3
390
7
  0
ENDTAB
  0
TABLE
  2
STYLE
  5
18
330
0
100
AcDbSymbolTable
 70
     1
  0
STYLE
  5
19
330
18
100
AcDbSymbolTableRecord
100
AcDbTextStyleTableRecord
  2
STANDARD
 70
     0
 40
0.0
 41
1.0
 50
0.0
 71
     0
 42
3.0
  3
MONOTXT.shx
  4
BIGFONT.shx
  0
ENDTAB
  0
TABLE
  2
VIEW
  5
1E
330
0
100
AcDbSymbolTable
 70
     0
  0
ENDTAB
  0
TABLE
  2
UCS
  5
1F
330
0
100
AcDbSymbolTable
 70
     0
  0
ENDTAB
  0
TABLE
  2
APPID
  5
22
330
0
100
AcDbSymbolTable
 70
     1
  0
APPID
  5
23
330
22
100
AcDbSymbolTableRecord
100
AcDbRegAppTableRecord
  2
ACAD
 70
     0
  0
ENDTAB
  0
TABLE
  2
DIMSTYLE
  5
24
330
0
100
AcDbSymbolTable
 70
     1
100
AcDbDimStyleTable
 71
     0
  0
DIMSTYLE
105
33
102
{ACAD_REACTORS
330
1AE
330
1BD
330
1CB
330
1D8
102
}
330
24
100
AcDbSymbolTableRecord
100
AcDbDimStyleTableRecord
  2
STANDARD
 70
     0
 40
0.0
 41
2.0
 42
2.0
 43
8.0
 44
2.0
 73
     0
 74
     0
 77
     3
140
3.0
141
0.0
173
     1
279
     2
288
     1
340
19
341
2C
343
2C
344
2C
  0
ENDTAB
  0
TABLE
  2
BLOCK_RECORD
  5
1
330
0
100
AcDbSymbolTable
 70
     9
  0
BLOCK_RECORD
  5
2
102
{ACAD_XDICTIONARY
360
3
102
}
330
1
100
AcDbSymbolTableRecord
100
AcDbBlockTableRecord
  2
*MODEL_SPACE
340
C
  0
BLOCK_RECORD
  5
E
102
{ACAD_XDICTIONARY
360
F
102
}
330
1
100
AcDbSymbolTableRecord
100
AcDbBlockTableRecord
  2
*PAPER_SPACE
340
13
  0
BLOCK_RECORD
  5
2C
330
1
100
AcDbSymbolTableRecord
100
AcDbBlockTableRecord
  2
_OPEN30
340
0
102
{BLKREFS
331
1B5
331
1B6
331
1C4
331
1C5
331
1D1
331
1D2
331
1DE
331
1DF
331
220
331
221
331
22C
331
22D
331
239
331
23A
331
245
331
246
102
}
  0
BLOCK_RECORD
  5
1B0
330
1
100
AcDbSymbolTableRecord
100
AcDbBlockTableRecord
  2
*D1
340
0
  0
BLOCK_RECORD
  5
1BE
330
1
100
AcDbSymbolTableRecord
100
AcDbBlockTableRecord
  2
*D2
340
0
  0
BLOCK_RECORD
  5
1CC
330
1
100
AcDbSymbolTableRecord
100
AcDbBlockTableRecord
  2
*D3
340
0
  0
BLOCK_RECORD
  5
1D9
330
1
100
AcDbSymbolTableRecord
100
AcDbBlockTableRecord
  2
*D4
340
0
  0
BLOCK_RECORD
  5
21C
330
1
100
AcDbSymbolTableRecord
100
AcDbBlockTableRecord
  2
*D5
340
0
  0
BLOCK_RECORD
  5
228
330
1
100
AcDbSymbolTableRecord
100
AcDbBlockTableRecord
  2
*D6
340
0
  0
BLOCK_RECORD
  5
234
330
1
100
AcDbSymbolTableRecord
100
AcDbBlockTableRecord
  2
*D7
340
0
  0
BLOCK_RECORD
  5
241
330
1
100
AcDbSymbolTableRecord
100
AcDbBlockTableRecord
  2
*D8
340
0
  0
ENDTAB
  0
ENDSEC
  0
SECTION
  2
BLOCKS
  0
BLOCK
  5
5
330
2
100
AcDbEntity
  8
0
100
AcDbBlockBegin
  2
*MODEL_SPACE
 70
     0
 10
0.0
 20
0.0
 30
0.0
  3
*MODEL_SPACE
  1

  0
ENDBLK
  5
B
330
2
100
AcDbEntity
  8
0
100
AcDbBlockEnd
  0
BLOCK
  5
11
330
E
100
AcDbEntity
 67
     1
  8
0
100
AcDbBlockBegin
  2
*PAPER_SPACE
 70
     0
 10
0.0
 20
0.0
 30
0.0
  3
*PAPER_SPACE
  1

  0
ENDBLK
  5
12
330
E
100
AcDbEntity
 67
     1
  8
0
100
AcDbBlockEnd
  0
BLOCK
  5
2D
330
2C
100
AcDbEntity
  8
0
100
AcDbBlockBegin
  2
_OPEN30
 70
     0
 10
0.0
 20
0.0
 30
0.0
  3
_OPEN30
  1

  0
LINE
  5
2E
330
2C
100
AcDbEntity
  8
0
  6
ByBlock
 62
     0
100
AcDbLine
 10
-1.0
 20
0.26794919
 30
0.0
 11
0.0
 21
0.0
 31
0.0
  0
LINE
  5
2F
330
2C
100
AcDbEntity
  8
0
  6
ByBlock
 62
     0
100
AcDbLine
 10
0.0
 20
0.0
 30
0.0
 11
-1.0
 21
-0.26794919
 31
0.0
  0
LINE
  5
30
330
2C
100
AcDbEntity
  8
0
  6
ByBlock
 62
     0
100
AcDbLine
 10
0.0
 20
0.0
 30
0.0
 11
-1.0
 21
0.0
 31
0.0
  0
ENDBLK
  5
31
330
2C
100
AcDbEntity
  8
0
100
AcDbBlockEnd
  0
BLOCK
  5
1B1
330
1B0
100
AcDbEntity
  8
0
100
AcDbBlockBegin
  2
*D1
 70
     1
 10
0.0
 20
0.0
 30
0.0
  3
*D1
  1

  0
LINE
  5
1B2
330
1B0
100
AcDbEntity
  8
SUNPO
 62
     0
370
    -2
100
AcDbLine
 10
160.1496252184238
 20
313.8517007749691
 30
0.0
 11
160.1496252184238
 21
305.8517007749691
 31
0.0
  0
LINE
  5
1B3
330
1B0
100
AcDbEntity
  8
SUNPO
 62
     0
370
    -2
100
AcDbLine
 10
184.0496538897279
 20
313.8517007749691
 30
0.0
 11
184.0496538897279
 21
305.8517007749691
 31
0.0
  0
LINE
  5
1B4
330
1B0
100
AcDbEntity
  8
SUNPO
 62
     0
370
    -2
100
AcDbLine
 10
162.1496252184238
 20
307.8517007749691
 30
0.0
 11
182.0496538897279
 21
307.8517007749691
 31
0.0
  0
INSERT
  5
1B5
330
1B0
100
AcDbEntity
  8
SUNPO
 62
     0
370
    -2
100
AcDbBlockReference
  2
_OPEN30
 10
160.1496252184238
 20
307.8517007749691
 30
0.0
 41
2.0
 42
2.0
 43
2.0
 50
180.0
  0
INSERT
  5
1B6
330
1B0
100
AcDbEntity
  8
SUNPO
 62
     0
370
    -2
100
AcDbBlockReference
  2
_OPEN30
 10
184.0496538897279
 20
307.8517007749691
 30
0.0
 41
2.0
 42
2.0
 43
2.0
  0
MTEXT
  5
1B7
330
1B0
100
AcDbEntity
  8
SUNPO
 62
     0
100
AcDbMText
 10
172.0996395540759
 20
309.6017007749691
 30
0.0
 40
2.5
 41
0.0
 71
     5
 72
     1
  1
\A1;φ239
 73
     1
 44
1.0
1001
ACAD
1000
MTEXTBEGIN
1070
    73
1070
     1
1070
    44
1040
1.0
1070
    74
1070
     0
1000
MTEXTEND
  0
POINT
  5
1B8
330
1B0
100
AcDbEntity
  8
DEFPOINTS
 62
     0
100
AcDbPoint
 10
160.1496252184238
 20
315.8517007749691
 30
0.0
  0
POINT
  5
1BA
330
1B0
100
AcDbEntity
  8
DEFPOINTS
 62
     0
100
AcDbPoint
 10
184.0496538897279
 20
315.8517007749691
 30
0.0
  0
POINT
  5
1BB
330
1B0
100
AcDbEntity
  8
DEFPOINTS
 62
     0
100
AcDbPoint
 10
184.0496538897279
 20
307.8517007749691
 30
0.0
  0
ENDBLK
  5
1BC
330
1B0
100
AcDbEntity
  8
0
100
AcDbBlockEnd
  0
BLOCK
  5
1BF
330
1BE
100
AcDbEntity
  8
0
100
AcDbBlockBegin
  2
*D2
 70
     1
 10
0.0
 20
0.0
 30
0.0
  3
*D2
  1

  0
LINE
  5
1C0
330
1BE
100
AcDbEntity
  8
SUNPO
 62
     0
370
    -2
100
AcDbLine
 10
186.1076459454634
 20
324.9069933913849
 30
0.0
 11
194.1076459454635
 21
324.9069933913849
 31
0.0
  0
LINE
  5
1C1
330
1BE
100
AcDbEntity
  8
SUNPO
 62
     0
370
    -2
100
AcDbLine
 10
186.1076459454634
 20
316.0580170103851
 30
0.0
 11
194.1076459454634
 21
316.0580170103851
 31
0.0
  0
LINE
  5
1C2
330
1BE
100
AcDbEntity
  8
SUNPO
 62
     0
370
    -2
100
AcDbLine
 10
192.1076459454635
 20
322.9069933913849
 30
0.0
 11
192.1076459454634
 21
318.0580170103851
 31
0.0
  0
LINE
  5
1C3
330
1BE
100
AcDbEntity
  8
SUNPO
 62
     0
370
    -2
100
AcDbLine
 10
192.1076459454634
 20
316.0580170103851
 30
0.0
 11
192.1076459454634
 21
303.8913503437184
 31
0.0
  0
INSERT
  5
1C4
330
1BE
100
AcDbEntity
  8
SUNPO
 62
     0
370
    -2
100
AcDbBlockReference
  2
_OPEN30
 10
192.1076459454635
 20
324.9069933913849
 30
0.0
 41
2.0
 42
2.0
 43
2.0
 50
90.0
  0
INSERT
  5
1C5
330
1BE
100
AcDbEntity
  8
SUNPO
 62
     0
370
    -2
100
AcDbBlockReference
  2
_OPEN30
 10
192.1076459454634
 20
316.0580170103851
 30
0.0
 41
2.0
 42
2.0
 43
2.0
 50
270.0
  0
MTEXT
  5
1C6
330
1BE
100
AcDbEntity
  8
SUNPO
 62
     0
100
AcDbMText
 10
190.3576459454634
 20
308.9746836770519
 30
0.0
 40
2.5
 41
0.0
 71
     5
 72
     1
  1
\A1;88.5
 11
0.0000000000000001
 21
1.0
 31
0.0
 73
     1
 44
1.0
1001
ACAD
1000
MTEXTBEGIN
1070
    73
1070
     1
1070
    44
1040
1.0
1070
    74
1070
     0
1000
MTEXTEND
  0
POINT
  5
1C7
330
1BE
100
AcDbEntity
  8
DEFPOINTS
 62
     0
100
AcDbPoint
 10
184.1076459454634
 20
324.9069933913849
 30
0.0
  0
POINT
  5
1C8
330
1BE
100
AcDbEntity
  8
DEFPOINTS
 62
     0
100
AcDbPoint
 10
184.1076459454634
 20
316.0580170103851
 30
0.0
  0
POINT
  5
1C9
330
1BE
100
AcDbEntity
  8
DEFPOINTS
 62
     0
100
AcDbPoint
 10
192.1076459454634
 20
316.0580170103851
 30
0.0
  0
ENDBLK
  5
1CA
330
1BE
100
AcDbEntity
  8
0
100
AcDbBlockEnd
  0
BLOCK
  5
1CD
330
1CC
100
AcDbEntity
  8
0
100
AcDbBlockBegin
  2
*D3
 70
     1
 10
0.0
 20
0.0
 30
0.0
  3
*D3
  1

  0
LINE
  5
1CE
330
1CC
100
AcDbEntity
  8
SUNPO
 62
     0
370
    -2
100
AcDbLine
 10
186.1076459454634
 20
352.1080121751319
 30
0.0
 11
194.1076459454634
 21
352.1080121751319
 31
0.0
  0
LINE
  5
1CF
330
1CC
100
AcDbEntity
  8
SUNPO
 62
     0
370
    -2
100
AcDbLine
 10
186.1076459454634
 20
324.9069933913849
 30
0.0
 11
194.1076459454634
 21
324.9069933913849
 31
0.0
  0
LINE
  5
1D0
330
1CC
100
AcDbEntity
  8
SUNPO
 62
     0
370
    -2
100
AcDbLine
 10
192.1076459454634
 20
350.1080121751319
 30
0.0
 11
192.1076459454634
 21
326.9069933913849
 31
0.0
  0
INSERT
  5
1D1
330
1CC
100
AcDbEntity
  8
SUNPO
 62
     0
370
    -2
100
AcDbBlockReference
  2
_OPEN30
 10
192.1076459454634
 20
352.1080121751319
 30
0.0
 41
2.0
 42
2.0
 43
2.0
 50
90.0
  0
INSERT
  5
1D2
330
1CC
100
AcDbEntity
  8
SUNPO
 62
     0
370
    -2
100
AcDbBlockReference
  2
_OPEN30
 10
192.1076459454634
 20
324.9069933913849
 30
0.0
 41
2.0
 42
2.0
 43
2.0
 50
270.0
  0
MTEXT
  5
1D3
330
1CC
100
AcDbEntity
  8
SUNPO
 62
     0
100
AcDbMText
 10
190.3576459454633
 20
338.5075027832585
 30
0.0
 40
2.5
 41
0.0
 71
     5
 72
     1
  1
\A1;272
 11
0.0000000000000001
 21
1.0
 31
0.0
 73
     1
 44
1.0
1001
ACAD
1000
MTEXTBEGIN
1070
    73
1070
     1
1070
    44
1040
1.0
1070
    74
1070
     0
1000
MTEXTEND
  0
POINT
  5
1D4
330
1CC
100
AcDbEntity
  8
DEFPOINTS
 62
     0
100
AcDbPoint
 10
184.1076459454634
 20
352.1080121751319
 30
0.0
  0
POINT
  5
1D5
330
1CC
100
AcDbEntity
  8
DEFPOINTS
 62
     0
100
AcDbPoint
 10
184.1076459454634
 20
324.9069933913849
 30
0.0
  0
POINT
  5
1D6
330
1CC
100
AcDbEntity
  8
DEFPOINTS
 62
     0
100
AcDbPoint
 10
192.1076459454634
 20
324.9069933913849
 30
0.0
  0
ENDBLK
  5
1D7
330
1CC
100
AcDbEntity
  8
0
100
AcDbBlockEnd
  0
BLOCK
  5
1DA
330
1D9
100
AcDbEntity
  8
0
100
AcDbBlockBegin
  2
*D4
 70
     1
 10
0.0
 20
0.0
 30
0.0
  3
*D4
  1

  0
LINE
  5
1DB
330
1D9
100
AcDbEntity
  8
SUNPO
 62
     0
370
    -2
100
AcDbLine
 10
211.8212776467373
 20
313.5657830672262
 30
0.0
 11
211.8212776467373
 21
305.5657830672262
 31
0.0
  0
LINE
  5
1DC
330
1D9
100
AcDbEntity
  8
SUNPO
 62
     0
370
    -2
100
AcDbLine
 10
227.8453732570702
 20
313.5657830672262
 30
0.0
 11
227.8453732570702
 21
305.5657830672262
 31
0.0
  0
LINE
  5
1DD
330
1D9
100
AcDbEntity
  8
SUNPO
 62
     0
370
    -2
100
AcDbLine
 10
213.8212776467373
 20
307.5657830672262
 30
0.0
 11
225.8453732570702
 21
307.5657830672262
 31
0.0
  0
INSERT
  5
1DE
330
1D9
100
AcDbEntity
  8
SUNPO
 62
     0
370
    -2
100
AcDbBlockReference
  2
_OPEN30
 10
211.8212776467373
 20
307.5657830672262
 30
0.0
 41
2.0
 42
2.0
 43
2.0
 50
180.0
  0
INSERT
  5
1DF
330
1D9
100
AcDbEntity
  8
SUNPO
 62
     0
370
    -2
100
AcDbBlockReference
  2
_OPEN30
 10
227.8453732570702
 20
307.5657830672262
 30
0.0
 41
2.0
 42
2.0
 43
2.0
  0
MTEXT
  5
1E0
330
1D9
100
AcDbEntity
  8
SUNPO
 62
     0
100
AcDbMText
 10
219.8333254519037
 20
309.3157830672262
 30
0.0
 40
2.5
 41
0.0
 71
     5
 72
     1
  1
\A1;160
 73
     1
 44
1.0
1001
ACAD
1000
MTEXTBEGIN
1070
    73
1070
     1
1070
    44
1040
1.0
1070
    74
1070
     0
1000
MTEXTEND
  0
POINT
  5
1E1
330
1D9
100
AcDbEntity
  8
DEFPOINTS
 62
     0
100
AcDbPoint
 10
211.8212776467373
 20
315.5657830672262
 30
0.0
  0
POINT
  5
1E2
330
1D9
100
AcDbEntity
  8
DEFPOINTS
 62
     0
100
AcDbPoint
 10
227.8453732570702
 20
315.5657830672262
 30
0.0
  0
POINT
  5
1E3
330
1D9
100
AcDbEntity
  8
DEFPOINTS
 62
     0
100
AcDbPoint
 10
227.8453732570702
 20
307.5657830672262
 30
0.0
  0
ENDBLK
  5
1E4
330
1D9
100
AcDbEntity
  8
0
100
AcDbBlockEnd
  0
BLOCK
  5
226
330
21C
100
AcDbEntity
  8
0
100
AcDbBlockBegin
  2
*D5
 70
     1
 10
0.0
 20
0.0
 30
0.0
  3
*D5
  1

  0
LINE
  5
21D
330
21C
100
AcDbEntity
  8
SUNPO
 62
     0
370
    -2
100
AcDbLine
 10
17.49015894599426
 20
6.500931039693512
 30
0.0
 11
17.49015894599426
 21
-1.499068960306487
 31
0.0
  0
LINE
  5
21E
330
21C
100
AcDbEntity
  8
SUNPO
 62
     0
370
    -2
100
AcDbLine
 10
33.51425455632716
 20
6.500931039693512
 30
0.0
 11
33.51425455632716
 21
-1.499068960306487
 31
0.0
  0
LINE
  5
21F
330
21C
100
AcDbEntity
  8
SUNPO
 62
     0
370
    -2
100
AcDbLine
 10
19.49015894599426
 20
0.5009310396935121
 30
0.0
 11
31.51425455632716
 21
0.5009310396935121
 31
0.0
  0
INSERT
  5
220
330
21C
100
AcDbEntity
  8
SUNPO
 62
     0
370
    -2
100
AcDbBlockReference
  2
_OPEN30
 10
17.49015894599426
 20
0.5009310396935121
 30
0.0
 41
2.0
 42
2.0
 43
2.0
 50
180.0
  0
INSERT
  5
221
330
21C
100
AcDbEntity
  8
SUNPO
 62
     0
370
    -2
100
AcDbBlockReference
  2
_OPEN30
 10
33.51425455632716
 20
0.5009310396935121
 30
0.0
 41
2.0
 42
2.0
 43
2.0
  0
MTEXT
  5
222
330
21C
100
AcDbEntity
  8
SUNPO
 62
     0
100
AcDbMText
 10
25.50220675116071
 20
2.250931039693512
 30
0.0
 40
2.5
 41
0.0
 71
     5
 72
     1
  1
\A1;160
 73
     1
 44
1.0
1001
ACAD
1000
MTEXTBEGIN
1070
    73
1070
     1
1070
    44
1040
1.0
1070
    74
1070
     0
1000
MTEXTEND
  0
POINT
  5
223
330
21C
100
AcDbEntity
  8
DEFPOINTS
 62
     0
100
AcDbPoint
 10
17.49015894599426
 20
8.500931039693512
 30
0.0
  0
POINT
  5
224
330
21C
100
AcDbEntity
  8
DEFPOINTS
 62
     0
100
AcDbPoint
 10
33.51425455632716
 20
8.500931039693512
 30
0.0
  0
POINT
  5
225
330
21C
100
AcDbEntity
  8
DEFPOINTS
 62
     0
100
AcDbPoint
 10
33.51425455632716
 20
0.5009310396935121
 30
0.0
  0
ENDBLK
  5
227
330
21C
100
AcDbEntity
  8
0
100
AcDbBlockEnd
  0
BLOCK
  5
232
330
228
100
AcDbEntity
  8
0
100
AcDbBlockBegin
  2
*D6
 70
     1
 10
0.0
 20
0.0
 30
0.0
  3
*D6
  1

  0
LINE
  5
229
330
228
100
AcDbEntity
  8
SUNPO
 62
     0
370
    -2
100
AcDbLine
 10
-8.223472755279544
 20
45.04316014759922
 30
0.0
 11
-0.2234727552795384
 21
45.04316014759922
 31
0.0
  0
LINE
  5
22A
330
228
100
AcDbEntity
  8
SUNPO
 62
     0
370
    -2
100
AcDbLine
 10
-8.223472755279544
 20
17.84214136385225
 30
0.0
 11
-0.2234727552795444
 21
17.84214136385224
 31
0.0
  0
LINE
  5
22B
330
228
100
AcDbEntity
  8
SUNPO
 62
     0
370
    -2
100
AcDbLine
 10
-2.223472755279539
 20
43.04316014759922
 30
0.0
 11
-2.223472755279544
 21
19.84214136385224
 31
0.0
  0
INSERT
  5
22C
330
228
100
AcDbEntity
  8
SUNPO
 62
     0
370
    -2
100
AcDbBlockReference
  2
_OPEN30
 10
-2.223472755279538
 20
45.04316014759922
 30
0.0
 41
2.0
 42
2.0
 43
2.0
 50
90.0
  0
INSERT
  5
22D
330
228
100
AcDbEntity
  8
SUNPO
 62
     0
370
    -2
100
AcDbBlockReference
  2
_OPEN30
 10
-2.223472755279544
 20
17.84214136385224
 30
0.0
 41
2.0
 42
2.0
 43
2.0
 50
270.0
  0
MTEXT
  5
22E
330
228
100
AcDbEntity
  8
SUNPO
 62
     0
100
AcDbMText
 10
-3.973472755279546
 20
31.44265075572574
 30
0.0
 40
2.5
 41
0.0
 71
     5
 72
     1
  1
\A1;272
 11
0.0000000000000001
 21
1.0
 31
0.0
 73
     1
 44
1.0
1001
ACAD
1000
MTEXTBEGIN
1070
    73
1070
     1
1070
    44
1040
1.0
1070
    74
1070
     0
1000
MTEXTEND
  0
POINT
  5
22F
330
228
100
AcDbEntity
  8
DEFPOINTS
 62
     0
100
AcDbPoint
 10
-10.22347275527954
 20
45.04316014759922
 30
0.0
  0
POINT
  5
230
330
228
100
AcDbEntity
  8
DEFPOINTS
 62
     0
100
AcDbPoint
 10
-10.22347275527954
 20
17.84214136385225
 30
0.0
  0
POINT
  5
231
330
228
100
AcDbEntity
  8
DEFPOINTS
 62
     0
100
AcDbPoint
 10
-2.223472755279544
 20
17.84214136385224
 30
0.0
  0
ENDBLK
  5
233
330
228
100
AcDbEntity
  8
0
100
AcDbBlockEnd
  0
BLOCK
  5
23F
330
234
100
AcDbEntity
  8
0
100
AcDbBlockBegin
  2
*D7
 70
     1
 10
0.0
 20
0.0
 30
0.0
  3
*D7
  1

  0
LINE
  5
235
330
234
100
AcDbEntity
  8
SUNPO
 62
     0
370
    -2
100
AcDbLine
 10
-8.223472755279544
 20
17.84214136385225
 30
0.0
 11
-0.2234727552795426
 21
17.84214136385224
 31
0.0
  0
LINE
  5
236
330
234
100
AcDbEntity
  8
SUNPO
 62
     0
370
    -2
100
AcDbLine
 10
-8.223472755279544
 20
8.993164982852476
 30
0.0
 11
-0.2234727552795446
 21
8.993164982852475
 31
0.0
  0
LINE
  5
237
330
234
100
AcDbEntity
  8
SUNPO
 62
     0
370
    -2
100
AcDbLine
 10
-2.223472755279543
 20
15.84214136385224
 30
0.0
 11
-2.223472755279544
 21
10.99316498285247
 31
0.0
  0
LINE
  5
238
330
234
100
AcDbEntity
  8
SUNPO
 62
     0
370
    -2
100
AcDbLine
 10
-2.223472755279544
 20
8.993164982852475
 30
0.0
 11
-2.223472755279547
 21
-3.17350168381419
 31
0.0
  0
INSERT
  5
239
330
234
100
AcDbEntity
  8
SUNPO
 62
     0
370
    -2
100
AcDbBlockReference
  2
_OPEN30
 10
-2.223472755279542
 20
17.84214136385224
 30
0.0
 41
2.0
 42
2.0
 43
2.0
 50
90.0
  0
INSERT
  5
23A
330
234
100
AcDbEntity
  8
SUNPO
 62
     0
370
    -2
100
AcDbBlockReference
  2
_OPEN30
 10
-2.223472755279544
 20
8.993164982852475
 30
0.0
 41
2.0
 42
2.0
 43
2.0
 50
270.0
  0
MTEXT
  5
23B
330
234
100
AcDbEntity
  8
SUNPO
 62
     0
100
AcDbMText
 10
-3.973472755279546
 20
1.909831649519142
 30
0.0
 40
2.5
 41
0.0
 71
     5
 72
     1
  1
\A1;88.5
 11
0.0000000000000001
 21
1.0
 31
0.0
 73
     1
 44
1.0
1001
ACAD
1000
MTEXTBEGIN
1070
    73
1070
     1
1070
    44
1040
1.0
1070
    74
1070
     0
1000
MTEXTEND
  0
POINT
  5
23C
330
234
100
AcDbEntity
  8
DEFPOINTS
 62
     0
100
AcDbPoint
 10
-10.22347275527954
 20
17.84214136385225
 30
0.0
  0
POINT
  5
23D
330
234
100
AcDbEntity
  8
DEFPOINTS
 62
     0
100
AcDbPoint
 10
-10.22347275527954
 20
8.993164982852476
 30
0.0
  0
POINT
  5
23E
330
234
100
AcDbEntity
  8
DEFPOINTS
 62
     0
100
AcDbPoint
 10
-2.223472755279544
 20
8.993164982852475
 30
0.0
  0
ENDBLK
  5
240
330
234
100
AcDbEntity
  8
0
100
AcDbBlockEnd
  0
BLOCK
  5
24B
330
241
100
AcDbEntity
  8
0
100
AcDbBlockBegin
  2
*D8
 70
     1
 10
0.0
 20
0.0
 30
0.0
  3
*D8
  1

  0
LINE
  5
242
330
241
100
AcDbEntity
  8
SUNPO
 62
     0
370
    -2
100
AcDbLine
 10
-34.18149348231913
 20
6.786848747436465
 30
0.0
 11
-34.18149348231913
 21
-1.213151252563534
 31
0.0
  0
LINE
  5
243
330
241
100
AcDbEntity
  8
SUNPO
 62
     0
370
    -2
100
AcDbLine
 10
-10.28146481101504
 20
6.786848747436465
 30
0.0
 11
-10.28146481101504
 21
-1.213151252563534
 31
0.0
  0
LINE
  5
244
330
241
100
AcDbEntity
  8
SUNPO
 62
     0
370
    -2
100
AcDbLine
 10
-32.18149348231913
 20
0.7868487474364656
 30
0.0
 11
-12.28146481101504
 21
0.7868487474364656
 31
0.0
  0
INSERT
  5
245
330
241
100
AcDbEntity
  8
SUNPO
 62
     0
370
    -2
100
AcDbBlockReference
  2
_OPEN30
 10
-34.18149348231913
 20
0.7868487474364656
 30
0.0
 41
2.0
 42
2.0
 43
2.0
 50
180.0
  0
INSERT
  5
246
330
241
100
AcDbEntity
  8
SUNPO
 62
     0
370
    -2
100
AcDbBlockReference
  2
_OPEN30
 10
-10.28146481101504
 20
0.7868487474364656
 30
0.0
 41
2.0
 42
2.0
 43
2.0
  0
MTEXT
  5
247
330
241
100
AcDbEntity
  8
SUNPO
 62
     0
100
AcDbMText
 10
-22.23147914666709
 20
2.536848747436466
 30
0.0
 40
2.5
 41
0.0
 71
     5
 72
     1
  1
\A1;φ239
 73
     1
 44
1.0
1001
ACAD
1000
MTEXTBEGIN
1070
    73
1070
     1
1070
    44
1040
1.0
1070
    74
1070
     0
1000
MTEXTEND
  0
POINT
  5
248
330
241
100
AcDbEntity
  8
DEFPOINTS
 62
     0
100
AcDbPoint
 10
-34.18149348231913
 20
8.786848747436465
 30
0.0
  0
POINT
  5
249
330
241
100
AcDbEntity
  8
DEFPOINTS
 62
     0
100
AcDbPoint
 10
-10.28146481101504
 20
8.786848747436465
 30
0.0
  0
POINT
  5
24A
330
241
100
AcDbEntity
  8
DEFPOINTS
 62
     0
100
AcDbPoint
 10
-10.28146481101504
 20
0.7868487474364656
 30
0.0
  0
ENDBLK
  5
24C
330
241
100
AcDbEntity
  8
0
100
AcDbBlockEnd
  0
ENDSEC
  0
SECTION
  2
ENTITIES
  0
TEXT
  5
34
330
2
100
AcDbEntity
  8
MOJI1
100
AcDbText
 10
-36.33111870074299
 20
59.43436211210542
 30
0.0
 40
4.0
  1
屋外ハウジング一体型カメラ
100
AcDbText
  0
TEXT
  5
35
330
2
100
AcDbEntity
  8
TOUROKU
100
AcDbText
 10
45.80216466551759
 20
53.43436211210906
 30
0.0
 40
2.0
  1
ＷＶＣＷ９７０
 72
     2
 11
61.66883133218425
 21
53.43436211210906
 31
0.0
100
AcDbText
  0
LINE
  5
37
330
2
100
AcDbEntity
  8
GAIKEI
 62
     1
100
AcDbLine
 10
-24.36428080757253
 20
44.90552739510434
 30
0.0
 11
-24.36428080757253
 21
41.65470417066643
 31
0.0
  0
LINE
  5
39
330
2
100
AcDbEntity
  8
GAIKEI
 62
     1
100
AcDbLine
 10
-24.72050675520654
 20
15.57448996566768
 30
0.0
 11
-24.72050675520654
 21
10.16705359513571
 31
0.0
  0
LINE
  5
3A
330
2
100
AcDbEntity
  8
GAIKEI
 62
     1
100
AcDbLine
 10
-24.77110703185912
 20
15.87404360345078
 30
0.0
 11
-24.77110703185912
 21
12.49993930234984
 31
0.0
  0
LINE
  5
3B
330
2
100
AcDbEntity
  8
GAIKEI
 62
     1
100
AcDbLine
 10
-28.76017984176371
 20
17.48692742175115
 30
0.0
 11
-28.76017984176371
 21
14.55112028329358
 31
0.0
  0
LINE
  5
3C
330
2
100
AcDbEntity
  8
GAIKEI
 62
     1
100
AcDbLine
 10
-19.68426121997714
 20
15.57448996566768
 30
0.0
 11
-19.68426121997714
 21
17.46719331385668
 31
0.0
  0
LINE
  5
3D
330
2
100
AcDbEntity
  8
GAIKEI
 62
     1
100
AcDbLine
 10
-19.88387931137151
 20
16.27030822325156
 30
0.0
 11
-19.88387931137151
 21
17.46719331385668
 31
0.0
  0
LINE
  5
3E
330
2
100
AcDbEntity
  8
GAIKEI
 62
     1
100
AcDbLine
 10
-20.1024725065106
 20
16.49370844467262
 30
0.0
 11
-20.1024725065106
 21
17.46719331385668
 31
0.0
  0
LINE
  5
3F
330
2
100
AcDbEntity
  8
GAIKEI
 62
     1
100
AcDbLine
 10
-20.33295676666302
 20
15.87581461313368
 30
0.0
 11
-20.33295676666302
 21
16.56954440604022
 31
0.0
  0
LINE
  5
40
330
2
100
AcDbEntity
  8
GAIKEI
 62
     1
100
AcDbLine
 10
-20.73168694668516
 20
15.87581461313368
 30
0.0
 11
-20.73168694668516
 21
16.56954440604022
 31
0.0
  0
LINE
  5
41
330
2
100
AcDbEntity
  8
GAIKEI
100
AcDbLine
 10
-24.77110703185912
 20
17.46719331385668
 30
0.0
 11
-19.68426121997714
 21
17.46719331385668
 31
0.0
  0
LINE
  5
42
330
2
100
AcDbEntity
  8
GAIKEI
 62
     1
100
AcDbLine
 10
-23.72317530238462
 20
16.56954440604022
 30
0.0
 11
-24.12241148517324
 21
16.56954440604022
 31
0.0
  0
LINE
  5
43
330
2
100
AcDbEntity
  8
GAIKEI
 62
     1
100
AcDbLine
 10
-20.33295676666302
 20
16.56954440604022
 30
0.0
 11
-20.73168694668516
 21
16.56954440604022
 31
0.0
  0
LINE
  5
44
330
2
100
AcDbEntity
  8
GAIKEI
 62
     1
100
AcDbLine
 10
-24.47661342174121
 20
15.57448996566768
 30
0.0
 11
-23.87371112542593
 21
15.7930831608067
 31
0.0
  0
LINE
  5
45
330
2
100
AcDbEntity
  8
GAIKEI
 62
     1
100
AcDbLine
 10
-20.58266913194342
 20
15.79384216495646
 30
0.0
 11
-19.97875483009505
 21
15.57448996566768
 31
0.0
  0
LINE
  5
46
330
2
100
AcDbEntity
  8
GAIKEI
 62
     1
100
AcDbLine
 10
-20.33295676666302
 20
16.3937084446726
 30
0.0
 11
-20.20247250651056
 21
16.3937084446726
 31
0.0
  0
LINE
  5
47
330
2
100
AcDbEntity
  8
GAIKEI
 62
     1
100
AcDbLine
 10
-24.25264274394243
 20
16.3937084446726
 30
0.0
 11
-24.12241148517324
 21
16.3937084446726
 31
0.0
  0
LINE
  5
48
330
2
100
AcDbEntity
  8
GAIKEI
 62
     1
100
AcDbLine
 10
-23.72317530238462
 20
16.3937084446726
 30
0.0
 11
-20.73168694668516
 21
16.3937084446726
 31
0.0
  0
LINE
  5
49
330
2
100
AcDbEntity
  8
GAIKEI
 62
     1
100
AcDbLine
 10
-24.12241148517324
 20
16.17030822325159
 30
0.0
 11
-24.47148894046473
 21
16.17030822325159
 31
0.0
  0
LINE
  5
4A
330
2
100
AcDbEntity
  8
GAIKEI
 62
     1
100
AcDbLine
 10
-20.73168694668516
 20
16.17030822325159
 30
0.0
 11
-23.72317530238462
 21
16.17030822325159
 31
0.0
  0
LINE
  5
4B
330
2
100
AcDbEntity
  8
GAIKEI
 62
     1
100
AcDbLine
 10
-19.98387931137148
 20
16.17030822325159
 30
0.0
 11
-20.33295676666302
 21
16.17030822325159
 31
0.0
  0
LINE
  5
4C
330
2
100
AcDbEntity
  8
GAIKEI
 62
     1
100
AcDbLine
 10
-20.73168694668516
 20
15.87581461313368
 30
0.0
 11
-20.33295676666302
 21
15.87581461313368
 31
0.0
  0
LINE
  5
4D
330
2
100
AcDbEntity
  8
GAIKEI
 62
     1
100
AcDbLine
 10
-24.12241148517324
 20
15.87581461313368
 30
0.0
 11
-23.72317530238462
 21
15.87581461313368
 31
0.0
  0
LINE
  5
4E
330
2
100
AcDbEntity
  8
GAIKEI
 62
     1
100
AcDbLine
 10
-23.88180716969038
 20
15.84115342362668
 30
0.0
 11
-20.57263926131651
 21
15.84115342362668
 31
0.0
  0
LINE
  5
4F
330
2
100
AcDbEntity
  8
GAIKEI
 62
     1
100
AcDbLine
 10
-23.87371112542593
 20
15.7930831608067
 30
0.0
 11
-20.58595814992577
 21
15.7930831608067
 31
0.0
  0
LINE
  5
50
330
2
100
AcDbEntity
  8
GAIKEI
 62
     1
100
AcDbLine
 10
-24.48595693817253
 20
15.62205422572105
 30
0.0
 11
-24.77110703185912
 21
15.62205422572105
 31
0.0
  0
LINE
  5
51
330
2
100
AcDbEntity
  8
GAIKEI
 62
     1
100
AcDbLine
 10
-19.68426121997714
 20
15.62205422572105
 30
0.0
 11
-19.97116478859715
 21
15.62205422572105
 31
0.0
  0
LINE
  5
52
330
2
100
AcDbEntity
  8
GAIKEI
 62
     1
100
AcDbLine
 10
-19.68426121997714
 20
15.57448996566768
 30
0.0
 11
-19.97875483009505
 21
15.57448996566768
 31
0.0
  0
LINE
  5
53
330
2
100
AcDbEntity
  8
GAIKEI
 62
     1
100
AcDbLine
 10
-23.72317530238462
 20
15.87581461313368
 30
0.0
 11
-23.72317530238462
 21
16.56954440604022
 31
0.0
  0
LINE
  5
54
330
2
100
AcDbEntity
  8
GAIKEI
 62
     1
100
AcDbLine
 10
-24.12241148517324
 20
15.87581461313368
 30
0.0
 11
-24.12241148517324
 21
16.56954440604022
 31
0.0
  0
LINE
  5
55
330
2
100
AcDbEntity
  8
GAIKEI
 62
     1
100
AcDbLine
 10
-24.35264274394246
 20
17.46719331385668
 30
0.0
 11
-24.35264274394246
 21
16.49370844467262
 31
0.0
  0
LINE
  5
56
330
2
100
AcDbEntity
  8
GAIKEI
 62
     1
100
AcDbLine
 10
-24.57148894046475
 20
16.27030822325156
 30
0.0
 11
-24.57148894046475
 21
17.46719331385668
 31
0.0
  0
LINE
  5
57
330
2
100
AcDbEntity
  8
GAIKEI
 62
     1
100
AcDbLine
 10
-24.77110703185912
 20
17.46719331385668
 30
0.0
 11
-24.77110703185912
 21
15.57448996566768
 31
0.0
  0
LINE
  5
58
330
2
100
AcDbEntity
  8
GAIKEI
 62
     1
100
AcDbLine
 10
-24.47661342174121
 20
15.57448996566768
 30
0.0
 11
-24.77110703185912
 21
15.57448996566768
 31
0.0
  0
LINE
  5
59
330
2
100
AcDbEntity
  8
GAIKEI
100
AcDbLine
 10
-11.99272625030465
 20
17.88844061698927
 30
0.0
 11
-32.46264200153161
 21
17.88844061698921
 31
0.0
  0
LINE
  5
5A
330
2
100
AcDbEntity
  8
GAIKEI
 62
     1
100
AcDbLine
 10
-21.14863322630225
 20
44.90552739510434
 30
0.0
 11
-21.14863322630225
 21
41.65470417066643
 31
0.0
  0
LINE
  5
5B
330
2
100
AcDbEntity
  8
GAIKEI
 62
     1
100
AcDbLine
 10
-21.97847776340427
 20
45.00470393734338
 30
0.0
 11
-21.97847776340427
 21
41.65470417066643
 31
0.0
  0
LINE
  5
5C
330
2
100
AcDbEntity
  8
GAIKEI
 62
     1
100
AcDbLine
 10
-22.0285720372903
 20
44.50629121231566
 30
0.0
 11
-22.0285720372903
 21
44.75549757482951
 31
0.0
  0
LINE
  5
5D
330
2
100
AcDbEntity
  8
GAIKEI
 62
     1
100
AcDbLine
 10
-22.42704921592923
 20
44.75549757482951
 30
0.0
 11
-22.42704921592923
 21
44.50629121231566
 31
0.0
  0
LINE
  5
5E
330
2
100
AcDbEntity
  8
GAIKEI
 62
     1
100
AcDbLine
 10
-22.47714348981521
 20
41.65470417066643
 30
0.0
 11
-22.47714348981521
 21
45.00470393734338
 31
0.0
  0
LINE
  5
5F
330
2
100
AcDbEntity
  8
GAIKEI
 62
     1
100
AcDbLine
 10
-23.30648202415074
 20
44.90552739510434
 30
0.0
 11
-23.30648202415074
 21
41.65470417066643
 31
0.0
  0
LINE
  5
60
330
2
100
AcDbEntity
  8
GAIKEI
 62
     1
100
AcDbLine
 10
-23.30648202415074
 20
44.90552739510434
 30
0.0
 11
-24.53353873297533
 21
44.90552739510434
 31
0.0
  0
LINE
  5
61
330
2
100
AcDbEntity
  8
GAIKEI
 62
     1
100
AcDbLine
 10
-22.47714348981526
 20
44.90552739510434
 30
0.0
 11
-23.24120766726895
 21
44.90552739510434
 31
0.0
  0
LINE
  5
62
330
2
100
AcDbEntity
  8
GAIKEI
 62
     1
100
AcDbLine
 10
-21.21365458180083
 20
44.90552739510434
 30
0.0
 11
-21.97847776340427
 21
44.90552739510434
 31
0.0
  0
LINE
  5
63
330
2
100
AcDbEntity
  8
GAIKEI
 62
     1
100
AcDbLine
 10
-19.92132351609444
 20
44.90552739510434
 30
0.0
 11
-21.14863322630225
 21
44.90552739510434
 31
0.0
  0
LINE
  5
64
330
2
100
AcDbEntity
  8
GAIKEI
 62
     1
100
AcDbLine
 10
-22.0285720372903
 20
44.75549757482951
 30
0.0
 11
-22.42704921592923
 21
44.75549757482951
 31
0.0
  0
LINE
  5
65
330
2
100
AcDbEntity
  8
GAIKEI
 62
     1
100
AcDbLine
 10
-22.42704921592923
 20
44.50629121231566
 30
0.0
 11
-22.0285720372903
 21
44.50629121231566
 31
0.0
  0
LINE
  5
66
330
2
100
AcDbEntity
  8
GAIKEI
100
AcDbLine
 10
-13.47282425949208
 20
34.62328972702659
 30
0.0
 11
-30.98254399234418
 21
34.62328972702659
 31
0.0
  0
LINE
  5
67
330
2
100
AcDbEntity
  8
GAIKEI
 62
     1
100
AcDbLine
 10
-19.68426121997714
 20
12.4999393023495
 30
0.0
 11
-19.68426121997714
 21
15.87404360345078
 31
0.0
  0
LINE
  5
68
330
2
100
AcDbEntity
  8
GAIKEI
 62
     1
100
AcDbLine
 10
-19.7346084952465
 20
15.57448996566768
 30
0.0
 11
-19.73460849524645
 21
10.16730065827494
 31
0.0
  0
LINE
  5
69
330
2
100
AcDbEntity
  8
GAIKEI
100
AcDbLine
 10
-13.98338105091642
 20
34.87274909092372
 30
0.0
 11
-13.47282425949208
 21
34.62328972702659
 31
0.0
  0
LINE
  5
6A
330
2
100
AcDbEntity
  8
GAIKEI
100
AcDbLine
 10
-20.02277707078275
 20
45.00470393734338
 30
0.0
 11
-19.92132351609444
 21
44.90552739510434
 31
0.0
  0
LINE
  5
6B
330
2
100
AcDbEntity
  8
GAIKEI
100
AcDbLine
 10
-18.1673377133456
 20
41.65470417066643
 30
0.0
 11
-19.86313319794397
 21
41.65470417066643
 31
0.0
  0
LINE
  5
6C
330
2
100
AcDbEntity
  8
GAIKEI
100
AcDbLine
 10
-24.43259118105351
 20
45.00470393734338
 30
0.0
 11
-24.53353873297533
 21
44.90552739510434
 31
0.0
  0
ELLIPSE
  5
6D
330
2
100
AcDbEntity
  8
GAIKEI
100
AcDbEllipse
 10
-22.22743112453486
 20
18.53713616367508
 30
0.0
 11
-0.0002530013832628
 21
-0.0092345504890923
 31
0.0
210
0.0
220
0.0
230
1.0
 40
0.9859314143474241
 41
0.0
 42
6.283185307179586
  0
LINE
  5
6E
330
2
100
AcDbEntity
  8
GAIKEI
100
AcDbLine
 10
-24.43259118105351
 20
45.00470393734338
 30
0.0
 11
-20.02277707078275
 21
45.00470393734338
 31
0.0
  0
LINE
  5
6F
330
2
100
AcDbEntity
  8
GAIKEI
100
AcDbLine
 10
-19.86313319794397
 20
41.65470417066643
 30
0.0
 11
-24.59856008847385
 21
41.65470417066643
 31
0.0
  0
LINE
  5
70
330
2
100
AcDbEntity
  8
GAIKEI
100
AcDbLine
 10
-24.59856008847385
 20
41.65470417066643
 30
0.0
 11
-26.29695837431706
 21
41.65470417066643
 31
0.0
  0
LINE
  5
71
330
2
100
AcDbEntity
  8
GAIKEI
100
AcDbLine
 10
-13.65252537191981
 20
34.87274909092372
 30
0.0
 11
-14.0157652279741
 21
34.87274909092372
 31
0.0
  0
LINE
  5
72
330
2
100
AcDbEntity
  8
GAIKEI
100
AcDbLine
 10
-14.0157652279741
 20
34.87274909092372
 30
0.0
 11
-30.47527621890225
 21
34.87274909092372
 31
0.0
  0
LINE
  5
73
330
2
100
AcDbEntity
  8
GAIKEI
 62
     1
100
AcDbLine
 10
-20.09108744426374
 20
44.90552739510434
 30
0.0
 11
-20.09108744426374
 21
41.65470417066643
 31
0.0
  0
LINE
  5
74
330
2
100
AcDbEntity
  8
GAIKEI
100
AcDbLine
 10
-19.92132351609439
 20
44.90552739510434
 30
0.0
 11
-19.86490420762681
 21
41.65470417066643
 31
0.0
  0
LINE
  5
75
330
2
100
AcDbEntity
  8
GAIKEI
100
AcDbLine
 10
-24.53353873297533
 20
44.90552739510434
 30
0.0
 11
-24.59021104282618
 21
41.65470417066643
 31
0.0
  0
LINE
  5
76
330
2
100
AcDbEntity
  8
GAIKEI
100
AcDbLine
 10
-34.12456817108495
 20
18.93637234646383
 30
0.0
 11
-10.3313060835178
 21
18.93637234646383
 31
0.0
  0
LINE
  5
77
330
2
100
AcDbEntity
  8
GAIKEI
100
AcDbLine
 10
-33.85063045600396
 20
18.53713616367508
 30
0.0
 11
-10.6047377958323
 21
18.53713616367508
 31
0.0
  0
LINE
  5
78
330
2
100
AcDbEntity
  8
GAIKEI
100
AcDbLine
 10
-13.89293547364144
 20
17.48692742175115
 30
0.0
 11
-30.56243277819482
 21
17.48692742175115
 31
0.0
  0
LINE
  5
79
330
2
100
AcDbEntity
  8
GAIKEI
100
AcDbLine
 10
15.20230951531698
 20
17.87730855612574
 30
0.0
 11
35.80210398700439
 21
17.87730855612574
 31
0.0
  0
LINE
  5
7A
330
2
100
AcDbEntity
  8
GAIKEI
100
AcDbLine
 10
37.02186573388269
 20
18.52549810004501
 30
0.0
 11
37.02186573388258
 21
18.3659807278978
 31
0.0
  0
SPLINE
  5
7B
330
2
100
AcDbEntity
  8
GAIKEI
 62
     1
100
AcDbSpline
210
0.0
220
0.0
230
1.0
 70
     8
 71
     3
 72
     8
 73
     4
 74
     0
 42
0.0000000001
 43
0.0000000001
 40
0.0
 40
0.0
 40
0.0
 40
0.0
 40
1.0
 40
1.0
 40
1.0
 40
1.0
 10
34.22265842946297
 20
35.20873492789673
 30
0.0
 10
34.22695945297846
 20
35.21645147008627
 30
0.0
 10
34.23239898271862
 20
35.22328250743437
 30
0.0
 10
34.23859751660854
 20
35.22948104132428
 30
0.0
  0
SPLINE
  5
7C
330
2
100
AcDbEntity
  8
GAIKEI
 62
     1
100
AcDbSpline
210
0.0
220
0.0
230
1.0
 70
     8
 71
     3
 72
     8
 73
     4
 74
     0
 42
0.0000000001
 43
0.0000000001
 40
0.0
 40
0.0
 40
0.0
 40
0.0
 40
1.0
 40
1.0
 40
1.0
 40
1.0
 10
34.31841945302796
 20
35.13574402882546
 30
0.0
 10
34.32284697723509
 20
35.1429545682484
 30
0.0
 10
34.32803350559192
 20
35.14965910490492
 30
0.0
 10
34.33448504086511
 20
35.1561106401781
 30
0.0
  0
CIRCLE
  5
7D
330
2
100
AcDbEntity
  8
GAIKEI
 62
     1
100
AcDbCircle
 10
36.78923096197252
 20
48.89067023267433
 30
0.0
 40
0.0746354080625271
  0
CIRCLE
  5
7E
330
2
100
AcDbEntity
  8
GAIKEI
 62
     1
100
AcDbCircle
 10
26.20049056896602
 20
36.05818707220163
 30
0.0
 40
0.3987301800221789
  0
LINE
  5
7F
330
2
100
AcDbEntity
  8
GAIKEI
 62
     1
100
AcDbLine
 10
32.23482656116715
 20
17.4869274217512
 30
0.0
 11
32.23482656116715
 21
16.3873834100911
 31
0.0
  0
LINE
  5
80
330
2
100
AcDbEntity
  8
GAIKEI
 62
     1
100
AcDbLine
 10
32.13463801339509
 20
15.83508139042834
 30
0.0
 11
32.13463801339509
 21
16.16423619005326
 31
0.0
  0
LINE
  5
81
330
2
100
AcDbEntity
  8
GAIKEI
 62
     1
100
AcDbLine
 10
32.06632763991411
 20
16.563472372842
 30
0.0
 11
32.06632763991411
 21
16.3873834100911
 31
0.0
  0
LINE
  5
82
330
2
100
AcDbEntity
  8
GAIKEI
 62
     1
100
AcDbLine
 10
31.96386207969272
 20
15.86999558131862
 30
0.0
 11
31.96386207969272
 21
16.16423619005326
 31
0.0
  0
LINE
  5
83
330
2
100
AcDbEntity
  8
GAIKEI
 62
     1
100
AcDbLine
 10
31.96234407139309
 20
16.563472372842
 30
0.0
 11
31.96234407139309
 21
16.3873834100911
 31
0.0
  0
LINE
  5
84
330
2
100
AcDbEntity
  8
GAIKEI
 62
     1
100
AcDbLine
 10
31.89049167854648
 20
16.3873834100911
 30
0.0
 11
31.89049167854648
 21
17.4869274217512
 31
0.0
  0
LINE
  5
85
330
2
100
AcDbEntity
  8
GAIKEI
 62
     1
100
AcDbLine
 10
31.85886650563862
 20
15.86999558131862
 30
0.0
 11
31.85886650563862
 21
16.16423619005326
 31
0.0
  0
LINE
  5
86
330
2
100
AcDbEntity
  8
GAIKEI
 62
     1
100
AcDbLine
 10
31.70706567568095
 20
16.16423619005326
 30
0.0
 11
31.70706567568095
 21
17.4869274217512
 31
0.0
  0
LINE
  5
87
330
2
100
AcDbEntity
  8
GAIKEI
 62
     1
100
AcDbLine
 10
31.96234407139309
 20
16.563472372842
 30
0.0
 11
32.06632763991411
 21
16.563472372842
 31
0.0
  0
LINE
  5
88
330
2
100
AcDbEntity
  8
GAIKEI
 62
     1
100
AcDbLine
 10
31.62762324133644
 20
15.54337595882003
 30
0.0
 11
31.62762324133644
 21
17.4869274217512
 31
0.0
  0
LINE
  5
89
330
2
100
AcDbEntity
  8
GAIKEI
 62
     1
100
AcDbLine
 10
32.23482656116715
 20
16.3873834100911
 30
0.0
 11
32.06632763991411
 21
16.3873834100911
 31
0.0
  0
LINE
  5
8A
330
2
100
AcDbEntity
  8
GAIKEI
 62
     1
100
AcDbLine
 10
31.70706567568095
 20
16.16423619005326
 30
0.0
 11
31.85886650563862
 21
16.16423619005326
 31
0.0
  0
LINE
  5
8B
330
2
100
AcDbEntity
  8
GAIKEI
 62
     1
100
AcDbLine
 10
31.96386207969272
 20
16.16423619005326
 30
0.0
 11
32.13463801339509
 21
16.16423619005326
 31
0.0
  0
LINE
  5
8C
330
2
100
AcDbEntity
  8
GAIKEI
 62
     1
100
AcDbLine
 10
31.96386207969272
 20
15.86999558131862
 30
0.0
 11
31.85886650563862
 21
15.86999558131862
 31
0.0
  0
LINE
  5
8D
330
2
100
AcDbEntity
  8
GAIKEI
 62
     1
100
AcDbLine
 10
32.13463801339509
 20
15.83508139042834
 30
0.0
 11
31.92540586943676
 21
15.83508139042834
 31
0.0
  0
LINE
  5
8E
330
2
100
AcDbEntity
  8
GAIKEI
 62
     1
100
AcDbLine
 10
32.08504974227555
 20
15.78650512484194
 30
0.0
 11
31.87581759831727
 21
15.78650512484194
 31
0.0
  0
LINE
  5
8F
330
2
100
AcDbEntity
  8
GAIKEI
 62
     1
100
AcDbLine
 10
32.13463801339509
 20
15.83508139042834
 30
0.0
 11
32.08504974227555
 21
15.78650512484194
 31
0.0
  0
LINE
  5
90
330
2
100
AcDbEntity
  8
GAIKEI
 62
     1
100
AcDbLine
 10
25.55230102504669
 20
35.70980657397945
 30
0.0
 11
25.55230102504669
 21
36.40694707249867
 31
0.0
  0
LINE
  5
91
330
2
100
AcDbEntity
  8
GAIKEI
 62
     1
100
AcDbLine
 10
26.20074357034929
 20
35.50980657397952
 30
0.0
 11
25.75230102504673
 21
35.50980657397946
 31
0.0
  0
LINE
  5
92
330
2
100
AcDbEntity
  8
GAIKEI
 62
     1
100
AcDbLine
 10
25.75230102504673
 20
36.60694707249866
 30
0.0
 11
26.20074357034929
 21
36.60694707249866
 31
0.0
  0
LINE
  5
93
330
2
100
AcDbEntity
  8
GAIKEI
 62
     1
100
AcDbLine
 10
26.20074357034929
 20
36.80618566181812
 30
0.0
 11
25.50220675116071
 21
36.80618566181812
 31
0.0
  0
LINE
  5
94
330
2
100
AcDbEntity
  8
GAIKEI
 62
     1
100
AcDbLine
 10
25.50220675116071
 20
35.31031498327678
 30
0.0
 11
26.20074357034929
 21
35.31031498327678
 31
0.0
  0
LINE
  5
95
330
2
100
AcDbEntity
  8
GAIKEI
 62
     1
100
AcDbLine
 10
34.09906725373912
 20
34.99482225834805
 30
0.0
 11
34.22265842946297
 21
35.20873492789679
 31
0.0
  0
LINE
  5
96
330
2
100
AcDbEntity
  8
GAIKEI
 62
     1
100
AcDbLine
 10
34.06946609189737
 20
34.70387066759582
 30
0.0
 11
34.31841945302796
 21
35.13574402882546
 31
0.0
  0
LINE
  5
97
330
2
100
AcDbEntity
  8
GAIKEI
 62
     1
100
AcDbLine
 10
37.21439978654564
 20
44.55814804499044
 30
0.0
 11
37.21439978654564
 21
36.34050858119195
 31
0.0
  0
LINE
  5
98
330
2
100
AcDbEntity
  8
GAIKEI
 62
     1
100
AcDbLine
 10
37.09447713087911
 20
44.55814804499044
 30
0.0
 11
37.09447713087911
 21
36.33700422268026
 31
0.0
  0
LINE
  5
99
330
2
100
AcDbEntity
  8
GAIKEI
 62
     1
100
AcDbLine
 10
35.74547375532183
 20
50.07724672017684
 30
0.0
 11
35.9882285825625
 21
50.03423648502217
 31
0.0
  0
LINE
  5
9A
330
2
100
AcDbEntity
  8
GAIKEI
 62
     1
100
AcDbLine
 10
36.13092136272275
 20
50.13442503279424
 30
0.0
 11
35.9882285825625
 21
50.03423648502217
 31
0.0
  0
LINE
  5
9B
330
2
100
AcDbEntity
  8
GAIKEI
 62
     1
100
AcDbLine
 10
37.04678637013399
 20
48.82741988685859
 30
0.0
 11
36.76076830635549
 21
48.6271692920061
 31
0.0
  0
LINE
  5
9C
330
2
100
AcDbEntity
  8
GAIKEI
 62
     1
100
AcDbLine
 10
34.54612069796445
 20
49.09256533651802
 30
0.0
 11
36.30270930195815
 21
47.86221960971102
 31
0.0
  0
LINE
  5
9D
330
2
100
AcDbEntity
  8
GAIKEI
 62
     1
100
AcDbLine
 10
36.88714249729514
 20
48.44690580643135
 30
0.0
 11
35.65704977187147
 21
50.20336790973335
 31
0.0
  0
LINE
  5
9E
330
2
100
AcDbEntity
  8
GAIKEI
 62
     1
100
AcDbLine
 10
34.34561710172869
 20
48.80616777066456
 30
0.0
 11
36.28373419821344
 21
47.44944785291773
 31
0.0
  0
LINE
  5
9F
330
2
100
AcDbEntity
  8
GAIKEI
 62
     1
100
AcDbLine
 10
37.30016725547171
 20
48.46575440948441
 30
0.0
 11
35.94306783565008
 21
50.40361850458589
 31
0.0
  0
LINE
  5
A0
330
2
100
AcDbEntity
  8
GAIKEI
 62
     1
100
AcDbLine
 10
34.6289634104391
 20
35.53700422268025
 30
0.0
 11
36.2944771308791
 21
35.53700422268025
 31
0.0
  0
LINE
  5
A1
330
2
100
AcDbEntity
  8
GAIKEI
 62
     1
100
AcDbLine
 10
34.67865670884385
 20
35.41758756978021
 30
0.0
 11
36.29695801178946
 21
35.41758756978021
 31
0.0
  0
LINE
  5
A2
330
2
100
AcDbEntity
  8
GAIKEI
 62
     1
100
AcDbLine
 10
34.23859751660859
 20
35.22948104132434
 30
0.0
 11
34.48754205420181
 21
35.47842557891755
 31
0.0
  0
LINE
  5
A3
330
2
100
AcDbEntity
  8
GAIKEI
 62
     1
100
AcDbLine
 10
34.33448504086516
 20
35.1561106401781
 30
0.0
 11
34.53718376721821
 21
35.35895732180586
 31
0.0
  0
LINE
  5
A4
330
2
100
AcDbEntity
  8
GAIKEI
 62
     1
100
AcDbLine
 10
37.58972733861606
 20
46.92636749302187
 30
0.0
 11
37.13578053596234
 21
45.56899396626778
 31
0.0
  0
LINE
  5
A5
330
2
100
AcDbEntity
  8
GAIKEI
 62
     1
100
AcDbLine
 10
37.21439978654564
 20
45.0566872707098
 30
0.0
 11
37.21439978654564
 21
45.29620513542517
 31
0.0
  0
LINE
  5
A6
330
2
100
AcDbEntity
  8
GAIKEI
 62
     1
100
AcDbLine
 10
37.09447713087911
 20
45.0566872707098
 30
0.0
 11
37.09447713087911
 21
45.31526285492788
 31
0.0
  0
LINE
  5
A7
330
2
100
AcDbEntity
  8
GAIKEI
 62
     1
100
AcDbLine
 10
36.97632548489537
 20
44.55814804499044
 30
0.0
 11
36.97632548489537
 21
43.92627709029153
 31
0.0
  0
LINE
  5
A8
330
2
100
AcDbEntity
  8
GAIKEI
 62
     1
100
AcDbLine
 10
37.02604025670644
 20
44.55814804499044
 30
0.0
 11
36.8952385415596
 21
44.55814804499044
 31
0.0
  0
LINE
  5
A9
330
2
100
AcDbEntity
  8
GAIKEI
 62
     1
100
AcDbLine
 10
37.09447713087911
 20
45.0566872707098
 30
0.0
 11
37.29384222089016
 21
45.0566872707098
 31
0.0
  0
LINE
  5
AA
330
2
100
AcDbEntity
  8
GAIKEI
 62
     1
100
AcDbLine
 10
36.8952385415596
 20
44.55814804499044
 30
0.0
 11
36.8952385415596
 21
45.0566872707098
 31
0.0
  0
LINE
  5
AB
330
2
100
AcDbEntity
  8
GAIKEI
 62
     1
100
AcDbLine
 10
37.29384222089016
 20
44.55814804499044
 30
0.0
 11
37.02604025670644
 21
44.55814804499044
 31
0.0
  0
LINE
  5
AC
330
2
100
AcDbEntity
  8
GAIKEI
 62
     1
100
AcDbLine
 10
37.29384222089016
 20
45.0566872707098
 30
0.0
 11
37.29384222089016
 21
44.55814804499044
 31
0.0
  0
LINE
  5
AD
330
2
100
AcDbEntity
  8
GAIKEI
 62
     1
100
AcDbLine
 10
36.8952385415596
 20
45.0566872707098
 30
0.0
 11
37.09447713087911
 21
45.0566872707098
 31
0.0
  0
LINE
  5
AE
330
2
100
AcDbEntity
  8
GAIKEI
 62
     1
100
AcDbLine
 10
36.97632548489537
 20
43.92627709029153
 30
0.0
 11
37.09447713087911
 21
43.92627709029153
 31
0.0
  0
LINE
  5
AF
330
2
100
AcDbEntity
  8
GAIKEI
 62
     1
100
AcDbLine
 10
36.97632548489537
 20
45.15518468208756
 30
0.0
 11
36.97632548489537
 21
45.0566872707098
 31
0.0
  0
LINE
  5
B0
330
2
100
AcDbEntity
  8
GAIKEI
 62
     1
100
AcDbLine
 10
36.68840991074228
 20
47.04502514177216
 30
0.0
 11
36.96657508676754
 21
45.27970603262992
 31
0.0
  0
LINE
  5
B1
330
2
100
AcDbEntity
  8
GAIKEI
 62
     1
100
AcDbLine
 10
36.80656155672603
 20
47.06374724413359
 30
0.0
 11
37.08473405829796
 21
45.29770580154326
 31
0.0
  0
LINE
  5
B2
330
2
100
AcDbEntity
  8
GAIKEI
 62
     1
100
AcDbLine
 10
37.72660108696118
 20
46.958245667313
 30
0.0
 11
37.25568967622428
 21
45.54989582996495
 31
0.0
  0
LINE
  5
B3
330
2
100
AcDbEntity
  8
GAIKEI
 62
     1
100
AcDbLine
 10
26.37986854969938
 20
36.00847230039051
 30
0.0
 11
26.37986854969938
 21
36.10878734885421
 31
0.0
  0
LINE
  5
B4
330
2
100
AcDbEntity
  8
GAIKEI
 62
     1
100
AcDbLine
 10
26.25033184146884
 20
35.87868259077669
 30
0.0
 11
26.25033184146884
 21
36.00847230039051
 31
0.0
  0
LINE
  5
B5
330
2
100
AcDbEntity
  8
GAIKEI
 62
     1
100
AcDbLine
 10
26.25033184146884
 20
36.10878734885421
 30
0.0
 11
26.25033184146884
 21
36.23807105570148
 31
0.0
  0
LINE
  5
B6
330
2
100
AcDbEntity
  8
GAIKEI
 62
     1
100
AcDbLine
 10
26.15090229784653
 20
36.23807105570148
 30
0.0
 11
26.15090229784653
 21
36.10878734885421
 31
0.0
  0
LINE
  5
B7
330
2
100
AcDbEntity
  8
GAIKEI
 62
     1
100
AcDbLine
 10
26.15090229784653
 20
36.00847230039051
 30
0.0
 11
26.15090229784653
 21
35.87868259077669
 31
0.0
  0
LINE
  5
B8
330
2
100
AcDbEntity
  8
GAIKEI
 62
     1
100
AcDbLine
 10
26.02085958684944
 20
36.10878734885421
 30
0.0
 11
26.02085958684944
 21
36.00847230039051
 31
0.0
  0
LINE
  5
B9
330
2
100
AcDbEntity
  8
GAIKEI
 62
     1
100
AcDbLine
 10
26.15090229784653
 20
35.87868259077669
 30
0.0
 11
26.25033184146884
 21
35.87868259077669
 31
0.0
  0
LINE
  5
BA
330
2
100
AcDbEntity
  8
GAIKEI
 62
     1
100
AcDbLine
 10
26.02085958684944
 20
36.00847230039051
 30
0.0
 11
26.15090229784653
 21
36.00847230039051
 31
0.0
  0
LINE
  5
BB
330
2
100
AcDbEntity
  8
GAIKEI
 62
     1
100
AcDbLine
 10
26.25033184146884
 20
36.00847230039051
 30
0.0
 11
26.37986854969938
 21
36.00847230039051
 31
0.0
  0
LINE
  5
BC
330
2
100
AcDbEntity
  8
GAIKEI
 62
     1
100
AcDbLine
 10
26.37986854969938
 20
36.10878734885421
 30
0.0
 11
26.25033184146884
 21
36.10878734885421
 31
0.0
  0
LINE
  5
BD
330
2
100
AcDbEntity
  8
GAIKEI
 62
     1
100
AcDbLine
 10
26.15090229784653
 20
36.10878734885421
 30
0.0
 11
26.02085958684944
 21
36.10878734885421
 31
0.0
  0
LINE
  5
BE
330
2
100
AcDbEntity
  8
GAIKEI
 62
     1
100
AcDbLine
 10
26.25033184146884
 20
36.23807105570148
 30
0.0
 11
26.15090229784653
 21
36.23807105570148
 31
0.0
  0
LINE
  5
BF
330
2
100
AcDbEntity
  8
GAIKEI
100
AcDbLine
 10
36.87234191637435
 20
18.52549810004501
 30
0.0
 11
36.87234191637435
 21
18.3659807278978
 31
0.0
  0
LINE
  5
C0
330
2
100
AcDbEntity
  8
GAIKEI
100
AcDbLine
 10
36.77240636998556
 20
18.36598072789786
 30
0.0
 11
36.77240636998556
 21
18.46566327290338
 31
0.0
  0
LINE
  5
C1
330
2
100
AcDbEntity
  8
GAIKEI
100
AcDbLine
 10
36.17393159787736
 20
18.3659807278978
 30
0.0
 11
36.17393159787736
 21
18.46566327290338
 31
0.0
  0
LINE
  5
C2
330
2
100
AcDbEntity
  8
GAIKEI
100
AcDbLine
 10
37.02186573388258
 20
18.3659807278978
 30
0.0
 11
36.77392437828513
 21
18.3659807278978
 31
0.0
  0
LINE
  5
C3
330
2
100
AcDbEntity
  8
GAIKEI
100
AcDbLine
 10
36.17393159787736
 20
18.3659807278978
 30
0.0
 11
35.98354805697216
 21
18.3659807278978
 31
0.0
  0
LINE
  5
C4
330
2
100
AcDbEntity
  8
GAIKEI
100
AcDbLine
 10
36.77240636998556
 20
18.46566327290338
 30
0.0
 11
36.17393159787736
 21
18.46566327290338
 31
0.0
  0
LINE
  5
C5
330
2
100
AcDbEntity
  8
GAIKEI
100
AcDbLine
 10
14.99683031393931
 20
18.52549810004501
 30
0.0
 11
37.15035500185059
 21
18.52549810004501
 31
0.0
  0
LINE
  5
C6
330
2
100
AcDbEntity
  8
GAIKEI
100
AcDbLine
 10
37.39883779494426
 20
18.92473428283375
 30
0.0
 11
13.60557570737711
 21
18.92473428283375
 31
0.0
  0
LINE
  5
C7
330
2
100
AcDbEntity
  8
GAIKEI
100
AcDbLine
 10
13.87881720130093
 20
18.52549810004501
 30
0.0
 11
14.99683031393925
 21
18.52549810004501
 31
0.0
  0
LINE
  5
C8
330
2
100
AcDbEntity
  8
GAIKEI
 62
     1
100
AcDbLine
 10
25.50220675116066
 20
36.80618566181812
 30
0.0
 11
25.50220675116066
 21
35.31031498327684
 31
0.0
  0
LINE
  5
C9
330
2
100
AcDbEntity
  8
GAIKEI
 62
     1
100
AcDbLine
 10
25.50220675116066
 20
10.13723723796676
 30
0.0
 11
25.50220675116066
 21
9.579875190638801
 31
0.0
  0
ARC
  5
CA
330
2
100
AcDbEntity
  8
GAIKEI
100
AcDbCircle
 10
-31.02812773989768
 20
28.17630441231199
 30
0.0
 40
18.69128479927947
100
AcDbArc
 50
21.2237843756863
 51
45.87146134481493
  0
ARC
  5
CB
330
2
100
AcDbEntity
  8
GAIKEI
100
AcDbCircle
 10
-13.65252537191981
 20
34.92415578458372
 30
0.0
 40
0.05140669366
100
AcDbArc
 50
269.9999999999512
 51
21.22378437569642
  0
ARC
  5
CC
330
2
100
AcDbEntity
  8
GAIKEI
100
AcDbCircle
 10
-18.16733771334566
 20
41.43438976926643
 30
0.0
 40
0.2203144014
100
AcDbArc
 50
45.87146134481549
 51
89.99999999998697
  0
ARC
  5
CD
330
2
100
AcDbEntity
  8
GAIKEI
100
AcDbCircle
 10
-26.28803053849066
 20
41.43438976926643
 30
0.0
 40
0.2203144014
100
AcDbArc
 50
90.00000000000978
 51
134.1285386551845
  0
ARC
  5
CE
330
2
100
AcDbEntity
  8
GAIKEI
100
AcDbCircle
 10
-30.80284287991657
 20
34.92415578458372
 30
0.0
 40
0.05140669366
100
AcDbArc
 50
158.7762156243035
 51
270.0000000000456
  0
ARC
  5
CF
330
2
100
AcDbEntity
  8
GAIKEI
100
AcDbCircle
 10
-13.42724051193863
 20
28.17630441231199
 30
0.0
 40
18.69128479927947
100
AcDbArc
 50
134.128538655185
 51
158.7762156243137
  0
LINE
  5
D0
330
2
100
AcDbEntity
  8
GAIKEI
100
AcDbLine
 10
-30.80284287991651
 20
34.87274909092372
 30
0.0
 11
-30.43960302386222
 21
34.87274909092372
 31
0.0
  0
LINE
  5
D1
330
2
100
AcDbEntity
  8
GAIKEI
100
AcDbLine
 10
-30.4719872009199
 20
34.87274909092372
 30
0.0
 11
-30.98254399234424
 21
34.62328972702659
 31
0.0
  0
ELLIPSE
  5
D2
330
2
100
AcDbEntity
  8
GAIKEI
 62
     1
100
AcDbEllipse
 10
-23.91143684116366
 20
42.51744743761901
 30
0.0
 11
0.0065625378484242
 21
-0.3342148079461028
 31
0.0
210
0.0
220
0.0
230
1.0
 40
0.6563062739214747
 41
0.0
 42
6.283185307179586
  0
ELLIPSE
  5
D3
330
2
100
AcDbEntity
  8
GAIKEI
 62
     1
100
AcDbEllipse
 10
-20.5439314106726
 20
42.51744743761901
 30
0.0
 11
-0.0065625378484242
 21
-0.3342148079461028
 31
0.0
210
0.0
220
0.0
230
-1.0
 40
0.6563062739214747
 41
0.0
 42
6.283185307179586
  0
ARC
  5
D4
330
2
100
AcDbEntity
  8
GAIKEI
100
AcDbCircle
 10
9.359348598405233
 20
19.12289029955093
 30
0.0
 40
43.21724979929718
100
AcDbArc
 50
158.9819322792468
 51
169.9944514485431
  0
ARC
  5
D5
330
2
100
AcDbEntity
  8
GAIKEI
100
AcDbCircle
 10
20.65050564373729
 20
16.24307251418565
 30
0.0
 40
54.84399717788395
100
AcDbArc
 50
169.0810768121813
 51
174.498784979405
  0
ARC
  5
D6
330
2
100
AcDbEntity
  8
GAIKEI
100
AcDbCircle
 10
5.175655883268575
 20
17.41024799921183
 30
0.0
 40
39.32984447268598
100
AcDbArc
 50
174.0300893863849
 51
177.7761813402034
  0
LINE
  5
D7
330
2
100
AcDbEntity
  8
GAIKEI
100
AcDbLine
 10
-34.12456817108501
 20
18.93637234646377
 30
0.0
 11
-34.04107453192466
 21
18.6760538098672
 31
0.0
  0
ARC
  5
D8
330
2
100
AcDbEntity
  8
GAIKEI
100
AcDbCircle
 10
-33.85063045600396
 20
18.73713616367507
 30
0.0
 40
0.2
100
AcDbArc
 50
197.782938626207
 51
270.0
  0
ARC
  5
D9
330
2
100
AcDbEntity
  8
GAIKEI
100
AcDbCircle
 10
-10.6047377958323
 20
18.73713616367507
 30
0.0
 40
0.2
100
AcDbArc
 50
270.0
 51
342.217061373793
  0
LINE
  5
DA
330
2
100
AcDbEntity
  8
GAIKEI
100
AcDbLine
 10
-10.33080008075131
 20
18.93637234646377
 30
0.0
 11
-10.41429371991165
 21
18.6760538098672
 31
0.0
  0
ARC
  5
DB
330
2
100
AcDbEntity
  8
GAIKEI
100
AcDbCircle
 10
-49.63102413510489
 20
17.41024799921183
 30
0.0
 40
39.32984447268598
100
AcDbArc
 50
2.223818659796575
 51
5.969910613615057
  0
ARC
  5
DC
330
2
100
AcDbEntity
  8
GAIKEI
100
AcDbCircle
 10
-65.10587389557361
 20
16.24307251418565
 30
0.0
 40
54.84399717788395
100
AcDbArc
 50
5.501215020594926
 51
10.91892318781866
  0
ARC
  5
DD
330
2
100
AcDbEntity
  8
GAIKEI
100
AcDbCircle
 10
-53.81471685024155
 20
19.12289029955093
 30
0.0
 40
43.21724979929718
100
AcDbArc
 50
10.00554855145683
 51
21.01806772075322
  0
ARC
  5
DE
330
2
100
AcDbEntity
  8
GAIKEI
100
AcDbCircle
 10
-29.78640147150145
 20
19.14086527811378
 30
0.0
 40
3.01381982527136
100
AcDbArc
 50
191.5556864879085
 51
203.2973524006533
  0
ARC
  5
DF
330
2
100
AcDbEntity
  8
GAIKEI
100
AcDbCircle
 10
-32.46264200153161
 20
17.98844061698924
 30
0.0
 40
0.1
100
AcDbArc
 50
203.2973524006533
 51
270.0
  0
ARC
  5
E0
330
2
100
AcDbEntity
  8
GAIKEI
100
AcDbCircle
 10
-11.99272625030465
 20
17.98844061698924
 30
0.0
 40
0.1
100
AcDbArc
 50
270.0
 51
336.7026475993467
  0
ARC
  5
E1
330
2
100
AcDbEntity
  8
GAIKEI
100
AcDbCircle
 10
-14.66896678033487
 20
19.14086527811378
 30
0.0
 40
3.01381982527136
100
AcDbArc
 50
336.7026475993467
 51
348.4443135120914
  0
ARC
  5
E2
330
2
100
AcDbEntity
  8
GAIKEI
 62
     1
100
AcDbCircle
 10
-28.27178275107809
 20
19.35842913051124
 30
0.0
 40
1.79962810126059
100
AcDbArc
 50
234.7686177970861
 51
267.8696783105273
  0
ARC
  5
E3
330
2
100
AcDbEntity
  8
GAIKEI
 62
     1
100
AcDbCircle
 10
-28.15762481706196
 20
17.62243874931903
 30
0.0
 40
0.036588548234881
100
AcDbArc
 50
319.1378988560395
 51
10.10959864636781
  0
ARC
  5
E4
330
2
100
AcDbEntity
  8
GAIKEI
 62
     1
100
AcDbCircle
 10
-28.30800175814778
 20
18.32086145723883
 30
0.0
 40
0.7614348818684209
100
AcDbArc
 50
267.690960597588
 51
277.7188783424543
  0
ARC
  5
E5
330
2
100
AcDbEntity
  8
GAIKEI
 62
     1
100
AcDbCircle
 10
-28.19931381939552
 20
17.6696756114186
 30
0.0
 40
0.0993815330630986
100
AcDbArc
 50
297.7411536814945
 51
314.260413957186
  0
ARC
  5
E6
330
2
100
AcDbEntity
  8
GAIKEI
 62
     1
100
AcDbCircle
 10
-28.23399930593729
 20
17.7609178211095
 30
0.0
 40
0.1966343723822126
100
AcDbArc
 50
278.2654102171065
 51
294.3087998455175
  0
ARC
  5
E7
330
2
100
AcDbEntity
  8
GAIKEI
 62
     1
100
AcDbCircle
 10
-28.20892597068877
 20
17.60945237735984
 30
0.0
 40
0.0894526001733724
100
AcDbArc
 50
12.53131869959005
 51
39.67218746992513
  0
ARC
  5
E8
330
2
100
AcDbEntity
  8
GAIKEI
 62
     1
100
AcDbCircle
 10
-28.37324940863545
 20
17.47245508871265
 30
0.0
 40
0.3033926894193737
100
AcDbArc
 50
39.77510708122954
 51
54.24870289448641
  0
ARC
  5
E9
330
2
100
AcDbEntity
  8
GAIKEI
 62
     1
100
AcDbCircle
 10
-29.0089440349588
 20
16.55179149877256
 30
0.0
 40
1.422153501699292
100
AcDbArc
 50
55.13545790331253
 51
70.03088110499033
  0
ARC
  5
EA
330
2
100
AcDbEntity
  8
GAIKEI
 62
     1
100
AcDbCircle
 10
-15.44642421687746
 20
16.55179149877256
 30
0.0
 40
1.422153501699292
100
AcDbArc
 50
109.9691188950096
 51
124.8645420966874
  0
ARC
  5
EB
330
2
100
AcDbEntity
  8
GAIKEI
 62
     1
100
AcDbCircle
 10
-16.08211884320087
 20
17.47245508871265
 30
0.0
 40
0.3033926894193737
100
AcDbArc
 50
125.7512971055136
 51
140.2248929187704
  0
ARC
  5
EC
330
2
100
AcDbEntity
  8
GAIKEI
 62
     1
100
AcDbCircle
 10
-16.24644228114749
 20
17.60945237735984
 30
0.0
 40
0.0894526001733724
100
AcDbArc
 50
140.3278125300749
 51
167.4686813004099
  0
ARC
  5
ED
330
2
100
AcDbEntity
  8
GAIKEI
 62
     1
100
AcDbCircle
 10
-16.22136894589897
 20
17.7609178211095
 30
0.0
 40
0.1966343723822126
100
AcDbArc
 50
245.6912001544825
 51
261.7345897828935
  0
ARC
  5
EE
330
2
100
AcDbEntity
  8
GAIKEI
 62
     1
100
AcDbCircle
 10
-16.25605443244075
 20
17.6696756114186
 30
0.0
 40
0.0993815330630986
100
AcDbArc
 50
225.739586042814
 51
242.2588463185055
  0
ARC
  5
EF
330
2
100
AcDbEntity
  8
GAIKEI
 62
     1
100
AcDbCircle
 10
-16.14736649368848
 20
18.32086145723883
 30
0.0
 40
0.7614348818684209
100
AcDbArc
 50
262.2811216575425
 51
272.3090394024087
  0
ARC
  5
F0
330
2
100
AcDbEntity
  8
GAIKEI
 62
     1
100
AcDbCircle
 10
-16.29774343477436
 20
17.62243874931903
 30
0.0
 40
0.036588548234881
100
AcDbArc
 50
169.8904013536322
 51
220.8621011439605
  0
ARC
  5
F1
330
2
100
AcDbEntity
  8
GAIKEI
 62
     1
100
AcDbCircle
 10
-16.18358550075823
 20
19.35842913051124
 30
0.0
 40
1.79962810126059
100
AcDbArc
 50
272.1303216894727
 51
305.2313822029138
  0
LINE
  5
F2
330
2
100
AcDbEntity
  8
GAIKEI
100
AcDbLine
 10
-31.69701989867832
 20
17.88666960730643
 30
0.0
 11
-31.1530682433438
 21
17.67405634887291
 31
0.0
  0
LINE
  5
F3
330
2
100
AcDbEntity
  8
GAIKEI
100
AcDbLine
 10
-31.1530682433438
 20
17.67405634887291
 30
0.0
 11
-30.59339072196002
 21
17.49184006340192
 31
0.0
  0
ARC
  5
F4
330
2
100
AcDbEntity
  8
GAIKEI
100
AcDbCircle
 10
-30.56243277819482
 20
17.58692742175117
 30
0.0
 40
0.1
100
AcDbArc
 50
251.9661127135541
 51
270.0
  0
LINE
  5
F5
330
2
100
AcDbEntity
  8
GAIKEI
100
AcDbLine
 10
-13.30230000849246
 20
17.67405634887291
 30
0.0
 11
-13.86197752987624
 21
17.49184006340198
 31
0.0
  0
LINE
  5
F6
330
2
100
AcDbEntity
  8
GAIKEI
100
AcDbLine
 10
-12.75834835315794
 20
17.88666960730643
 30
0.0
 11
-13.30230000849246
 21
17.67405634887291
 31
0.0
  0
ARC
  5
F7
330
2
100
AcDbEntity
  8
GAIKEI
 62
     1
100
AcDbCircle
 10
-22.22931741598217
 20
16.37098016784318
 30
0.0
 40
6.779679492710411
100
AcDbArc
 50
195.5707808595894
 51
246.6112520389803
  0
ARC
  5
F8
330
2
100
AcDbEntity
  8
GAIKEI
100
AcDbCircle
 10
35.09385226377344
 20
21.30000398536697
 30
0.0
 40
65.44476126189625
100
AcDbArc
 50
183.3401755542463
 51
184.6933718267857
  0
ARC
  5
F9
330
2
100
AcDbEntity
  8
GAIKEI
100
AcDbCircle
 10
-22.25795779665043
 20
17.02676522657805
 30
0.0
 40
7.947457734105853
100
AcDbArc
 50
187.8223264203952
 51
225.8042096624012
  0
ARC
  5
FA
330
2
100
AcDbEntity
  8
GAIKEI
100
AcDbCircle
 10
-22.23803873123217
 20
17.01470086934012
 30
0.0
 40
7.952726251192598
100
AcDbArc
 50
225.64072804772
 51
270.0746002480055
  0
LINE
  5
FB
330
2
100
AcDbEntity
  8
GAIKEI
 62
     1
100
AcDbLine
 10
-24.92063084936745
 20
10.14836929883029
 30
0.0
 11
-24.77110703185912
 21
12.49993930234984
 31
0.0
  0
ARC
  5
FC
330
2
100
AcDbEntity
  8
GAIKEI
 62
     1
100
AcDbCircle
 10
-22.22781062660982
 20
15.27291309577902
 30
0.0
 40
5.681842591081675
100
AcDbArc
 50
243.9782290675566
 51
296.0274492172363
  0
ARC
  5
FD
330
2
100
AcDbEntity
  8
GAIKEI
 62
     1
100
AcDbCircle
 10
-22.2260508358541
 20
16.37098016784318
 30
0.0
 40
6.779679492710411
100
AcDbArc
 50
293.3887479610198
 51
344.4292191404106
  0
LINE
  5
FE
330
2
100
AcDbEntity
  8
GAIKEI
 62
     1
100
AcDbLine
 10
-19.53473740246881
 20
10.14836929883029
 30
0.0
 11
-19.68426121997714
 21
12.4999393023495
 31
0.0
  0
ARC
  5
FF
330
2
100
AcDbEntity
  8
GAIKEI
100
AcDbCircle
 10
-22.21732952060415
 20
17.01470086934012
 30
0.0
 40
7.952726251192598
100
AcDbArc
 50
269.9253997519944
 51
314.35927195228
  0
ARC
  5
100
330
2
100
AcDbEntity
  8
GAIKEI
100
AcDbCircle
 10
-22.19741045518583
 20
17.02676522657805
 30
0.0
 40
7.947457734105853
100
AcDbArc
 50
314.1957903375988
 51
352.1776735796048
  0
ARC
  5
101
330
2
100
AcDbEntity
  8
GAIKEI
100
AcDbCircle
 10
-79.5492205156097
 20
21.30000398536697
 30
0.0
 40
65.44476126189625
100
AcDbArc
 50
355.3066281732142
 51
356.6598244457537
  0
LINE
  5
102
330
2
100
AcDbEntity
  8
GAIKEI
 62
     1
100
AcDbLine
 10
-15.69518841007254
 20
17.48692742175115
 30
0.0
 11
-15.6951884100726
 21
14.55112028329358
 31
0.0
  0
ARC
  5
103
330
2
100
AcDbEntity
  8
GAIKEI
 62
     1
100
AcDbCircle
 10
-22.22847115219787
 20
15.27491486389334
 30
0.0
 40
1.664689029568701
100
AcDbArc
 50
161.8641970863837
 51
251.9209586851485
  0
ARC
  5
104
330
2
100
AcDbEntity
  8
GAIKEI
 62
     1
100
AcDbCircle
 10
-22.22723200530873
 20
15.27509556394716
 30
0.0
 40
1.665245729110204
100
AcDbArc
 50
251.8823579343319
 51
0.0078406162318094
  0
ARC
  5
105
330
2
100
AcDbEntity
  8
GAIKEI
 62
     1
100
AcDbCircle
 10
-22.23099865467952
 20
15.27587038843751
 30
0.0
 40
1.669012452507345
100
AcDbArc
 50
359.9812238542484
 51
18.05269189883902
  0
ARC
  5
106
330
2
100
AcDbEntity
  8
GAIKEI
 62
     1
100
AcDbCircle
 10
-22.22723200530873
 20
15.27509556394716
 30
0.0
 40
1.825055729110204
100
AcDbArc
 50
251.8823579343319
 51
0.0078406162318094
  0
ARC
  5
107
330
2
100
AcDbEntity
  8
GAIKEI
 62
     1
100
AcDbCircle
 10
-22.22847115219787
 20
15.27491486389334
 30
0.0
 40
1.824499029568701
100
AcDbArc
 50
164.8738756380143
 51
251.9209586851485
  0
ARC
  5
108
330
2
100
AcDbEntity
  8
GAIKEI
 62
     1
100
AcDbCircle
 10
-22.23099865467952
 20
15.27587038843751
 30
0.0
 40
1.828822452507345
100
AcDbArc
 50
359.9812238542484
 51
15.06159663674318
  0
ARC
  5
109
330
2
100
AcDbEntity
  8
GAIKEI
 62
     1
100
AcDbCircle
 10
-22.22847115219787
 20
15.27491486389334
 30
0.0
 40
1.894249029568701
100
AcDbArc
 50
166.341142275557
 51
251.9209586851485
  0
ARC
  5
10A
330
2
100
AcDbEntity
  8
GAIKEI
 62
     1
100
AcDbCircle
 10
-22.22723200530873
 20
15.27509556394716
 30
0.0
 40
1.894805729110204
100
AcDbArc
 50
251.8823579343319
 51
0.0078406162318094
  0
ARC
  5
10B
330
2
100
AcDbEntity
  8
GAIKEI
 62
     1
100
AcDbCircle
 10
-22.23099865467952
 20
15.27587038843751
 30
0.0
 40
1.898572452507345
100
AcDbArc
 50
359.9812238542484
 51
13.59933239350469
  0
LINE
  5
10C
330
2
100
AcDbEntity
  8
GAIKEI
 62
     1
100
AcDbLine
 10
-23.88180716969038
 20
15.84115342362668
 30
0.0
 11
-24.48595693817253
 21
15.62205422572105
 31
0.0
  0
LINE
  5
10D
330
2
100
AcDbEntity
  8
GAIKEI
 62
     1
100
AcDbLine
 10
-20.57263926131651
 20
15.84115342362668
 30
0.0
 11
-19.97116478859721
 21
15.62205422572105
 31
0.0
  0
ARC
  5
10E
330
2
100
AcDbEntity
  8
GAIKEI
 62
     1
100
AcDbCircle
 10
-24.25264274394243
 20
16.49370844467262
 30
0.0
 40
0.1
100
AcDbArc
 50
180.0
 51
269.9999999999968
  0
ARC
  5
10F
330
2
100
AcDbEntity
  8
GAIKEI
 62
     1
100
AcDbCircle
 10
-24.47148894046473
 20
16.27030822325156
 30
0.0
 40
0.1
100
AcDbArc
 50
180.0
 51
270.0
  0
ARC
  5
110
330
2
100
AcDbEntity
  8
GAIKEI
 62
     1
100
AcDbCircle
 10
-20.20247250651056
 20
16.49370844467262
 30
0.0
 40
0.1
100
AcDbArc
 50
270.0
 51
0.0
  0
ARC
  5
111
330
2
100
AcDbEntity
  8
GAIKEI
 62
     1
100
AcDbCircle
 10
-19.98387931137148
 20
16.27030822325156
 30
0.0
 40
0.1
100
AcDbArc
 50
270.0
 51
0.0
  0
ELLIPSE
  5
112
330
2
100
AcDbEntity
  8
GAIKEI
 62
     1
100
AcDbEllipse
 10
-22.22768412591813
 20
12.09210087062343
 30
0.0
 11
0.1579401784426798
 21
-0.0000000000000137
 31
0.0
210
0.0
220
0.0
230
1.0
 40
0.8275887111205866
 41
0.0
 42
6.283185307179586
  0
LINE
  5
113
330
2
100
AcDbEntity
  8
GAIKEI
 62
     1
100
AcDbLine
 10
24.42315585154484
 20
44.9055273951044
 30
0.0
 11
24.42315585154484
 21
41.65470417066649
 31
0.0
  0
LINE
  5
114
330
2
100
AcDbEntity
  8
GAIKEI
 62
     1
100
AcDbLine
 10
24.42315585154484
 20
44.9055273951044
 30
0.0
 11
26.49979120536585
 21
44.9055273951044
 31
0.0
  0
LINE
  5
115
330
2
100
AcDbEntity
  8
GAIKEI
 62
     1
100
AcDbLine
 10
23.19584614133703
 20
44.9055273951044
 30
0.0
 11
24.42315585154484
 21
44.9055273951044
 31
0.0
  0
LINE
  5
116
330
2
100
AcDbEntity
  8
GAIKEI
100
AcDbLine
 10
16.74734688473467
 20
34.62328972702664
 30
0.0
 11
34.25706661758676
 21
34.62328972702664
 31
0.0
  0
LINE
  5
117
330
2
100
AcDbEntity
  8
GAIKEI
100
AcDbLine
 10
17.25790367615894
 20
34.87274909092378
 30
0.0
 11
16.74734688473467
 21
34.62328972702664
 31
0.0
  0
LINE
  5
118
330
2
100
AcDbEntity
  8
GAIKEI
100
AcDbLine
 10
23.29729969602533
 20
45.00470393734343
 30
0.0
 11
23.19584614133703
 21
44.9055273951044
 31
0.0
  0
LINE
  5
119
330
2
100
AcDbEntity
  8
GAIKEI
100
AcDbLine
 10
21.44186033858819
 20
41.65470417066649
 30
0.0
 11
23.13765582318655
 21
41.65470417066649
 31
0.0
  0
LINE
  5
11A
330
2
100
AcDbEntity
  8
GAIKEI
100
AcDbLine
 10
27.7712348878369
 20
45.00470393734343
 30
0.0
 11
23.29729969602533
 21
45.00470393734343
 31
0.0
  0
LINE
  5
11B
330
2
100
AcDbEntity
  8
GAIKEI
100
AcDbLine
 10
23.13765582318655
 20
41.65470417066649
 30
0.0
 11
27.87308271371643
 21
41.65470417066649
 31
0.0
  0
LINE
  5
11C
330
2
100
AcDbEntity
  8
GAIKEI
100
AcDbLine
 10
27.87308271371643
 20
41.65470417066649
 30
0.0
 11
29.57148099955964
 21
41.65470417066649
 31
0.0
  0
LINE
  5
11D
330
2
100
AcDbEntity
  8
GAIKEI
100
AcDbLine
 10
16.92704799716239
 20
34.87274909092378
 30
0.0
 11
17.29028785321662
 21
34.87274909092378
 31
0.0
  0
LINE
  5
11E
330
2
100
AcDbEntity
  8
GAIKEI
100
AcDbLine
 10
17.29028785321662
 20
34.87274909092378
 30
0.0
 11
33.74979884414484
 21
34.87274909092378
 31
0.0
  0
LINE
  5
11F
330
2
100
AcDbEntity
  8
GAIKEI
 62
     1
100
AcDbLine
 10
23.36561006950632
 20
44.9055273951044
 30
0.0
 11
23.36561006950632
 21
41.65470417066649
 31
0.0
  0
LINE
  5
120
330
2
100
AcDbEntity
  8
GAIKEI
100
AcDbLine
 10
23.19584614133697
 20
44.9055273951044
 30
0.0
 11
23.13942683286939
 21
41.65470417066649
 31
0.0
  0
ARC
  5
121
330
2
100
AcDbEntity
  8
GAIKEI
100
AcDbCircle
 10
34.30265036514027
 20
28.17630441231205
 30
0.0
 40
18.69128479927947
100
AcDbArc
 50
134.128538655185
 51
158.7762156243137
  0
ARC
  5
122
330
2
100
AcDbEntity
  8
GAIKEI
100
AcDbCircle
 10
16.92704799716233
 20
34.92415578458377
 30
0.0
 40
0.05140669366
100
AcDbArc
 50
158.7762156243035
 51
270.0000000000456
  0
ARC
  5
123
330
2
100
AcDbEntity
  8
GAIKEI
100
AcDbCircle
 10
21.44186033858824
 20
41.43438976926648
 30
0.0
 40
0.2203144014
100
AcDbArc
 50
90.00000000000978
 51
134.1285386551845
  0
ARC
  5
124
330
2
100
AcDbEntity
  8
GAIKEI
100
AcDbCircle
 10
29.56255316373319
 20
41.43438976926648
 30
0.0
 40
0.2203144014
100
AcDbArc
 50
45.87146134481549
 51
89.99999999998697
  0
ARC
  5
125
330
2
100
AcDbEntity
  8
GAIKEI
100
AcDbCircle
 10
34.0773655051591
 20
34.92415578458377
 30
0.0
 40
0.05140669366
100
AcDbArc
 50
269.9999999999512
 51
21.22378437569642
  0
ARC
  5
126
330
2
100
AcDbEntity
  8
GAIKEI
100
AcDbCircle
 10
16.70176313718122
 20
28.17630441231205
 30
0.0
 40
18.69128479927947
100
AcDbArc
 50
21.2237843756863
 51
45.87146134481493
  0
LINE
  5
127
330
2
100
AcDbEntity
  8
GAIKEI
100
AcDbLine
 10
34.0773655051591
 20
34.87274909092378
 30
0.0
 11
33.7141256491048
 21
34.87274909092378
 31
0.0
  0
LINE
  5
128
330
2
100
AcDbEntity
  8
GAIKEI
100
AcDbLine
 10
33.74650982616248
 20
34.87274909092378
 30
0.0
 11
34.25706661758681
 21
34.62328972702664
 31
0.0
  0
LINE
  5
129
330
2
100
AcDbEntity
  8
GAIKEI
 62
     1
100
AcDbLine
 10
26.10055502257717
 20
41.6435721098029
 30
0.0
 11
26.10055502257717
 21
44.99357187647984
 31
0.0
  0
LINE
  5
12A
330
2
100
AcDbEntity
  8
GAIKEI
 62
     1
100
AcDbLine
 10
27.64411646186358
 20
44.89388933147433
 30
0.0
 11
27.5431689099417
 21
44.99357187647984
 31
0.0
  0
LINE
  5
12B
330
2
100
AcDbEntity
  8
GAIKEI
100
AcDbLine
 10
27.88345577043015
 20
44.89388933147433
 30
0.0
 11
27.7712348878369
 21
45.00470393734343
 31
0.0
  0
LINE
  5
12C
330
2
100
AcDbEntity
  8
GAIKEI
 62
     1
100
AcDbLine
 10
27.00554097050826
 20
44.5448739232633
 30
0.0
 11
26.98884287921288
 21
44.5448739232633
 31
0.0
  0
LINE
  5
12D
330
2
100
AcDbEntity
  8
GAIKEI
 62
     1
100
AcDbLine
 10
27.00554097050826
 20
44.44519137825773
 30
0.0
 11
26.98884287921288
 21
44.44519137825773
 31
0.0
  0
ARC
  5
12E
330
2
100
AcDbEntity
  8
GAIKEI
 62
     1
100
AcDbCircle
 10
26.84659467106593
 20
44.71441714582119
 30
0.0
 40
0.1297574283835351
100
AcDbArc
 50
16.69919148462951
 51
89.97287459322992
  0
ARC
  5
12F
330
2
100
AcDbEntity
  8
GAIKEI
 62
     1
100
AcDbCircle
 10
26.02663443087687
 20
44.48714340142646
 30
0.0
 40
0.9806073763156025
100
AcDbArc
 50
3.375080627178542
 51
15.65183706904925
  0
ARC
  5
130
330
2
100
AcDbEntity
  8
GAIKEI
 62
     1
100
AcDbCircle
 10
26.19542754014418
 20
44.49503265076049
 30
0.0
 40
0.794979278166566
100
AcDbArc
 50
356.4054803008195
 51
3.594519699183778
  0
ARC
  5
131
330
2
100
AcDbEntity
  8
GAIKEI
 62
     1
100
AcDbCircle
 10
26.02663443087687
 20
44.50292190009458
 30
0.0
 40
0.9806073763156025
100
AcDbArc
 50
344.3481629309507
 51
356.6249193728215
  0
ARC
  5
132
330
2
100
AcDbEntity
  8
GAIKEI
 62
     1
100
AcDbCircle
 10
26.84659467106593
 20
44.27564815569986
 30
0.0
 40
0.1297574283835351
100
AcDbArc
 50
270.0271254067701
 51
343.3008085153705
  0
ARC
  5
133
330
2
100
AcDbEntity
  8
GAIKEI
 62
     1
100
AcDbCircle
 10
27.29908221564273
 20
44.34620819685233
 30
0.0
 40
0.3
100
AcDbArc
 50
270.0
 51
0.0
  0
LINE
  5
134
330
2
100
AcDbEntity
  8
GAIKEI
100
AcDbLine
 10
27.88345577043015
 20
41.6435721098029
 30
0.0
 11
27.88345577043015
 21
44.89388933147433
 31
0.0
  0
LINE
  5
135
330
2
100
AcDbEntity
  8
GAIKEI
 62
     1
100
AcDbLine
 10
27.5990822156428
 20
44.93835923877003
 30
0.0
 11
27.59908221564274
 21
44.34620819685233
 31
0.0
  0
LINE
  5
136
330
2
100
AcDbEntity
  8
GAIKEI
 62
     1
100
AcDbLine
 10
26.74899756787977
 20
44.84910808663681
 30
0.0
 11
26.74899756787977
 21
44.14095721488422
 31
0.0
  0
LINE
  5
137
330
2
100
AcDbEntity
  8
GAIKEI
 62
     1
100
AcDbLine
 10
26.57973964247691
 20
44.89388933147433
 30
0.0
 11
26.57973964247691
 21
44.09592296866344
 31
0.0
  0
LINE
  5
138
330
2
100
AcDbEntity
  8
GAIKEI
 62
     1
100
AcDbLine
 10
26.49979120536585
 20
44.04620819685232
 30
0.0
 11
26.49979120536585
 21
44.99357187647984
 31
0.0
  0
LINE
  5
139
330
2
100
AcDbEntity
  8
GAIKEI
 62
     1
100
AcDbLine
 10
27.29908221564273
 20
44.04620819685232
 30
0.0
 11
26.49979120536585
 21
44.04620819685232
 31
0.0
  0
LINE
  5
13A
330
2
100
AcDbEntity
  8
GAIKEI
 62
     1
100
AcDbLine
 10
26.57973964247697
 20
44.09592296866344
 30
0.0
 11
26.49979120536585
 21
44.09592296866344
 31
0.0
  0
LINE
  5
13B
330
2
100
AcDbEntity
  8
GAIKEI
 62
     1
100
AcDbLine
 10
26.74899756787977
 20
44.14095721488422
 30
0.0
 11
26.57973964247697
 21
44.14095721488422
 31
0.0
  0
LINE
  5
13C
330
2
100
AcDbEntity
  8
GAIKEI
 62
     1
100
AcDbLine
 10
26.84665610181923
 20
44.14589074185784
 30
0.0
 11
26.74899756787977
 21
44.14589074185784
 31
0.0
  0
LINE
  5
13D
330
2
100
AcDbEntity
  8
GAIKEI
 62
     1
100
AcDbLine
 10
26.84665610181923
 20
44.84392155827992
 30
0.0
 11
26.74899756787977
 21
44.84392155827992
 31
0.0
  0
LINE
  5
13E
330
2
100
AcDbEntity
  8
GAIKEI
 62
     1
100
AcDbLine
 10
26.74899756787977
 20
44.84910808663681
 30
0.0
 11
26.57973964247697
 21
44.84910808663681
 31
0.0
  0
LINE
  5
13F
330
2
100
AcDbEntity
  8
GAIKEI
 62
     1
100
AcDbLine
 10
27.88345577043015
 20
44.89388933147433
 30
0.0
 11
27.64411646186358
 21
44.89388933147433
 31
0.0
  0
LINE
  5
140
330
2
100
AcDbEntity
  8
GAIKEI
 62
     1
100
AcDbLine
 10
26.57973964247697
 20
44.89388933147433
 30
0.0
 11
26.49979120536585
 21
44.89388933147433
 31
0.0
  0
ARC
  5
141
330
2
100
AcDbEntity
  8
GAIKEI
 62
     1
100
AcDbCircle
 10
25.75230102504673
 20
36.40694707249867
 30
0.0
 40
0.2
100
AcDbArc
 50
90.0
 51
180.0
  0
ARC
  5
142
330
2
100
AcDbEntity
  8
GAIKEI
 62
     1
100
AcDbCircle
 10
25.75230102504673
 20
35.70980657397951
 30
0.0
 40
0.2
100
AcDbArc
 50
180.0
 51
270.0
  0
ARC
  5
143
330
2
100
AcDbEntity
  8
GAIKEI
 62
     1
100
AcDbCircle
 10
26.22309785884869
 20
36.05741123039996
 30
0.0
 40
0.5499903235198174
100
AcDbArc
 50
263.1114230812025
 51
92.32942152366248
  0
ARC
  5
144
330
2
100
AcDbEntity
  8
GAIKEI
 62
     1
100
AcDbCircle
 10
26.20049056896602
 20
36.05818707220163
 30
0.0
 40
0.7481250904305538
100
AcDbArc
 50
270.0193828746022
 51
89.98062040340684
  0
ARC
  5
145
330
2
100
AcDbEntity
  8
GAIKEI
100
AcDbCircle
 10
13.87881720130093
 20
18.72549810004506
 30
0.0
 40
0.2
100
AcDbArc
 50
197.782938626207
 51
270.0
  0
LINE
  5
146
330
2
100
AcDbEntity
  8
GAIKEI
100
AcDbLine
 10
13.60532270599384
 20
18.93637234646383
 30
0.0
 11
13.68837312538022
 21
18.66441574623712
 31
0.0
  0
ARC
  5
147
330
2
100
AcDbEntity
  8
GAIKEI
100
AcDbCircle
 10
52.90554676034742
 20
17.41024799921189
 30
0.0
 40
39.32984447268598
100
AcDbArc
 50
174.0300893863849
 51
177.7761813402034
  0
ARC
  5
148
330
2
100
AcDbEntity
  8
GAIKEI
100
AcDbCircle
 10
68.38039652081613
 20
16.24307251418571
 30
0.0
 40
54.84399717788395
100
AcDbArc
 50
169.0810768121813
 51
174.498784979405
  0
ARC
  5
149
330
2
100
AcDbEntity
  8
GAIKEI
100
AcDbCircle
 10
57.08923947548408
 20
19.12289029955099
 30
0.0
 40
43.21724979929718
100
AcDbArc
 50
158.9819322792468
 51
169.9944514485431
  0
ARC
  5
14A
330
2
100
AcDbEntity
  8
GAIKEI
100
AcDbCircle
 10
-17.37598301849476
 20
16.24307251418571
 30
0.0
 40
54.84399717788395
100
AcDbArc
 50
5.501215020594926
 51
10.91892318781866
  0
ARC
  5
14B
330
2
100
AcDbEntity
  8
GAIKEI
100
AcDbCircle
 10
-1.90113325802605
 20
17.41024799921189
 30
0.0
 40
39.32984447268598
100
AcDbArc
 50
2.223818659796575
 51
5.969910613615057
  0
LINE
  5
14C
330
2
100
AcDbEntity
  8
GAIKEI
100
AcDbLine
 10
37.39909079632753
 20
18.93637234646383
 30
0.0
 11
37.31559715716719
 21
18.67605380986725
 31
0.0
  0
ARC
  5
14D
330
2
100
AcDbEntity
  8
GAIKEI
100
AcDbCircle
 10
37.13641276233068
 20
18.70675885440181
 30
0.0
 40
0.181796169136783
100
AcDbArc
 50
274.3984239779274
 51
350.2762361205055
  0
ARC
  5
14E
330
2
100
AcDbEntity
  8
GAIKEI
100
AcDbCircle
 10
-6.084825973162708
 20
19.12289029955099
 30
0.0
 40
43.21724979929718
100
AcDbArc
 50
19.7943980549601
 51
21.01806772075322
  0
LINE
  5
14F
330
2
100
AcDbEntity
  8
GAIKEI
100
AcDbLine
 10
34.57888437709704
 20
33.77813860623724
 30
0.0
 11
34.57888437709704
 21
32.79970208429018
 31
0.0
  0
LINE
  5
150
330
2
100
AcDbEntity
  8
GAIKEI
100
AcDbLine
 10
34.57888437709704
 20
32.79970208429018
 30
0.0
 11
35.70600553953284
 21
28.67826322311726
 31
0.0
  0
LINE
  5
151
330
2
100
AcDbEntity
  8
GAIKEI
100
AcDbLine
 10
35.70600553953284
 20
28.67826322311731
 30
0.0
 11
36.18304839252528
 21
28.13163476375178
 31
0.0
  0
LINE
  5
152
330
2
100
AcDbEntity
  8
GAIKEI
 62
     1
100
AcDbLine
 10
34.28995679741092
 20
32.21851157911368
 30
0.0
 11
34.81012764139922
 21
30.32365771916693
 31
0.0
  0
LINE
  5
153
330
2
100
AcDbEntity
  8
GAIKEI
 62
     1
100
AcDbLine
 10
34.81012764139922
 20
30.32365771916693
 30
0.0
 11
30.46280487279449
 21
30.32365771916693
 31
0.0
  0
LINE
  5
154
330
2
100
AcDbEntity
  8
GAIKEI
 62
     1
100
AcDbLine
 10
30.46280487279449
 20
30.32365771916693
 30
0.0
 11
29.94541704402207
 21
32.21851157911368
 31
0.0
  0
LINE
  5
155
330
2
100
AcDbEntity
  8
GAIKEI
 62
     1
100
AcDbLine
 10
29.94541704402207
 20
32.21851157911368
 30
0.0
 11
34.28995679741092
 21
32.21851157911368
 31
0.0
  0
ARC
  5
156
330
2
100
AcDbEntity
  8
GAIKEI
100
AcDbCircle
 10
-6.084825973162708
 20
19.12289029955099
 30
0.0
 40
43.21724979929718
100
AcDbArc
 50
10.00554855145683
 51
12.03168114390386
  0
LINE
  5
157
330
2
100
AcDbEntity
  8
GAIKEI
100
AcDbLine
 10
34.94759312714791
 20
17.87730855612574
 30
0.0
 11
34.42759086858638
 21
17.67405634887296
 31
0.0
  0
LINE
  5
158
330
2
100
AcDbEntity
  8
GAIKEI
100
AcDbLine
 10
34.42759086858638
 20
17.67405634887296
 30
0.0
 11
33.86791334720255
 21
17.49184006340198
 31
0.0
  0
ARC
  5
159
330
2
100
AcDbEntity
  8
GAIKEI
100
AcDbCircle
 10
33.83695540343734
 20
17.58692742175123
 30
0.0
 40
0.1
100
AcDbArc
 50
270.0
 51
288.0338872864458
  0
LINE
  5
15A
330
2
100
AcDbEntity
  8
GAIKEI
100
AcDbLine
 10
17.15158933935635
 20
17.4869274217512
 30
0.0
 11
33.83695540343734
 21
17.4869274217512
 31
0.0
  0
ARC
  5
15B
330
2
100
AcDbEntity
  8
GAIKEI
 62
     1
100
AcDbCircle
 10
31.54630537632062
 20
19.3584291305113
 30
0.0
 40
1.79962810126059
100
AcDbArc
 50
272.1303216894727
 51
304.6122637328995
  0
ARC
  5
15C
330
2
100
AcDbEntity
  8
GAIKEI
 62
     1
100
AcDbCircle
 10
31.43214744230448
 20
17.62243874931909
 30
0.0
 40
0.036588548234881
100
AcDbArc
 50
169.8904013536322
 51
220.8621011439605
  0
ARC
  5
15D
330
2
100
AcDbEntity
  8
GAIKEI
 62
     1
100
AcDbCircle
 10
31.58252438339037
 20
18.32086145723889
 30
0.0
 40
0.7614348818684209
100
AcDbArc
 50
262.2811216575425
 51
272.3090394024087
  0
ARC
  5
15E
330
2
100
AcDbEntity
  8
GAIKEI
 62
     1
100
AcDbCircle
 10
31.47383644463804
 20
17.66967561141865
 30
0.0
 40
0.0993815330630986
100
AcDbArc
 50
225.739586042814
 51
242.2588463185055
  0
ARC
  5
15F
330
2
100
AcDbEntity
  8
GAIKEI
 62
     1
100
AcDbCircle
 10
31.50852193117987
 20
17.76091782110956
 30
0.0
 40
0.1966343723822126
100
AcDbArc
 50
245.6912001544825
 51
261.7345897828935
  0
ARC
  5
160
330
2
100
AcDbEntity
  8
GAIKEI
 62
     1
100
AcDbCircle
 10
31.48344859593135
 20
17.6094523773599
 30
0.0
 40
0.0894526001733724
100
AcDbArc
 50
140.3278125300749
 51
167.4686813004099
  0
ARC
  5
161
330
2
100
AcDbEntity
  8
GAIKEI
 62
     1
100
AcDbCircle
 10
31.64777203387797
 20
17.47245508871271
 30
0.0
 40
0.3033926894193737
100
AcDbArc
 50
125.7512971055136
 51
140.2248929187704
  0
ARC
  5
162
330
2
100
AcDbEntity
  8
GAIKEI
 62
     1
100
AcDbCircle
 10
32.28346666020139
 20
16.55179149877261
 30
0.0
 40
1.422153501699292
100
AcDbArc
 50
111.243462654157
 51
124.8645420966874
  0
ARC
  5
163
330
2
100
AcDbEntity
  8
GAIKEI
 62
     1
100
AcDbCircle
 10
18.72094684211998
 20
16.55179149877261
 30
0.0
 40
1.422153501699292
100
AcDbArc
 50
55.13545790331253
 51
68.75653734584298
  0
ARC
  5
164
330
2
100
AcDbEntity
  8
GAIKEI
 62
     1
100
AcDbCircle
 10
19.3566414684434
 20
17.47245508871271
 30
0.0
 40
0.3033926894193737
100
AcDbArc
 50
39.77510708122954
 51
54.24870289448641
  0
ARC
  5
165
330
2
100
AcDbEntity
  8
GAIKEI
 62
     1
100
AcDbCircle
 10
19.52096490639002
 20
17.6094523773599
 30
0.0
 40
0.0894526001733724
100
AcDbArc
 50
12.53131869959005
 51
39.67218746992513
  0
ARC
  5
166
330
2
100
AcDbEntity
  8
GAIKEI
 62
     1
100
AcDbCircle
 10
19.4958915711415
 20
17.76091782110956
 30
0.0
 40
0.1966343723822126
100
AcDbArc
 50
278.2654102171065
 51
294.3087998455175
  0
ARC
  5
167
330
2
100
AcDbEntity
  8
GAIKEI
 62
     1
100
AcDbCircle
 10
19.53057705768333
 20
17.66967561141865
 30
0.0
 40
0.0993815330630986
100
AcDbArc
 50
297.7411536814945
 51
314.260413957186
  0
ARC
  5
168
330
2
100
AcDbEntity
  8
GAIKEI
 62
     1
100
AcDbCircle
 10
19.421889118931
 20
18.32086145723889
 30
0.0
 40
0.7614348818684209
100
AcDbArc
 50
267.690960597588
 51
277.7188783424543
  0
ARC
  5
169
330
2
100
AcDbEntity
  8
GAIKEI
 62
     1
100
AcDbCircle
 10
19.57226606001689
 20
17.62243874931909
 30
0.0
 40
0.036588548234881
100
AcDbArc
 50
319.1378988560395
 51
10.10959864636781
  0
ARC
  5
16A
330
2
100
AcDbEntity
  8
GAIKEI
 62
     1
100
AcDbCircle
 10
19.45810812600075
 20
19.3584291305113
 30
0.0
 40
1.79962810126059
100
AcDbArc
 50
235.3877362671005
 51
267.8696783105273
  0
LINE
  5
16B
330
2
100
AcDbEntity
  8
GAIKEI
100
AcDbLine
 10
16.57682263373505
 20
17.67405634887296
 30
0.0
 11
17.15158933935635
 21
17.4869274217512
 31
0.0
  0
LINE
  5
16C
330
2
100
AcDbEntity
  8
GAIKEI
100
AcDbLine
 10
16.05682037517351
 20
17.87730855612574
 30
0.0
 11
16.57682263373505
 21
17.67405634887296
 31
0.0
  0
ARC
  5
16D
330
2
100
AcDbEntity
  8
GAIKEI
100
AcDbCircle
 10
82.82374314085222
 20
21.30000398536703
 30
0.0
 40
65.44476126189625
100
AcDbArc
 50
183.3401755542463
 51
184.6933718267857
  0
ARC
  5
16E
330
2
100
AcDbEntity
  8
GAIKEI
100
AcDbCircle
 10
25.47193308042841
 20
17.0267652265781
 30
0.0
 40
7.947457734105853
100
AcDbArc
 50
187.8223264203952
 51
225.8042096624012
  0
ARC
  5
16F
330
2
100
AcDbEntity
  8
GAIKEI
100
AcDbCircle
 10
25.49185214584668
 20
17.01470086934017
 30
0.0
 40
7.952726251192598
100
AcDbArc
 50
225.64072804772
 51
270.0746002480055
  0
ARC
  5
170
330
2
100
AcDbEntity
  8
GAIKEI
100
AcDbCircle
 10
25.51256135647469
 20
17.01470086934017
 30
0.0
 40
7.952726251192598
100
AcDbArc
 50
269.9253997519944
 51
314.35927195228
  0
ARC
  5
171
330
2
100
AcDbEntity
  8
GAIKEI
100
AcDbCircle
 10
25.53248042189301
 20
17.0267652265781
 30
0.0
 40
7.947457734105853
100
AcDbArc
 50
314.1957903375988
 51
352.1776735796048
  0
ARC
  5
172
330
2
100
AcDbEntity
  8
GAIKEI
100
AcDbCircle
 10
-31.81932963853086
 20
21.30000398536703
 30
0.0
 40
65.44476126189625
100
AcDbArc
 50
355.3066281732142
 51
356.6598244457537
  0
ARC
  5
173
330
2
100
AcDbEntity
  8
GAIKEI
100
AcDbCircle
 10
33.06804760551643
 20
19.1312840067946
 30
0.0
 40
3.007909361672164
100
AcDbArc
 50
335.3614346032497
 51
345.2601696648343
  0
ARC
  5
174
330
2
100
AcDbEntity
  8
GAIKEI
100
AcDbCircle
 10
17.93636589680494
 20
19.1312840067946
 30
0.0
 40
3.007909361672164
100
AcDbArc
 50
194.7398303351656
 51
204.6385653967502
  0
LINE
  5
175
330
2
100
AcDbEntity
  8
GAIKEI
100
AcDbLine
 10
14.83048190444401
 20
18.3659807278978
 30
0.0
 11
15.02086544534927
 21
18.3659807278978
 31
0.0
  0
LINE
  5
176
330
2
100
AcDbEntity
  8
GAIKEI
100
AcDbLine
 10
14.83048190444401
 20
18.3659807278978
 30
0.0
 11
14.83048190444401
 21
18.52549810004501
 31
0.0
  0
LINE
  5
177
330
2
100
AcDbEntity
  8
GAIKEI
 62
     1
100
AcDbLine
 10
31.51966208902826
 20
17.4869274217512
 30
0.0
 11
31.5116677957667
 21
14.52938452382403
 31
0.0
  0
LINE
  5
178
330
2
100
AcDbEntity
  8
GAIKEI
 62
     1
100
AcDbLine
 10
31.92540586943676
 20
15.83508139042834
 30
0.0
 11
31.62762324133644
 21
15.54337595882003
 31
0.0
  0
LINE
  5
179
330
2
100
AcDbEntity
  8
GAIKEI
 62
     1
100
AcDbLine
 10
31.96234407139309
 20
16.3873834100911
 30
0.0
 11
31.89049167854648
 21
16.3873834100911
 31
0.0
  0
ARC
  5
17A
330
2
100
AcDbEntity
  8
GAIKEI
 62
     1
100
AcDbCircle
 10
24.06658429761404
 20
16.51450495900525
 30
0.0
 40
7.705191200524453
100
AcDbArc
 50
316.9501072510621
 51
345.0702724587853
  0
ARC
  5
17B
330
2
100
AcDbEntity
  8
GAIKEI
 62
     1
100
AcDbCircle
 10
25.52959875390775
 20
15.60249020436373
 30
0.0
 40
6.022677305431433
100
AcDbArc
 50
269.7394096543594
 51
313.7877771019109
  0
ARC
  5
17C
330
2
100
AcDbEntity
  8
GAIKEI
 62
     1
100
AcDbCircle
 10
25.69399069462964
 20
16.27320977864832
 30
0.0
 40
6.073408711132298
100
AcDbArc
 50
300.2396937503239
 51
343.3141098693811
  0
ARC
  5
17D
330
2
100
AcDbEntity
  8
GAIKEI
 62
     1
100
AcDbCircle
 10
25.50669671822362
 20
16.5141578397035
 30
0.0
 40
6.376162993194777
100
AcDbArc
 50
269.9596534491985
 51
300.8040792401028
  0
ARC
  5
17E
330
2
100
AcDbEntity
  8
GAIKEI
 62
     1
100
AcDbCircle
 10
25.31042280769174
 20
16.27320977864832
 30
0.0
 40
6.073408711132298
100
AcDbArc
 50
196.6858901306188
 51
239.7603062496761
  0
ARC
  5
17F
330
2
100
AcDbEntity
  8
GAIKEI
 62
     1
100
AcDbCircle
 10
26.93782920470738
 20
16.51450495900525
 30
0.0
 40
7.705191200524453
100
AcDbArc
 50
194.9297275412147
 51
223.0498927489379
  0
LINE
  5
180
330
2
100
AcDbEntity
  8
GAIKEI
 62
     1
100
AcDbLine
 10
19.48482185163817
 20
17.46086827927519
 30
0.0
 11
19.49274570655467
 21
14.52938452382403
 31
0.0
  0
LINE
  5
181
330
2
100
AcDbEntity
  8
GAIKEI
 62
     1
100
AcDbLine
 10
19.04206943092828
 20
16.3873834100911
 30
0.0
 11
19.11392182377489
 21
16.3873834100911
 31
0.0
  0
LINE
  5
182
330
2
100
AcDbEntity
  8
GAIKEI
 62
     1
100
AcDbLine
 10
19.07900763288461
 20
15.83508139042834
 30
0.0
 11
19.37679026098493
 21
15.54337595882003
 31
0.0
  0
LINE
  5
183
330
2
100
AcDbEntity
  8
GAIKEI
 62
     1
100
AcDbLine
 10
18.86977548892628
 20
15.83508139042834
 30
0.0
 11
18.91936376004582
 21
15.78650512484194
 31
0.0
  0
LINE
  5
184
330
2
100
AcDbEntity
  8
GAIKEI
 62
     1
100
AcDbLine
 10
18.91936376004582
 20
15.78650512484194
 30
0.0
 11
19.12859590400415
 21
15.78650512484194
 31
0.0
  0
LINE
  5
185
330
2
100
AcDbEntity
  8
GAIKEI
 62
     1
100
AcDbLine
 10
18.86977548892628
 20
15.83508139042834
 30
0.0
 11
19.07900763288461
 21
15.83508139042834
 31
0.0
  0
LINE
  5
186
330
2
100
AcDbEntity
  8
GAIKEI
 62
     1
100
AcDbLine
 10
19.04055142262871
 20
15.86999558131862
 30
0.0
 11
19.14554699668275
 21
15.86999558131862
 31
0.0
  0
LINE
  5
187
330
2
100
AcDbEntity
  8
GAIKEI
 62
     1
100
AcDbLine
 10
19.04055142262871
 20
16.16423619005326
 30
0.0
 11
18.86977548892628
 21
16.16423619005326
 31
0.0
  0
LINE
  5
188
330
2
100
AcDbEntity
  8
GAIKEI
 62
     1
100
AcDbLine
 10
19.29734782664042
 20
16.16423619005326
 30
0.0
 11
19.14554699668275
 21
16.16423619005326
 31
0.0
  0
LINE
  5
189
330
2
100
AcDbEntity
  8
GAIKEI
 62
     1
100
AcDbLine
 10
18.76958694115421
 20
16.3873834100911
 30
0.0
 11
18.93808586240726
 21
16.3873834100911
 31
0.0
  0
LINE
  5
18A
330
2
100
AcDbEntity
  8
GAIKEI
 62
     1
100
AcDbLine
 10
19.37679026098493
 20
15.54337595882003
 30
0.0
 11
19.37679026098493
 21
17.46086827927519
 31
0.0
  0
LINE
  5
18B
330
2
100
AcDbEntity
  8
GAIKEI
 62
     1
100
AcDbLine
 10
19.04206943092828
 20
16.563472372842
 30
0.0
 11
18.93808586240726
 21
16.563472372842
 31
0.0
  0
LINE
  5
18C
330
2
100
AcDbEntity
  8
GAIKEI
 62
     1
100
AcDbLine
 10
19.29734782664042
 20
16.16423619005326
 30
0.0
 11
19.29734782664042
 21
17.46086827927519
 31
0.0
  0
LINE
  5
18D
330
2
100
AcDbEntity
  8
GAIKEI
 62
     1
100
AcDbLine
 10
19.14554699668275
 20
15.86999558131862
 30
0.0
 11
19.14554699668275
 21
16.16423619005326
 31
0.0
  0
LINE
  5
18E
330
2
100
AcDbEntity
  8
GAIKEI
 62
     1
100
AcDbLine
 10
19.11392182377489
 20
16.3873834100911
 30
0.0
 11
19.11392182377489
 21
17.46086827927519
 31
0.0
  0
LINE
  5
18F
330
2
100
AcDbEntity
  8
GAIKEI
 62
     1
100
AcDbLine
 10
19.04206943092828
 20
16.563472372842
 30
0.0
 11
19.04206943092828
 21
16.3873834100911
 31
0.0
  0
LINE
  5
190
330
2
100
AcDbEntity
  8
GAIKEI
 62
     1
100
AcDbLine
 10
19.04055142262871
 20
15.86999558131862
 30
0.0
 11
19.04055142262871
 21
16.16423619005326
 31
0.0
  0
LINE
  5
191
330
2
100
AcDbEntity
  8
GAIKEI
 62
     1
100
AcDbLine
 10
18.93808586240726
 20
16.563472372842
 30
0.0
 11
18.93808586240726
 21
16.3873834100911
 31
0.0
  0
LINE
  5
192
330
2
100
AcDbEntity
  8
GAIKEI
 62
     1
100
AcDbLine
 10
18.86977548892628
 20
15.83508139042834
 30
0.0
 11
18.86977548892628
 21
16.16423619005326
 31
0.0
  0
LINE
  5
193
330
2
100
AcDbEntity
  8
GAIKEI
 62
     1
100
AcDbLine
 10
18.76958694115421
 20
17.46086827927519
 30
0.0
 11
18.76958694115421
 21
16.3873834100911
 31
0.0
  0
ARC
  5
194
330
2
100
AcDbEntity
  8
GAIKEI
 62
     1
100
AcDbCircle
 10
25.49771678409775
 20
16.5141578397035
 30
0.0
 40
6.376162993194777
100
AcDbArc
 50
239.1959207598972
 51
270.0403465508015
  0
ARC
  5
195
330
2
100
AcDbEntity
  8
GAIKEI
 62
     1
100
AcDbCircle
 10
25.47481474841362
 20
15.60249020436373
 30
0.0
 40
6.022677305431433
100
AcDbArc
 50
226.2122228980891
 51
270.2605903456373
  0
ARC
  5
196
330
2
100
AcDbEntity
  8
GAIKEI
 62
     1
100
AcDbCircle
 10
34.6289634104391
 20
35.33700422268026
 30
0.0
 40
0.2
100
AcDbArc
 50
90.0
 51
135.0000000000042
  0
ARC
  5
197
330
2
100
AcDbEntity
  8
GAIKEI
 62
     1
100
AcDbCircle
 10
34.67865670884385
 20
35.21758756978022
 30
0.0
 40
0.2
100
AcDbArc
 50
90.0
 51
135.020903238584
  0
ARC
  5
198
330
2
100
AcDbEntity
  8
GAIKEI
 62
     1
100
AcDbCircle
 10
36.2944771308791
 20
36.33700422268026
 30
0.0
 40
0.8
100
AcDbArc
 50
269.9999999999968
 51
0.0
  0
ARC
  5
199
330
2
100
AcDbEntity
  8
GAIKEI
 62
     1
100
AcDbCircle
 10
36.29155377207638
 20
36.34042561061176
 30
0.0
 40
0.9228460181991385
100
AcDbArc
 50
270.1814998366198
 51
0.0051513080029359
  0
ARC
  5
19A
330
2
100
AcDbEntity
  8
GAIKEI
 62
     1
100
AcDbCircle
 10
36.17632548489536
 20
45.15518468208756
 30
0.0
 40
0.8
100
AcDbArc
 50
0.0
 51
8.954593975827739
  0
ARC
  5
19B
330
2
100
AcDbEntity
  8
GAIKEI
 62
     1
100
AcDbCircle
 10
36.2944771308791
 20
45.17323095000063
 30
0.0
 40
0.8
100
AcDbArc
 50
0.0
 51
8.95122265608394
  0
ARC
  5
19C
330
2
100
AcDbEntity
  8
GAIKEI
 62
     1
100
AcDbCircle
 10
38.01439978654571
 20
45.29620513542517
 30
0.0
 40
0.8
100
AcDbArc
 50
161.5115568545129
 51
180.0
  0
ARC
  5
19D
330
2
100
AcDbEntity
  8
GAIKEI
 62
     1
100
AcDbCircle
 10
37.89447713087907
 20
45.31526285492788
 30
0.0
 40
0.8
100
AcDbArc
 50
161.5085046575506
 51
180.0
  0
ARC
  5
19E
330
2
100
AcDbEntity
  8
GAIKEI
 62
     1
100
AcDbCircle
 10
37.15663314767699
 20
47.59348380255556
 30
0.0
 40
0.4987885814692176
100
AcDbArc
 50
226.6500748166217
 51
210.3086396481685
  0
ARC
  5
19F
330
2
100
AcDbEntity
  8
GAIKEI
 62
     1
100
AcDbCircle
 10
37.15127106492514
 20
47.59154170182961
 30
0.0
 40
0.3989621721123702
100
AcDbArc
 50
221.4168066028793
 51
202.2387875179886
  0
ARC
  5
1A0
330
2
100
AcDbEntity
  8
GAIKEI
 62
     1
100
AcDbCircle
 10
37.15663314767699
 20
47.59348380255556
 30
0.0
 40
0.7987885814692177
100
AcDbArc
 50
246.5325821179468
 51
235.6485638172454
  0
ARC
  5
1A1
330
2
100
AcDbEntity
  8
GAIKEI
 62
     1
100
AcDbCircle
 10
37.22899193174192
 20
47.12650136226142
 30
0.0
 40
0.5252854940321458
100
AcDbArc
 50
341.3181540747228
 51
352.5689689835051
  0
ARC
  5
1A2
330
2
100
AcDbEntity
  8
GAIKEI
 62
     1
100
AcDbCircle
 10
37.2182719878291
 20
47.12883930312216
 30
0.0
 40
0.4166440838253731
100
AcDbArc
 50
44.7669129275915
 51
180.0445150324537
  0
ARC
  5
1A3
330
2
100
AcDbEntity
  8
GAIKEI
 62
     1
100
AcDbCircle
 10
37.21845148524085
 20
47.12868281705413
 30
0.0
 40
0.5364931358318317
100
AcDbArc
 50
51.70912468745349
 51
180.0178584427537
  0
ARC
  5
1A4
330
2
100
AcDbEntity
  8
GAIKEI
 62
     1
100
AcDbCircle
 10
37.21056692875982
 20
47.12709316588916
 30
0.0
 40
0.408941372858246
100
AcDbArc
 50
179.8007060654574
 51
188.9111247060062
  0
ARC
  5
1A5
330
2
100
AcDbEntity
  8
GAIKEI
 62
     1
100
AcDbCircle
 10
37.38975508565886
 20
47.14121448829871
 30
0.0
 40
0.7079106191913358
100
AcDbArc
 50
181.0278583376043
 51
187.8093825963766
  0
ARC
  5
1A6
330
2
100
AcDbEntity
  8
GAIKEI
 62
     1
100
AcDbCircle
 10
36.0497774107576
 20
47.11818309753261
 30
0.0
 40
0.4055516200892335
100
AcDbArc
 50
23.52572962033661
 51
54.76822853994864
  0
ARC
  5
1A7
330
2
100
AcDbEntity
  8
GAIKEI
 62
     1
100
AcDbCircle
 10
35.63665010771877
 20
46.89698916278354
 30
0.0
 40
1.171601863741605
100
AcDbArc
 50
24.62587282864982
 51
44.54337194440504
  0
ARC
  5
1A8
330
2
100
AcDbEntity
  8
GAIKEI
 62
     1
100
AcDbCircle
 10
37.8658521333806
 20
49.13135036090358
 30
0.0
 40
1.194293473109997
100
AcDbArc
 50
214.9663875717972
 51
245.1749662203259
  0
ARC
  5
1A9
330
2
100
AcDbEntity
  8
GAIKEI
 62
     1
100
AcDbCircle
 10
37.62503421818974
 20
48.69190028494307
 30
0.0
 40
0.3958288777396075
100
AcDbArc
 50
214.8424871915199
 51
246.8311853807621
  0
ARC
  5
1AA
330
2
100
AcDbEntity
  8
GAIKEI
 62
     1
100
AcDbCircle
 10
35.61643414306991
 20
46.8824233104114
 30
0.0
 40
1.196233414442227
100
AcDbArc
 50
44.36140689905198
 51
54.99158789799675
  0
ARC
  5
1AB
330
2
100
AcDbEntity
  8
GAIKEI
 62
     1
100
AcDbCircle
 10
36.78960819261647
 20
48.89082686705399
 30
0.0
 40
0.1745447041906593
100
AcDbArc
 50
215.0924014477998
 51
35.01750761426764
  0
ARC
  5
1AC
330
2
100
AcDbEntity
  8
GAIKEI
 62
     1
100
AcDbCircle
 10
35.00340699318718
 20
49.74615604561512
 30
0.0
 40
0.7976788644665152
100
AcDbArc
 50
34.9721261975393
 51
235.0213492019443
  0
ARC
  5
1AD
330
2
100
AcDbEntity
  8
GAIKEI
 62
     1
100
AcDbCircle
 10
35.00342089782032
 20
49.74581470849426
 30
0.0
 40
1.147014473285058
100
AcDbArc
 50
34.99410476730576
 51
235.0058952326944
  0
DIMENSION
  5
1AE
330
2
100
AcDbEntity
  8
SUNPO
100
AcDbDimension
  2
*D8
 10
-10.28146481101504
 20
0.7868487474364656
 30
0.0
 11
-22.23147914666709
 21
2.536848747436466
 31
0.0
 70
    33
  1
φ239
 71
     5
 42
23.90002867130409
  3
STANDARD
100
AcDbAlignedDimension
 13
-34.18149348231913
 23
8.786848747436465
 33
0.0
 14
-10.28146481101504
 24
8.786848747436465
 34
0.0
1001
ACAD
1000
DSTYLE
1002
{
1070
   287
1070
     3
1070
    40
1040
1.0
1070
   140
1040
2.5
1070
   147
1040
0.5
1070
   172
1070
     1
1070
   279
1070
     0
1070
   288
1070
     0
1002
}
  0
DIMENSION
  5
1BD
330
2
100
AcDbEntity
  8
SUNPO
100
AcDbDimension
  2
*D7
 10
-2.223472755279544
 20
8.993164982852475
 30
0.0
 11
-3.973472755279546
 21
1.909831649519142
 31
0.0
 70
    33
  1
88.5
 71
     5
 42
8.84897638099977
  3
STANDARD
100
AcDbAlignedDimension
 13
-10.22347275527954
 23
17.84214136385225
 33
0.0
 14
-10.22347275527954
 24
8.993164982852476
 34
0.0
1001
ACAD
1000
DSTYLE
1002
{
1070
   287
1070
     3
1070
    40
1040
1.0
1070
   140
1040
2.5
1070
   147
1040
0.5
1070
   172
1070
     1
1070
   279
1070
     0
1070
   288
1070
     0
1002
}
  0
DIMENSION
  5
1CB
330
2
100
AcDbEntity
  8
SUNPO
100
AcDbDimension
  2
*D6
 10
-2.223472755279544
 20
17.84214136385224
 30
0.0
 11
-3.973472755279546
 21
31.44265075572574
 31
0.0
 70
    33
  1
272
 71
     5
 42
27.20101878374698
  3
STANDARD
100
AcDbAlignedDimension
 13
-10.22347275527954
 23
45.04316014759922
 33
0.0
 14
-10.22347275527954
 24
17.84214136385225
 34
0.0
1001
ACAD
1000
DSTYLE
1002
{
1070
   287
1070
     3
1070
    40
1040
1.0
1070
   140
1040
2.5
1070
   147
1040
0.5
1070
   172
1070
     1
1070
   279
1070
     0
1070
   288
1070
     0
1002
}
  0
DIMENSION
  5
1D8
330
2
100
AcDbEntity
  8
SUNPO
100
AcDbDimension
  2
*D5
 10
33.51425455632716
 20
0.5009310396935121
 30
0.0
 11
25.50220675116071
 21
2.250931039693512
 31
0.0
 70
    33
  1
160
 71
     5
 42
16.02409561033289
  3
STANDARD
100
AcDbAlignedDimension
 13
17.49015894599426
 23
8.500931039693512
 33
0.0
 14
33.51425455632716
 24
8.500931039693512
 34
0.0
1001
ACAD
1000
DSTYLE
1002
{
1070
   287
1070
     3
1070
    40
1040
1.0
1070
   140
1040
2.5
1070
   147
1040
0.5
1070
   172
1070
     1
1070
   279
1070
     0
1070
   288
1070
     0
1002
}
  0
LINE
  5
1E5
330
2
100
AcDbEntity
  8
WAKU
 62
     4
100
AcDbLine
 10
61.66888129925701
 20
-49.56563788789117
 30
0.0
 11
61.66888129925701
 21
-9.56563788789117
 31
0.0
  0
LINE
  5
1E7
330
2
100
AcDbEntity
  8
WAKU
 62
     4
100
AcDbLine
 10
-23.33111870074299
 20
-49.56563788789117
 30
0.0
 11
-23.33111870074299
 21
-9.56563788789117
 31
0.0
  0
TEXT
  5
1E8
330
2
100
AcDbEntity
  8
MOJI1
100
AcDbText
 10
-20.83111870074299
 20
-28.56563788789117
 30
0.0
 40
3.0
  1
水平：１．８°～５２°、垂直：１．４°～４０°
100
AcDbText
  0
TEXT
  5
1E9
330
2
100
AcDbEntity
  8
MOJI1
100
AcDbText
 10
-20.83111870074299
 20
-33.56563788789117
 30
0.0
 40
3.0
  1
０．５ｌｘ
100
AcDbText
  0
LINE
  5
1EA
330
2
100
AcDbEntity
  8
WAKU
 62
     4
100
AcDbLine
 10
-63.33111870074299
 20
-9.56563788789117
 30
0.0
 11
-63.33111870074299
 21
-49.56563788789117
 31
0.0
  0
LINE
  5
1EB
330
2
100
AcDbEntity
  8
WAKU
  6
Continuous
 62
     4
100
AcDbLine
 10
-63.33111870074299
 20
-9.56563788789117
 30
0.0
 11
-63.33111870074299
 21
-49.56563788789117
 31
0.0
  0
TEXT
  5
1EC
330
2
100
AcDbEntity
  8
MOJI1
100
AcDbText
 10
-60.83111870074299
 20
-43.56563788789117
 30
0.0
 40
3.0
  1
機　能
100
AcDbText
  0
TEXT
  5
1ED
330
2
100
AcDbEntity
  8
MOJI1
100
AcDbText
 10
-60.83111870074299
 20
-33.56563788789117
 30
0.0
 40
3.0
  1
最低照度
100
AcDbText
  0
TEXT
  5
1EE
330
2
100
AcDbEntity
  8
MOJI1
100
AcDbText
 10
-60.83111870074299
 20
-18.56563788789117
 30
0.0
 40
3.0
  1
撮像素子
100
AcDbText
  0
TEXT
  5
1EF
330
2
100
AcDbEntity
  8
MOJI1
100
AcDbText
 10
-60.83111870074299
 20
-13.56563788789117
 30
0.0
 40
3.0
  1
電　源
100
AcDbText
  0
TEXT
  5
1F0
330
2
100
AcDbEntity
  8
MOJI1
100
AcDbText
 10
-60.83111870074299
 20
-23.56563788789117
 30
0.0
 40
3.0
  1
解像度
100
AcDbText
  0
TEXT
  5
1F1
330
2
100
AcDbEntity
  8
MOJI1
100
AcDbText
 10
-60.83111870074299
 20
-28.56563788789117
 30
0.0
 40
3.0
  1
画 角
100
AcDbText
  0
LINE
  5
1F2
330
2
100
AcDbEntity
  8
WAKU
 62
     1
100
AcDbLine
 10
-63.33111870074299
 20
-39.56563788789117
 30
0.0
 11
61.66888129925701
 21
-39.56563788789117
 31
0.0
  0
LINE
  5
1F3
330
2
100
AcDbEntity
  8
WAKU
  6
Continuous
 62
     1
100
AcDbLine
 10
-63.33111870074299
 20
-39.56563788789117
 30
0.0
 11
61.66888129925701
 21
-39.56563788789117
 31
0.0
  0
LINE
  5
1F4
330
2
100
AcDbEntity
  8
WAKU
  6
Continuous
 62
     4
100
AcDbLine
 10
61.66888129925701
 20
-49.56563788789117
 30
0.0
 11
-63.33111870074299
 21
-49.56563788789117
 31
0.0
  0
LINE
  5
1F5
330
2
100
AcDbEntity
  8
WAKU
 62
     1
100
AcDbLine
 10
-63.33111870074299
 20
-14.56563788789117
 30
0.0
 11
61.66888129925701
 21
-14.56563788789117
 31
0.0
  0
LINE
  5
1F6
330
2
100
AcDbEntity
  8
WAKU
 62
     1
100
AcDbLine
 10
-63.33111870074299
 20
-19.56563788789117
 30
0.0
 11
61.66888129925701
 21
-19.56563788789117
 31
0.0
  0
LINE
  5
1F7
330
2
100
AcDbEntity
  8
WAKU
 62
     1
100
AcDbLine
 10
-63.33111870074299
 20
-24.56563788789117
 30
0.0
 11
61.66888129925701
 21
-24.56563788789117
 31
0.0
  0
LINE
  5
1F8
330
2
100
AcDbEntity
  8
WAKU
 62
     1
100
AcDbLine
 10
-63.33111870074299
 20
-29.56563788789117
 30
0.0
 11
61.66888129925701
 21
-29.56563788789117
 31
0.0
  0
LINE
  5
1F9
330
2
100
AcDbEntity
  8
WAKU
 62
     1
100
AcDbLine
 10
-63.33111870074299
 20
-34.56563788789117
 30
0.0
 11
61.66888129925701
 21
-34.56563788789117
 31
0.0
  0
LINE
  5
1FA
330
2
100
AcDbEntity
  8
WAKU
 62
     4
100
AcDbLine
 10
61.66888129925701
 20
-9.56563788789117
 30
0.0
 11
-63.33111870074299
 21
-9.56563788789117
 31
0.0
  0
LINE
  5
1FB
330
2
100
AcDbEntity
  8
WAKU
  6
Continuous
 62
     1
100
AcDbLine
 10
-63.33111870074299
 20
-24.56563788789117
 30
0.0
 11
61.66888129925701
 21
-24.56563788789117
 31
0.0
  0
LINE
  5
1FC
330
2
100
AcDbEntity
  8
WAKU
  6
Continuous
 62
     1
100
AcDbLine
 10
-63.33111870074299
 20
-29.56563788789117
 30
0.0
 11
61.66888129925701
 21
-29.56563788789117
 31
0.0
  0
LINE
  5
1FD
330
2
100
AcDbEntity
  8
WAKU
  6
Continuous
 62
     4
100
AcDbLine
 10
-63.33111870074299
 20
-9.56563788789117
 30
0.0
 11
61.66888129925701
 21
-9.56563788789117
 31
0.0
  0
LINE
  5
1FE
330
2
100
AcDbEntity
  8
WAKU
  6
Continuous
 62
     1
100
AcDbLine
 10
-63.33111870074299
 20
-14.56563788789117
 30
0.0
 11
61.66888129925701
 21
-14.56563788789117
 31
0.0
  0
LINE
  5
1FF
330
2
100
AcDbEntity
  8
WAKU
  6
Continuous
 62
     1
100
AcDbLine
 10
-63.33111870074299
 20
-19.56563788789117
 30
0.0
 11
61.66888129925701
 21
-19.56563788789117
 31
0.0
  0
LINE
  5
200
330
2
100
AcDbEntity
  8
WAKU
  6
Continuous
 62
     1
100
AcDbLine
 10
-63.33111870074299
 20
-34.56563788789117
 30
0.0
 11
61.66888129925701
 21
-34.56563788789117
 31
0.0
  0
TEXT
  5
201
330
2
100
AcDbEntity
  8
MOJI1
100
AcDbText
 10
-20.83111870074299
 20
-38.56563788789117
 30
0.0
 40
3.0
  1
５２ｄＢ／ｔｙｐ（ＳＵＰＥＲ－Ｄ３：ＯＮ）
100
AcDbText
  0
TEXT
  5
202
330
2
100
AcDbEntity
  8
MOJI1
100
AcDbText
 10
-20.83111870074299
 20
-18.56563788789117
 30
0.0
 40
3.0
  1
１／４型インターライン転送方式ＣＣＤ
100
AcDbText
  0
TEXT
  5
203
330
2
100
AcDbEntity
  8
MOJI1
100
AcDbText
 10
-19.83111870074299
 20
-13.56563788789117
 30
0.0
 40
3.0
  1
ＡＣ１００Ｖ　５０／６０Ｈｚ
100
AcDbText
  0
TEXT
  5
204
330
2
100
AcDbEntity
  8
MOJI1
100
AcDbText
 10
-20.83111870074299
 20
-23.56563788789117
 30
0.0
 40
3.0
  1
水平：５４０本ｔｙｐ 垂直：３５０本以上（中心部）
 41
0.95
100
AcDbText
  0
TEXT
  5
205
330
2
100
AcDbEntity
  8
MOJI1
100
AcDbText
 10
-20.83111870074299
 20
-43.56563788789117
 30
0.0
 40
3.0
  1
カメラタイトル　最大１６文字
100
AcDbText
  0
TEXT
  5
206
330
2
100
AcDbEntity
  8
MOJI1
100
AcDbText
 10
-60.83111870074299
 20
-38.56563788789117
 30
0.0
 40
3.0
  1
ダイナミックレンジ
100
AcDbText
  0
LINE
  5
207
330
2
100
AcDbEntity
  8
WAKU
  6
Continuous
 62
     1
100
AcDbLine
 10
-63.33111870074299
 20
-44.56563788789117
 30
0.0
 11
61.66888129925701
 21
-44.56563788789117
 31
0.0
  0
TEXT
  5
208
330
2
100
AcDbEntity
  8
MOJI1
100
AcDbText
 10
-20.83111870074299
 20
-48.56563788789117
 30
0.0
 40
3.0
  1
電子感度アップ　最大３２倍
100
AcDbText
  0
ENDSEC
  0
SECTION
  2
OBJECTS
  0
DICTIONARY
  5
9
330
0
100
AcDbDictionary
281
     1
  3
ACAD_COLOR
350
2A
  3
ACAD_GROUP
350
26
  3
ACAD_LAYOUT
350
D
  3
ACAD_MATERIAL
350
29
  3
ACAD_MLINESTYLE
350
27
  3
ACAD_PLOTSETTINGS
350
28
  3
ACAD_PLOTSTYLENAME
350
8
  3
ACDBHEADERROUNDTRIPXREC
350
252
  3
AcDbVariableDictionary
350
24D
  0
DICTIONARY
  5
15
330
14
100
AcDbDictionary
280
     1
281
     1
  3
ACAD_LAYERFILTERS
360
16
  3
ACAD_LAYERSTATES
360
17
  0
DICTIONARY
  5
3
330
2
100
AcDbDictionary
280
     1
281
     1
  3
ACAD_LAYOUTSELFREF
360
4
  0
DICTIONARY
  5
F
330
E
100
AcDbDictionary
280
     1
281
     1
  3
ACAD_LAYOUTSELFREF
360
10
  0
DICTIONARY
  5
2A
102
{ACAD_REACTORS
330
9
102
}
330
9
100
AcDbDictionary
281
     1
  0
DICTIONARY
  5
26
102
{ACAD_REACTORS
330
9
102
}
330
9
100
AcDbDictionary
281
     1
  0
DICTIONARY
  5
D
102
{ACAD_REACTORS
330
9
102
}
330
9
100
AcDbDictionary
281
     1
  3
Model
350
C
  3
ﾚｲｱｳﾄ1
350
13
  0
DICTIONARY
  5
29
102
{ACAD_REACTORS
330
9
102
}
330
9
100
AcDbDictionary
281
     1
  0
DICTIONARY
  5
27
102
{ACAD_REACTORS
330
9
102
}
330
9
100
AcDbDictionary
281
     1
  3
STANDARD
350
32
  0
DICTIONARY
  5
28
102
{ACAD_REACTORS
330
9
102
}
330
9
100
AcDbDictionary
281
     1
  0
ACDBDICTIONARYWDFLT
  5
8
102
{ACAD_REACTORS
330
9
102
}
330
9
100
AcDbDictionary
281
     1
  3
Normal
350
7
100
AcDbDictionaryWithDefault
340
7
  0
DICTIONARY
  5
252
102
{ACAD_REACTORS
330
9
102
}
330
9
100
AcDbDictionary
281
     1
  3
COLORDICT
350
254
  3
MATERIALDICT
350
253
  0
DICTIONARY
  5
24D
102
{ACAD_REACTORS
330
9
102
}
330
9
100
AcDbDictionary
281
     1
  3
DIMASSOC
350
24F
  3
HIDETEXT
350
24E
  3
PROJECTNAME
350
250
  0
DICTIONARY
  5
16
102
{ACAD_REACTORS
330
15
102
}
330
15
100
AcDbDictionary
280
     1
281
     1
  0
DICTIONARY
  5
17
102
{ACAD_REACTORS
330
15
102
}
330
15
100
AcDbDictionary
281
     1
  0
XRECORD
  5
4
102
{ACAD_REACTORS
330
3
102
}
330
3
100
AcDbXrecord
280
     1
340
2
  0
XRECORD
  5
10
102
{ACAD_REACTORS
330
F
102
}
330
F
100
AcDbXrecord
280
     1
340
E
  0
LAYOUT
  5
C
102
{ACAD_XDICTIONARY
360
255
102
}
102
{ACAD_REACTORS
330
D
102
}
330
D
100
AcDbPlotSettings
  1

  2
FX78BC34-A4縦.pc3
  4
A4
  6

 40
4.900083065032958
 41
4.900057315826416
 42
4.90008544921875
 43
4.90008544921875
 44
210.0156707763672
 45
297.0106506347656
 46
5.73
 47
0.0
 48
0.0
 49
0.0
140
0.0
141
0.0
142
1.0
143
1.372886859422437
 70
 11956
 72
     1
 73
     0
 74
     1
  7
tmsacad.ctb
 75
     0
147
0.7283921418118108
148
0.6007982431128767
149
0.0333771406676533
100
AcDbLayout
  1
Model
 70
     1
 71
     0
 10
0.0
 20
0.0
 11
12.0
 21
9.0
 12
0.0
 22
0.0
 32
0.0
 14
0.0
 24
0.0
 34
0.0
 15
0.0
 25
0.0
 35
0.0
146
0.0
 13
0.0
 23
0.0
 33
0.0
 16
1.0
 26
0.0
 36
0.0
 17
0.0
 27
1.0
 37
0.0
 76
     0
330
2
  0
LAYOUT
  5
13
102
{ACAD_XDICTIONARY
360
257
102
}
102
{ACAD_REACTORS
330
D
102
}
330
D
100
AcDbPlotSettings
  1

  2
C:\Program Files\ACAD2000\plotters\DWF ePlot.pc3
  4

  6

 40
0.0
 41
0.0
 42
0.0
 43
0.0
 44
0.0
 45
0.0
 46
0.0
 47
0.0
 48
0.0
 49
0.0
140
0.0
141
0.0
142
1.0
143
1.0
 70
   688
 72
     0
 73
     0
 74
     5
  7
tmsacad.ctb
 75
    16
147
1.0
148
0.0
149
0.0
100
AcDbLayout
  1
ﾚｲｱｳﾄ1
 70
     1
 71
     1
 10
0.0
 20
0.0
 11
12.0
 21
9.0
 12
0.0
 22
0.0
 32
0.0
 14
1.000000000000000E+20
 24
1.000000000000000E+20
 34
1.000000000000000E+20
 15
-1.000000000000000E+20
 25
-1.000000000000000E+20
 35
-1.000000000000000E+20
146
0.0
 13
0.0
 23
0.0
 33
0.0
 16
1.0
 26
0.0
 36
0.0
 17
0.0
 27
1.0
 37
0.0
 76
     0
330
E
  0
MLINESTYLE
  5
32
102
{ACAD_REACTORS
330
27
102
}
330
27
100
AcDbMlineStyle
  2
STANDARD
 70
     0
  3

 62
   256
 51
90.0
 52
90.0
 71
     2
 49
0.5
 62
   256
  6
BYLAYER
 49
-0.5
 62
   256
  6
BYLAYER
  0
ACDBPLACEHOLDER
  5
7
102
{ACAD_REACTORS
330
8
102
}
330
8
  0
XRECORD
  5
254
102
{ACAD_REACTORS
330
252
102
}
330
252
100
AcDbXrecord
280
     1
340
2A
  0
XRECORD
  5
253
102
{ACAD_REACTORS
330
252
102
}
330
252
100
AcDbXrecord
280
     1
340
29
  0
DICTIONARYVAR
  5
24F
102
{ACAD_REACTORS
330
24D
102
}
330
24D
100
DictionaryVariables
280
     0
  1
1
  0
DICTIONARYVAR
  5
24E
102
{ACAD_REACTORS
330
24D
102
}
330
24D
100
DictionaryVariables
280
     0
  1
1
  0
DICTIONARYVAR
  5
250
102
{ACAD_REACTORS
330
24D
102
}
330
24D
100
DictionaryVariables
280
     0
  1

  0
DICTIONARY
  5
255
330
C
100
AcDbDictionary
280
     1
281
     1
  3
ACAD_XREC_ROUNDTRIP
360
256
  0
DICTIONARY
  5
257
330
13
100
AcDbDictionary
280
     1
281
     1
  3
ACAD_XREC_ROUNDTRIP
360
258
  0
XRECORD
  5
256
102
{ACAD_REACTORS
330
255
102
}
330
255
100
AcDbXrecord
280
     1
102
SHADEPLOT
 70
     0
102
SHADEPLOTRESLEVEL
 70
     2
102
SHADEPLOTCUSTOMDPI
 70
   300
  0
XRECORD
  5
258
102
{ACAD_REACTORS
330
257
102
}
330
257
100
AcDbXrecord
280
     1
102
SHADEPLOT
 70
     0
102
SHADEPLOTRESLEVEL
 70
     2
102
SHADEPLOTCUSTOMDPI
 70
   300
  0
ENDSEC
  0
EOF
