  0
SECTION
  2
HEADER
  9
$ACADVER
  1
AC1015
  9
$ACADMAINTVER
 70
    20
  9
$DWGCODEPAGE
  3
ANSI_932
  9
$INSBASE
 10
0.0
 20
246.4992141396417
 30
0.0
  9
$EXTMIN
 10
-63.85157920843494
 20
-71.63763282364744
 30
-0.0015258207003583
  9
$EXTMAX
 10
61.22892976152934
 20
41.49344909197771
 30
0.0000000349246037
  9
$LIMMIN
 10
-1101.784450318844
 20
-1579.160531687244
  9
$LIMMAX
 10
-508.2420711400536
 20
-1161.440814074914
  9
$ORTHOMODE
 70
     1
  9
$REGENMODE
 70
     1
  9
$FILLMODE
 70
     1
  9
$QTEXTMODE
 70
     0
  9
$MIRRTEXT
 70
     1
  9
$LTSCALE
 40
1.0
  9
$ATTMODE
 70
     1
  9
$TEXTSIZE
 40
3.0
  9
$TRACEWID
 40
0.5
  9
$TEXTSTYLE
  7
STANDARD
  9
$CLAYER
  8
SUNPO
  9
$CELTYPE
  6
BYLAYER
  9
$CECOLOR
 62
   256
  9
$CELTSCALE
 40
1.0
  9
$DISPSILH
 70
     0
  9
$DIMSCALE
 40
1.0
  9
$DIMASZ
 40
2.0
  9
$DIMEXO
 40
2.0
  9
$DIMDLI
 40
8.0
  9
$DIMRND
 40
0.0
  9
$DIMDLE
 40
0.0
  9
$DIMEXE
 40
2.0
  9
$DIMTP
 40
0.0
  9
$DIMTM
 40
0.0
  9
$DIMTXT
 40
2.5
  9
$DIMCEN
 40
0.0
  9
$DIMTSZ
 40
0.0
  9
$DIMTOL
 70
     0
  9
$DIMLIM
 70
     0
  9
$DIMTIH
 70
     0
  9
$DIMTOH
 70
     0
  9
$DIMSE1
 70
     0
  9
$DIMSE2
 70
     0
  9
$DIMTAD
 70
     3
  9
$DIMZIN
 70
     0
  9
$DIMBLK
  1

  9
$DIMASO
 70
     1
  9
$DIMSHO
 70
     1
  9
$DIMPOST
  1

  9
$DIMAPOST
  1

  9
$DIMALT
 70
     0
  9
$DIMALTD
 70
     2
  9
$DIMALTF
 40
25.4
  9
$DIMLFAC
 40
1.0
  9
$DIMTOFL
 70
     1
  9
$DIMTVP
 40
0.0
  9
$DIMTIX
 70
     0
  9
$DIMSOXD
 70
     0
  9
$DIMSAH
 70
     1
  9
$DIMBLK1
  1
OPEN30
  9
$DIMBLK2
  1
OPEN30
  9
$DIMSTYLE
  2
STANDARD
  9
$DIMCLRD
 70
     0
  9
$DIMCLRE
 70
     0
  9
$DIMCLRT
 70
     0
  9
$DIMTFAC
 40
1.0
  9
$DIMGAP
 40
0.5
  9
$DIMJUST
 70
     0
  9
$DIMSD1
 70
     0
  9
$DIMSD2
 70
     0
  9
$DIMTOLJ
 70
     1
  9
$DIMTZIN
 70
     0
  9
$DIMALTZ
 70
     0
  9
$DIMALTTZ
 70
     0
  9
$DIMUPT
 70
     0
  9
$DIMDEC
 70
     4
  9
$DIMTDEC
 70
     4
  9
$DIMALTU
 70
     2
  9
$DIMALTTD
 70
     2
  9
$DIMTXSTY
  7
STANDARD
  9
$DIMAUNIT
 70
     0
  9
$DIMADEC
 70
     0
  9
$DIMALTRND
 40
0.0
  9
$DIMAZIN
 70
     0
  9
$DIMDSEP
 70
    46
  9
$DIMATFIT
 70
     3
  9
$DIMFRAC
 70
     0
  9
$DIMLDRBLK
  1
OPEN30
  9
$DIMLUNIT
 70
     2
  9
$DIMLWD
 70
    -2
  9
$DIMLWE
 70
    -2
  9
$DIMTMOVE
 70
     0
  9
$LUNITS
 70
     2
  9
$LUPREC
 70
     4
  9
$SKETCHINC
 40
0.1
  9
$FILLETRAD
 40
0.0
  9
$AUNITS
 70
     0
  9
$AUPREC
 70
     0
  9
$MENU
  1
ACAD
  9
$ELEVATION
 40
0.0
  9
$PELEVATION
 40
0.0
  9
$THICKNESS
 40
0.0
  9
$LIMCHECK
 70
     0
  9
$CHAMFERA
 40
0.0
  9
$CHAMFERB
 40
0.0
  9
$CHAMFERC
 40
0.0
  9
$CHAMFERD
 40
0.0
  9
$SKPOLY
 70
     0
  9
$TDCREATE
 40
2451815.565532581
  9
$TDUCREATE
 40
2451815.190532581
  9
$TDUPDATE
 40
2454256.722679931
  9
$TDUUPDATE
 40
2454256.347679931
  9
$TDINDWG
 40
0.8705634606
  9
$TDUSRTIMER
 40
0.8705634606
  9
$USRTIMER
 70
     1
  9
$ANGBASE
 50
0.0
  9
$ANGDIR
 70
     0
  9
$PDMODE
 70
     0
  9
$PDSIZE
 40
0.0
  9
$PLINEWID
 40
0.0
  9
$SPLFRAME
 70
     0
  9
$SPLINETYPE
 70
     6
  9
$SPLINESEGS
 70
     8
  9
$HANDSEED
  5
143
  9
$SURFTAB1
 70
     6
  9
$SURFTAB2
 70
     6
  9
$SURFTYPE
 70
     6
  9
$SURFU
 70
     6
  9
$SURFV
 70
     6
  9
$UCSBASE
  2

  9
$UCSNAME
  2

  9
$UCSORG
 10
0.0
 20
0.0
 30
0.0
  9
$UCSXDIR
 10
1.0
 20
0.0
 30
0.0
  9
$UCSYDIR
 10
0.0
 20
1.0
 30
0.0
  9
$UCSORTHOREF
  2

  9
$UCSORTHOVIEW
 70
     0
  9
$UCSORGTOP
 10
0.0
 20
0.0
 30
0.0
  9
$UCSORGBOTTOM
 10
0.0
 20
0.0
 30
0.0
  9
$UCSORGLEFT
 10
0.0
 20
0.0
 30
0.0
  9
$UCSORGRIGHT
 10
0.0
 20
0.0
 30
0.0
  9
$UCSORGFRONT
 10
0.0
 20
0.0
 30
0.0
  9
$UCSORGBACK
 10
0.0
 20
0.0
 30
0.0
  9
$PUCSBASE
  2

  9
$PUCSNAME
  2

  9
$PUCSORG
 10
0.0
 20
0.0
 30
0.0
  9
$PUCSXDIR
 10
1.0
 20
0.0
 30
0.0
  9
$PUCSYDIR
 10
0.0
 20
1.0
 30
0.0
  9
$PUCSORTHOREF
  2

  9
$PUCSORTHOVIEW
 70
     0
  9
$PUCSORGTOP
 10
0.0
 20
0.0
 30
0.0
  9
$PUCSORGBOTTOM
 10
0.0
 20
0.0
 30
0.0
  9
$PUCSORGLEFT
 10
0.0
 20
0.0
 30
0.0
  9
$PUCSORGRIGHT
 10
0.0
 20
0.0
 30
0.0
  9
$PUCSORGFRONT
 10
0.0
 20
0.0
 30
0.0
  9
$PUCSORGBACK
 10
0.0
 20
0.0
 30
0.0
  9
$USERI1
 70
     0
  9
$USERI2
 70
     0
  9
$USERI3
 70
     0
  9
$USERI4
 70
     0
  9
$USERI5
 70
     0
  9
$USERR1
 40
0.0
  9
$USERR2
 40
0.0
  9
$USERR3
 40
0.0
  9
$USERR4
 40
0.0
  9
$USERR5
 40
0.0
  9
$WORLDVIEW
 70
     1
  9
$SHADEDGE
 70
     3
  9
$SHADEDIF
 70
    70
  9
$TILEMODE
 70
     1
  9
$MAXACTVP
 70
    48
  9
$PINSBASE
 10
0.0
 20
0.0
 30
0.0
  9
$PLIMCHECK
 70
     0
  9
$PEXTMIN
 10
1.000000000000000E+20
 20
1.000000000000000E+20
 30
1.000000000000000E+20
  9
$PEXTMAX
 10
-1.000000000000000E+20
 20
-1.000000000000000E+20
 30
-1.000000000000000E+20
  9
$PLIMMIN
 10
0.0
 20
0.0
  9
$PLIMMAX
 10
12.0
 20
9.0
  9
$UNITMODE
 70
     0
  9
$VISRETAIN
 70
     1
  9
$PLINEGEN
 70
     0
  9
$PSLTSCALE
 70
     1
  9
$TREEDEPTH
 70
  3020
  9
$CMLSTYLE
  2
STANDARD
  9
$CMLJUST
 70
     0
  9
$CMLSCALE
 40
1.0
  9
$PROXYGRAPHICS
 70
     1
  9
$MEASUREMENT
 70
     0
  9
$CELWEIGHT
370
    -1
  9
$ENDCAPS
280
     0
  9
$JOINSTYLE
280
     0
  9
$LWDISPLAY
290
     0
  9
$INSUNITS
 70
     0
  9
$HYPERLINKBASE
  1

  9
$STYLESHEET
  1

  9
$XEDIT
290
     1
  9
$CEPSNTYPE
380
     0
  9
$PSTYLEMODE
290
     1
  9
$FINGERPRINTGUID
  2
{1754B7AB-9B3C-11D4-AD9E-00104B1004F2}
  9
$VERSIONGUID
  2
{5CA0D00A-3A59-4CF1-808C-0674AFA84F17}
  9
$EXTNAMES
290
     1
  9
$PSVPSCALE
 40
0.0
  9
$OLESTARTUP
290
     0
  0
ENDSEC
  0
SECTION
  2
CLASSES
  0
CLASS
  1
ACDBDICTIONARYWDFLT
  2
AcDbDictionaryWithDefault
  3
ObjectDBX Classes
 90
        0
280
     0
281
     0
  0
CLASS
  1
ACDBPLACEHOLDER
  2
AcDbPlaceHolder
  3
ObjectDBX Classes
 90
        0
280
     0
281
     0
  0
CLASS
  1
LAYOUT
  2
AcDbLayout
  3
ObjectDBX Classes
 90
        0
280
     0
281
     0
  0
CLASS
  1
DICTIONARYVAR
  2
AcDbDictionaryVar
  3
ObjectDBX Classes
 90
        0
280
     0
281
     0
  0
CLASS
  1
SORTENTSTABLE
  2
AcDbSortentsTable
  3
ObjectDBX Classes
 90
    32768
280
     0
281
     0
  0
CLASS
  1
DIMASSOC
  2
AcDbDimAssoc
  3
"AcDbDimAssoc|Product Desc:     AcDim ARX App For Dimension|Company:          Autodesk, Inc.|WEB Address:      www.autodesk.com"
 90
    32768
280
     0
281
     0
  0
ENDSEC
  0
SECTION
  2
TABLES
  0
TABLE
  2
VPORT
  5
20
330
0
100
AcDbSymbolTable
 70
     3
  0
VPORT
  5
13B
330
20
100
AcDbSymbolTableRecord
100
AcDbViewportTableRecord
  2
*Active
 70
     0
 10
0.0
 20
0.0
 11
1.0
 21
1.0
 12
-1.311324723452798
 22
-15.07209186583486
 13
0.0
 23
0.0
 14
1.0
 24
1.0
 15
0.0
 25
0.0
 16
0.0
 26
0.0
 36
1.0
 17
0.0
 27
0.0
 37
0.0
 40
114.0035581257713
 41
1.407979407979407
 42
50.0
 43
0.0
 44
0.0
 50
0.0
 51
0.0
 71
     0
 72
 10000
 73
     1
 74
     0
 75
     0
 76
     1
 77
     0
 78
     0
281
     0
 65
     1
110
0.0
120
0.0
130
0.0
111
1.0
121
0.0
131
0.0
112
0.0
122
1.0
132
0.0
 79
     0
146
0.0
  0
ENDTAB
  0
TABLE
  2
LTYPE
  5
1B
330
0
100
AcDbSymbolTable
 70
     4
  0
LTYPE
  5
1C
330
1B
100
AcDbSymbolTableRecord
100
AcDbLinetypeTableRecord
  2
BYBLOCK
 70
     0
  3

 72
    65
 73
     0
 40
0.0
  0
LTYPE
  5
1D
330
1B
100
AcDbSymbolTableRecord
100
AcDbLinetypeTableRecord
  2
BYLAYER
 70
     0
  3

 72
    65
 73
     0
 40
0.0
  0
LTYPE
  5
A
330
1B
100
AcDbSymbolTableRecord
100
AcDbLinetypeTableRecord
  2
CONTINUOUS
 70
     0
  3
Solid line
 72
    65
 73
     0
 40
0.0
  0
LTYPE
  5
5F
330
1B
100
AcDbSymbolTableRecord
100
AcDbLinetypeTableRecord
  2
S10
 70
     0
  3
- - - - - - - - - 1,-1,1,-1
 72
    65
 73
     4
 40
4.0
 49
1.0
 74
     0
 49
-1.0
 74
     0
 49
1.0
 74
     0
 49
-1.0
 74
     0
  0
LTYPE
  5
61
330
1B
100
AcDbSymbolTableRecord
100
AcDbLinetypeTableRecord
  2
HIDDEN2
 70
     0
  3
Hidden (.5x) _ _ _ _ _ _ _ _ _ _ _ _ _ _ _ _ _
 72
    65
 73
     2
 40
1.399999999999999
 49
0.7
 74
     0
 49
-0.7
 74
     0
  0
LTYPE
  5
5D
330
1B
100
AcDbSymbolTableRecord
100
AcDbLinetypeTableRecord
  2
DOTTED
 70
     0
  3
Dotted
 72
    65
 73
     2
 40
3.5
 49
0.5
 74
     0
 49
-3.0
 74
     0
  0
ENDTAB
  0
TABLE
  2
LAYER
  5
14
102
{ACAD_XDICTIONARY
360
15
102
}
330
0
100
AcDbSymbolTable
 70
     7
  0
LAYER
  5
6
330
14
100
AcDbSymbolTableRecord
100
AcDbLayerTableRecord
  2
0
 70
     0
 62
     7
  6
CONTINUOUS
370
    -3
390
7
  0
LAYER
  5
42
330
14
100
AcDbSymbolTableRecord
100
AcDbLayerTableRecord
  2
DEFPOINTS
 70
     0
 62
     7
  6
CONTINUOUS
290
     0
370
    -3
390
7
  0
LAYER
  5
B3
330
14
100
AcDbSymbolTableRecord
100
AcDbLayerTableRecord
  2
WAKU
 70
     0
 62
     4
  6
CONTINUOUS
370
    -3
390
7
  0
LAYER
  5
35
330
14
100
AcDbSymbolTableRecord
100
AcDbLayerTableRecord
  2
MOJI1
 70
     0
 62
     2
  6
CONTINUOUS
370
    -3
390
7
  0
LAYER
  5
54
330
14
100
AcDbSymbolTableRecord
100
AcDbLayerTableRecord
  2
GAIKEI
 70
     0
 62
     7
  6
CONTINUOUS
370
    -3
390
7
  0
LAYER
  5
37
330
14
100
AcDbSymbolTableRecord
100
AcDbLayerTableRecord
  2
TOUROKU
 70
     0
 62
     1
  6
CONTINUOUS
370
    -3
390
7
  0
LAYER
  5
32
330
14
100
AcDbSymbolTableRecord
100
AcDbLayerTableRecord
  2
SUNPO
 70
     0
 62
     3
  6
CONTINUOUS
370
    -3
390
7
  0
ENDTAB
  0
TABLE
  2
STYLE
  5
18
330
0
100
AcDbSymbolTable
 70
     1
  0
STYLE
  5
19
330
18
100
AcDbSymbolTableRecord
100
AcDbTextStyleTableRecord
  2
STANDARD
 70
     0
 40
0.0
 41
1.0
 50
0.0
 71
     0
 42
3.0
  3
MONOTXT.shx
  4
BIGFONT.shx
  0
ENDTAB
  0
TABLE
  2
VIEW
  5
1E
330
0
100
AcDbSymbolTable
 70
     0
  0
ENDTAB
  0
TABLE
  2
UCS
  5
1F
330
0
100
AcDbSymbolTable
 70
     0
  0
ENDTAB
  0
TABLE
  2
APPID
  5
22
330
0
100
AcDbSymbolTable
 70
     1
  0
APPID
  5
23
330
22
100
AcDbSymbolTableRecord
100
AcDbRegAppTableRecord
  2
ACAD
 70
     0
  0
ENDTAB
  0
TABLE
  2
DIMSTYLE
  5
24
330
0
100
AcDbSymbolTable
 70
     1
100
AcDbDimStyleTable
 71
     1
340
25
  0
DIMSTYLE
105
25
102
{ACAD_REACTORS
330
46
330
38
102
}
330
24
100
AcDbSymbolTableRecord
100
AcDbDimStyleTableRecord
  2
STANDARD
 70
     0
 40
0.0
 41
2.0
 42
2.0
 43
8.0
 44
2.0
 73
     0
 74
     0
 77
     3
140
3.0
141
0.0
173
     1
279
     2
288
     1
340
19
341
26
343
26
344
26
  0
ENDTAB
  0
TABLE
  2
BLOCK_RECORD
  5
1
330
0
100
AcDbSymbolTable
 70
     5
  0
BLOCK_RECORD
  5
2
102
{ACAD_XDICTIONARY
360
3
102
}
330
1
100
AcDbSymbolTableRecord
100
AcDbBlockTableRecord
  2
*MODEL_SPACE
340
C
  0
BLOCK_RECORD
  5
E
102
{ACAD_XDICTIONARY
360
F
102
}
330
1
100
AcDbSymbolTableRecord
100
AcDbBlockTableRecord
  2
*PAPER_SPACE
340
13
  0
BLOCK_RECORD
  5
26
330
1
100
AcDbSymbolTableRecord
100
AcDbBlockTableRecord
  2
_OPEN30
340
0
102
{BLKREFS
331
4C
331
4D
331
3E
331
3F
331
123
331
124
331
12F
331
130
102
}
  0
BLOCK_RECORD
  5
47
330
1
100
AcDbSymbolTableRecord
100
AcDbBlockTableRecord
  2
*D1
340
0
  0
BLOCK_RECORD
  5
39
330
1
100
AcDbSymbolTableRecord
100
AcDbBlockTableRecord
  2
*D2
340
0
  0
BLOCK_RECORD
  5
11F
330
1
100
AcDbSymbolTableRecord
100
AcDbBlockTableRecord
  2
*D3
340
0
  0
BLOCK_RECORD
  5
12B
330
1
100
AcDbSymbolTableRecord
100
AcDbBlockTableRecord
  2
*D4
340
0
  0
ENDTAB
  0
ENDSEC
  0
SECTION
  2
BLOCKS
  0
BLOCK
  5
5
330
2
100
AcDbEntity
  8
0
100
AcDbBlockBegin
  2
*MODEL_SPACE
 70
     0
 10
0.0
 20
0.0
 30
0.0
  3
*MODEL_SPACE
  1

  0
ENDBLK
  5
B
330
2
100
AcDbEntity
  8
0
100
AcDbBlockEnd
  0
BLOCK
  5
11
330
E
100
AcDbEntity
 67
     1
  8
0
100
AcDbBlockBegin
  2
*PAPER_SPACE
 70
     0
 10
0.0
 20
0.0
 30
0.0
  3
*PAPER_SPACE
  1

  0
ENDBLK
  5
12
330
E
100
AcDbEntity
 67
     1
  8
0
100
AcDbBlockEnd
  0
BLOCK
  5
27
330
26
100
AcDbEntity
  8
0
100
AcDbBlockBegin
  2
_OPEN30
 70
     0
 10
0.0
 20
0.0
 30
0.0
  3
_OPEN30
  1

  0
LINE
  5
28
330
26
100
AcDbEntity
  8
0
  6
ByBlock
 62
     0
100
AcDbLine
 10
-1.0
 20
0.26794919
 30
0.0
 11
0.0
 21
0.0
 31
0.0
  0
LINE
  5
29
330
26
100
AcDbEntity
  8
0
  6
ByBlock
 62
     0
100
AcDbLine
 10
0.0
 20
0.0
 30
0.0
 11
-1.0
 21
-0.26794919
 31
0.0
  0
LINE
  5
2A
330
26
100
AcDbEntity
  8
0
  6
ByBlock
 62
     0
100
AcDbLine
 10
0.0
 20
0.0
 30
0.0
 11
-1.0
 21
0.0
 31
0.0
  0
ENDBLK
  5
2B
330
26
100
AcDbEntity
  8
0
100
AcDbBlockEnd
  0
BLOCK
  5
48
330
47
100
AcDbEntity
  8
0
100
AcDbBlockBegin
  2
*D1
 70
     1
 10
0.0
 20
0.0
 30
0.0
  3
*D1
  1

  0
LINE
  5
49
330
47
100
AcDbEntity
  8
SUNPO
 62
     0
370
    -2
100
AcDbLine
 10
79.54855864315664
 20
224.8112688074508
 30
0.0
 11
87.54855864315665
 21
224.8112688074508
 31
0.0
  0
LINE
  5
4A
330
47
100
AcDbEntity
  8
SUNPO
 62
     0
370
    -2
100
AcDbLine
 10
79.54855864315664
 20
206.2712679052449
 30
0.0
 11
87.54855864315663
 21
206.2712679052449
 31
0.0
  0
LINE
  5
4B
330
47
100
AcDbEntity
  8
SUNPO
 62
     0
370
    -2
100
AcDbLine
 10
85.54855864315664
 20
222.8112688074508
 30
0.0
 11
85.54855864315664
 21
208.2712679052449
 31
0.0
  0
INSERT
  5
4C
330
47
100
AcDbEntity
  8
SUNPO
 62
     0
370
    -2
100
AcDbBlockReference
  2
_OPEN30
 10
85.54855864315666
 20
224.8112688074508
 30
0.0
 41
2.0
 42
2.0
 43
2.0
 50
90.0
  0
INSERT
  5
4D
330
47
100
AcDbEntity
  8
SUNPO
 62
     0
370
    -2
100
AcDbBlockReference
  2
_OPEN30
 10
85.54855864315664
 20
206.2712679052449
 30
0.0
 41
2.0
 42
2.0
 43
2.0
 50
270.0
  0
MTEXT
  5
4E
330
47
100
AcDbEntity
  8
SUNPO
 62
     0
100
AcDbMText
 10
83.79855864315661
 20
215.5412683563479
 30
0.0
 40
2.5
 41
0.0
 71
     5
 72
     1
  1
\A1;93
 11
0.0000000000000001
 21
1.0
 31
0.0
 73
     1
 44
1.0
1001
ACAD
1000
MTEXTBEGIN
1070
    73
1070
     1
1070
    44
1040
1.0
1070
    74
1070
     0
1000
MTEXTEND
  0
POINT
  5
4F
330
47
100
AcDbEntity
  8
DEFPOINTS
 62
     0
100
AcDbPoint
 10
77.54855864315664
 20
224.8112688074508
 30
0.0
  0
POINT
  5
50
330
47
100
AcDbEntity
  8
DEFPOINTS
 62
     0
100
AcDbPoint
 10
77.54855864315664
 20
206.2712679052449
 30
0.0
  0
POINT
  5
51
330
47
100
AcDbEntity
  8
DEFPOINTS
 62
     0
100
AcDbPoint
 10
85.54855864315664
 20
206.2712679052449
 30
0.0
  0
ENDBLK
  5
52
330
47
100
AcDbEntity
  8
0
100
AcDbBlockEnd
  0
BLOCK
  5
3A
330
39
100
AcDbEntity
  8
0
100
AcDbBlockBegin
  2
*D2
 70
     1
 10
0.0
 20
0.0
 30
0.0
  3
*D2
  1

  0
LINE
  5
3B
330
39
100
AcDbEntity
  8
SUNPO
 62
     0
370
    -2
100
AcDbLine
 10
51.64855864315677
 20
226.8112688074508
 30
0.0
 11
51.64855864315677
 21
234.8112688074508
 31
0.0
  0
LINE
  5
3C
330
39
100
AcDbEntity
  8
SUNPO
 62
     0
370
    -2
100
AcDbLine
 10
77.54855864315664
 20
226.8112688074508
 30
0.0
 11
77.54855864315664
 21
234.8112688074508
 31
0.0
  0
LINE
  5
3D
330
39
100
AcDbEntity
  8
SUNPO
 62
     0
370
    -2
100
AcDbLine
 10
53.64855864315678
 20
232.8112688074508
 30
0.0
 11
75.54855864315664
 21
232.8112688074508
 31
0.0
  0
INSERT
  5
3E
330
39
100
AcDbEntity
  8
SUNPO
 62
     0
370
    -2
100
AcDbBlockReference
  2
_OPEN30
 10
51.64855864315677
 20
232.8112688074508
 30
0.0
 41
2.0
 42
2.0
 43
2.0
 50
180.0
  0
INSERT
  5
3F
330
39
100
AcDbEntity
  8
SUNPO
 62
     0
370
    -2
100
AcDbBlockReference
  2
_OPEN30
 10
77.54855864315664
 20
232.8112688074508
 30
0.0
 41
2.0
 42
2.0
 43
2.0
  0
MTEXT
  5
40
330
39
100
AcDbEntity
  8
SUNPO
 62
     0
100
AcDbMText
 10
64.5985586431567
 20
234.5612688074508
 30
0.0
 40
2.5
 41
0.0
 71
     5
 72
     1
  1
\A1;φ129.5
 73
     1
 44
1.0
1001
ACAD
1000
MTEXTBEGIN
1070
    73
1070
     1
1070
    44
1040
1.0
1070
    74
1070
     0
1000
MTEXTEND
  0
POINT
  5
41
330
39
100
AcDbEntity
  8
DEFPOINTS
 62
     0
100
AcDbPoint
 10
51.64855864315677
 20
224.8112688074508
 30
0.0
  0
POINT
  5
43
330
39
100
AcDbEntity
  8
DEFPOINTS
 62
     0
100
AcDbPoint
 10
77.54855864315664
 20
224.8112688074508
 30
0.0
  0
POINT
  5
44
330
39
100
AcDbEntity
  8
DEFPOINTS
 62
     0
100
AcDbPoint
 10
77.54855864315664
 20
232.8112688074508
 30
0.0
  0
ENDBLK
  5
45
330
39
100
AcDbEntity
  8
0
100
AcDbBlockEnd
  0
BLOCK
  5
129
330
11F
100
AcDbEntity
  8
0
100
AcDbBlockBegin
  2
*D3
 70
     1
 10
0.0
 20
0.0
 30
0.0
  3
*D3
  1

  0
LINE
  5
120
330
11F
100
AcDbEntity
  8
SUNPO
 62
     0
370
    -2
100
AcDbLine
 10
13.71092089690023
 20
21.69475401957891
 30
0.0
 11
21.71092089690024
 21
21.69475401957891
 31
0.0
  0
LINE
  5
121
330
11F
100
AcDbEntity
  8
SUNPO
 62
     0
370
    -2
100
AcDbLine
 10
13.71092089690023
 20
3.154753117373047
 30
0.0
 11
21.71092089690024
 21
3.154753117373044
 31
0.0
  0
LINE
  5
122
330
11F
100
AcDbEntity
  8
SUNPO
 62
     0
370
    -2
100
AcDbLine
 10
19.71092089690024
 20
19.69475401957891
 30
0.0
 11
19.71092089690023
 21
5.154753117373044
 31
0.0
  0
INSERT
  5
123
330
11F
100
AcDbEntity
  8
SUNPO
 62
     0
370
    -2
100
AcDbBlockReference
  2
_OPEN30
 10
19.71092089690024
 20
21.69475401957891
 30
0.0
 41
2.0
 42
2.0
 43
2.0
 50
90.0
  0
INSERT
  5
124
330
11F
100
AcDbEntity
  8
SUNPO
 62
     0
370
    -2
100
AcDbBlockReference
  2
_OPEN30
 10
19.71092089690023
 20
3.154753117373045
 30
0.0
 41
2.0
 42
2.0
 43
2.0
 50
270.0
  0
MTEXT
  5
125
330
11F
100
AcDbEntity
  8
SUNPO
 62
     0
100
AcDbMText
 10
17.96092089690023
 20
12.42475356847598
 30
0.0
 40
2.5
 41
0.0
 71
     5
 72
     1
  1
\A1;93
 11
0.0000000000000001
 21
1.0
 31
0.0
 73
     1
 44
1.0
1001
ACAD
1000
MTEXTBEGIN
1070
    73
1070
     1
1070
    44
1040
1.0
1070
    74
1070
     0
1000
MTEXTEND
  0
POINT
  5
126
330
11F
100
AcDbEntity
  8
DEFPOINTS
 62
     0
100
AcDbPoint
 10
11.71092089690023
 20
21.69475401957891
 30
0.0
  0
POINT
  5
127
330
11F
100
AcDbEntity
  8
DEFPOINTS
 62
     0
100
AcDbPoint
 10
11.71092089690023
 20
3.154753117373047
 30
0.0
  0
POINT
  5
128
330
11F
100
AcDbEntity
  8
DEFPOINTS
 62
     0
100
AcDbPoint
 10
19.71092089690023
 20
3.154753117373045
 30
0.0
  0
ENDBLK
  5
12A
330
11F
100
AcDbEntity
  8
0
100
AcDbBlockEnd
  0
BLOCK
  5
135
330
12B
100
AcDbEntity
  8
0
100
AcDbBlockBegin
  2
*D4
 70
     1
 10
0.0
 20
0.0
 30
0.0
  3
*D4
  1

  0
LINE
  5
12C
330
12B
100
AcDbEntity
  8
SUNPO
 62
     0
370
    -2
100
AcDbLine
 10
-14.18907910309963
 20
23.69475401957891
 30
0.0
 11
-14.18907910309963
 21
31.69475401957891
 31
0.0
  0
LINE
  5
12D
330
12B
100
AcDbEntity
  8
SUNPO
 62
     0
370
    -2
100
AcDbLine
 10
11.71092089690023
 20
23.69475401957891
 30
0.0
 11
11.71092089690023
 21
31.69475401957891
 31
0.0
  0
LINE
  5
12E
330
12B
100
AcDbEntity
  8
SUNPO
 62
     0
370
    -2
100
AcDbLine
 10
-12.18907910309963
 20
29.69475401957891
 30
0.0
 11
9.710920896900233
 21
29.69475401957891
 31
0.0
  0
INSERT
  5
12F
330
12B
100
AcDbEntity
  8
SUNPO
 62
     0
370
    -2
100
AcDbBlockReference
  2
_OPEN30
 10
-14.18907910309963
 20
29.69475401957891
 30
0.0
 41
2.0
 42
2.0
 43
2.0
 50
180.0
  0
INSERT
  5
130
330
12B
100
AcDbEntity
  8
SUNPO
 62
     0
370
    -2
100
AcDbBlockReference
  2
_OPEN30
 10
11.71092089690023
 20
29.69475401957891
 30
0.0
 41
2.0
 42
2.0
 43
2.0
  0
MTEXT
  5
131
330
12B
100
AcDbEntity
  8
SUNPO
 62
     0
100
AcDbMText
 10
-1.239079103099697
 20
31.44475401957891
 30
0.0
 40
2.5
 41
0.0
 71
     5
 72
     1
  1
\A1;φ129.5
 73
     1
 44
1.0
1001
ACAD
1000
MTEXTBEGIN
1070
    73
1070
     1
1070
    44
1040
1.0
1070
    74
1070
     0
1000
MTEXTEND
  0
POINT
  5
132
330
12B
100
AcDbEntity
  8
DEFPOINTS
 62
     0
100
AcDbPoint
 10
-14.18907910309963
 20
21.69475401957891
 30
0.0
  0
POINT
  5
133
330
12B
100
AcDbEntity
  8
DEFPOINTS
 62
     0
100
AcDbPoint
 10
11.71092089690023
 20
21.69475401957891
 30
0.0
  0
POINT
  5
134
330
12B
100
AcDbEntity
  8
DEFPOINTS
 62
     0
100
AcDbPoint
 10
11.71092089690023
 20
29.69475401957891
 30
0.0
  0
ENDBLK
  5
136
330
12B
100
AcDbEntity
  8
0
100
AcDbBlockEnd
  0
ENDSEC
  0
SECTION
  2
ENTITIES
  0
TEXT
  5
34
330
2
100
AcDbEntity
  8
MOJI1
100
AcDbText
 10
-36.83763774625618
 20
37.3826993517697
 30
0.0
 40
4.0
  1
カラーテレビカメラ
100
AcDbText
  0
TEXT
  5
36
330
2
100
AcDbEntity
  8
TOUROKU
100
AcDbText
 10
45.16231228667112
 20
31.3826993517697
 30
0.0
 40
2.0
  1
ＷＶＣＦ２８４
 72
     2
 11
61.16231228667112
 21
31.3826993517697
 31
0.0
100
AcDbText
  0
DIMENSION
  5
38
330
2
100
AcDbEntity
  8
SUNPO
100
AcDbDimension
  2
*D4
 10
11.71092089690023
 20
29.69475401957891
 30
0.0
 11
-1.239079103099697
 21
31.44475401957891
 31
0.0
 70
    33
  1
φ129.5
 71
     5
 42
25.89999999999986
  3
STANDARD
100
AcDbAlignedDimension
 13
-14.18907910309963
 23
21.69475401957891
 33
0.0
 14
11.71092089690023
 24
21.69475401957891
 34
0.0
1001
ACAD
1000
DSTYLE
1002
{
1070
    40
1040
1.0
1070
   140
1040
2.5
1070
   147
1040
0.5
1070
   172
1070
     1
1070
   279
1070
     0
1070
   288
1070
     0
1002
}
  0
DIMENSION
  5
46
330
2
100
AcDbEntity
  8
SUNPO
100
AcDbDimension
  2
*D3
 10
19.71092089690023
 20
3.154753117373045
 30
0.0
 11
17.96092089690023
 21
12.42475356847598
 31
0.0
 70
    33
  1
93
 71
     5
 42
18.54000090220586
  3
STANDARD
100
AcDbAlignedDimension
 13
11.71092089690023
 23
21.69475401957891
 33
0.0
 14
11.71092089690023
 24
3.154753117373047
 34
0.0
1001
ACAD
1000
DSTYLE
1002
{
1070
    40
1040
1.0
1070
   140
1040
2.5
1070
   147
1040
0.5
1070
   172
1070
     1
1070
   279
1070
     0
1070
   288
1070
     0
1002
}
  0
LINE
  5
53
330
2
100
AcDbEntity
  8
GAIKEI
  6
Continuous
 62
     1
100
AcDbLine
 10
-11.66261955689083
 20
21.75475402020686
 30
0.0
 11
-11.27005950464786
 21
21.75475402020686
 31
0.0
  0
LINE
  5
55
330
2
100
AcDbEntity
  8
GAIKEI
  6
Continuous
 62
     1
100
AcDbLine
 10
-11.66261955689083
 20
21.75475402020686
 30
0.0
 11
-11.66261955689083
 21
21.69475401957891
 31
0.0
  0
LINE
  5
56
330
2
100
AcDbEntity
  8
GAIKEI
  6
Continuous
 62
     1
100
AcDbLine
 10
-14.18907890753473
 20
21.49505242267867
 30
0.0
 11
11.68907852226841
 21
21.49505242267867
 31
0.0
  0
LINE
  5
57
330
2
100
AcDbEntity
  8
GAIKEI
  6
Continuous
 62
     1
100
AcDbLine
 10
8.094194800558739
 20
12.30215652791867
 30
0.0
 11
-10.59419565662108
 21
12.30215652791867
 31
0.0
  0
LINE
  5
58
330
2
100
AcDbEntity
  8
GAIKEI
  6
Continuous
100
AcDbLine
 10
-9.270000428041043
 20
10.95475400947384
 30
0.0
 11
-9.247500037278882
 21
10.95475400947384
 31
0.0
  0
LINE
  5
59
330
2
100
AcDbEntity
  8
GAIKEI
  6
Continuous
100
AcDbLine
 10
6.79664189389291
 20
12.11369499517889
 30
0.0
 11
6.769999571982452
 21
10.95475400947384
 31
0.0
  0
LINE
  5
5A
330
2
100
AcDbEntity
  8
GAIKEI
  6
Continuous
100
AcDbLine
 10
6.747499181220064
 20
10.95475400947384
 30
0.0
 11
6.769999571982452
 21
10.95475400947384
 31
0.0
  0
LINE
  5
5B
330
2
100
AcDbEntity
  8
GAIKEI
  6
Continuous
100
AcDbLine
 10
-9.270000428041043
 20
10.95475400947384
 30
0.0
 11
-9.296642749951729
 21
12.11369499517889
 31
0.0
  0
LINE
  5
5C
330
2
100
AcDbEntity
  8
GAIKEI
  6
DOTTED
100
AcDbLine
 10
6.408575154795926
 20
11.00703815255951
 30
0.0
 11
6.409601292080651
 21
11.05924905077495
 31
0.0
  0
LINE
  5
5E
330
2
100
AcDbEntity
  8
GAIKEI
  6
S10
 62
     1
100
AcDbLine
 10
1.949999572738306
 20
4.482423226950572
 30
0.0
 11
1.949999572738306
 21
4.261278979362145
 31
0.0
  0
LINE
  5
60
330
2
100
AcDbEntity
  8
GAIKEI
  6
HIDDEN2
 62
     1
100
AcDbLine
 10
1.949999572738306
 20
4.195185203308142
 30
0.0
 11
0.2457523756324917
 21
4.195185203308142
 31
0.0
  0
LINE
  5
62
330
2
100
AcDbEntity
  8
GAIKEI
  6
S10
 62
     1
100
AcDbLine
 10
1.949999572738306
 20
4.261278979362145
 30
0.0
 11
1.949999572738306
 21
4.195185203308142
 31
0.0
  0
LINE
  5
63
330
2
100
AcDbEntity
  8
GAIKEI
  6
S10
 62
     1
100
AcDbLine
 10
-4.450000427243139
 20
4.261278979362145
 30
0.0
 11
-4.450000428432076
 21
4.195185203308142
 31
0.0
  0
LINE
  5
64
330
2
100
AcDbEntity
  8
GAIKEI
  6
S10
 62
     1
100
AcDbLine
 10
1.949999572738306
 20
4.261278979362145
 30
0.0
 11
1.949999573330728
 21
4.261278979362145
 31
0.0
  0
LINE
  5
65
330
2
100
AcDbEntity
  8
GAIKEI
  6
S10
 62
     1
100
AcDbLine
 10
-4.450000427243139
 20
4.261278979362145
 30
0.0
 11
-4.450000427243139
 21
4.48242322788576
 31
0.0
  0
LINE
  5
66
330
2
100
AcDbEntity
  8
GAIKEI
  6
S10
 62
     1
100
AcDbLine
 10
-4.450000428432076
 20
4.482423226950572
 30
0.0
 11
-4.450000428432076
 21
8.831224069369341
 31
0.0
  0
LINE
  5
67
330
2
100
AcDbEntity
  8
GAIKEI
  6
S10
 62
     1
100
AcDbLine
 10
1.949999572738306
 20
4.482423226950572
 30
0.0
 11
1.949999572738306
 21
8.787729411774307
 31
0.0
  0
LINE
  5
68
330
2
100
AcDbEntity
  8
GAIKEI
  6
DOTTED
 62
     1
100
AcDbLine
 10
6.42640712082732
 20
12.11369499517889
 30
0.0
 11
6.409601292080651
 21
11.05924905077495
 31
0.0
  0
LINE
  5
69
330
2
100
AcDbEntity
  8
GAIKEI
  6
DOTTED
 62
     1
100
AcDbLine
 10
-8.909602146593329
 20
11.05924905077495
 30
0.0
 11
-8.926407975339884
 21
12.11369499517889
 31
0.0
  0
LINE
  5
6A
330
2
100
AcDbEntity
  8
GAIKEI
  6
DOTTED
100
AcDbLine
 10
-8.909602146593329
 20
11.05924905077495
 30
0.0
 11
-8.90857600930849
 21
11.00703815255951
 31
0.0
  0
LINE
  5
6B
330
2
100
AcDbEntity
  8
GAIKEI
  6
Continuous
100
AcDbLine
 10
6.918172093364091
 20
12.11369499517889
 30
0.0
 11
-9.418172686690127
 21
12.11369499517889
 31
0.0
  0
LINE
  5
6C
330
2
100
AcDbEntity
  8
GAIKEI
  6
Continuous
100
AcDbLine
 10
11.68907852226834
 20
21.4950524226789
 30
0.0
 11
11.61999970334807
 21
21.69475401957891
 31
0.0
  0
LINE
  5
6D
330
2
100
AcDbEntity
  8
GAIKEI
  6
Continuous
100
AcDbLine
 10
11.35913370662808
 20
15.46177579411892
 30
0.0
 11
11.68907852226834
 21
21.4950524226789
 31
0.0
  0
LINE
  5
6E
330
2
100
AcDbEntity
  8
GAIKEI
  6
Continuous
100
AcDbLine
 10
-14.12000029665171
 20
21.69475401957891
 30
0.0
 11
11.61999970334807
 21
21.69475401957891
 31
0.0
  0
LINE
  5
6F
330
2
100
AcDbEntity
  8
GAIKEI
  6
Continuous
100
AcDbLine
 10
-13.85913429995184
 20
15.46177579411892
 30
0.0
 11
-14.18907911557187
 21
21.4950524226789
 31
0.0
  0
LINE
  5
70
330
2
100
AcDbEntity
  8
GAIKEI
  6
Continuous
100
AcDbLine
 10
-14.18907911557187
 20
21.4950524226789
 30
0.0
 11
-14.12000029665171
 21
21.69475401957891
 31
0.0
  0
LINE
  5
71
330
2
100
AcDbEntity
  8
GAIKEI
  6
Continuous
100
AcDbLine
 10
8.073408378108297
 20
12.30287752835875
 30
0.0
 11
8.094310914468337
 21
12.30216642189885
 31
0.0
  0
LINE
  5
72
330
2
100
AcDbEntity
  8
GAIKEI
  6
Continuous
100
AcDbLine
 10
-10.57340897143194
 20
12.30287752835875
 30
0.0
 11
-10.57320395751173
 21
12.30287752835875
 31
0.0
  0
LINE
  5
73
330
2
100
AcDbEntity
  8
GAIKEI
  6
Continuous
100
AcDbLine
 10
-10.57340897143194
 20
12.30287752835875
 30
0.0
 11
-10.59431150779187
 21
12.30216642189885
 31
0.0
  0
LINE
  5
74
330
2
100
AcDbEntity
  8
GAIKEI
  6
Continuous
100
AcDbLine
 10
6.926885902388335
 20
12.11369499517889
 30
0.0
 11
6.918172093364091
 21
12.11369499517889
 31
0.0
  0
LINE
  5
75
330
2
100
AcDbEntity
  8
GAIKEI
  6
Continuous
100
AcDbLine
 10
-9.418172686690127
 20
12.11369499517889
 30
0.0
 11
-9.410889004511659
 21
12.14448742695867
 31
0.0
  0
LINE
  5
76
330
2
100
AcDbEntity
  8
GAIKEI
  6
Continuous
100
AcDbLine
 10
-9.418172686690127
 20
12.11369499517889
 30
0.0
 11
-9.426886495711642
 21
12.11369499517889
 31
0.0
  0
LINE
  5
77
330
2
100
AcDbEntity
  8
GAIKEI
  6
Continuous
100
AcDbLine
 10
6.918172093364091
 20
12.11369499517889
 30
0.0
 11
6.911860153611087
 21
12.14037929709457
 31
0.0
  0
LINE
  5
78
330
2
100
AcDbEntity
  8
GAIKEI
  6
Continuous
 62
     1
100
AcDbLine
 10
-13.47817484632924
 20
15.49475401959535
 30
0.0
 11
10.95920787060913
 21
15.49475401959535
 31
0.0
  0
LINE
  5
79
330
2
100
AcDbEntity
  8
GAIKEI
  6
Continuous
 62
     1
100
AcDbLine
 10
4.349999731916454
 20
21.79475402020694
 30
0.0
 11
2.349999731916454
 21
21.79475402020694
 31
0.0
  0
LINE
  5
7A
330
2
100
AcDbEntity
  8
GAIKEI
  6
Continuous
 62
     1
100
AcDbLine
 10
-6.850000268083476
 20
21.79475402020694
 30
0.0
 11
-4.850000268083476
 21
21.79475402020694
 31
0.0
  0
LINE
  5
7B
330
2
100
AcDbEntity
  8
GAIKEI
  6
S10
 62
     1
100
AcDbLine
 10
0.2910159185182692
 20
11.61475401957887
 30
0.0
 11
-2.791016774212039
 21
11.61475401957887
 31
0.0
  0
LINE
  5
7C
330
2
100
AcDbEntity
  8
GAIKEI
  6
HIDDEN2
 62
     1
100
AcDbLine
 10
-4.050000427857867
 20
8.026754019578902
 30
0.0
 11
-4.050000427857867
 21
4.226754019578947
 31
0.0
  0
LINE
  5
7D
330
2
100
AcDbEntity
  8
GAIKEI
  6
S10
 62
     1
100
AcDbLine
 10
1.437849605157452
 20
10.546754019578
 30
0.0
 11
-3.93785046085145
 21
10.54675401957865
 31
0.0
  0
LINE
  5
7E
330
2
100
AcDbEntity
  8
GAIKEI
  6
S10
 62
     1
100
AcDbLine
 10
0.609999572142101
 20
10.54675401957888
 30
0.0
 11
0.609999572142101
 21
8.814754019578913
 31
0.0
  0
LINE
  5
7F
330
2
100
AcDbEntity
  8
GAIKEI
  6
S10
 62
     1
100
AcDbLine
 10
-4.050000427857867
 20
8.026754019578902
 30
0.0
 11
-3.550000427857867
 21
8.026754019578902
 31
0.0
  0
LINE
  5
80
330
2
100
AcDbEntity
  8
GAIKEI
  6
HIDDEN2
 62
     1
100
AcDbLine
 10
1.549999572142155
 20
4.226754019578947
 30
0.0
 11
1.549999572142155
 21
8.026754019578902
 31
0.0
  0
LINE
  5
81
330
2
100
AcDbEntity
  8
GAIKEI
  6
S10
 62
     1
100
AcDbLine
 10
-4.050000427857867
 20
4.226754019578947
 30
0.0
 11
1.549999572142155
 21
4.226754019578947
 31
0.0
  0
LINE
  5
82
330
2
100
AcDbEntity
  8
GAIKEI
  6
S10
 62
     1
100
AcDbLine
 10
1.049999572142155
 20
8.026754019578902
 30
0.0
 11
1.049999572142155
 21
8.814754019578913
 31
0.0
  0
LINE
  5
83
330
2
100
AcDbEntity
  8
GAIKEI
  6
S10
 62
     1
100
AcDbLine
 10
1.049999572142155
 20
8.026754019578902
 30
0.0
 11
1.549999572142155
 21
8.026754019578902
 31
0.0
  0
LINE
  5
84
330
2
100
AcDbEntity
  8
GAIKEI
  6
S10
 62
     1
100
AcDbLine
 10
1.049999572142155
 20
8.814754019578913
 30
0.0
 11
-3.550000427857867
 21
8.814754019578913
 31
0.0
  0
LINE
  5
85
330
2
100
AcDbEntity
  8
GAIKEI
  6
S10
 62
     1
100
AcDbLine
 10
-3.550000427857867
 20
8.814754019578913
 30
0.0
 11
-3.550000427857867
 21
8.026754019578902
 31
0.0
  0
LINE
  5
86
330
2
100
AcDbEntity
  8
GAIKEI
  6
S10
 62
     1
100
AcDbLine
 10
-3.550000427857867
 20
8.026754019578902
 30
0.0
 11
1.049999572142155
 21
8.026754019578902
 31
0.0
  0
LINE
  5
87
330
2
100
AcDbEntity
  8
GAIKEI
  6
S10
 62
     1
100
AcDbLine
 10
-3.110000427857698
 20
10.54675401957854
 30
0.0
 11
-3.110000427857698
 21
8.814754019578913
 31
0.0
  0
LINE
  5
88
330
2
100
AcDbEntity
  8
GAIKEI
  6
HIDDEN2
 62
     1
100
AcDbLine
 10
-2.745753231329445
 20
4.195185203308142
 30
0.0
 11
-4.450000428432076
 21
4.195185203308142
 31
0.0
  0
ARC
  5
89
330
2
100
AcDbEntity
  8
GAIKEI
  6
Continuous
100
AcDbCircle
 10
-1.250000428041062
 20
11.15475401008143
 30
0.0
 40
8.0000000000236
100
AcDbArc
 50
181.4325437419177
 51
358.5674562580888
  0
ARC
  5
8A
330
2
100
AcDbEntity
  8
GAIKEI
  6
S10
 62
     1
100
AcDbCircle
 10
-1.25000042725469
 20
11.15475415493608
 30
0.0
 40
7.66
100
AcDbArc
 50
294.6892721031991
 51
358.8950355208836
  0
ARC
  5
8B
330
2
100
AcDbEntity
  8
GAIKEI
  6
S10
 62
     1
100
AcDbCircle
 10
-1.25000042725469
 20
11.15475415493608
 30
0.0
 40
7.66
100
AcDbArc
 50
181.1049645107205
 51
245.307094979617
  0
ARC
  5
8C
330
2
100
AcDbEntity
  8
GAIKEI
  6
Continuous
100
AcDbCircle
 10
-1.250000427857912
 20
11.09475415498514
 30
0.0
 40
8.0000000000002
100
AcDbArc
 50
358.5674562623631
 51
358.5674562624348
  0
ARC
  5
8D
330
2
100
AcDbEntity
  8
GAIKEI
  6
S10
 62
     1
100
AcDbCircle
 10
-1.250000427846885
 20
8.81024539590976
 30
0.0
 40
3.2
100
AcDbArc
 50
359.2212071717445
 51
180.0
  0
ARC
  5
8E
330
2
100
AcDbEntity
  8
GAIKEI
  6
Continuous
100
AcDbCircle
 10
-13.45973110615171
 20
15.48361815627868
 30
0.0
 40
0.4
100
AcDbArc
 50
183.1302448620801
 51
224.0316833636887
  0
ARC
  5
8F
330
2
100
AcDbEntity
  8
GAIKEI
  6
Continuous
100
AcDbCircle
 10
10.95973051284807
 20
15.48361815627868
 30
0.0
 40
0.4000000000002001
100
AcDbArc
 50
315.9683166377277
 51
356.8697551378024
  0
ARC
  5
90
330
2
100
AcDbEntity
  8
GAIKEI
  6
Continuous
100
AcDbCircle
 10
-9.449814840251747
 20
12.15369499517874
 30
0.0
 40
0.0399999999998
100
AcDbArc
 50
251.8862499360206
 51
346.6917886968433
  0
ARC
  5
91
330
2
100
AcDbEntity
  8
GAIKEI
  6
Continuous
100
AcDbCircle
 10
8.094194931928086
 20
12.60215679839871
 30
0.0
 40
0.3000002705
100
AcDbArc
 50
270.0221517445387
 51
297.4570360888598
  0
ARC
  5
92
330
2
100
AcDbEntity
  8
GAIKEI
  6
Continuous
100
AcDbCircle
 10
-10.59419552525173
 20
12.60215679839871
 30
0.0
 40
0.3000002705
100
AcDbArc
 50
242.5429639111503
 51
269.9778482554874
  0
ARC
  5
93
330
2
100
AcDbEntity
  8
GAIKEI
  6
Continuous
100
AcDbCircle
 10
6.949814246928099
 20
12.15369499517874
 30
0.0
 40
0.04
100
AcDbArc
 50
193.3082110698604
 51
288.1137522812669
  0
ARC
  5
94
330
2
100
AcDbEntity
  8
GAIKEI
  6
Continuous
100
AcDbCircle
 10
-13.45920854761175
 20
15.47406279985887
 30
0.0
 40
0.4
100
AcDbArc
 50
183.1302448621976
 51
230.1948474657917
  0
ARC
  5
95
330
2
100
AcDbEntity
  8
GAIKEI
  6
HIDDEN2
 62
     1
100
AcDbCircle
 10
-1.250000427848476
 20
7.270754020759341
 30
0.0
 40
3.42
100
AcDbArc
 50
243.4746480053414
 51
296.5253519946557
  0
SPLINE
  5
96
330
2
100
AcDbEntity
  8
GAIKEI
  6
Continuous
100
AcDbSpline
210
0.0
220
0.0
230
1.0
 70
    24
 71
     3
 72
     9
 73
     5
 74
     3
 42
0.0000000001
 43
0.0000000001
 44
0.00000000001
 40
0.0
 40
0.0
 40
0.0
 40
0.0
 40
0.0383786153985769
 40
0.0767572307971509
 40
0.0767572307971509
 40
0.0767572307971509
 40
0.0767572307971509
 10
11.19404696960816
 20
15.15032884139873
 30
0.0
 10
11.20292459788484
 20
15.15953999143875
 30
0.0
 10
11.2206798544382
 20
15.17796229151889
 30
0.0
 10
11.23843511099166
 20
15.19638459159887
 30
0.0
 10
11.24731273926841
 20
15.20559574163883
 30
0.0
 11
11.19404696960816
 21
15.15032884139873
 31
0.0
 11
11.22067985443823
 21
15.17796229151884
 31
0.0
 11
11.24731273926841
 21
15.20559574163883
 31
0.0
  0
SPLINE
  5
97
330
2
100
AcDbEntity
  8
GAIKEI
  6
Continuous
100
AcDbSpline
210
0.0
220
0.0
230
1.0
 70
    24
 71
     3
 72
     9
 73
     5
 74
     3
 42
0.0000000001
 43
0.0000000001
 44
0.00000000001
 40
0.0
 40
0.0
 40
0.0
 40
0.0
 40
0.0588777801507693
 40
0.1177555603017688
 40
0.1177555603017688
 40
0.1177555603017688
 40
0.1177555603017688
 10
-10.57340866949187
 20
12.30287318109879
 30
0.0
 10
-10.55378884897518
 20
12.30336271392878
 30
0.0
 10
-10.51454920794178
 20
12.30434177958869
 30
0.0
 10
-10.47530956690835
 20
12.30532084524881
 30
0.0
 10
-10.45568974639161
 20
12.30581037807883
 30
0.0
 11
-10.57340866949187
 21
12.30287318109879
 31
0.0
 11
-10.51454920794185
 21
12.30434177958875
 31
0.0
 11
-10.45568974639161
 21
12.30581037807883
 31
0.0
  0
SPLINE
  5
98
330
2
100
AcDbEntity
  8
GAIKEI
  6
Continuous
100
AcDbSpline
210
0.0
220
0.0
230
1.0
 70
    24
 71
     3
 72
     9
 73
     5
 74
     3
 42
0.0000000001
 43
0.0000000001
 44
0.00000000001
 40
0.0
 40
0.0
 40
0.0
 40
0.0
 40
0.4451860965570682
 40
0.8903721931140243
 40
0.8903721931140243
 40
0.8903721931140243
 40
0.8903721931140243
 10
-10.45568974639161
 20
12.30581037807883
 30
0.0
 10
-10.30953034029164
 20
12.28014693099882
 30
0.0
 10
-10.01721152809174
 20
12.22882003683881
 30
0.0
 10
-9.72489271589184
 20
12.17749314267877
 30
0.0
 10
-9.578733309791914
 20
12.15182969559873
 30
0.0
 11
-10.45568974639161
 21
12.30581037807883
 31
0.0
 11
-10.0172115280917
 21
12.22882003683878
 31
0.0
 11
-9.578733309791914
 21
12.15182969559873
 31
0.0
  0
SPLINE
  5
99
330
2
100
AcDbEntity
  8
GAIKEI
  6
Continuous
100
AcDbSpline
210
0.0
220
0.0
230
1.0
 70
    24
 71
     3
 72
     9
 73
     5
 74
     3
 42
0.0000000001
 43
0.0000000001
 44
0.00000000001
 40
0.0
 40
0.0
 40
0.0
 40
0.0
 40
0.1954857106859917
 40
0.3909714213718897
 40
0.3909714213718897
 40
0.3909714213718897
 40
0.3909714213718897
 10
-11.23480575189171
 20
12.65821362315876
 30
0.0
 10
-11.18104503028837
 20
12.6213916393921
 30
0.0
 10
-11.07352358708171
 20
12.54774767185887
 30
0.0
 10
-10.96600214387509
 20
12.4741037043255
 30
0.0
 10
-10.91224142227179
 20
12.43728172055887
 30
0.0
 11
-11.23480575189171
 21
12.65821362315876
 31
0.0
 11
-11.07352358708169
 21
12.54774767185881
 31
0.0
 11
-10.91224142227179
 21
12.43728172055887
 31
0.0
  0
SPLINE
  5
9A
330
2
100
AcDbEntity
  8
GAIKEI
  6
Continuous
100
AcDbSpline
210
0.0
220
0.0
230
1.0
 70
    24
 71
     3
 72
     9
 73
     5
 74
     3
 42
0.0000000001
 43
0.0000000001
 44
0.00000000001
 40
0.0
 40
0.0
 40
0.0
 40
0.0
 40
0.1031629894312783
 40
0.2063259788627548
 40
0.2063259788627548
 40
0.2063259788627548
 40
0.2063259788627548
 10
-10.91224668285167
 20
12.43728526447876
 30
0.0
 10
-10.88229250218839
 20
12.42039566894539
 30
0.0
 10
-10.82238414086176
 20
12.3866164778787
 30
0.0
 10
-10.76247577953508
 20
12.35283728681202
 30
0.0
 10
-10.7325215988717
 20
12.33594769127876
 30
0.0
 11
-10.91224668285167
 21
12.43728526447876
 31
0.0
 11
-10.8223841408618
 21
12.38661647787876
 31
0.0
 11
-10.7325215988717
 21
12.33594769127876
 31
0.0
  0
SPLINE
  5
9B
330
2
100
AcDbEntity
  8
GAIKEI
  6
Continuous
100
AcDbSpline
210
0.0
220
0.0
230
1.0
 70
    24
 71
     3
 72
     9
 73
     5
 74
     3
 42
0.0000000001
 43
0.0000000001
 44
0.00000000001
 40
0.0
 40
0.0
 40
0.0
 40
0.0
 40
0.0588777801507693
 40
0.1177555603017688
 40
0.1177555603017688
 40
0.1177555603017688
 40
0.1177555603017688
 10
-10.57340866949187
 20
12.30287318109879
 30
0.0
 10
-10.55378884897518
 20
12.30336271392878
 30
0.0
 10
-10.51454920794178
 20
12.30434177958869
 30
0.0
 10
-10.47530956690835
 20
12.30532084524881
 30
0.0
 10
-10.45568974639161
 20
12.30581037807883
 30
0.0
 11
-10.57340866949187
 21
12.30287318109879
 31
0.0
 11
-10.51454920794185
 21
12.30434177958875
 31
0.0
 11
-10.45568974639161
 21
12.30581037807883
 31
0.0
  0
SPLINE
  5
9C
330
2
100
AcDbEntity
  8
GAIKEI
  6
Continuous
100
AcDbSpline
210
0.0
220
0.0
230
1.0
 70
    24
 71
     3
 72
     9
 73
     5
 74
     3
 42
0.0000000001
 43
0.0000000001
 44
0.00000000001
 40
0.0
 40
0.0
 40
0.0
 40
0.0
 40
0.4451860965570682
 40
0.8903721931140243
 40
0.8903721931140243
 40
0.8903721931140243
 40
0.8903721931140243
 10
-10.45568974639161
 20
12.30581037807883
 30
0.0
 10
-10.30953034029164
 20
12.28014693099882
 30
0.0
 10
-10.01721152809174
 20
12.22882003683881
 30
0.0
 10
-9.72489271589184
 20
12.17749314267877
 30
0.0
 10
-9.578733309791914
 20
12.15182969559873
 30
0.0
 11
-10.45568974639161
 21
12.30581037807883
 31
0.0
 11
-10.0172115280917
 21
12.22882003683878
 31
0.0
 11
-9.578733309791914
 21
12.15182969559873
 31
0.0
  0
SPLINE
  5
9D
330
2
100
AcDbEntity
  8
GAIKEI
  6
Continuous
100
AcDbSpline
210
0.0
220
0.0
230
1.0
 70
    24
 71
     3
 72
     9
 73
     5
 74
     3
 42
0.0000000001
 43
0.0000000001
 44
0.00000000001
 40
0.0
 40
0.0
 40
0.0
 40
0.0
 40
0.0609817916457927
 40
0.1219635832914355
 40
0.1219635832914355
 40
0.1219635832914355
 40
0.1219635832914355
 10
-9.578733309791914
 20
12.15182969559873
 30
0.0
 10
-9.559319595061836
 20
12.14580430454879
 30
0.0
 10
-9.520492165601716
 20
12.13375352244895
 30
0.0
 10
-9.481664736141702
 20
12.12170274034875
 30
0.0
 10
-9.462251021411702
 20
12.11567734929872
 30
0.0
 11
-9.578733309791914
 21
12.15182969559873
 31
0.0
 11
-9.520492165601694
 21
12.13375352244884
 31
0.0
 11
-9.462251021411702
 21
12.11567734929872
 31
0.0
  0
SPLINE
  5
9E
330
2
100
AcDbEntity
  8
GAIKEI
  6
Continuous
100
AcDbSpline
210
0.0
220
0.0
230
1.0
 70
    24
 71
     3
 72
     9
 73
     5
 74
     3
 42
0.0000000001
 43
0.0000000001
 44
0.00000000001
 40
0.0
 40
0.0
 40
0.0
 40
0.0
 40
0.1031623093529203
 40
0.2063246187056426
 40
0.2063246187056426
 40
0.2063246187056426
 40
0.2063246187056426
 10
8.232521005548051
 20
12.33594769127876
 30
0.0
 10
8.2624749923948
 20
12.35283716899877
 30
0.0
 10
8.322382966088241
 20
12.38661612443872
 30
0.0
 10
8.382290939781654
 20
12.42039507987877
 30
0.0
 10
8.412244926628318
 20
12.43728455759878
 30
0.0
 11
8.232521005548051
 21
12.33594769127876
 31
0.0
 11
8.322382966088298
 21
12.38661612443877
 31
0.0
 11
8.412244926628318
 21
12.43728455759878
 31
0.0
  0
SPLINE
  5
9F
330
2
100
AcDbEntity
  8
GAIKEI
  6
Continuous
100
AcDbSpline
210
0.0
220
0.0
230
1.0
 70
    24
 71
     3
 72
     9
 73
     5
 74
     3
 42
0.0000000001
 43
0.0000000001
 44
0.00000000001
 40
0.0
 40
0.0
 40
0.0
 40
0.0
 40
0.5634078448003176
 40
1.126815689600504
 40
1.126815689600504
 40
1.126815689600504
 40
1.126815689600504
 10
6.962250428088168
 20
12.11567734929872
 30
0.0
 10
7.147443369434839
 20
12.14687665459874
 30
0.0
 10
7.517829252128152
 20
12.20927526519887
 30
0.0
 10
7.888215134821464
 20
12.27167387579885
 30
0.0
 10
8.073408076168107
 20
12.30287318109879
 30
0.0
 11
6.962250428088168
 21
12.11567734929872
 31
0.0
 11
7.517829252128194
 21
12.20927526519881
 31
0.0
 11
8.073408076168107
 21
12.30287318109879
 31
0.0
  0
SPLINE
  5
A0
330
2
100
AcDbEntity
  8
GAIKEI
  6
Continuous
100
AcDbSpline
210
0.0
220
0.0
230
1.0
 70
    24
 71
     3
 72
     9
 73
     5
 74
     3
 42
0.0000000001
 43
0.0000000001
 44
0.00000000001
 40
0.0
 40
0.0
 40
0.0
 40
0.0
 40
1.521537800910617
 40
3.043075601821237
 40
3.043075601821237
 40
3.043075601821237
 40
3.043075601821237
 10
-13.3570731487116
 20
14.83910569173872
 30
0.0
 10
-13.00336191590826
 20
14.47562368030876
 30
0.0
 10
-12.29593945030158
 20
13.74865965744882
 30
0.0
 10
-11.588516984695
 20
13.02169563458878
 30
0.0
 10
-11.23480575189171
 20
12.65821362315876
 30
0.0
 11
-13.3570731487116
 21
14.83910569173872
 31
0.0
 11
-12.2959394503016
 21
13.7486596574488
 31
0.0
 11
-11.23480575189171
 21
12.65821362315876
 31
0.0
  0
SPLINE
  5
A1
330
2
100
AcDbEntity
  8
GAIKEI
  6
Continuous
100
AcDbSpline
210
0.0
220
0.0
230
1.0
 70
    24
 71
     3
 72
     9
 73
     5
 74
     3
 42
0.0000000001
 43
0.0000000001
 44
0.00000000001
 40
0.0
 40
0.0
 40
0.0
 40
0.0
 40
0.2038961362444744
 40
0.4077922724889548
 40
0.4077922724889548
 40
0.4077922724889548
 40
0.4077922724889548
 10
-13.3570731487116
 20
14.83910569173872
 30
0.0
 10
-13.40689148968161
 20
14.88533799225871
 30
0.0
 10
-13.50652817162162
 20
14.97780259329886
 30
0.0
 10
-13.60616485356175
 20
15.07026719433889
 30
0.0
 10
-13.65598319453181
 20
15.11649949485888
 30
0.0
 11
-13.3570731487116
 21
14.83910569173872
 31
0.0
 11
-13.50652817162165
 21
14.97780259329886
 31
0.0
 11
-13.65598319453181
 21
15.11649949485888
 31
0.0
  0
SPLINE
  5
A2
330
2
100
AcDbEntity
  8
GAIKEI
  6
Continuous
100
AcDbSpline
210
0.0
220
0.0
230
1.0
 70
    24
 71
     3
 72
     9
 73
     5
 74
     3
 42
0.0000000001
 43
0.0000000001
 44
0.00000000001
 40
0.0
 40
0.0
 40
0.0
 40
0.0
 40
0.2038993319143699
 40
0.4077986638286624
 40
0.4077986638286624
 40
0.4077986638286624
 40
0.4077986638286624
 10
-13.65598803853163
 20
15.11650367093887
 30
0.0
 10
-13.60616889022829
 20
15.07027067440549
 30
0.0
 10
-13.50653059362165
 20
14.97780468133874
 30
0.0
 10
-13.40689229701495
 20
14.88533868827204
 30
0.0
 10
-13.3570731487116
 20
14.83910569173872
 30
0.0
 11
-13.65598803853163
 21
15.11650367093887
 31
0.0
 11
-13.50653059362162
 21
14.97780468133874
 31
0.0
 11
-13.3570731487116
 21
14.83910569173872
 31
0.0
  0
SPLINE
  5
A3
330
2
100
AcDbEntity
  8
GAIKEI
  6
Continuous
100
AcDbSpline
210
0.0
220
0.0
230
1.0
 70
    24
 71
     3
 72
     9
 73
     5
 74
     3
 42
0.0000000001
 43
0.0000000001
 44
0.00000000001
 40
0.0
 40
0.0
 40
0.0
 40
0.0
 40
0.0388699298451682
 40
0.077739859690423
 40
0.077739859690423
 40
0.077739859690423
 40
0.077739859690423
 10
-13.71528006265191
 20
15.16677241735886
 30
0.0
 10
-13.70539721081192
 20
15.15839364390217
 30
0.0
 10
-13.6856315071319
 20
15.1416360969888
 30
0.0
 10
-13.66586580345183
 20
15.12487855007546
 30
0.0
 10
-13.6559829516118
 20
15.11649977661875
 30
0.0
 11
-13.71528006265191
 21
15.16677241735886
 31
0.0
 11
-13.68563150713191
 21
15.1416360969888
 31
0.0
 11
-13.6559829516118
 21
15.11649977661875
 31
0.0
  0
SPLINE
  5
A4
330
2
100
AcDbEntity
  8
GAIKEI
  6
Continuous
100
AcDbSpline
210
0.0
220
0.0
230
1.0
 70
    24
 71
     3
 72
     9
 73
     5
 74
     3
 42
0.0000000001
 43
0.0000000001
 44
0.00000000001
 40
0.0
 40
0.0
 40
0.0
 40
0.0
 40
1.917445538636731
 40
3.834891077273382
 40
3.834891077273382
 40
3.834891077273382
 40
3.834891077273382
 10
8.412238862728145
 20
12.43728121801882
 30
0.0
 10
8.869530211921528
 20
12.88381838720883
 30
0.0
 10
9.784112910308294
 20
13.77689272558879
 30
0.0
 10
10.69869560869497
 20
14.66996706396878
 30
0.0
 10
11.15598695788833
 20
15.11650423315882
 30
0.0
 11
8.412238862728145
 21
12.43728121801882
 31
0.0
 11
9.784112910308294
 21
13.77689272558882
 31
0.0
 11
11.15598695788833
 21
15.11650423315882
 31
0.0
  0
SPLINE
  5
A5
330
2
100
AcDbEntity
  8
GAIKEI
  6
Continuous
100
AcDbSpline
210
0.0
220
0.0
230
1.0
 70
    24
 71
     3
 72
     9
 73
     5
 74
     3
 42
0.0000000001
 43
0.0000000001
 44
0.00000000001
 40
0.0
 40
0.0
 40
0.0
 40
0.0
 40
0.0085687830722441
 40
0.0171375661444015
 40
0.0171375661444015
 40
0.0171375661444015
 40
0.0171375661444015
 10
11.18561668234815
 20
15.14183744295883
 30
0.0
 10
11.18344148250151
 20
15.13998629934886
 30
0.0
 10
11.17909108280821
 20
15.13628401212884
 30
0.0
 10
11.174740683115
 20
15.13258172490887
 30
0.0
 10
11.17256548326838
 20
15.13073058129885
 30
0.0
 11
11.18561668234815
 21
15.14183744295883
 31
0.0
 11
11.17909108280821
 21
15.13628401212884
 31
0.0
 11
11.17256548326838
 21
15.13073058129885
 31
0.0
  0
SPLINE
  5
A6
330
2
100
AcDbEntity
  8
GAIKEI
  6
Continuous
100
AcDbSpline
210
0.0
220
0.0
230
1.0
 70
    24
 71
     3
 72
     9
 73
     5
 74
     3
 42
0.0000000001
 43
0.0000000001
 44
0.00000000001
 40
0.0
 40
0.0
 40
0.0
 40
0.0
 40
0.0023325489378518
 40
0.0046650978755433
 40
0.0046650978755433
 40
0.0046650978755433
 40
0.0046650978755433
 10
11.17256548326838
 20
15.13073058129885
 30
0.0
 10
11.17197453110836
 20
15.13022530200879
 30
0.0
 10
11.17079262678834
 20
15.12921474342874
 30
0.0
 10
11.16961072246827
 20
15.12820418484873
 30
0.0
 10
11.16901977030829
 20
15.12769890555876
 30
0.0
 11
11.17256548326838
 21
15.13073058129885
 31
0.0
 11
11.17079262678828
 21
15.12921474342874
 31
0.0
 11
11.16901977030829
 21
15.12769890555876
 31
0.0
  0
SPLINE
  5
A7
330
2
100
AcDbEntity
  8
GAIKEI
  6
Continuous
100
AcDbSpline
210
0.0
220
0.0
230
1.0
 70
    24
 71
     3
 72
     9
 73
     5
 74
     3
 42
0.0000000001
 43
0.0000000001
 44
0.00000000001
 40
0.0
 40
0.0
 40
0.0
 40
0.0
 40
0.0085935237341274
 40
0.0171870474680824
 40
0.0171870474680824
 40
0.0171870474680824
 40
0.0171870474680824
 10
11.16901977030829
 20
15.12769890555876
 30
0.0
 10
11.16684686830825
 20
15.12583238406875
 30
0.0
 10
11.16250106430823
 20
15.12209934108878
 30
0.0
 10
11.15815526030833
 20
15.11836629810875
 30
0.0
 10
11.15598235830839
 20
15.11649977661875
 30
0.0
 11
11.16901977030829
 21
15.12769890555876
 31
0.0
 11
11.16250106430823
 21
15.12209934108875
 31
0.0
 11
11.15598235830839
 21
15.11649977661875
 31
0.0
  0
SPLINE
  5
A8
330
2
100
AcDbEntity
  8
GAIKEI
  6
Continuous
100
AcDbSpline
210
0.0
220
0.0
230
1.0
 70
    24
 71
     3
 72
     9
 73
     5
 74
     3
 42
0.0000000001
 43
0.0000000001
 44
0.00000000001
 40
0.0
 40
0.0
 40
0.0
 40
0.0
 40
0.0085935237339549
 40
0.0171870474680824
 40
0.0171870474680824
 40
0.0171870474680824
 40
0.0171870474680824
 10
11.15598235830839
 20
15.11649977661875
 30
0.0
 10
11.15815526030832
 20
15.11836629810875
 30
0.0
 10
11.16250106430823
 20
15.12209934108881
 30
0.0
 10
11.16684686830827
 20
15.12583238406878
 30
0.0
 10
11.16901977030829
 20
15.12769890555876
 30
0.0
 11
11.15598235830839
 21
15.11649977661875
 31
0.0
 11
11.16250106430823
 21
15.12209934108875
 31
0.0
 11
11.16901977030829
 21
15.12769890555876
 31
0.0
  0
SPLINE
  5
A9
330
2
100
AcDbEntity
  8
GAIKEI
  6
Continuous
100
AcDbSpline
210
0.0
220
0.0
230
1.0
 70
    24
 71
     3
 72
     9
 73
     5
 74
     3
 42
0.0000000001
 43
0.0000000001
 44
0.00000000001
 40
0.0
 40
0.0
 40
0.0
 40
0.0
 40
0.0023325489376915
 40
0.0046650978755433
 40
0.0046650978755433
 40
0.0046650978755433
 40
0.0046650978755433
 10
11.16901977030829
 20
15.12769890555876
 30
0.0
 10
11.16961072246829
 20
15.12820418484873
 30
0.0
 10
11.17079262678834
 20
15.1292147434288
 30
0.0
 10
11.17197453110836
 20
15.13022530200882
 30
0.0
 10
11.17256548326838
 20
15.13073058129885
 30
0.0
 11
11.16901977030829
 21
15.12769890555876
 31
0.0
 11
11.17079262678828
 21
15.12921474342874
 31
0.0
 11
11.17256548326838
 21
15.13073058129885
 31
0.0
  0
SPLINE
  5
AA
330
2
100
AcDbEntity
  8
GAIKEI
  6
Continuous
100
AcDbSpline
210
0.0
220
0.0
230
1.0
 70
    24
 71
     3
 72
     9
 73
     5
 74
     3
 42
0.0000000001
 43
0.0000000001
 44
0.00000000001
 40
0.0
 40
0.0
 40
0.0
 40
0.0
 40
0.0085687830720838
 40
0.0171375661444015
 40
0.0171375661444015
 40
0.0171375661444015
 40
0.0171375661444015
 10
11.17256548326838
 20
15.13073058129885
 30
0.0
 10
11.174740683115
 20
15.13258172490884
 30
0.0
 10
11.1790910828083
 20
15.13628401212884
 30
0.0
 10
11.18344148250152
 20
15.1399862993488
 30
0.0
 10
11.18561668234815
 20
15.14183744295883
 30
0.0
 11
11.17256548326838
 21
15.13073058129885
 31
0.0
 11
11.17909108280821
 21
15.13628401212872
 31
0.0
 11
11.18561668234815
 21
15.14183744295883
 31
0.0
  0
SPLINE
  5
AB
330
2
100
AcDbEntity
  8
GAIKEI
  6
Continuous
100
AcDbSpline
210
0.0
220
0.0
230
1.0
 70
    24
 71
     3
 72
     9
 73
     5
 74
     3
 42
0.0000000001
 43
0.0000000001
 44
0.00000000001
 40
0.0
 40
0.0
 40
0.0
 40
0.0
 40
0.0087067894981431
 40
0.0174135789962129
 40
0.0174135789962129
 40
0.0174135789962129
 40
0.0174135789962129
 10
11.18561668234815
 20
15.14183744295883
 30
0.0
 10
11.18783390260817
 20
15.1437101591155
 30
0.0
 10
11.19226834312823
 20
15.14745559142886
 30
0.0
 10
11.1967027836483
 20
15.15120102374211
 30
0.0
 10
11.19892000390837
 20
15.15307373989879
 30
0.0
 11
11.18561668234815
 21
15.14183744295883
 31
0.0
 11
11.19226834312826
 21
15.14745559142886
 31
0.0
 11
11.19892000390837
 21
15.15307373989879
 31
0.0
  0
SPLINE
  5
AC
330
2
100
AcDbEntity
  8
GAIKEI
  6
Continuous
100
AcDbSpline
210
0.0
220
0.0
230
1.0
 70
    24
 71
     3
 72
     9
 73
     5
 74
     3
 42
0.0000000001
 43
0.0000000001
 44
0.00000000001
 40
0.0
 40
0.0
 40
0.0
 40
0.0
 40
0.0106687144606162
 40
0.0213374289214067
 40
0.0213374289214067
 40
0.0213374289214067
 40
0.0213374289214067
 10
11.19892000390837
 20
15.15307373989879
 30
0.0
 10
11.20164658147828
 20
15.15535685280883
 30
0.0
 10
11.20709973661817
 20
15.15992307862893
 30
0.0
 10
11.21255289175815
 20
15.16448930444886
 30
0.0
 10
11.21527946932815
 20
15.16677241735886
 30
0.0
 11
11.19892000390837
 21
15.15307373989879
 31
0.0
 11
11.20709973661814
 21
15.15992307862882
 31
0.0
 11
11.21527946932815
 21
15.16677241735886
 31
0.0
  0
ARC
  5
AD
330
2
100
AcDbEntity
  8
GAIKEI
  6
Continuous
 62
     1
100
AcDbCircle
 10
-11.27005950464786
 20
21.55475402020693
 30
0.0
 40
0.2
100
AcDbArc
 50
44.42700374888188
 51
90.00000000000003
  0
ARC
  5
AE
330
2
100
AcDbEntity
  8
GAIKEI
  6
Continuous
 62
     1
100
AcDbCircle
 10
2.349999731916454
 20
21.59475402020689
 30
0.0
 40
0.2
100
AcDbArc
 50
90.00000000000003
 51
150.0000002077425
  0
ARC
  5
AF
330
2
100
AcDbEntity
  8
GAIKEI
  6
Continuous
 62
     1
100
AcDbCircle
 10
4.349999731916454
 20
21.59475402020689
 30
0.0
 40
0.2
100
AcDbArc
 50
29.99999979225026
 51
90.00000000000003
  0
ARC
  5
B0
330
2
100
AcDbEntity
  8
GAIKEI
  6
Continuous
 62
     1
100
AcDbCircle
 10
-4.850000268083476
 20
21.59475402020689
 30
0.0
 40
0.2
100
AcDbArc
 50
29.99999979225755
 51
90.00000000000003
  0
ARC
  5
B1
330
2
100
AcDbEntity
  8
GAIKEI
  6
Continuous
 62
     1
100
AcDbCircle
 10
-6.850000268083476
 20
21.59475402020689
 30
0.0
 40
0.2
100
AcDbArc
 50
90.00000000000003
 51
150.0000002077425
  0
LINE
  5
B2
330
2
100
AcDbEntity
  8
WAKU
 62
     1
100
AcDbLine
 10
-63.83763774625606
 20
-66.6173006482299
 30
0.0
 11
61.16236225374399
 21
-66.6173006482299
 31
0.0
  0
TEXT
  5
B4
330
2
100
AcDbEntity
  8
MOJI1
100
AcDbText
 10
-61.33763774625606
 20
-70.6173006482299
 30
0.0
 40
3.0
  1
スイッチ機能
100
AcDbText
  0
TEXT
  5
B5
330
2
100
AcDbEntity
  8
MOJI1
100
AcDbText
 10
-21.33763774625606
 20
-70.6173006482299
 30
0.0
 40
3.0
  1
暗部補正（入／切)、簡易昼夜切替（入／切)
100
AcDbText
  0
TEXT
  5
B6
330
2
100
AcDbEntity
  8
MOJI1
100
AcDbText
 10
-21.33763774625606
 20
-60.6173006482299
 30
0.0
 40
3.0
  1
０．９ｌｘ（Ｆ１．４、ＷＩＤＥ端)
100
AcDbText
  0
TEXT
  5
B7
330
2
100
AcDbEntity
  8
MOJI1
100
AcDbText
 10
-21.33763774625606
 20
-65.6173006482299
 30
0.0
 40
3.0
  1
水平：３５．６°～７２．６°垂直：２６．７°～５４°
 41
0.9
100
AcDbText
  0
TEXT
  5
B8
330
2
100
AcDbEntity
  8
MOJI1
100
AcDbText
 10
-21.33763774625606
 20
-55.6173006482299
 30
0.0
 40
3.0
  1
水平：５４０ＴＶ本以上　垂直：３５０ＴＶ本以上
100
AcDbText
  0
TEXT
  5
B9
330
2
100
AcDbEntity
  8
MOJI1
100
AcDbText
 10
-21.33763774625606
 20
-50.6173006482299
 30
0.0
 40
3.0
  1
７６８（Ｈ）×４９４（Ｖ）
100
AcDbText
  0
TEXT
  5
BA
330
2
100
AcDbEntity
  8
MOJI1
100
AcDbText
 10
-61.33763774625606
 20
-65.6173006482299
 30
0.0
 40
3.0
  1
画　角
100
AcDbText
  0
TEXT
  5
BB
330
2
100
AcDbEntity
  8
MOJI1
100
AcDbText
 10
-61.33763774625606
 20
-60.6173006482299
 30
0.0
 40
3.0
  1
最低照度
100
AcDbText
  0
TEXT
  5
BC
330
2
100
AcDbEntity
  8
MOJI1
100
AcDbText
 10
-61.33763774625606
 20
-50.6173006482299
 30
0.0
 40
3.0
  1
有効画素数
100
AcDbText
  0
TEXT
  5
BD
330
2
100
AcDbEntity
  8
MOJI1
100
AcDbText
 10
-61.33763774625606
 20
-55.6173006482299
 30
0.0
 40
3.0
  1
解像度
100
AcDbText
  0
TEXT
  5
BE
330
2
100
AcDbEntity
  8
MOJI1
100
AcDbText
 10
-61.33763774625606
 20
-45.6173006482299
 30
0.0
 40
3.0
  1
撮像素子
100
AcDbText
  0
LINE
  5
BF
330
2
100
AcDbEntity
  8
WAKU
 62
     4
100
AcDbLine
 10
-23.83763774625606
 20
-71.6173006482299
 30
0.0
 11
-23.83763774625606
 21
-31.61730064822987
 31
0.0
  0
LINE
  5
C0
330
2
100
AcDbEntity
  8
WAKU
 62
     4
100
AcDbLine
 10
61.16236225374399
 20
-71.6173006482299
 30
0.0
 11
61.16236225374399
 21
-31.61730064822987
 31
0.0
  0
LINE
  5
C1
330
2
100
AcDbEntity
  8
WAKU
 62
     4
100
AcDbLine
 10
-63.83763774625606
 20
-31.61730064822987
 30
0.0
 11
-63.83763774625606
 21
-71.6173006482299
 31
0.0
  0
LINE
  5
C2
330
2
100
AcDbEntity
  8
WAKU
 62
     4
100
AcDbLine
 10
-63.83763774625606
 20
-71.6173006482299
 30
0.0
 11
61.16236225374399
 21
-71.6173006482299
 31
0.0
  0
LINE
  5
C3
330
2
100
AcDbEntity
  8
WAKU
 62
     1
100
AcDbLine
 10
-63.83763774625606
 20
-61.6173006482299
 30
0.0
 11
61.16236225374399
 21
-61.6173006482299
 31
0.0
  0
LINE
  5
C4
330
2
100
AcDbEntity
  8
WAKU
 62
     1
100
AcDbLine
 10
-63.83763774625606
 20
-56.6173006482299
 30
0.0
 11
61.16236225374399
 21
-56.6173006482299
 31
0.0
  0
LINE
  5
C5
330
2
100
AcDbEntity
  8
WAKU
 62
     1
100
AcDbLine
 10
-63.83763774625606
 20
-51.6173006482299
 30
0.0
 11
61.16236225374399
 21
-51.6173006482299
 31
0.0
  0
TEXT
  5
C6
330
2
100
AcDbEntity
  8
MOJI1
100
AcDbText
 10
-21.33763774625606
 20
-40.6173006482299
 30
0.0
 40
3.0
  1
ＤＣ１２Ｖ（１０．８Ｖ～１６Ｖ）、２２０ｍＡ
100
AcDbText
  0
TEXT
  5
C7
330
2
100
AcDbEntity
  8
MOJI1
100
AcDbText
 10
-21.33763774625606
 20
-35.6173006482299
 30
0.0
 40
3.0
  1
ＡＣ２４Ｖ（１９．５Ｖ～２８Ｖ）　５０Ｈｚ／６０Ｈｚ、２．７Ｗ
 41
0.7
100
AcDbText
  0
LINE
  5
C8
330
2
100
AcDbEntity
  8
WAKU
 62
     1
100
AcDbLine
 10
-63.83763774625606
 20
-46.61730064822996
 30
0.0
 11
61.16236225374399
 21
-46.6173006482299
 31
0.0
  0
LINE
  5
C9
330
2
100
AcDbEntity
  8
WAKU
 62
     4
100
AcDbLine
 10
61.16236225374399
 20
-31.6173006482299
 30
0.0
 11
-63.83763774625606
 21
-31.6173006482299
 31
0.0
  0
LINE
  5
CA
330
2
100
AcDbEntity
  8
WAKU
 62
     1
100
AcDbLine
 10
-63.83763774625606
 20
-41.6173006482299
 30
0.0
 11
61.16236225374399
 21
-41.6173006482299
 31
0.0
  0
LINE
  5
CB
330
2
100
AcDbEntity
  8
WAKU
 62
     1
100
AcDbLine
 10
-63.83763774625606
 20
-36.6173006482299
 30
0.0
 11
61.16236225374399
 21
-36.6173006482299
 31
0.0
  0
TEXT
  5
CC
330
2
100
AcDbEntity
  8
MOJI1
100
AcDbText
 10
-61.33763774625606
 20
-35.6173006482299
 30
0.0
 40
3.0
  1
電源／消費電力
100
AcDbText
  0
TEXT
  5
CD
330
2
100
AcDbEntity
  8
MOJI1
100
AcDbText
 10
-21.33763774625606
 20
-45.6173006482299
 30
0.0
 40
3.0
  1
１／４型　インターライン転送方式ＣＣＤ
100
AcDbText
  0
LINE
  5
CE
330
2
100
AcDbEntity
  8
GAIKEI
  6
Continuous
 62
     1
100
AcDbLine
 10
-2.870000296058265
 20
-2.17431347862157
 30
0.0
 11
-2.870000296058265
 21
-1.023494703131746
 31
0.0
  0
LINE
  5
CF
330
2
100
AcDbEntity
  8
GAIKEI
  6
Continuous
 62
     1
100
AcDbLine
 10
-2.150000296058692
 20
-1.023494703131746
 30
0.0
 11
-2.150000296058692
 21
-2.103897720548161
 31
0.0
  0
LINE
  5
D0
330
2
100
AcDbEntity
  8
GAIKEI
  6
Continuous
 62
     1
100
AcDbLine
 10
-1.150000296058692
 20
-1.023494703131746
 30
0.0
 11
-1.150000296058692
 21
-2.072971838405123
 31
0.0
  0
LINE
  5
D1
330
2
100
AcDbEntity
  8
GAIKEI
  6
Continuous
 62
     1
100
AcDbLine
 10
-2.350000296058738
 20
-1.023494703131746
 30
0.0
 11
-2.350000296058738
 21
-2.119388456671686
 31
0.0
  0
ARC
  5
D2
330
2
100
AcDbEntity
  8
GAIKEI
  6
Continuous
 62
     1
100
AcDbCircle
 10
-2.480000296058733
 20
-1.023494703131746
 30
0.0
 40
0.1299999999998
100
AcDbArc
 50
0.0
 51
180.0
  0
ARC
  5
D3
330
2
100
AcDbEntity
  8
GAIKEI
  6
Continuous
 62
     1
100
AcDbCircle
 10
-1.400000296058692
 20
-1.023494703131746
 30
0.0
 40
0.25
100
AcDbArc
 50
0.0
 51
180.0
  0
CIRCLE
  5
D4
330
2
100
AcDbEntity
  8
GAIKEI
  6
Continuous
 62
     1
100
AcDbCircle
 10
-2.740000296058269
 20
-1.023494703131746
 30
0.0
 40
0.1299999999998
  0
CIRCLE
  5
D5
330
2
100
AcDbEntity
  8
GAIKEI
  6
Continuous
 62
     1
100
AcDbCircle
 10
-1.900000296058692
 20
-1.023494703131746
 30
0.0
 40
0.25
  0
ARC
  5
D6
330
2
100
AcDbEntity
  8
GAIKEI
  6
Continuous
100
AcDbCircle
 10
7.363129614174681
 20
-4.95399624703873
 30
0.0
 40
0.3
100
AcDbArc
 50
188.3682787821471
 51
229.4548140908185
  0
ARC
  5
D7
330
2
100
AcDbEntity
  8
GAIKEI
  6
Continuous
100
AcDbCircle
 10
7.377932182072527
 20
-4.933622260207698
 30
0.0
 40
0.3
100
AcDbArc
 50
107.8710725280494
 51
143.9999999999809
  0
ARC
  5
D8
330
2
100
AcDbEntity
  8
GAIKEI
  6
Continuous
100
AcDbCircle
 10
5.678996493885051
 20
-3.699273230393714
 30
0.0
 40
0.3
100
AcDbArc
 50
323.9999999999809
 51
0.1289274719354593
  0
ARC
  5
D9
330
2
100
AcDbEntity
  8
GAIKEI
  6
Continuous
100
AcDbCircle
 10
5.664193912873543
 20
-3.719647235274351
 30
0.0
 40
0.3
100
AcDbArc
 50
238.5451856132832
 51
323.9999999999809
  0
ARC
  5
DA
330
2
100
AcDbEntity
  8
GAIKEI
  6
Continuous
100
AcDbCircle
 10
7.363129614174681
 20
-4.95399624703873
 30
0.0
 40
0.2999999999998
100
AcDbArc
 50
144.0000000000044
 51
188.3682787821471
  0
CIRCLE
  5
DB
330
2
100
AcDbEntity
  8
GAIKEI
  6
S10
 62
     1
100
AcDbCircle
 10
-1.25000042785507
 20
-15.02258570991637
 30
0.0
 40
1.527350646779599
  0
CIRCLE
  5
DC
330
2
100
AcDbEntity
  8
GAIKEI
  6
S10
 62
     1
100
AcDbCircle
 10
-1.25000042785507
 20
-15.02258570991637
 30
0.0
 40
2.8
  0
CIRCLE
  5
DD
330
2
100
AcDbEntity
  8
GAIKEI
  6
Continuous
100
AcDbCircle
 10
-1.250000296059511
 20
-15.02258571930997
 30
0.0
 40
8.150000001295399
  0
CIRCLE
  5
DE
330
2
100
AcDbEntity
  8
GAIKEI
  6
Continuous
 62
     1
100
AcDbCircle
 10
6.978993202650485
 20
-3.696347961316178
 30
0.0
 40
0.7800000000002001
  0
ARC
  5
DF
330
2
100
AcDbEntity
  8
GAIKEI
  6
Continuous
 62
     1
100
AcDbCircle
 10
6.978993202650485
 20
-3.696347961316178
 30
0.0
 40
0.7000000000000001
100
AcDbArc
 50
270.0
 51
0.0
  0
ARC
  5
E0
330
2
100
AcDbEntity
  8
GAIKEI
  6
Continuous
 62
     1
100
AcDbCircle
 10
6.978993202650485
 20
-3.696347961316178
 30
0.0
 40
0.7000000000000001
100
AcDbArc
 50
90.0
 51
180.0
  0
ARC
  5
E1
330
2
100
AcDbEntity
  8
GAIKEI
  6
Continuous
 62
     1
100
AcDbCircle
 10
6.978993202650485
 20
-3.696347961316178
 30
0.0
 40
0.7000000000000001
100
AcDbArc
 50
180.0
 51
270.0
  0
ARC
  5
E2
330
2
100
AcDbEntity
  8
GAIKEI
  6
Continuous
 62
     1
100
AcDbCircle
 10
6.978993202650485
 20
-3.696347961316178
 30
0.0
 40
0.7000000000000001
100
AcDbArc
 50
0.0
 51
90.0
  0
ARC
  5
E3
330
2
100
AcDbEntity
  8
GAIKEI
  6
Continuous
 62
     1
100
AcDbCircle
 10
-11.45473940755846
 20
-7.049769485737328
 30
0.0
 40
0.2
100
AcDbArc
 50
71.18827407121118
 51
142.0000482488109
  0
ARC
  5
E4
330
2
100
AcDbEntity
  8
GAIKEI
  6
Continuous
 62
     1
100
AcDbCircle
 10
-11.45473940755846
 20
-7.049769485737328
 30
0.0
 40
0.2
100
AcDbArc
 50
142.0000482488109
 51
212.8117253708762
  0
ARC
  5
E5
330
2
100
AcDbEntity
  8
GAIKEI
  6
Continuous
 62
     1
100
AcDbCircle
 10
-1.250000296059511
 20
-15.02258571930997
 30
0.0
 40
12.600000000592
100
AcDbArc
 50
148.6356858493959
 51
151.3643141505986
  0
ARC
  5
E6
330
2
100
AcDbEntity
  8
GAIKEI
  6
Continuous
 62
     1
100
AcDbCircle
 10
-1.250000296059511
 20
-15.02258571930997
 30
0.0
 40
12.6000000005918
100
AcDbArc
 50
151.3643141505986
 51
53.99999969210441
  0
ARC
  5
E7
330
2
100
AcDbEntity
  8
GAIKEI
  6
Continuous
 62
     1
100
AcDbCircle
 10
-1.250000296059511
 20
-15.02258571930997
 30
0.0
 40
12.6000000005918
100
AcDbArc
 50
53.99999969210441
 51
148.6356858493959
  0
ARC
  5
E8
330
2
100
AcDbEntity
  8
GAIKEI
  6
Continuous
100
AcDbCircle
 10
6.978993202650485
 20
-3.696347961316178
 30
0.0
 40
1.0
100
AcDbArc
 50
90.0
 51
144.0000000000044
  0
ARC
  5
E9
330
2
100
AcDbEntity
  8
GAIKEI
  6
Continuous
100
AcDbCircle
 10
6.978993202650485
 20
-3.696347961316178
 30
0.0
 40
1.0
100
AcDbArc
 50
17.68743440888544
 51
90.0
  0
ARC
  5
EA
330
2
100
AcDbEntity
  8
GAIKEI
  6
Continuous
100
AcDbCircle
 10
6.978993202650485
 20
-3.696347961316178
 30
0.0
 40
1.0
100
AcDbArc
 50
322.3985309389183
 51
323.9999999999954
  0
ARC
  5
EB
330
2
100
AcDbEntity
  8
GAIKEI
  6
Continuous
100
AcDbCircle
 10
6.978993202650485
 20
-3.696347961316178
 30
0.0
 40
1.0
100
AcDbArc
 50
287.8710725280659
 51
323.9999999999954
  0
ARC
  5
EC
330
2
100
AcDbEntity
  8
GAIKEI
  6
Continuous
100
AcDbCircle
 10
6.978993202650485
 20
-3.696347961316178
 30
0.0
 40
1.0
100
AcDbArc
 50
144.0000000000044
 51
180.1289274719485
  0
ARC
  5
ED
330
2
100
AcDbEntity
  8
GAIKEI
  6
Continuous
100
AcDbCircle
 10
6.978993202650485
 20
-3.696347961316178
 30
0.0
 40
1.0000000000002
100
AcDbArc
 50
323.9999999999954
 51
340.4275227384197
  0
ARC
  5
EE
330
2
100
AcDbEntity
  8
GAIKEI
  6
Continuous
100
AcDbCircle
 10
6.978993202650485
 20
-3.696347961316178
 30
0.0
 40
1.0
100
AcDbArc
 50
340.4275227384197
 51
17.68743440888544
  0
ARC
  5
EF
330
2
100
AcDbEntity
  8
GAIKEI
  6
Continuous
100
AcDbCircle
 10
-1.250000268085045
 20
-15.02258573187657
 30
0.0
 40
12.9499999993976
100
AcDbArc
 50
82.42879341595147
 51
73.5712065836026
  0
ARC
  5
F0
330
2
100
AcDbEntity
  8
GAIKEI
  6
Continuous
100
AcDbCircle
 10
-1.250000268085045
 20
-15.02258573187657
 30
0.0
 40
12.9499999993976
100
AcDbArc
 50
73.5712065836026
 51
82.42879341595147
  0
ARC
  5
F1
330
2
100
AcDbEntity
  8
GAIKEI
  6
Continuous
100
AcDbCircle
 10
-1.250000268085045
 20
-15.02258573187657
 30
0.0
 40
12.9499999993976
100
AcDbArc
 50
73.5712065836026
 51
82.42879341595147
  0
ARC
  5
F2
330
2
100
AcDbEntity
  8
GAIKEI
  6
DOTTED
 62
     1
100
AcDbCircle
 10
2.57499957125276
 20
-8.397491528053592
 30
0.0
 40
0.1
100
AcDbArc
 50
359.6762153610744
 51
120.3237846388727
  0
ARC
  5
F3
330
2
100
AcDbEntity
  8
GAIKEI
  6
DOTTED
 62
     1
100
AcDbCircle
 10
2.574999571252874
 20
-21.64768020283634
 30
0.0
 40
0.1
100
AcDbArc
 50
239.6762153613154
 51
0.3237846387562099
  0
ARC
  5
F4
330
2
100
AcDbEntity
  8
GAIKEI
  6
DOTTED
 62
     1
100
AcDbCircle
 10
-8.900000426046062
 20
-15.02258586544497
 30
0.0
 40
0.0999999999998
100
AcDbArc
 50
119.6762153612316
 51
240.3237846388209
  0
ARC
  5
F5
330
2
100
AcDbEntity
  8
GAIKEI
  6
S10
 62
     1
100
AcDbCircle
 10
-1.250000427846657
 20
-15.02258586544474
 30
0.0
 40
7.699999998199399
100
AcDbArc
 50
294.5561253127748
 51
245.4438746775319
  0
ARC
  5
F6
330
2
100
AcDbEntity
  8
GAIKEI
  6
DOTTED
 62
     1
100
AcDbCircle
 10
-1.250000427846657
 20
-15.02258586544474
 30
0.0
 40
7.4999999981998
100
AcDbArc
 50
244.7437963220011
 51
295.2562036679914
  0
ARC
  5
F7
330
2
100
AcDbEntity
  8
GAIKEI
  6
DOTTED
 62
     1
100
AcDbCircle
 10
-1.250000427846657
 20
-15.02258586544474
 30
0.0
 40
7.6999999981996
100
AcDbArc
 50
269.9999999999968
 51
294.5561253127748
  0
ARC
  5
F8
330
2
100
AcDbEntity
  8
GAIKEI
  6
DOTTED
 62
     1
100
AcDbCircle
 10
-1.250000427846657
 20
-15.02258586544474
 30
0.0
 40
7.6999999981998
100
AcDbArc
 50
245.4438746775319
 51
269.9999999999968
  0
ARC
  5
F9
330
2
100
AcDbEntity
  8
GAIKEI
  6
S10
 62
     1
100
AcDbCircle
 10
-1.250000427846657
 20
-15.02258586544474
 30
0.0
 40
3.1999999999998
100
AcDbArc
 50
359.9999999999935
 51
180.0000000000065
  0
LINE
  5
FA
330
2
100
AcDbEntity
  8
GAIKEI
  6
Continuous
 62
     1
100
AcDbLine
 10
6.618993202650358
 20
-3.596347961316155
 30
0.0
 11
6.618993202650358
 21
-3.796347961316087
 31
0.0
  0
LINE
  5
FB
330
2
100
AcDbEntity
  8
GAIKEI
  6
Continuous
 62
     1
100
AcDbLine
 10
6.618993202650358
 20
-3.796347961316087
 30
0.0
 11
6.878993202650462
 21
-3.796347961316087
 31
0.0
  0
LINE
  5
FC
330
2
100
AcDbEntity
  8
GAIKEI
  6
Continuous
 62
     1
100
AcDbLine
 10
6.878993202650462
 20
-3.796347961316087
 30
0.0
 11
6.878993202650462
 21
-4.056347961316191
 31
0.0
  0
LINE
  5
FD
330
2
100
AcDbEntity
  8
GAIKEI
  6
Continuous
 62
     1
100
AcDbLine
 10
6.878993202650462
 20
-4.056347961316191
 30
0.0
 11
7.078993202650508
 21
-4.056347961316191
 31
0.0
  0
LINE
  5
FE
330
2
100
AcDbEntity
  8
GAIKEI
  6
Continuous
 62
     1
100
AcDbLine
 10
7.078993202650508
 20
-4.056347961316191
 30
0.0
 11
7.078993202650508
 21
-3.796347961316087
 31
0.0
  0
LINE
  5
FF
330
2
100
AcDbEntity
  8
GAIKEI
  6
Continuous
 62
     1
100
AcDbLine
 10
7.078993202650508
 20
-3.796347961316087
 30
0.0
 11
7.338993202650499
 21
-3.796347961316087
 31
0.0
  0
LINE
  5
100
330
2
100
AcDbEntity
  8
GAIKEI
  6
Continuous
 62
     1
100
AcDbLine
 10
7.338993202650499
 20
-3.796347961316087
 30
0.0
 11
7.338993202650499
 21
-3.596347961316155
 31
0.0
  0
LINE
  5
101
330
2
100
AcDbEntity
  8
GAIKEI
  6
Continuous
 62
     1
100
AcDbLine
 10
7.338993202650499
 20
-3.596347961316155
 30
0.0
 11
7.078993202650508
 21
-3.596347961316155
 31
0.0
  0
LINE
  5
102
330
2
100
AcDbEntity
  8
GAIKEI
  6
Continuous
 62
     1
100
AcDbLine
 10
7.078993202650508
 20
-3.596347961316155
 30
0.0
 11
7.078993202650508
 21
-3.336347961316164
 31
0.0
  0
LINE
  5
103
330
2
100
AcDbEntity
  8
GAIKEI
  6
Continuous
 62
     1
100
AcDbLine
 10
7.078993202650508
 20
-3.336347961316164
 30
0.0
 11
6.878993202650462
 21
-3.336347961316164
 31
0.0
  0
LINE
  5
104
330
2
100
AcDbEntity
  8
GAIKEI
  6
Continuous
 62
     1
100
AcDbLine
 10
6.878993202650462
 20
-3.336347961316164
 30
0.0
 11
6.878993202650462
 21
-3.596347961316155
 31
0.0
  0
LINE
  5
105
330
2
100
AcDbEntity
  8
GAIKEI
  6
Continuous
 62
     1
100
AcDbLine
 10
6.878993202650462
 20
-3.596347961316155
 30
0.0
 11
6.618993202650358
 21
-3.596347961316155
 31
0.0
  0
LINE
  5
106
330
2
100
AcDbEntity
  8
GAIKEI
  6
Continuous
 62
     1
100
AcDbLine
 10
-11.58411570695614
 20
-7.21819222049578
 30
0.0
 11
-11.62283055301827
 21
-7.158145529298735
 31
0.0
  0
LINE
  5
107
330
2
100
AcDbEntity
  8
GAIKEI
  6
Continuous
 62
     1
100
AcDbLine
 10
-11.39024752235991
 20
-6.860452828404731
 30
0.0
 11
-11.32261850177326
 21
-6.883491070750892
 31
0.0
  0
LINE
  5
108
330
2
100
AcDbEntity
  8
GAIKEI
  6
Continuous
100
AcDbLine
 10
7.120424515862282
 20
-4.7776606713511
 30
0.0
 11
7.135227083760128
 21
-4.757286684519954
 31
0.0
  0
LINE
  5
109
330
2
100
AcDbEntity
  8
GAIKEI
  6
Continuous
100
AcDbLine
 10
5.906899011185942
 20
-3.895982810962095
 30
0.0
 11
5.92170159219745
 21
-3.875608806081572
 31
0.0
  0
LINE
  5
10A
330
2
100
AcDbEntity
  8
GAIKEI
  6
S10
 62
     1
100
AcDbLine
 10
1.949999572146111
 20
-22.0261563814255
 30
0.0
 11
1.949999572146111
 21
-15.02258586544497
 31
0.0
  0
LINE
  5
10B
330
2
100
AcDbEntity
  8
GAIKEI
  6
S10
 62
     1
100
AcDbLine
 10
-4.450000429024271
 20
-22.0261563808848
 30
0.0
 11
-4.450000429024271
 21
-15.02258586544497
 31
0.0
  0
ENDSEC
  0
SECTION
  2
OBJECTS
  0
DICTIONARY
  5
9
330
0
100
AcDbDictionary
281
     1
  3
ACAD_COLOR
350
31
  3
ACAD_GROUP
350
2D
  3
ACAD_LAYOUT
350
D
  3
ACAD_MATERIAL
350
30
  3
ACAD_MLINESTYLE
350
2E
  3
ACAD_PLOTSETTINGS
350
2F
  3
ACAD_PLOTSTYLENAME
350
8
  3
ACDBHEADERROUNDTRIPXREC
350
13C
  3
AcDbVariableDictionary
350
137
  0
DICTIONARY
  5
15
330
14
100
AcDbDictionary
280
     1
281
     1
  3
ACAD_LAYERFILTERS
360
16
  3
ACAD_LAYERSTATES
360
17
  0
DICTIONARY
  5
3
330
2
100
AcDbDictionary
280
     1
281
     1
  3
ACAD_LAYOUTSELFREF
360
4
  0
DICTIONARY
  5
F
330
E
100
AcDbDictionary
280
     1
281
     1
  3
ACAD_LAYOUTSELFREF
360
10
  0
DICTIONARY
  5
31
102
{ACAD_REACTORS
330
9
102
}
330
9
100
AcDbDictionary
281
     1
  0
DICTIONARY
  5
2D
102
{ACAD_REACTORS
330
9
102
}
330
9
100
AcDbDictionary
281
     1
  0
DICTIONARY
  5
D
102
{ACAD_REACTORS
330
9
102
}
330
9
100
AcDbDictionary
281
     1
  3
Model
350
C
  3
ﾚｲｱｳﾄ1
350
13
  0
DICTIONARY
  5
30
102
{ACAD_REACTORS
330
9
102
}
330
9
100
AcDbDictionary
281
     1
  0
DICTIONARY
  5
2E
102
{ACAD_REACTORS
330
9
102
}
330
9
100
AcDbDictionary
281
     1
  3
STANDARD
350
33
  0
DICTIONARY
  5
2F
102
{ACAD_REACTORS
330
9
102
}
330
9
100
AcDbDictionary
281
     1
  0
ACDBDICTIONARYWDFLT
  5
8
102
{ACAD_REACTORS
330
9
102
}
330
9
100
AcDbDictionary
281
     1
  3
Normal
350
7
100
AcDbDictionaryWithDefault
340
7
  0
DICTIONARY
  5
13C
102
{ACAD_REACTORS
330
9
102
}
330
9
100
AcDbDictionary
281
     1
  3
COLORDICT
350
13E
  3
MATERIALDICT
350
13D
  0
DICTIONARY
  5
137
102
{ACAD_REACTORS
330
9
102
}
330
9
100
AcDbDictionary
281
     1
  3
DIMASSOC
350
139
  3
HIDETEXT
350
138
  3
PROJECTNAME
350
13A
  0
DICTIONARY
  5
16
102
{ACAD_REACTORS
330
15
102
}
330
15
100
AcDbDictionary
280
     1
281
     1
  0
DICTIONARY
  5
17
102
{ACAD_REACTORS
330
15
102
}
330
15
100
AcDbDictionary
281
     1
  0
XRECORD
  5
4
102
{ACAD_REACTORS
330
3
102
}
330
3
100
AcDbXrecord
280
     1
340
2
  0
XRECORD
  5
10
102
{ACAD_REACTORS
330
F
102
}
330
F
100
AcDbXrecord
280
     1
340
E
  0
LAYOUT
  5
C
102
{ACAD_XDICTIONARY
360
13F
102
}
102
{ACAD_REACTORS
330
D
102
}
330
D
100
AcDbPlotSettings
  1

  2
FX78BC34-A4縦.pc3
  4
A4
  6

 40
4.900083065032958
 41
4.900057315826416
 42
4.90008544921875
 43
4.90008544921875
 44
210.0156707763672
 45
297.0106506347656
 46
5.639999999999999
 47
0.0
 48
0.0
 49
0.0
140
0.0
141
0.0
142
1.0
143
1.373079548745834
 70
 11956
 72
     1
 73
     0
 74
     1
  7
tmsacad.ctb
 75
     0
147
0.7282899238528432
148
0.6245631121673796
149
0.0529999051623236
100
AcDbLayout
  1
Model
 70
     1
 71
     0
 10
0.0
 20
0.0
 11
12.0
 21
9.0
 12
0.0
 22
0.0
 32
0.0
 14
0.0
 24
0.0
 34
0.0
 15
0.0
 25
0.0
 35
0.0
146
0.0
 13
0.0
 23
0.0
 33
0.0
 16
1.0
 26
0.0
 36
0.0
 17
0.0
 27
1.0
 37
0.0
 76
     0
330
2
  0
LAYOUT
  5
13
102
{ACAD_XDICTIONARY
360
141
102
}
102
{ACAD_REACTORS
330
D
102
}
330
D
100
AcDbPlotSettings
  1

  2
C:\Program Files\ACAD2000\plotters\DWF ePlot.pc3
  4

  6

 40
0.0
 41
0.0
 42
0.0
 43
0.0
 44
0.0
 45
0.0
 46
0.0
 47
0.0
 48
0.0
 49
0.0
140
0.0
141
0.0
142
1.0
143
1.0
 70
   688
 72
     0
 73
     0
 74
     5
  7
tmsacad.ctb
 75
    16
147
1.0
148
0.0
149
0.0
100
AcDbLayout
  1
ﾚｲｱｳﾄ1
 70
     1
 71
     1
 10
0.0
 20
0.0
 11
12.0
 21
9.0
 12
0.0
 22
0.0
 32
0.0
 14
1.000000000000000E+20
 24
1.000000000000000E+20
 34
1.000000000000000E+20
 15
-1.000000000000000E+20
 25
-1.000000000000000E+20
 35
-1.000000000000000E+20
146
0.0
 13
0.0
 23
0.0
 33
0.0
 16
1.0
 26
0.0
 36
0.0
 17
0.0
 27
1.0
 37
0.0
 76
     0
330
E
  0
MLINESTYLE
  5
33
102
{ACAD_REACTORS
330
2E
102
}
330
2E
100
AcDbMlineStyle
  2
STANDARD
 70
     0
  3

 62
   256
 51
90.0
 52
90.0
 71
     2
 49
0.5
 62
   256
  6
BYLAYER
 49
-0.5
 62
   256
  6
BYLAYER
  0
ACDBPLACEHOLDER
  5
7
102
{ACAD_REACTORS
330
8
102
}
330
8
  0
XRECORD
  5
13E
102
{ACAD_REACTORS
330
13C
102
}
330
13C
100
AcDbXrecord
280
     1
340
31
  0
XRECORD
  5
13D
102
{ACAD_REACTORS
330
13C
102
}
330
13C
100
AcDbXrecord
280
     1
340
30
  0
DICTIONARYVAR
  5
139
102
{ACAD_REACTORS
330
137
102
}
330
137
100
DictionaryVariables
280
     0
  1
1
  0
DICTIONARYVAR
  5
138
102
{ACAD_REACTORS
330
137
102
}
330
137
100
DictionaryVariables
280
     0
  1
1
  0
DICTIONARYVAR
  5
13A
102
{ACAD_REACTORS
330
137
102
}
330
137
100
DictionaryVariables
280
     0
  1

  0
DICTIONARY
  5
13F
330
C
100
AcDbDictionary
280
     1
281
     1
  3
ACAD_XREC_ROUNDTRIP
360
140
  0
DICTIONARY
  5
141
330
13
100
AcDbDictionary
280
     1
281
     1
  3
ACAD_XREC_ROUNDTRIP
360
142
  0
XRECORD
  5
140
102
{ACAD_REACTORS
330
13F
102
}
330
13F
100
AcDbXrecord
280
     1
102
SHADEPLOT
 70
     0
102
SHADEPLOTRESLEVEL
 70
     2
102
SHADEPLOTCUSTOMDPI
 70
   300
  0
XRECORD
  5
142
102
{ACAD_REACTORS
330
141
102
}
330
141
100
AcDbXrecord
280
     1
102
SHADEPLOT
 70
     0
102
SHADEPLOTRESLEVEL
 70
     2
102
SHADEPLOTCUSTOMDPI
 70
   300
  0
ENDSEC
  0
EOF
