  0
SECTION
  2
HEADER
  9
$ACADVER
  1
AC1015
  9
$ACADMAINTVER
 70
    20
  9
$DWGCODEPAGE
  3
ANSI_932
  9
$INSBASE
 10
129.499999944041
 20
372.5008351249344
 30
0.0
  9
$EXTMIN
 10
-62.30529694620668
 20
-39.09635860693686
 30
-0.0015258207003583
  9
$EXTMAX
 10
62.69622858927618
 20
73.92823834685635
 30
0.0000000349246037
  9
$LIMMIN
 10
0.0
 20
0.0
  9
$LIMMAX
 10
420.0
 20
297.0
  9
$ORTHOMODE
 70
     1
  9
$REGENMODE
 70
     0
  9
$FILLMODE
 70
     1
  9
$QTEXTMODE
 70
     0
  9
$MIRRTEXT
 70
     0
  9
$LTSCALE
 40
1.0
  9
$ATTMODE
 70
     1
  9
$TEXTSIZE
 40
2.5
  9
$TRACEWID
 40
1.0
  9
$TEXTSTYLE
  7
Standard
  9
$CLAYER
  8
GAIKEI
  9
$CELTYPE
  6
ByLayer
  9
$CECOLOR
 62
   256
  9
$CELTSCALE
 40
1.0
  9
$DISPSILH
 70
     0
  9
$DIMSCALE
 40
1.0
  9
$DIMASZ
 40
2.0
  9
$DIMEXO
 40
2.0
  9
$DIMDLI
 40
8.0
  9
$DIMRND
 40
0.0
  9
$DIMDLE
 40
0.0
  9
$DIMEXE
 40
2.0
  9
$DIMTP
 40
0.0
  9
$DIMTM
 40
0.0
  9
$DIMTXT
 40
2.5
  9
$DIMCEN
 40
0.0
  9
$DIMTSZ
 40
0.0
  9
$DIMTOL
 70
     0
  9
$DIMLIM
 70
     0
  9
$DIMTIH
 70
     0
  9
$DIMTOH
 70
     0
  9
$DIMSE1
 70
     0
  9
$DIMSE2
 70
     0
  9
$DIMTAD
 70
     3
  9
$DIMZIN
 70
     0
  9
$DIMBLK
  1

  9
$DIMASO
 70
     1
  9
$DIMSHO
 70
     1
  9
$DIMPOST
  1

  9
$DIMAPOST
  1

  9
$DIMALT
 70
     0
  9
$DIMALTD
 70
     2
  9
$DIMALTF
 40
25.4
  9
$DIMLFAC
 40
1.0
  9
$DIMTOFL
 70
     1
  9
$DIMTVP
 40
0.0
  9
$DIMTIX
 70
     0
  9
$DIMSOXD
 70
     0
  9
$DIMSAH
 70
     1
  9
$DIMBLK1
  1
OPEN30
  9
$DIMBLK2
  1
OPEN30
  9
$DIMSTYLE
  2
STANDARD
  9
$DIMCLRD
 70
     0
  9
$DIMCLRE
 70
     0
  9
$DIMCLRT
 70
     0
  9
$DIMTFAC
 40
1.0
  9
$DIMGAP
 40
0.5
  9
$DIMJUST
 70
     0
  9
$DIMSD1
 70
     0
  9
$DIMSD2
 70
     0
  9
$DIMTOLJ
 70
     1
  9
$DIMTZIN
 70
     0
  9
$DIMALTZ
 70
     0
  9
$DIMALTTZ
 70
     0
  9
$DIMUPT
 70
     0
  9
$DIMDEC
 70
     4
  9
$DIMTDEC
 70
     4
  9
$DIMALTU
 70
     2
  9
$DIMALTTD
 70
     2
  9
$DIMTXSTY
  7
Standard
  9
$DIMAUNIT
 70
     0
  9
$DIMADEC
 70
     0
  9
$DIMALTRND
 40
0.0
  9
$DIMAZIN
 70
     0
  9
$DIMDSEP
 70
    46
  9
$DIMATFIT
 70
     3
  9
$DIMFRAC
 70
     0
  9
$DIMLDRBLK
  1
OPEN30
  9
$DIMLUNIT
 70
     2
  9
$DIMLWD
 70
    -2
  9
$DIMLWE
 70
    -2
  9
$DIMTMOVE
 70
     0
  9
$LUNITS
 70
     2
  9
$LUPREC
 70
     4
  9
$SKETCHINC
 40
1.0
  9
$FILLETRAD
 40
0.0
  9
$AUNITS
 70
     0
  9
$AUPREC
 70
     0
  9
$MENU
  1
.
  9
$ELEVATION
 40
0.0
  9
$PELEVATION
 40
0.0
  9
$THICKNESS
 40
0.0
  9
$LIMCHECK
 70
     0
  9
$CHAMFERA
 40
0.0
  9
$CHAMFERB
 40
0.0
  9
$CHAMFERC
 40
0.0
  9
$CHAMFERD
 40
0.0
  9
$SKPOLY
 70
     0
  9
$TDCREATE
 40
2454349.434269746
  9
$TDUCREATE
 40
2454349.059269746
  9
$TDUPDATE
 40
2454614.593338577
  9
$TDUUPDATE
 40
2454614.218338577
  9
$TDINDWG
 40
0.4615743056
  9
$TDUSRTIMER
 40
0.4615743056
  9
$USRTIMER
 70
     1
  9
$ANGBASE
 50
0.0
  9
$ANGDIR
 70
     0
  9
$PDMODE
 70
     0
  9
$PDSIZE
 40
0.0
  9
$PLINEWID
 40
0.0
  9
$SPLFRAME
 70
     0
  9
$SPLINETYPE
 70
     6
  9
$SPLINESEGS
 70
     8
  9
$HANDSEED
  5
1CC
  9
$SURFTAB1
 70
     6
  9
$SURFTAB2
 70
     6
  9
$SURFTYPE
 70
     6
  9
$SURFU
 70
     6
  9
$SURFV
 70
     6
  9
$UCSBASE
  2

  9
$UCSNAME
  2

  9
$UCSORG
 10
0.0
 20
0.0
 30
0.0
  9
$UCSXDIR
 10
1.0
 20
0.0
 30
0.0
  9
$UCSYDIR
 10
0.0
 20
1.0
 30
0.0
  9
$UCSORTHOREF
  2

  9
$UCSORTHOVIEW
 70
     0
  9
$UCSORGTOP
 10
0.0
 20
0.0
 30
0.0
  9
$UCSORGBOTTOM
 10
0.0
 20
0.0
 30
0.0
  9
$UCSORGLEFT
 10
0.0
 20
0.0
 30
0.0
  9
$UCSORGRIGHT
 10
0.0
 20
0.0
 30
0.0
  9
$UCSORGFRONT
 10
0.0
 20
0.0
 30
0.0
  9
$UCSORGBACK
 10
0.0
 20
0.0
 30
0.0
  9
$PUCSBASE
  2

  9
$PUCSNAME
  2

  9
$PUCSORG
 10
0.0
 20
0.0
 30
0.0
  9
$PUCSXDIR
 10
1.0
 20
0.0
 30
0.0
  9
$PUCSYDIR
 10
0.0
 20
1.0
 30
0.0
  9
$PUCSORTHOREF
  2

  9
$PUCSORTHOVIEW
 70
     0
  9
$PUCSORGTOP
 10
0.0
 20
0.0
 30
0.0
  9
$PUCSORGBOTTOM
 10
0.0
 20
0.0
 30
0.0
  9
$PUCSORGLEFT
 10
0.0
 20
0.0
 30
0.0
  9
$PUCSORGRIGHT
 10
0.0
 20
0.0
 30
0.0
  9
$PUCSORGFRONT
 10
0.0
 20
0.0
 30
0.0
  9
$PUCSORGBACK
 10
0.0
 20
0.0
 30
0.0
  9
$USERI1
 70
     0
  9
$USERI2
 70
     0
  9
$USERI3
 70
     0
  9
$USERI4
 70
     0
  9
$USERI5
 70
     0
  9
$USERR1
 40
0.0
  9
$USERR2
 40
0.0
  9
$USERR3
 40
0.0
  9
$USERR4
 40
0.0
  9
$USERR5
 40
0.0
  9
$WORLDVIEW
 70
     1
  9
$SHADEDGE
 70
     3
  9
$SHADEDIF
 70
    70
  9
$TILEMODE
 70
     1
  9
$MAXACTVP
 70
    64
  9
$PINSBASE
 10
0.0
 20
0.0
 30
0.0
  9
$PLIMCHECK
 70
     0
  9
$PEXTMIN
 10
0.0
 20
0.0
 30
0.0
  9
$PEXTMAX
 10
0.0
 20
0.0
 30
0.0
  9
$PLIMMIN
 10
0.0
 20
0.0
  9
$PLIMMAX
 10
12.0
 20
9.0
  9
$UNITMODE
 70
     0
  9
$VISRETAIN
 70
     1
  9
$PLINEGEN
 70
     0
  9
$PSLTSCALE
 70
     1
  9
$TREEDEPTH
 70
  3020
  9
$CMLSTYLE
  2
Standard
  9
$CMLJUST
 70
     0
  9
$CMLSCALE
 40
20.0
  9
$PROXYGRAPHICS
 70
     1
  9
$MEASUREMENT
 70
     1
  9
$CELWEIGHT
370
    -1
  9
$ENDCAPS
280
     0
  9
$JOINSTYLE
280
     0
  9
$LWDISPLAY
290
     0
  9
$INSUNITS
 70
     4
  9
$HYPERLINKBASE
  1

  9
$STYLESHEET
  1

  9
$XEDIT
290
     1
  9
$CEPSNTYPE
380
     0
  9
$PSTYLEMODE
290
     1
  9
$FINGERPRINTGUID
  2
{FDEAD578-A652-11D2-9A35-0060089B3A3F}
  9
$VERSIONGUID
  2
{898C7A4E-F3D9-4574-B0F3-8990F1183AC6}
  9
$EXTNAMES
290
     1
  9
$PSVPSCALE
 40
0.0
  9
$OLESTARTUP
290
     0
  0
ENDSEC
  0
SECTION
  2
CLASSES
  0
CLASS
  1
ACDBDICTIONARYWDFLT
  2
AcDbDictionaryWithDefault
  3
ObjectDBX Classes
 90
        0
280
     0
281
     0
  0
CLASS
  1
ACDBPLACEHOLDER
  2
AcDbPlaceHolder
  3
ObjectDBX Classes
 90
        0
280
     0
281
     0
  0
CLASS
  1
LAYOUT
  2
AcDbLayout
  3
ObjectDBX Classes
 90
        0
280
     0
281
     0
  0
CLASS
  1
DICTIONARYVAR
  2
AcDbDictionaryVar
  3
ObjectDBX Classes
 90
        0
280
     0
281
     0
  0
ENDSEC
  0
SECTION
  2
TABLES
  0
TABLE
  2
VPORT
  5
1B
330
0
100
AcDbSymbolTable
 70
     3
  0
VPORT
  5
1C4
330
1B
100
AcDbSymbolTableRecord
100
AcDbViewportTableRecord
  2
*Active
 70
     0
 10
0.0
 20
0.0
 11
1.0
 21
1.0
 12
0.1954658215347464
 22
17.41593986995974
 13
0.0
 23
0.0
 14
10.0
 24
10.0
 15
10.0
 25
10.0
 16
0.0
 26
0.0
 36
1.0
 17
0.0
 27
0.0
 37
0.0
 40
113.9157238680149
 41
1.435526315789473
 42
50.0
 43
0.0
 44
0.0
 50
0.0
 51
0.0
 71
     0
 72
  1000
 73
     1
 74
     2
 75
     0
 76
     0
 77
     0
 78
     0
281
     0
 65
     1
110
0.0
120
0.0
130
0.0
111
1.0
121
0.0
131
0.0
112
0.0
122
1.0
132
0.0
 79
     0
146
0.0
  0
ENDTAB
  0
TABLE
  2
LTYPE
  5
16
330
0
100
AcDbSymbolTable
 70
     3
  0
LTYPE
  5
17
330
16
100
AcDbSymbolTableRecord
100
AcDbLinetypeTableRecord
  2
ByBlock
 70
     0
  3

 72
    65
 73
     0
 40
0.0
  0
LTYPE
  5
18
330
16
100
AcDbSymbolTableRecord
100
AcDbLinetypeTableRecord
  2
ByLayer
 70
     0
  3

 72
    65
 73
     0
 40
0.0
  0
LTYPE
  5
8
330
16
100
AcDbSymbolTableRecord
100
AcDbLinetypeTableRecord
  2
Continuous
 70
     0
  3
Solid line
 72
    65
 73
     0
 40
0.0
  0
LTYPE
  5
112
330
16
100
AcDbSymbolTableRecord
100
AcDbLinetypeTableRecord
  2
S50
 70
     0
  3
-------------- - ------------- 40,-1,1.5,-1
 72
    65
 73
     4
 40
43.5
 49
40.0
 74
     0
 49
-1.0
 74
     0
 49
1.5
 74
     0
 49
-1.0
 74
     0
  0
LTYPE
  5
113
330
16
100
AcDbSymbolTableRecord
100
AcDbLinetypeTableRecord
  2
S130
 70
     0
  3
--- - --- - --- 3,-1,1,-1
 72
    65
 73
     4
 40
6.0
 49
3.0
 74
     0
 49
-1.0
 74
     0
 49
1.0
 74
     0
 49
-1.0
 74
     0
  0
ENDTAB
  0
TABLE
  2
LAYER
  5
10
102
{ACAD_XDICTIONARY
360
11
102
}
330
0
100
AcDbSymbolTable
 70
     8
  0
LAYER
  5
4
330
10
100
AcDbSymbolTableRecord
100
AcDbLayerTableRecord
  2
0
 70
     0
 62
     7
  6
Continuous
370
    -3
390
5
  0
LAYER
  5
161
330
10
100
AcDbSymbolTableRecord
100
AcDbLayerTableRecord
  2
WAKU
 70
     0
 62
     4
  6
Continuous
370
    -3
390
5
  0
LAYER
  5
151
330
10
100
AcDbSymbolTableRecord
100
AcDbLayerTableRecord
  2
MOJI1
 70
     0
 62
     2
  6
Continuous
370
    -3
390
5
  0
LAYER
  5
153
330
10
100
AcDbSymbolTableRecord
100
AcDbLayerTableRecord
  2
TOUROKU
 70
     0
 62
     1
  6
Continuous
370
    -3
390
5
  0
LAYER
  5
3B
330
10
100
AcDbSymbolTableRecord
100
AcDbLayerTableRecord
  2
DEFPOINTS
 70
     0
 62
     7
  6
Continuous
290
     0
370
    -3
390
5
  0
LAYER
  5
2D
330
10
100
AcDbSymbolTableRecord
100
AcDbLayerTableRecord
  2
GAIKEI
 70
     0
 62
     7
  6
Continuous
370
    -3
390
5
  0
LAYER
  5
31
330
10
100
AcDbSymbolTableRecord
100
AcDbLayerTableRecord
  2
SUNPO
 70
     0
 62
     3
  6
Continuous
370
    -3
390
5
  0
LAYER
  5
111
330
10
100
AcDbSymbolTableRecord
100
AcDbLayerTableRecord
  2
KIJUN
 70
     0
 62
    14
  6
S50
370
    -3
390
5
  0
ENDTAB
  0
TABLE
  2
STYLE
  5
13
330
0
100
AcDbSymbolTable
 70
     1
  0
STYLE
  5
14
330
13
100
AcDbSymbolTableRecord
100
AcDbTextStyleTableRecord
  2
Standard
 70
     0
 40
0.0
 41
1.0
 50
0.0
 71
     0
 42
2.5
  3
MONOTXT.shx
  4
BIGFONT.shx
  0
ENDTAB
  0
TABLE
  2
VIEW
  5
19
330
0
100
AcDbSymbolTable
 70
     0
  0
ENDTAB
  0
TABLE
  2
UCS
  5
1A
330
0
100
AcDbSymbolTable
 70
     0
  0
ENDTAB
  0
TABLE
  2
APPID
  5
1D
330
0
100
AcDbSymbolTable
 70
     1
  0
APPID
  5
1E
330
1D
100
AcDbSymbolTableRecord
100
AcDbRegAppTableRecord
  2
ACAD
 70
     0
  0
ENDTAB
  0
TABLE
  2
DIMSTYLE
  5
1F
330
0
100
AcDbSymbolTable
 70
     1
100
AcDbDimStyleTable
 71
     1
340
20
  0
DIMSTYLE
105
20
102
{ACAD_REACTORS
330
136
330
143
330
30
102
}
330
1F
100
AcDbSymbolTableRecord
100
AcDbDimStyleTableRecord
  2
STANDARD
 70
     0
 40
0.0
 41
2.0
 42
2.0
 43
8.0
 44
2.0
 73
     0
 74
     0
 77
     3
140
3.0
141
0.0
173
     1
279
     2
288
     1
340
14
341
21
343
21
344
21
  0
ENDTAB
  0
TABLE
  2
BLOCK_RECORD
  5
1
330
0
100
AcDbSymbolTable
 70
     7
  0
BLOCK_RECORD
  5
2
330
1
100
AcDbSymbolTableRecord
100
AcDbBlockTableRecord
  2
*Model_Space
340
A
  0
BLOCK_RECORD
  5
C
330
1
100
AcDbSymbolTableRecord
100
AcDbBlockTableRecord
  2
*Paper_Space
340
F
  0
BLOCK_RECORD
  5
21
330
1
100
AcDbSymbolTableRecord
100
AcDbBlockTableRecord
  2
_OPEN30
340
0
102
{BLKREFS
331
13C
331
13D
331
149
331
14A
331
37
331
38
331
1A0
331
1A1
331
1AC
331
1AD
331
1B8
331
1B9
102
}
  0
BLOCK_RECORD
  5
137
330
1
100
AcDbSymbolTableRecord
100
AcDbBlockTableRecord
  2
*D1
340
0
  0
BLOCK_RECORD
  5
144
330
1
100
AcDbSymbolTableRecord
100
AcDbBlockTableRecord
  2
*D2
340
0
  0
BLOCK_RECORD
  5
32
330
1
100
AcDbSymbolTableRecord
100
AcDbBlockTableRecord
  2
*D3
340
0
  0
BLOCK_RECORD
  5
19C
330
1
100
AcDbSymbolTableRecord
100
AcDbBlockTableRecord
  2
*D4
340
0
  0
BLOCK_RECORD
  5
1A8
330
1
100
AcDbSymbolTableRecord
100
AcDbBlockTableRecord
  2
*D5
340
0
  0
BLOCK_RECORD
  5
1B4
330
1
100
AcDbSymbolTableRecord
100
AcDbBlockTableRecord
  2
*D6
340
0
  0
ENDTAB
  0
ENDSEC
  0
SECTION
  2
BLOCKS
  0
BLOCK
  5
3
330
2
100
AcDbEntity
  8
0
100
AcDbBlockBegin
  2
*Model_Space
 70
     0
 10
0.0
 20
0.0
 30
0.0
  3
*Model_Space
  1

  0
ENDBLK
  5
9
330
2
100
AcDbEntity
  8
0
100
AcDbBlockEnd
  0
BLOCK
  5
D
330
C
100
AcDbEntity
 67
     1
  8
0
100
AcDbBlockBegin
  2
*Paper_Space
 70
     0
 10
0.0
 20
0.0
 30
0.0
  3
*Paper_Space
  1

  0
ENDBLK
  5
E
330
C
100
AcDbEntity
 67
     1
  8
0
100
AcDbBlockEnd
  0
BLOCK
  5
22
330
21
100
AcDbEntity
  8
0
100
AcDbBlockBegin
  2
_OPEN30
 70
     0
 10
0.0
 20
0.0
 30
0.0
  3
_OPEN30
  1

  0
LINE
  5
23
330
21
100
AcDbEntity
  8
0
  6
ByBlock
 62
     0
100
AcDbLine
 10
-1.0
 20
0.26794919
 30
0.0
 11
0.0
 21
0.0
 31
0.0
  0
LINE
  5
24
330
21
100
AcDbEntity
  8
0
  6
ByBlock
 62
     0
100
AcDbLine
 10
0.0
 20
0.0
 30
0.0
 11
-1.0
 21
-0.26794919
 31
0.0
  0
LINE
  5
25
330
21
100
AcDbEntity
  8
0
  6
ByBlock
 62
     0
100
AcDbLine
 10
0.0
 20
0.0
 30
0.0
 11
-1.0
 21
0.0
 31
0.0
  0
ENDBLK
  5
26
330
21
100
AcDbEntity
  8
0
100
AcDbBlockEnd
  0
BLOCK
  5
138
330
137
100
AcDbEntity
  8
0
100
AcDbBlockBegin
  2
*D1
 70
     1
 10
0.0
 20
0.0
 30
0.0
  3
*D1
  1

  0
LINE
  5
139
330
137
100
AcDbEntity
  8
SUNPO
 62
     0
370
    -2
100
AcDbLine
 10
192.8276116768147
 20
349.7013567560778
 30
0.0
 11
192.8276116768147
 21
357.7013567560778
 31
0.0
  0
LINE
  5
13A
330
137
100
AcDbEntity
  8
SUNPO
 62
     0
370
    -2
100
AcDbLine
 10
222.9276116768147
 20
349.7013567560778
 30
0.0
 11
222.9276116768147
 21
357.7013567560778
 31
0.0
  0
LINE
  5
13B
330
137
100
AcDbEntity
  8
SUNPO
 62
     0
370
    -2
100
AcDbLine
 10
194.8276116768147
 20
355.7013567560778
 30
0.0
 11
220.9276116768148
 21
355.7013567560778
 31
0.0
  0
INSERT
  5
13C
330
137
100
AcDbEntity
  8
SUNPO
 62
     0
370
    -2
100
AcDbBlockReference
  2
_OPEN30
 10
192.8276116768147
 20
355.7013567560778
 30
0.0
 41
2.0
 42
2.0
 43
2.0
 50
180.0
  0
INSERT
  5
13D
330
137
100
AcDbEntity
  8
SUNPO
 62
     0
370
    -2
100
AcDbBlockReference
  2
_OPEN30
 10
222.9276116768147
 20
355.7013567560778
 30
0.0
 41
2.0
 42
2.0
 43
2.0
  0
MTEXT
  5
13E
330
137
100
AcDbEntity
  8
SUNPO
 62
     0
100
AcDbMText
 10
207.8776116768147
 20
357.4513567560778
 30
0.0
 40
2.5
 41
0.0
 71
     5
 72
     1
  1
\A1;151
 73
     1
 44
1.0
1001
ACAD
1000
MTEXTBEGIN
1070
    73
1070
     1
1070
    44
1040
1.0
1070
    74
1070
     0
1000
MTEXTEND
  0
POINT
  5
13F
330
137
100
AcDbEntity
  8
DEFPOINTS
 62
     0
100
AcDbPoint
 10
192.8276116768147
 20
347.7013567560778
 30
0.0
  0
POINT
  5
140
330
137
100
AcDbEntity
  8
DEFPOINTS
 62
     0
100
AcDbPoint
 10
222.9276116768147
 20
347.7013567560778
 30
0.0
  0
POINT
  5
141
330
137
100
AcDbEntity
  8
DEFPOINTS
 62
     0
100
AcDbPoint
 10
222.9276116768147
 20
355.7013567560778
 30
0.0
  0
ENDBLK
  5
142
330
137
100
AcDbEntity
  8
0
100
AcDbBlockEnd
  0
BLOCK
  5
145
330
144
100
AcDbEntity
  8
0
100
AcDbBlockBegin
  2
*D2
 70
     1
 10
0.0
 20
0.0
 30
0.0
  3
*D2
  1

  0
LINE
  5
146
330
144
100
AcDbEntity
  8
SUNPO
 62
     0
370
    -2
100
AcDbLine
 10
162.1877411724652
 20
349.7013567560778
 30
0.0
 11
162.1877411724652
 21
357.7013567560778
 31
0.0
  0
LINE
  5
147
330
144
100
AcDbEntity
  8
SUNPO
 62
     0
370
    -2
100
AcDbLine
 10
176.1877411724652
 20
349.7013567560778
 30
0.0
 11
176.1877411724652
 21
357.7013567560778
 31
0.0
  0
LINE
  5
148
330
144
100
AcDbEntity
  8
SUNPO
 62
     0
370
    -2
100
AcDbLine
 10
164.1877411724652
 20
355.7013567560778
 30
0.0
 11
174.1877411724652
 21
355.7013567560778
 31
0.0
  0
INSERT
  5
149
330
144
100
AcDbEntity
  8
SUNPO
 62
     0
370
    -2
100
AcDbBlockReference
  2
_OPEN30
 10
162.1877411724652
 20
355.7013567560778
 30
0.0
 41
2.0
 42
2.0
 43
2.0
 50
180.0
  0
INSERT
  5
14A
330
144
100
AcDbEntity
  8
SUNPO
 62
     0
370
    -2
100
AcDbBlockReference
  2
_OPEN30
 10
176.1877411724652
 20
355.7013567560778
 30
0.0
 41
2.0
 42
2.0
 43
2.0
  0
MTEXT
  5
14B
330
144
100
AcDbEntity
  8
SUNPO
 62
     0
100
AcDbMText
 10
169.1877411724652
 20
357.4513567560778
 30
0.0
 40
2.5
 41
0.0
 71
     5
 72
     1
  1
\A1;70
 73
     1
 44
1.0
1001
ACAD
1000
MTEXTBEGIN
1070
    73
1070
     1
1070
    44
1040
1.0
1070
    74
1070
     0
1000
MTEXTEND
  0
POINT
  5
14C
330
144
100
AcDbEntity
  8
DEFPOINTS
 62
     0
100
AcDbPoint
 10
162.1877411724652
 20
347.7013567560778
 30
0.0
  0
POINT
  5
14D
330
144
100
AcDbEntity
  8
DEFPOINTS
 62
     0
100
AcDbPoint
 10
176.1877411724652
 20
347.7013567560778
 30
0.0
  0
POINT
  5
14E
330
144
100
AcDbEntity
  8
DEFPOINTS
 62
     0
100
AcDbPoint
 10
176.1877411724652
 20
355.7013567560778
 30
0.0
  0
ENDBLK
  5
14F
330
144
100
AcDbEntity
  8
0
100
AcDbBlockEnd
  0
BLOCK
  5
33
330
32
100
AcDbEntity
  8
0
100
AcDbBlockBegin
  2
*D3
 70
     1
 10
0.0
 20
0.0
 30
0.0
  3
*D3
  1

  0
LINE
  5
34
330
32
100
AcDbEntity
  8
SUNPO
 62
     0
370
    -2
100
AcDbLine
 10
178.2429743910098
 20
347.7036107613299
 30
0.0
 11
186.2429743910098
 21
347.7036107613299
 31
0.0
  0
LINE
  5
35
330
32
100
AcDbEntity
  8
SUNPO
 62
     0
370
    -2
100
AcDbLine
 10
178.2429743910098
 20
334.70361076133
 30
0.0
 11
186.2429743910098
 21
334.70361076133
 31
0.0
  0
LINE
  5
36
330
32
100
AcDbEntity
  8
SUNPO
 62
     0
370
    -2
100
AcDbLine
 10
184.2429743910098
 20
345.7036107613299
 30
0.0
 11
184.2429743910098
 21
336.70361076133
 31
0.0
  0
INSERT
  5
37
330
32
100
AcDbEntity
  8
SUNPO
 62
     0
370
    -2
100
AcDbBlockReference
  2
_OPEN30
 10
184.2429743910098
 20
347.7036107613299
 30
0.0
 41
2.0
 42
2.0
 43
2.0
 50
90.0
  0
INSERT
  5
38
330
32
100
AcDbEntity
  8
SUNPO
 62
     0
370
    -2
100
AcDbBlockReference
  2
_OPEN30
 10
184.2429743910098
 20
334.70361076133
 30
0.0
 41
2.0
 42
2.0
 43
2.0
 50
270.0
  0
MTEXT
  5
39
330
32
100
AcDbEntity
  8
SUNPO
 62
     0
100
AcDbMText
 10
182.4929743910097
 20
341.20361076133
 30
0.0
 40
2.5
 41
0.0
 71
     5
 72
     1
  1
\A1;65
 11
0.0000000000000001
 21
1.0
 31
0.0
 73
     1
 44
1.0
1001
ACAD
1000
MTEXTBEGIN
1070
    73
1070
     1
1070
    44
1040
1.0
1070
    74
1070
     0
1000
MTEXTEND
  0
POINT
  5
3A
330
32
100
AcDbEntity
  8
DEFPOINTS
 62
     0
100
AcDbPoint
 10
176.2429743910098
 20
347.7036107613299
 30
0.0
  0
POINT
  5
3C
330
32
100
AcDbEntity
  8
DEFPOINTS
 62
     0
100
AcDbPoint
 10
176.2429743910098
 20
334.70361076133
 30
0.0
  0
POINT
  5
3D
330
32
100
AcDbEntity
  8
DEFPOINTS
 62
     0
100
AcDbPoint
 10
184.2429743910098
 20
334.70361076133
 30
0.0
  0
ENDBLK
  5
3E
330
32
100
AcDbEntity
  8
0
100
AcDbBlockEnd
  0
BLOCK
  5
1A6
330
19C
100
AcDbEntity
  8
0
100
AcDbBlockBegin
  2
*D4
 70
     1
 10
0.0
 20
0.0
 30
0.0
  3
*D4
  1

  0
LINE
  5
19D
330
19C
100
AcDbEntity
  8
SUNPO
 62
     0
370
    -2
100
AcDbLine
 10
-31.61750259046736
 20
53.1144724791846
 30
0.0
 11
-31.61750259046736
 21
61.1144724791846
 31
0.0
  0
LINE
  5
19E
330
19C
100
AcDbEntity
  8
SUNPO
 62
     0
370
    -2
100
AcDbLine
 10
-17.61750259046735
 20
53.1144724791846
 30
0.0
 11
-17.61750259046735
 21
61.1144724791846
 31
0.0
  0
LINE
  5
19F
330
19C
100
AcDbEntity
  8
SUNPO
 62
     0
370
    -2
100
AcDbLine
 10
-29.61750259046736
 20
59.11447247918459
 30
0.0
 11
-19.61750259046735
 21
59.11447247918459
 31
0.0
  0
INSERT
  5
1A0
330
19C
100
AcDbEntity
  8
SUNPO
 62
     0
370
    -2
100
AcDbBlockReference
  2
_OPEN30
 10
-31.61750259046736
 20
59.11447247918459
 30
0.0
 41
2.0
 42
2.0
 43
2.0
 50
180.0
  0
INSERT
  5
1A1
330
19C
100
AcDbEntity
  8
SUNPO
 62
     0
370
    -2
100
AcDbBlockReference
  2
_OPEN30
 10
-17.61750259046735
 20
59.11447247918459
 30
0.0
 41
2.0
 42
2.0
 43
2.0
  0
MTEXT
  5
1A2
330
19C
100
AcDbEntity
  8
SUNPO
 62
     0
100
AcDbMText
 10
-24.61750259046735
 20
60.8644724791846
 30
0.0
 40
2.5
 41
0.0
 71
     5
 72
     1
  1
\A1;70
 73
     1
 44
1.0
1001
ACAD
1000
MTEXTBEGIN
1070
    73
1070
     1
1070
    44
1040
1.0
1070
    74
1070
     0
1000
MTEXTEND
  0
POINT
  5
1A3
330
19C
100
AcDbEntity
  8
DEFPOINTS
 62
     0
100
AcDbPoint
 10
-31.61750259046736
 20
51.1144724791846
 30
0.0
  0
POINT
  5
1A4
330
19C
100
AcDbEntity
  8
DEFPOINTS
 62
     0
100
AcDbPoint
 10
-17.61750259046735
 20
51.1144724791846
 30
0.0
  0
POINT
  5
1A5
330
19C
100
AcDbEntity
  8
DEFPOINTS
 62
     0
100
AcDbPoint
 10
-17.61750259046735
 20
59.11447247918459
 30
0.0
  0
ENDBLK
  5
1A7
330
19C
100
AcDbEntity
  8
0
100
AcDbBlockEnd
  0
BLOCK
  5
1B2
330
1A8
100
AcDbEntity
  8
0
100
AcDbBlockBegin
  2
*D5
 70
     1
 10
0.0
 20
0.0
 30
0.0
  3
*D5
  1

  0
LINE
  5
1A9
330
1A8
100
AcDbEntity
  8
SUNPO
 62
     0
370
    -2
100
AcDbLine
 10
-0.9776320861178929
 20
53.1144724791846
 30
0.0
 11
-0.9776320861178923
 21
61.1144724791846
 31
0.0
  0
LINE
  5
1AA
330
1A8
100
AcDbEntity
  8
SUNPO
 62
     0
370
    -2
100
AcDbLine
 10
29.12236791388213
 20
53.1144724791846
 30
0.0
 11
29.12236791388213
 21
61.1144724791846
 31
0.0
  0
LINE
  5
1AB
330
1A8
100
AcDbEntity
  8
SUNPO
 62
     0
370
    -2
100
AcDbLine
 10
1.022367913882107
 20
59.11447247918459
 30
0.0
 11
27.12236791388213
 21
59.11447247918459
 31
0.0
  0
INSERT
  5
1AC
330
1A8
100
AcDbEntity
  8
SUNPO
 62
     0
370
    -2
100
AcDbBlockReference
  2
_OPEN30
 10
-0.9776320861178927
 20
59.11447247918459
 30
0.0
 41
2.0
 42
2.0
 43
2.0
 50
180.0
  0
INSERT
  5
1AD
330
1A8
100
AcDbEntity
  8
SUNPO
 62
     0
370
    -2
100
AcDbBlockReference
  2
_OPEN30
 10
29.12236791388213
 20
59.11447247918459
 30
0.0
 41
2.0
 42
2.0
 43
2.0
  0
MTEXT
  5
1AE
330
1A8
100
AcDbEntity
  8
SUNPO
 62
     0
100
AcDbMText
 10
14.07236791388212
 20
60.8644724791846
 30
0.0
 40
2.5
 41
0.0
 71
     5
 72
     1
  1
\A1;151
 73
     1
 44
1.0
1001
ACAD
1000
MTEXTBEGIN
1070
    73
1070
     1
1070
    44
1040
1.0
1070
    74
1070
     0
1000
MTEXTEND
  0
POINT
  5
1AF
330
1A8
100
AcDbEntity
  8
DEFPOINTS
 62
     0
100
AcDbPoint
 10
-0.977632086117893
 20
51.1144724791846
 30
0.0
  0
POINT
  5
1B0
330
1A8
100
AcDbEntity
  8
DEFPOINTS
 62
     0
100
AcDbPoint
 10
29.12236791388213
 20
51.1144724791846
 30
0.0
  0
POINT
  5
1B1
330
1A8
100
AcDbEntity
  8
DEFPOINTS
 62
     0
100
AcDbPoint
 10
29.12236791388213
 20
59.11447247918459
 30
0.0
  0
ENDBLK
  5
1B3
330
1A8
100
AcDbEntity
  8
0
100
AcDbBlockEnd
  0
BLOCK
  5
1BE
330
1B4
100
AcDbEntity
  8
0
100
AcDbBlockBegin
  2
*D6
 70
     1
 10
0.0
 20
0.0
 30
0.0
  3
*D6
  1

  0
LINE
  5
1B5
330
1B4
100
AcDbEntity
  8
SUNPO
 62
     0
370
    -2
100
AcDbLine
 10
-15.56226937192278
 20
51.11672648443668
 30
0.0
 11
-7.562269371922778
 21
51.11672648443668
 31
0.0
  0
LINE
  5
1B6
330
1B4
100
AcDbEntity
  8
SUNPO
 62
     0
370
    -2
100
AcDbLine
 10
-15.56226937192278
 20
38.11672648443675
 30
0.0
 11
-7.562269371922781
 21
38.11672648443675
 31
0.0
  0
LINE
  5
1B7
330
1B4
100
AcDbEntity
  8
SUNPO
 62
     0
370
    -2
100
AcDbLine
 10
-9.562269371922779
 20
49.11672648443669
 30
0.0
 11
-9.562269371922781
 21
40.11672648443674
 31
0.0
  0
INSERT
  5
1B8
330
1B4
100
AcDbEntity
  8
SUNPO
 62
     0
370
    -2
100
AcDbBlockReference
  2
_OPEN30
 10
-9.562269371922779
 20
51.11672648443668
 30
0.0
 41
2.0
 42
2.0
 43
2.0
 50
90.0
  0
INSERT
  5
1B9
330
1B4
100
AcDbEntity
  8
SUNPO
 62
     0
370
    -2
100
AcDbBlockReference
  2
_OPEN30
 10
-9.562269371922781
 20
38.11672648443675
 30
0.0
 41
2.0
 42
2.0
 43
2.0
 50
270.0
  0
MTEXT
  5
1BA
330
1B4
100
AcDbEntity
  8
SUNPO
 62
     0
100
AcDbMText
 10
-11.31226937192278
 20
44.61672648443672
 30
0.0
 40
2.5
 41
0.0
 71
     5
 72
     1
  1
\A1;65
 11
0.0000000000000001
 21
1.0
 31
0.0
 73
     1
 44
1.0
1001
ACAD
1000
MTEXTBEGIN
1070
    73
1070
     1
1070
    44
1040
1.0
1070
    74
1070
     0
1000
MTEXTEND
  0
POINT
  5
1BB
330
1B4
100
AcDbEntity
  8
DEFPOINTS
 62
     0
100
AcDbPoint
 10
-17.56226937192278
 20
51.11672648443669
 30
0.0
  0
POINT
  5
1BC
330
1B4
100
AcDbEntity
  8
DEFPOINTS
 62
     0
100
AcDbPoint
 10
-17.56226937192278
 20
38.11672648443675
 30
0.0
  0
POINT
  5
1BD
330
1B4
100
AcDbEntity
  8
DEFPOINTS
 62
     0
100
AcDbPoint
 10
-9.562269371922781
 20
38.11672648443675
 30
0.0
  0
ENDBLK
  5
1BF
330
1B4
100
AcDbEntity
  8
0
100
AcDbBlockEnd
  0
ENDSEC
  0
SECTION
  2
ENTITIES
  0
LINE
  5
2F
330
2
100
AcDbEntity
  8
GAIKEI
 62
     1
100
AcDbLine
 10
-31.61750259046747
 20
43.41494164137668
 30
0.0
 11
-31.61750259046747
 21
39.94471179029586
 31
0.0
  0
DIMENSION
  5
30
330
2
100
AcDbEntity
  8
SUNPO
100
AcDbDimension
  2
*D6
 10
-9.562269371922781
 20
38.11672648443675
 30
0.0
 11
-11.31226937192278
 21
44.61672648443672
 31
0.0
 70
    33
  1
65
 71
     5
 42
12.99999999999994
  3
STANDARD
100
AcDbAlignedDimension
 13
-17.56226937192278
 23
51.11672648443669
 33
0.0
 14
-17.56226937192278
 24
38.11672648443675
 34
0.0
1001
ACAD
1000
DSTYLE
1002
{
1070
    40
1040
1.0
1070
   140
1040
2.5
1070
   147
1040
0.5
1070
   172
1070
     1
1070
   279
1070
     0
1070
   288
1070
     0
1002
}
  0
LINE
  5
3F
330
2
100
AcDbEntity
  8
GAIKEI
100
AcDbLine
 10
-23.39694530956734
 20
49.11672648443675
 30
0.0
 11
-18.74483937460744
 21
49.11672648443669
 31
0.0
  0
LINE
  5
40
330
2
100
AcDbEntity
  8
GAIKEI
100
AcDbLine
 10
-23.5758307477673
 20
49.31672648443674
 30
0.0
 11
-20.40750259046743
 21
49.31672648443674
 31
0.0
  0
LINE
  5
41
330
2
100
AcDbEntity
  8
GAIKEI
 62
     1
100
AcDbLine
 10
28.99236791388202
 20
41.62472648443667
 30
0.0
 11
28.92236791388209
 21
41.62472648443667
 31
0.0
  0
LINE
  5
42
330
2
100
AcDbEntity
  8
GAIKEI
 62
     1
100
AcDbLine
 10
28.99236791388202
 20
41.36472648443668
 30
0.0
 11
28.99236791388202
 21
41.62472648443667
 31
0.0
  0
LINE
  5
43
330
2
100
AcDbEntity
  8
GAIKEI
 62
     1
100
AcDbLine
 10
28.92236791388209
 20
41.36472648443668
 30
0.0
 11
28.99236791388202
 21
41.36472648443668
 31
0.0
  0
LINE
  5
44
330
2
100
AcDbEntity
  8
GAIKEI
 62
     1
100
AcDbLine
 10
28.99236791388202
 20
41.11672648443669
 30
0.0
 11
28.92236791388209
 21
41.11672648443669
 31
0.0
  0
LINE
  5
45
330
2
100
AcDbEntity
  8
GAIKEI
 62
     1
100
AcDbLine
 10
28.99236791388202
 20
40.8567264844367
 30
0.0
 11
28.99236791388202
 21
41.11672648443669
 31
0.0
  0
LINE
  5
46
330
2
100
AcDbEntity
  8
GAIKEI
 62
     1
100
AcDbLine
 10
28.92236791388209
 20
40.8567264844367
 30
0.0
 11
28.99236791388202
 21
40.8567264844367
 31
0.0
  0
LINE
  5
47
330
2
100
AcDbEntity
  8
GAIKEI
 62
     1
100
AcDbLine
 10
28.99236791388202
 20
40.60872648443671
 30
0.0
 11
28.92236791388209
 21
40.60872648443671
 31
0.0
  0
LINE
  5
48
330
2
100
AcDbEntity
  8
GAIKEI
 62
     1
100
AcDbLine
 10
28.99236791388202
 20
40.34872648443666
 30
0.0
 11
28.99236791388202
 21
40.60872648443671
 31
0.0
  0
LINE
  5
49
330
2
100
AcDbEntity
  8
GAIKEI
 62
     1
100
AcDbLine
 10
28.92236791388209
 20
40.34872648443666
 30
0.0
 11
28.99236791388202
 21
40.34872648443666
 31
0.0
  0
LINE
  5
4A
330
2
100
AcDbEntity
  8
GAIKEI
 62
     1
100
AcDbLine
 10
28.99236791388202
 20
40.10072648443667
 30
0.0
 11
28.92236791388209
 21
40.10072648443667
 31
0.0
  0
LINE
  5
4B
330
2
100
AcDbEntity
  8
GAIKEI
 62
     1
100
AcDbLine
 10
28.99236791388202
 20
39.84072648443669
 30
0.0
 11
28.99236791388202
 21
40.10072648443667
 31
0.0
  0
LINE
  5
4C
330
2
100
AcDbEntity
  8
GAIKEI
 62
     1
100
AcDbLine
 10
28.92236791388209
 20
39.84072648443669
 30
0.0
 11
28.99236791388202
 21
39.84072648443669
 31
0.0
  0
LINE
  5
4D
330
2
100
AcDbEntity
  8
GAIKEI
 62
     1
100
AcDbLine
 10
30.03236791388199
 20
45.06672648443674
 30
0.0
 11
30.03236791388199
 21
45.26672648443667
 31
0.0
  0
LINE
  5
4E
330
2
100
AcDbEntity
  8
GAIKEI
 62
     1
100
AcDbLine
 10
29.63636791388203
 20
45.06672648443674
 30
0.0
 11
30.03236791388199
 21
45.06672648443674
 31
0.0
  0
LINE
  5
4F
330
2
100
AcDbEntity
  8
GAIKEI
 62
     1
100
AcDbLine
 10
29.63636791388203
 20
45.26672648443667
 30
0.0
 11
29.63636791388203
 21
45.06672648443674
 31
0.0
  0
LINE
  5
50
330
2
100
AcDbEntity
  8
GAIKEI
 62
     1
100
AcDbLine
 10
30.03236791388199
 20
47.36672648443669
 30
0.0
 11
30.03236791388199
 21
47.16672648443664
 31
0.0
  0
LINE
  5
51
330
2
100
AcDbEntity
  8
GAIKEI
 62
     1
100
AcDbLine
 10
29.63636791388203
 20
47.36672648443669
 30
0.0
 11
30.03236791388199
 21
47.36672648443669
 31
0.0
  0
LINE
  5
52
330
2
100
AcDbEntity
  8
GAIKEI
 62
     1
100
AcDbLine
 10
29.63636791388203
 20
47.16672648443664
 30
0.0
 11
29.63636791388203
 21
47.36672648443669
 31
0.0
  0
LINE
  5
53
330
2
100
AcDbEntity
  8
GAIKEI
 62
     1
100
AcDbLine
 10
30.68236791388208
 20
45.26672648443667
 30
0.0
 11
29.10229802104206
 21
45.26672648443667
 31
0.0
  0
LINE
  5
54
330
2
100
AcDbEntity
  8
GAIKEI
 62
     1
100
AcDbLine
 10
30.68236791388208
 20
47.16672648443664
 30
0.0
 11
30.68236791388208
 21
45.26672648443667
 31
0.0
  0
LINE
  5
55
330
2
100
AcDbEntity
  8
GAIKEI
 62
     1
100
AcDbLine
 10
29.11184270356202
 20
47.16672648443664
 30
0.0
 11
30.68236791388208
 21
47.16672648443664
 31
0.0
  0
ARC
  5
56
330
2
100
AcDbEntity
  8
GAIKEI
100
AcDbCircle
 10
-21.83471984961116
 20
46.68428915289672
 30
0.0
 40
50.95673923510272
100
AcDbArc
 50
358.405886268357
 51
2.075938998810646
  0
ARC
  5
57
330
2
100
AcDbEntity
  8
GAIKEI
100
AcDbCircle
 10
-25.41696471355513
 20
46.13679492551381
 30
0.0
 40
54.52620496803522
100
AcDbArc
 50
351.9716669453594
 51
359.0856989703912
  0
LINE
  5
58
330
2
100
AcDbEntity
  8
GAIKEI
 62
     1
100
AcDbLine
 10
28.92236791388209
 20
39.1167264844367
 30
0.0
 11
28.92236791388209
 21
41.62636724945736
 31
0.0
  0
LINE
  5
59
330
2
100
AcDbEntity
  8
GAIKEI
 62
     1
100
AcDbLine
 10
28.66422482640209
 20
39.1167264844367
 30
0.0
 11
28.92236791388209
 21
39.1167264844367
 31
0.0
  0
LINE
  5
5A
330
2
100
AcDbEntity
  8
GAIKEI
100
AcDbLine
 10
28.08115035076204
 20
38.1236767293567
 30
0.0
 11
8.022367913881993
 21
38.1167264844367
 31
0.0
  0
ARC
  5
5B
330
2
100
AcDbEntity
  8
GAIKEI
100
AcDbCircle
 10
28.00793241212622
 20
38.71972080928879
 30
0.0
 40
0.6004799688096533
100
AcDbArc
 50
276.968514498594
 51
340.7645205275774
  0
ARC
  5
5C
330
2
100
AcDbEntity
  8
GAIKEI
100
AcDbCircle
 10
28.48891408695951
 20
48.51001409029556
 30
0.0
 40
0.6000000000026149
100
AcDbArc
 50
1.923037244102969
 51
89.49999999966539
  0
ARC
  5
5D
330
2
100
AcDbEntity
  8
GAIKEI
 62
     1
100
AcDbCircle
 10
16.14641868107546
 20
119.3838519144547
 30
0.0
 40
80.05134338187554
100
AcDbArc
 50
273.5637728672594
 51
279.0973467783323
  0
ARC
  5
5E
330
2
100
AcDbEntity
  8
GAIKEI
 62
     1
100
AcDbCircle
 10
10.22236791388204
 20
249.9529009210844
 30
0.0
 40
210.7476576766469
100
AcDbArc
 50
269.401877079965
 51
272.9646961454664
  0
ARC
  5
5F
330
2
100
AcDbEntity
  8
GAIKEI
 62
     1
100
AcDbCircle
 10
16.15093918532759
 20
119.3326924070462
 30
0.0
 40
79.80000182409741
100
AcDbArc
 50
273.5628190969758
 51
279.1360735811718
  0
ARC
  5
60
330
2
100
AcDbEntity
  8
GAIKEI
 62
     1
100
AcDbCircle
 10
10.22236791388204
 20
249.9529009210783
 30
0.0
 40
210.5476685846128
100
AcDbArc
 50
269.4013089311361
 51
272.9641279966378
  0
ARC
  5
61
330
2
100
AcDbEntity
  8
GAIKEI
 62
     1
100
AcDbCircle
 10
8.010865763350324
 20
238.635079427869
 30
0.0
 40
199.4183532751456
100
AcDbArc
 50
267.7310144508465
 51
270.0033047343453
  0
ARC
  5
62
330
2
100
AcDbEntity
  8
GAIKEI
 62
     1
100
AcDbCircle
 10
7.281588562361974
 20
238.5464526706735
 30
0.0
 40
199.1311040622565
100
AcDbArc
 50
267.869992413224
 51
270.2131441418349
  0
ARC
  5
63
330
2
100
AcDbEntity
  8
GAIKEI
100
AcDbCircle
 10
0.8868752159358734
 20
38.77901983275041
 30
0.0
 40
0.5999999998948344
100
AcDbArc
 50
225.2576263869991
 51
269.5000000042211
  0
LINE
  5
64
330
2
100
AcDbEntity
  8
GAIKEI
100
AcDbLine
 10
8.022367913881993
 20
38.1167264844367
 30
0.0
 11
0.881639294682003
 21
38.17904267901667
 31
0.0
  0
LINE
  5
65
330
2
100
AcDbEntity
  8
GAIKEI
 62
     1
100
AcDbLine
 10
8.022367913881993
 20
47.31672648443674
 30
0.0
 11
27.72236791400607
 21
47.31672648443674
 31
0.0
  0
LINE
  5
66
330
2
100
AcDbEntity
  8
GAIKEI
100
AcDbLine
 10
27.72236791388204
 20
49.11672648443669
 30
0.0
 11
27.72236791388201
 21
38.12355241344591
 31
0.0
  0
LINE
  5
67
330
2
100
AcDbEntity
  8
GAIKEI
100
AcDbLine
 10
0.8816392946630173
 20
49.05441028983517
 30
0.0
 11
8.022367913881993
 21
49.11672648443669
 31
0.0
  0
LINE
  5
68
330
2
100
AcDbEntity
  8
GAIKEI
100
AcDbLine
 10
28.49415000826204
 20
49.10999124413667
 30
0.0
 11
8.022367913881993
 21
49.11672648443669
 31
0.0
  0
ARC
  5
69
330
2
100
AcDbEntity
  8
GAIKEI
100
AcDbCircle
 10
0.8868752159707753
 20
48.45443313597042
 30
0.0
 40
0.6000000000276971
100
AcDbArc
 50
90.49999999899466
 51
134.7423736051292
  0
LINE
  5
6A
330
2
100
AcDbEntity
  8
GAIKEI
 62
     1
100
AcDbLine
 10
10.98197315994204
 20
49.31672648443674
 30
0.0
 11
10.82236791388206
 21
51.11672648443669
 31
0.0
  0
LINE
  5
6B
330
2
100
AcDbEntity
  8
GAIKEI
 62
     1
100
AcDbLine
 10
10.98197315994204
 20
49.11672648443669
 30
0.0
 11
10.98197315994204
 21
49.31672648443674
 31
0.0
  0
LINE
  5
6C
330
2
100
AcDbEntity
  8
GAIKEI
 62
     1
100
AcDbLine
 10
1.922367913882084
 20
49.31672648443674
 30
0.0
 11
12.42236791388208
 21
49.31672648443674
 31
0.0
  0
LINE
  5
6D
330
2
100
AcDbEntity
  8
GAIKEI
100
AcDbLine
 10
12.42236791388208
 20
49.11672648443669
 30
0.0
 11
1.922367913882084
 21
49.11672648443669
 31
0.0
  0
LINE
  5
6E
330
2
100
AcDbEntity
  8
GAIKEI
100
AcDbLine
 10
12.42236791388208
 20
49.31672648443674
 30
0.0
 11
12.42236791388208
 21
49.11672648443669
 31
0.0
  0
LINE
  5
6F
330
2
100
AcDbEntity
  8
GAIKEI
100
AcDbLine
 10
11.92236791222203
 20
51.11672648443669
 30
0.0
 11
12.42236791388208
 21
49.31672648443674
 31
0.0
  0
LINE
  5
70
330
2
100
AcDbEntity
  8
GAIKEI
100
AcDbLine
 10
2.622367913882015
 20
51.11672648443669
 30
0.0
 11
11.92236791222203
 21
51.11672648443669
 31
0.0
  0
LINE
  5
71
330
2
100
AcDbEntity
  8
GAIKEI
100
AcDbLine
 10
1.922367913882084
 20
49.31672648443674
 30
0.0
 11
2.622367913882015
 21
51.11672648443669
 31
0.0
  0
LINE
  5
72
330
2
100
AcDbEntity
  8
GAIKEI
100
AcDbLine
 10
1.922367913882084
 20
49.11672648443669
 30
0.0
 11
1.922367913882084
 21
49.31672648443674
 31
0.0
  0
LINE
  5
73
330
2
100
AcDbEntity
  8
GAIKEI
100
AcDbLine
 10
8.022367913881993
 20
49.11672648443669
 30
0.0
 11
8.022367913881993
 21
38.1167264844367
 31
0.0
  0
ARC
  5
74
330
2
100
AcDbEntity
  8
GAIKEI
 62
     1
100
AcDbCircle
 10
6.99708591377643
 20
43.61789087825655
 30
0.0
 40
0.1251270719268507
100
AcDbArc
 50
319.5489697672905
 51
40.45103023270155
  0
ARC
  5
75
330
2
100
AcDbEntity
  8
GAIKEI
 62
     1
100
AcDbCircle
 10
6.116223266457694
 20
43.61789087825655
 30
0.0
 40
0.2061400526904845
100
AcDbArc
 50
338.482291422962
 51
21.51770857703212
  0
ARC
  5
76
330
2
100
AcDbEntity
  8
GAIKEI
 62
     1
100
AcDbCircle
 10
1.872363479919812
 20
47.46237121488246
 30
0.0
 40
2.000000000022437
100
AcDbArc
 50
134.7423736073801
 51
168.9013671960004
  0
ARC
  5
77
330
2
100
AcDbEntity
  8
GAIKEI
 62
     1
100
AcDbCircle
 10
0.4424815123485076
 20
41.29426168030943
 30
0.0
 40
6.337240013262852
100
AcDbArc
 50
22.24659950337251
 51
36.17535435254826
  0
ARC
  5
78
330
2
100
AcDbEntity
  8
GAIKEI
 62
     1
100
AcDbCircle
 10
5.129197951274448
 20
44.11505942439316
 30
0.0
 40
1.331248247860996
100
AcDbArc
 50
54.44790269757002
 51
81.59499482206022
  0
ARC
  5
79
330
2
100
AcDbEntity
  8
GAIKEI
 62
     1
100
AcDbCircle
 10
1.884831183355998
 20
40.78963885893796
 30
0.0
 40
5.965112490729882
100
AcDbArc
 50
29.19225887579591
 51
47.65041986167618
  0
ARC
  5
7A
330
2
100
AcDbEntity
  8
GAIKEI
 62
     1
100
AcDbCircle
 10
4.754851259250216
 20
44.43908236289525
 30
0.0
 40
0.9999999990605573
100
AcDbArc
 50
36.56890627521134
 51
77.1057994845594
  0
ARC
  5
7B
330
2
100
AcDbEntity
  8
GAIKEI
 62
     1
100
AcDbCircle
 10
-0.377640764067479
 20
22.01900477048173
 30
0.0
 40
24.00005116463979
100
AcDbArc
 50
77.10580617423028
 51
83.52797241063834
  0
ARC
  5
7C
330
2
100
AcDbEntity
  8
GAIKEI
 62
     1
100
AcDbCircle
 10
-0.4244776317707704
 20
21.23735329668972
 30
0.0
 40
24.78197607914741
100
AcDbArc
 50
83.54339180469846
 51
89.59738748674537
  0
ARC
  5
7D
330
2
100
AcDbEntity
  8
GAIKEI
 62
     1
100
AcDbCircle
 10
-0.3687983195478921
 20
22.19142919631196
 30
0.0
 40
23.92760092584853
100
AcDbArc
 50
76.23685788688553
 51
89.84524827049098
  0
ARC
  5
7E
330
2
100
AcDbEntity
  8
GAIKEI
 62
     1
100
AcDbCircle
 10
-0.2155054868611899
 20
46.10800083138241
 30
0.0
 40
0.0958375041793343
100
AcDbArc
 50
177.7606150892461
 51
248.6873758631963
  0
ARC
  5
7F
330
2
100
AcDbEntity
  8
GAIKEI
 62
     1
100
AcDbCircle
 10
7.27913528388737
 20
46.02696243569499
 30
0.0
 40
7.590878573638377
100
AcDbArc
 50
166.1243833910328
 51
179.3600448970423
  0
LINE
  5
80
330
2
100
AcDbEntity
  8
GAIKEI
100
AcDbLine
 10
-0.6776397015179612
 20
48.81847179153675
 30
0.0
 11
0.4133365637020177
 21
48.82799259715665
 31
0.0
  0
ARC
  5
81
330
2
100
AcDbEntity
  8
GAIKEI
 62
     1
100
AcDbCircle
 10
1.872363479919812
 20
39.7734105416306
 30
0.0
 40
2.000000000022437
100
AcDbArc
 50
191.0986328039996
 51
225.2576263926199
  0
LINE
  5
82
330
2
100
AcDbEntity
  8
GAIKEI
100
AcDbLine
 10
0.4133365637020177
 20
38.40546037169668
 30
0.0
 11
-0.6776397015179612
 21
38.4149811773367
 31
0.0
  0
ARC
  5
83
330
2
100
AcDbEntity
  8
GAIKEI
 62
     1
100
AcDbCircle
 10
-0.2155054868611899
 20
41.12778092513065
 30
0.0
 40
0.0958375041793343
100
AcDbArc
 50
111.3126241368037
 51
182.2393849107538
  0
ARC
  5
84
330
2
100
AcDbEntity
  8
GAIKEI
 62
     1
100
AcDbCircle
 10
7.27913528388737
 20
41.20881932081807
 30
0.0
 40
7.590878573638377
100
AcDbArc
 50
180.6399551029577
 51
193.8756166089672
  0
ARC
  5
85
330
2
100
AcDbEntity
  8
GAIKEI
 62
     1
100
AcDbCircle
 10
1.884831183355998
 20
46.44614289757515
 30
0.0
 40
5.965112490729882
100
AcDbArc
 50
312.3495801383238
 51
330.8077411242041
  0
ARC
  5
86
330
2
100
AcDbEntity
  8
GAIKEI
 62
     1
100
AcDbCircle
 10
5.129197951274448
 20
43.12072233211989
 30
0.0
 40
1.331248247860996
100
AcDbArc
 50
278.4050051779398
 51
305.55209730243
  0
ARC
  5
87
330
2
100
AcDbEntity
  8
GAIKEI
 62
     1
100
AcDbCircle
 10
-0.3687983195478921
 20
65.04435256020116
 30
0.0
 40
23.92760092584853
100
AcDbArc
 50
270.154751729509
 51
283.7631421131145
  0
ARC
  5
88
330
2
100
AcDbEntity
  8
GAIKEI
 62
     1
100
AcDbCircle
 10
-0.4244776317707704
 20
65.9984284598234
 30
0.0
 40
24.78197607914741
100
AcDbArc
 50
270.4026125132546
 51
276.4566081953016
  0
ARC
  5
89
330
2
100
AcDbEntity
  8
GAIKEI
 62
     1
100
AcDbCircle
 10
-0.377640764067479
 20
65.21677698603133
 30
0.0
 40
24.00005116463979
100
AcDbArc
 50
276.4720275893617
 51
282.8941938257697
  0
ARC
  5
8A
330
2
100
AcDbEntity
  8
GAIKEI
 62
     1
100
AcDbCircle
 10
0.4424815123485076
 20
45.94152007620363
 30
0.0
 40
6.337240013262852
100
AcDbArc
 50
323.8246456474517
 51
337.7534004966275
  0
ARC
  5
8B
330
2
100
AcDbEntity
  8
GAIKEI
 62
     1
100
AcDbCircle
 10
4.754851259250216
 20
42.79669939361781
 30
0.0
 40
0.9999999990605573
100
AcDbArc
 50
282.8942005154406
 51
323.4310937247887
  0
LINE
  5
8C
330
2
100
AcDbEntity
  8
GAIKEI
 62
     1
100
AcDbLine
 10
3.782367913881984
 20
42.63053674693668
 30
0.0
 11
3.782367913881984
 21
42.4767264844367
 31
0.0
  0
LINE
  5
8D
330
2
100
AcDbEntity
  8
GAIKEI
 62
     1
100
AcDbLine
 10
3.782367913881984
 20
42.63053674693668
 30
0.0
 11
-0.8772466659980011
 21
42.6291645091967
 31
0.0
  0
LINE
  5
8E
330
2
100
AcDbEntity
  8
GAIKEI
 62
     1
100
AcDbLine
 10
4.06236791388207
 20
42.75672648443668
 30
0.0
 11
3.782367913881984
 21
42.63053674693668
 31
0.0
  0
LINE
  5
8F
330
2
100
AcDbEntity
  8
GAIKEI
 62
     1
100
AcDbLine
 10
3.782367913881984
 20
42.4767264844367
 30
0.0
 11
4.06236791388207
 21
42.75672648443668
 31
0.0
  0
LINE
  5
90
330
2
100
AcDbEntity
  8
GAIKEI
 62
     1
100
AcDbLine
 10
-0.6776397015179612
 20
42.47672648439669
 30
0.0
 11
3.782367913881984
 21
42.4767264844367
 31
0.0
  0
LINE
  5
91
330
2
100
AcDbEntity
  8
GAIKEI
 62
     1
100
AcDbLine
 10
-0.8772466659980011
 20
42.6291645091967
 30
0.0
 11
-0.6776397015179612
 21
42.47672648439669
 31
0.0
  0
LINE
  5
92
330
2
100
AcDbEntity
  8
GAIKEI
 62
     1
100
AcDbLine
 10
-0.6776397015179612
 20
42.75672648439672
 30
0.0
 11
-0.8772466659980011
 21
42.6291645091967
 31
0.0
  0
LINE
  5
93
330
2
100
AcDbEntity
  8
GAIKEI
 62
     1
100
AcDbLine
 10
4.06236791388207
 20
42.75672648443668
 30
0.0
 11
-0.6776397015179612
 21
42.75672648439672
 31
0.0
  0
LINE
  5
94
330
2
100
AcDbEntity
  8
GAIKEI
 62
     1
100
AcDbLine
 10
4.782367913881984
 20
43.47672648443671
 30
0.0
 11
4.782367913881984
 21
43.75672648443668
 31
0.0
  0
LINE
  5
95
330
2
100
AcDbEntity
  8
GAIKEI
 62
     1
100
AcDbLine
 10
4.922367913882084
 20
43.61672648443669
 30
0.0
 11
-0.877632086117984
 21
43.61672648443669
 31
0.0
  0
LINE
  5
96
330
2
100
AcDbEntity
  8
GAIKEI
 62
     1
100
AcDbLine
 10
4.782367913881984
 20
43.47672648443671
 30
0.0
 11
4.922367913882084
 21
43.61672648443669
 31
0.0
  0
LINE
  5
97
330
2
100
AcDbEntity
  8
GAIKEI
 62
     1
100
AcDbLine
 10
-0.6776397015179612
 20
43.47672643909669
 30
0.0
 11
4.782367913881984
 21
43.47672648443671
 31
0.0
  0
LINE
  5
98
330
2
100
AcDbEntity
  8
GAIKEI
 62
     1
100
AcDbLine
 10
-0.877632086117984
 20
43.61672648443669
 30
0.0
 11
-0.6776397015179612
 21
43.47672643909669
 31
0.0
  0
LINE
  5
99
330
2
100
AcDbEntity
  8
GAIKEI
 62
     1
100
AcDbLine
 10
-0.6776397015179612
 20
43.75672652977669
 30
0.0
 11
-0.877632086117984
 21
43.61672648443669
 31
0.0
  0
LINE
  5
9A
330
2
100
AcDbEntity
  8
GAIKEI
 62
     1
100
AcDbLine
 10
4.782367913881984
 20
43.75672648443668
 30
0.0
 11
-0.6776397015179612
 21
43.75672652977669
 31
0.0
  0
LINE
  5
9B
330
2
100
AcDbEntity
  8
GAIKEI
 62
     1
100
AcDbLine
 10
4.922367913882084
 20
43.61672648443669
 30
0.0
 11
4.782367913881984
 21
43.75672648443668
 31
0.0
  0
LINE
  5
9C
330
2
100
AcDbEntity
  8
GAIKEI
 62
     1
100
AcDbLine
 10
3.782367913881984
 20
44.60291622193671
 30
0.0
 11
3.782367913881984
 21
44.75672648443668
 31
0.0
  0
LINE
  5
9D
330
2
100
AcDbEntity
  8
GAIKEI
 62
     1
100
AcDbLine
 10
3.782367913881984
 20
44.60291622193671
 30
0.0
 11
-0.8772466659980011
 21
44.60428845967664
 31
0.0
  0
LINE
  5
9E
330
2
100
AcDbEntity
  8
GAIKEI
 62
     1
100
AcDbLine
 10
4.06236791388207
 20
44.47672648443671
 30
0.0
 11
3.782367913881984
 21
44.60291622193671
 31
0.0
  0
LINE
  5
9F
330
2
100
AcDbEntity
  8
GAIKEI
 62
     1
100
AcDbLine
 10
-0.6776397015179612
 20
44.47672648447673
 30
0.0
 11
4.06236791388207
 21
44.47672648443671
 31
0.0
  0
LINE
  5
A0
330
2
100
AcDbEntity
  8
GAIKEI
 62
     1
100
AcDbLine
 10
-0.877632086117984
 20
44.60399276815673
 30
0.0
 11
-0.6776397015179612
 21
44.47672648447673
 31
0.0
  0
LINE
  5
A1
330
2
100
AcDbEntity
  8
GAIKEI
 62
     1
100
AcDbLine
 10
-0.6776397015179612
 20
44.75672648445669
 30
0.0
 11
-0.877632086117984
 21
44.60399276815673
 31
0.0
  0
LINE
  5
A2
330
2
100
AcDbEntity
  8
GAIKEI
 62
     1
100
AcDbLine
 10
3.782367913881984
 20
44.75672648443668
 30
0.0
 11
-0.6776397015179612
 21
44.75672648445669
 31
0.0
  0
LINE
  5
A3
330
2
100
AcDbEntity
  8
GAIKEI
 62
     1
100
AcDbLine
 10
4.06236791388207
 20
44.47672648443671
 30
0.0
 11
3.782367913881984
 21
44.75672648443668
 31
0.0
  0
LINE
  5
A4
330
2
100
AcDbEntity
  8
GAIKEI
 62
     1
100
AcDbLine
 10
-0.877632086117984
 20
43.51672648443667
 30
0.0
 11
-0.9776320861180067
 21
43.51672648443667
 31
0.0
  0
LINE
  5
A5
330
2
100
AcDbEntity
  8
GAIKEI
 62
     1
100
AcDbLine
 10
-0.877632086117984
 20
43.71672648443672
 30
0.0
 11
-0.9776320861180067
 21
43.71672648443672
 31
0.0
  0
LINE
  5
A6
330
2
100
AcDbEntity
  8
GAIKEI
100
AcDbLine
 10
-0.877632086117984
 20
38.6167264844367
 30
0.0
 11
-0.877632086117984
 21
48.61672648443669
 31
0.0
  0
LINE
  5
A7
330
2
100
AcDbEntity
  8
GAIKEI
 62
     1
100
AcDbLine
 10
-0.9776320861180067
 20
47.21672648443671
 30
0.0
 11
-0.9776320861180067
 21
40.01672648443667
 31
0.0
  0
LINE
  5
A8
330
2
100
AcDbEntity
  8
GAIKEI
 62
     1
100
AcDbLine
 10
-0.877632086117984
 20
47.21672648443671
 30
0.0
 11
-0.9776320861180067
 21
47.21672648443671
 31
0.0
  0
LINE
  5
A9
330
2
100
AcDbEntity
  8
GAIKEI
100
AcDbLine
 10
-0.6776397015179612
 20
48.81847179153675
 30
0.0
 11
-0.877632086117984
 21
48.61672648443669
 31
0.0
  0
LINE
  5
AA
330
2
100
AcDbEntity
  8
GAIKEI
 62
     1
100
AcDbLine
 10
-0.877632086117984
 20
40.01672648443667
 30
0.0
 11
-0.9776320861180067
 21
40.01672648443667
 31
0.0
  0
LINE
  5
AB
330
2
100
AcDbEntity
  8
GAIKEI
100
AcDbLine
 10
-0.6776397015179612
 20
38.4149811773367
 30
0.0
 11
-0.877632086117984
 21
38.6167264844367
 31
0.0
  0
LINE
  5
AC
330
2
100
AcDbEntity
  8
GAIKEI
 62
     1
100
AcDbLine
 10
-0.6776397015179612
 20
48.81847179153675
 30
0.0
 11
-0.6776397015179612
 21
38.4149811773367
 31
0.0
  0
ARC
  5
AD
330
2
100
AcDbEntity
  8
GAIKEI
 62
     1
100
AcDbCircle
 10
-18.80830274280825
 20
46.01630096562445
 30
0.0
 40
0.6001968884691667
100
AcDbArc
 50
9.176226250406021
 51
59.85412748377052
  0
ARC
  5
AE
330
2
100
AcDbEntity
  8
GAIKEI
 62
     7
100
AcDbCircle
 10
-18.80789305088583
 20
46.0161857826443
 30
0.0
 40
0.8054433251494025
100
AcDbArc
 50
6.646979661166113
 51
59.77926925636423
  0
ARC
  5
AF
330
2
100
AcDbEntity
  8
GAIKEI
 62
     1
100
AcDbCircle
 10
-28.12072451342192
 20
30.04019701290889
 30
0.0
 40
19.09227814187784
100
AcDbArc
 50
59.76511191320049
 51
75.39271114546735
  0
ARC
  5
B0
330
2
100
AcDbEntity
  8
GAIKEI
 62
     7
100
AcDbCircle
 10
-28.11611622474686
 20
30.0743622463072
 30
0.0
 40
19.26579925404386
100
AcDbArc
 50
59.72238268419158
 51
75.54508304265884
  0
ARC
  5
B1
330
2
100
AcDbEntity
  8
GAIKEI
 62
     1
100
AcDbCircle
 10
-33.81750259046729
 20
43.61672648443675
 30
0.0
 40
15.79999999999988
100
AcDbArc
 50
356.4828215447688
 51
9.086747396300587
  0
ARC
  5
B2
330
2
100
AcDbEntity
  8
GAIKEI
 62
     1
100
AcDbCircle
 10
-33.81750259047604
 20
43.61672648443698
 30
0.0
 40
16.00174530710861
100
AcDbArc
 50
356.91920342
 51
359.4987100522992
  0
LINE
  5
B3
330
2
100
AcDbEntity
  8
GAIKEI
 62
     1
100
AcDbLine
 10
-18.07845457838735
 20
42.6310710366767
 30
0.0
 11
-17.83888397454737
 21
42.75672648439672
 31
0.0
  0
LINE
  5
B4
330
2
100
AcDbEntity
  8
GAIKEI
 62
     1
100
AcDbLine
 10
-17.83888397454737
 20
42.75672648439672
 30
0.0
 11
-17.79745883912736
 21
42.75672648443668
 31
0.0
  0
LINE
  5
B5
330
2
100
AcDbEntity
  8
GAIKEI
 62
     1
100
AcDbLine
 10
-17.79745883912736
 20
42.75672648443668
 30
0.0
 11
-17.81739620500744
 21
42.4767264844367
 31
0.0
  0
LINE
  5
B6
330
2
100
AcDbEntity
  8
GAIKEI
 62
     1
100
AcDbLine
 10
-17.81739620500744
 20
42.4767264844367
 30
0.0
 11
-17.8564170110674
 21
42.47672648439669
 31
0.0
  0
LINE
  5
B7
330
2
100
AcDbEntity
  8
GAIKEI
 62
     1
100
AcDbLine
 10
-17.8564170110674
 20
42.47672648439669
 30
0.0
 11
-18.07845457838735
 21
42.6310710366767
 31
0.0
  0
LINE
  5
B8
330
2
100
AcDbEntity
  8
GAIKEI
 62
     1
100
AcDbLine
 10
-18.01750259046744
 20
43.61672648443669
 30
0.0
 11
-17.81636972868742
 21
43.75672652977669
 31
0.0
  0
LINE
  5
B9
330
2
100
AcDbEntity
  8
GAIKEI
 62
     1
100
AcDbLine
 10
-17.81636972868742
 20
43.75672652977669
 30
0.0
 11
-17.76871914492736
 21
43.75672648443668
 31
0.0
  0
LINE
  5
BA
330
2
100
AcDbEntity
  8
GAIKEI
 62
     1
100
AcDbLine
 10
-17.76871914492736
 20
43.75672648443668
 30
0.0
 11
-17.76871914492736
 21
43.47672648443671
 31
0.0
  0
LINE
  5
BB
330
2
100
AcDbEntity
  8
GAIKEI
 62
     1
100
AcDbLine
 10
-17.76871914492736
 20
43.47672648443671
 30
0.0
 11
-17.81636972868742
 21
43.47672643909669
 31
0.0
  0
LINE
  5
BC
330
2
100
AcDbEntity
  8
GAIKEI
 62
     1
100
AcDbLine
 10
-17.81636972868742
 20
43.47672643909669
 30
0.0
 11
-18.01750259046744
 21
43.61672648443669
 31
0.0
  0
ARC
  5
BD
330
2
100
AcDbEntity
  8
GAIKEI
 62
     1
100
AcDbCircle
 10
-33.81750259047831
 20
43.61672648443636
 30
0.0
 40
16.00174530711097
100
AcDbArc
 50
0.5012899477010329
 51
3.080796579999754
  0
LINE
  5
BE
330
2
100
AcDbEntity
  8
GAIKEI
 62
     1
100
AcDbLine
 10
-18.07845457838735
 20
44.60238193219669
 30
0.0
 11
-17.8564170110674
 21
44.75672648445669
 31
0.0
  0
LINE
  5
BF
330
2
100
AcDbEntity
  8
GAIKEI
 62
     1
100
AcDbLine
 10
-17.8564170110674
 20
44.75672648445669
 30
0.0
 11
-17.81739620500744
 21
44.75672648443668
 31
0.0
  0
LINE
  5
C0
330
2
100
AcDbEntity
  8
GAIKEI
 62
     1
100
AcDbLine
 10
-17.81739620500744
 20
44.75672648443668
 30
0.0
 11
-17.79745884068737
 21
44.47672650937664
 31
0.0
  0
LINE
  5
C1
330
2
100
AcDbEntity
  8
GAIKEI
 62
     1
100
AcDbLine
 10
-17.79745884068737
 20
44.47672650937664
 30
0.0
 11
-17.83888397454737
 21
44.47672648447673
 31
0.0
  0
LINE
  5
C2
330
2
100
AcDbEntity
  8
GAIKEI
 62
     1
100
AcDbLine
 10
-17.83888397454737
 20
44.47672648447673
 30
0.0
 11
-18.07845457838735
 21
44.60238193219669
 31
0.0
  0
ARC
  5
C3
330
2
100
AcDbEntity
  8
GAIKEI
 62
     1
100
AcDbCircle
 10
-33.02761486015598
 20
43.74298802765639
 30
0.0
 40
15.20502909681482
100
AcDbArc
 50
3.822817527126398
 51
8.953604759220626
  0
LINE
  5
C4
330
2
100
AcDbEntity
  8
GAIKEI
 62
     1
100
AcDbLine
 10
-17.98025531912745
 20
46.11661405999671
 30
0.0
 11
-17.71603046238741
 21
46.11231324805664
 31
0.0
  0
ARC
  5
C5
330
2
100
AcDbEntity
  8
GAIKEI
 62
     1
100
AcDbCircle
 10
-52.00062919779274
 20
43.61671648249404
 30
0.0
 40
34.3753067428357
100
AcDbArc
 50
355.8367814282474
 51
4.163251992478381
  0
ARC
  5
C6
330
2
100
AcDbEntity
  8
GAIKEI
 62
     7
100
AcDbCircle
 10
-18.80404804456012
 20
41.21366832745201
 30
0.0
 40
0.800399684573556
100
AcDbArc
 50
300.1125678787389
 51
350.9293027687489
  0
ARC
  5
C7
330
2
100
AcDbEntity
  8
GAIKEI
 62
     1
100
AcDbCircle
 10
-18.80830947452594
 20
41.21715663322271
 30
0.0
 40
0.600204272396698
100
AcDbArc
 50
300.1462061999843
 51
350.8234399417257
  0
ARC
  5
C8
330
2
100
AcDbEntity
  8
GAIKEI
 62
     1
100
AcDbCircle
 10
-35.43211338064592
 20
43.76250061727989
 30
0.0
 40
17.62266489486501
100
AcDbArc
 50
351.2690844810495
 51
355.8159024034174
  0
ARC
  5
C9
330
2
100
AcDbEntity
  8
GAIKEI
 62
     1
100
AcDbCircle
 10
-33.81750259046729
 20
43.61672648443675
 30
0.0
 40
15.79999999999988
100
AcDbArc
 50
350.9132526050994
 51
356.350362948595
  0
ARC
  5
CA
330
2
100
AcDbEntity
  8
GAIKEI
 62
     7
100
AcDbCircle
 10
-30.15164292162538
 20
43.61672647934557
 30
0.0
 40
12.39697055984641
100
AcDbArc
 50
348.4003130760322
 51
11.59968676582714
  0
LINE
  5
CB
330
2
100
AcDbEntity
  8
GAIKEI
 62
     1
100
AcDbLine
 10
-17.98025286884731
 20
41.11683891101671
 30
0.0
 11
-17.71602900670737
 21
41.1211397151967
 31
0.0
  0
ARC
  5
CC
330
2
100
AcDbEntity
  8
GAIKEI
 62
     7
100
AcDbCircle
 10
-28.46334799392398
 20
57.85248558949314
 30
0.0
 40
20.03974252264048
100
AcDbArc
 50
286.2309377010149
 51
300.1354161414298
  0
ARC
  5
CD
330
2
100
AcDbEntity
  8
GAIKEI
 62
     1
100
AcDbCircle
 10
-28.40390707714417
 20
57.76004266996261
 30
0.0
 40
19.7246014812511
100
AcDbArc
 50
286.1415192489525
 51
300.1165397479393
  0
ARC
  5
CE
330
2
100
AcDbEntity
  8
GAIKEI
 62
     7
100
AcDbCircle
 10
-20.49888895618796
 20
30.07436224630726
 30
0.0
 40
19.26579925404381
100
AcDbArc
 50
104.4549169573412
 51
120.2776173158085
  0
ARC
  5
CF
330
2
100
AcDbEntity
  8
GAIKEI
 62
     1
100
AcDbCircle
 10
-20.4942806675129
 20
30.04019701290889
 30
0.0
 40
19.09227814187785
100
AcDbArc
 50
104.6072888545326
 51
120.2348880867995
  0
ARC
  5
D0
330
2
100
AcDbEntity
  8
GAIKEI
 62
     7
100
AcDbCircle
 10
-29.80711213004898
 20
46.0161857826443
 30
0.0
 40
0.8054433251494025
100
AcDbArc
 50
120.2207307436358
 51
173.3530203388339
  0
ARC
  5
D1
330
2
100
AcDbEntity
  8
GAIKEI
 62
     1
100
AcDbCircle
 10
-29.80670243812657
 20
46.01630096562445
 30
0.0
 40
0.6001968884691667
100
AcDbArc
 50
120.1458725162295
 51
170.823773749594
  0
ARC
  5
D2
330
2
100
AcDbEntity
  8
GAIKEI
 62
     1
100
AcDbCircle
 10
3.385624016857917
 20
43.61671648249404
 30
0.0
 40
34.3753067428357
100
AcDbArc
 50
175.8367480075216
 51
184.1632185717526
  0
LINE
  5
D3
330
2
100
AcDbEntity
  8
GAIKEI
 62
     1
100
AcDbLine
 10
-30.63474986180736
 20
46.11661405999671
 30
0.0
 11
-30.89897471854741
 21
46.11231324805664
 31
0.0
  0
LINE
  5
D4
330
2
100
AcDbEntity
  8
GAIKEI
 62
     1
100
AcDbLine
 10
-30.6347523120875
 20
41.11683891101671
 30
0.0
 11
-30.89897617422745
 21
41.1211397151967
 31
0.0
  0
ARC
  5
D5
330
2
100
AcDbEntity
  8
GAIKEI
 62
     7
100
AcDbCircle
 10
-18.46336225930943
 20
43.61672647934557
 30
0.0
 40
12.39697055984641
100
AcDbArc
 50
168.4003132341729
 51
191.5996869239677
  0
ARC
  5
D6
330
2
100
AcDbEntity
  8
GAIKEI
 62
     1
100
AcDbCircle
 10
-15.58739032077884
 20
43.74298802765639
 30
0.0
 40
15.20502909681482
100
AcDbArc
 50
171.0463952407794
 51
176.1771824728736
  0
LINE
  5
D7
330
2
100
AcDbEntity
  8
GAIKEI
 62
     1
100
AcDbLine
 10
-30.77612120638745
 20
44.47672648447673
 30
0.0
 11
-30.53655060254746
 21
44.60238193219669
 31
0.0
  0
LINE
  5
D8
330
2
100
AcDbEntity
  8
GAIKEI
 62
     1
100
AcDbLine
 10
-30.81754634024745
 20
44.47672650937664
 30
0.0
 11
-30.77612120638745
 21
44.47672648447673
 31
0.0
  0
LINE
  5
D9
330
2
100
AcDbEntity
  8
GAIKEI
 62
     1
100
AcDbLine
 10
-30.79760897592738
 20
44.75672648443668
 30
0.0
 11
-30.81754634024745
 21
44.47672650937664
 31
0.0
  0
LINE
  5
DA
330
2
100
AcDbEntity
  8
GAIKEI
 62
     1
100
AcDbLine
 10
-30.75858816986741
 20
44.75672648445669
 30
0.0
 11
-30.79760897592738
 21
44.75672648443668
 31
0.0
  0
LINE
  5
DB
330
2
100
AcDbEntity
  8
GAIKEI
 62
     1
100
AcDbLine
 10
-30.53655060254746
 20
44.60238193219669
 30
0.0
 11
-30.75858816986741
 21
44.75672648445669
 31
0.0
  0
ARC
  5
DC
330
2
100
AcDbEntity
  8
GAIKEI
 62
     1
100
AcDbCircle
 10
-14.7975025904565
 20
43.61672648443636
 30
0.0
 40
16.00174530711097
100
AcDbArc
 50
176.9192034200002
 51
179.4987100522989
  0
LINE
  5
DD
330
2
100
AcDbEntity
  8
GAIKEI
 62
     1
100
AcDbLine
 10
-30.7986354522474
 20
43.47672643909669
 30
0.0
 11
-30.59750259046737
 21
43.61672648443669
 31
0.0
  0
LINE
  5
DE
330
2
100
AcDbEntity
  8
GAIKEI
 62
     1
100
AcDbLine
 10
-30.84628603600746
 20
43.47672648443671
 30
0.0
 11
-30.7986354522474
 21
43.47672643909669
 31
0.0
  0
LINE
  5
DF
330
2
100
AcDbEntity
  8
GAIKEI
 62
     1
100
AcDbLine
 10
-30.84628603600746
 20
43.75672648443668
 30
0.0
 11
-30.84628603600746
 21
43.47672648443671
 31
0.0
  0
LINE
  5
E0
330
2
100
AcDbEntity
  8
GAIKEI
 62
     1
100
AcDbLine
 10
-30.7986354522474
 20
43.75672652977669
 30
0.0
 11
-30.84628603600746
 21
43.75672648443668
 31
0.0
  0
LINE
  5
E1
330
2
100
AcDbEntity
  8
GAIKEI
 62
     1
100
AcDbLine
 10
-30.59750259046737
 20
43.61672648443669
 30
0.0
 11
-30.7986354522474
 21
43.75672652977669
 31
0.0
  0
ARC
  5
E2
330
2
100
AcDbEntity
  8
GAIKEI
 62
     1
100
AcDbCircle
 10
-14.79750259046753
 20
43.61672648443675
 30
0.0
 40
15.79999999999988
100
AcDbArc
 50
183.649637051405
 51
189.0867473949006
  0
LINE
  5
E3
330
2
100
AcDbEntity
  8
GAIKEI
 62
     1
100
AcDbLine
 10
-30.75858816986741
 20
42.47672648439669
 30
0.0
 11
-30.53655060254746
 21
42.6310710366767
 31
0.0
  0
LINE
  5
E4
330
2
100
AcDbEntity
  8
GAIKEI
 62
     1
100
AcDbLine
 10
-30.79760897592738
 20
42.4767264844367
 30
0.0
 11
-30.75858816986741
 21
42.47672648439669
 31
0.0
  0
LINE
  5
E5
330
2
100
AcDbEntity
  8
GAIKEI
 62
     1
100
AcDbLine
 10
-30.81754634180746
 20
42.75672648443668
 30
0.0
 11
-30.79760897592738
 21
42.4767264844367
 31
0.0
  0
LINE
  5
E6
330
2
100
AcDbEntity
  8
GAIKEI
 62
     1
100
AcDbLine
 10
-30.77612120638745
 20
42.75672648439672
 30
0.0
 11
-30.81754634180746
 21
42.75672648443668
 31
0.0
  0
LINE
  5
E7
330
2
100
AcDbEntity
  8
GAIKEI
 62
     1
100
AcDbLine
 10
-30.53655060254746
 20
42.6310710366767
 30
0.0
 11
-30.77612120638745
 21
42.75672648439672
 31
0.0
  0
ARC
  5
E8
330
2
100
AcDbEntity
  8
GAIKEI
 62
     1
100
AcDbCircle
 10
-14.79750259045878
 20
43.61672648443698
 30
0.0
 40
16.00174530710861
100
AcDbArc
 50
180.5012899477008
 51
183.08079658
  0
ARC
  5
E9
330
2
100
AcDbEntity
  8
GAIKEI
 62
     1
100
AcDbCircle
 10
-13.1828918002889
 20
43.76250061727989
 30
0.0
 40
17.62266489486501
100
AcDbArc
 50
184.1840975965825
 51
188.7309155189505
  0
ARC
  5
EA
330
2
100
AcDbEntity
  8
GAIKEI
 62
     1
100
AcDbCircle
 10
-14.79750259046753
 20
43.61672648443675
 30
0.0
 40
15.79999999999988
100
AcDbArc
 50
170.9132526036994
 51
183.5171784552311
  0
ARC
  5
EB
330
2
100
AcDbEntity
  8
GAIKEI
 62
     1
100
AcDbCircle
 10
-29.80669570640888
 20
41.21715663322271
 30
0.0
 40
0.600204272396698
100
AcDbArc
 50
189.1765600582742
 51
239.8537938000158
  0
ARC
  5
EC
330
2
100
AcDbEntity
  8
GAIKEI
 62
     7
100
AcDbCircle
 10
-29.8109571363747
 20
41.21366832745201
 30
0.0
 40
0.800399684573556
100
AcDbArc
 50
189.0706972312511
 51
239.8874321212612
  0
ARC
  5
ED
330
2
100
AcDbEntity
  8
GAIKEI
 62
     1
100
AcDbCircle
 10
-20.21109810379067
 20
57.7600426699625
 30
0.0
 40
19.72460148125099
100
AcDbArc
 50
239.8834602520606
 51
253.8584807510474
  0
ARC
  5
EE
330
2
100
AcDbEntity
  8
GAIKEI
 62
     7
100
AcDbCircle
 10
-20.15165718701084
 20
57.85248558949314
 30
0.0
 40
20.03974252264049
100
AcDbArc
 50
239.8645838585703
 51
253.769062298985
  0
ARC
  5
EF
330
2
100
AcDbEntity
  8
GAIKEI
 62
     1
100
AcDbCircle
 10
-24.30750259046741
 20
43.61672648443675
 30
0.0
 40
5.000000000000046
100
AcDbArc
 50
253.8919537181016
 51
286.1080462819018
  0
ARC
  5
F0
330
2
100
AcDbEntity
  8
GAIKEI
 62
     7
100
AcDbCircle
 10
-24.30750259045741
 20
43.57945543508231
 30
0.0
 40
5.173995363866386
100
AcDbArc
 50
253.7774413032776
 51
286.2225586967224
  0
ARC
  5
F1
330
2
100
AcDbEntity
  8
GAIKEI
100
AcDbCircle
 10
-31.61750259046747
 20
43.31672648443668
 30
0.0
 40
0.100000000000017
100
AcDbArc
 50
90.00000000000003
 51
179.9999999999902
  0
ARC
  5
F2
330
2
100
AcDbEntity
  8
GAIKEI
 62
     1
100
AcDbCircle
 10
-31.61750259046747
 20
40.35751409552562
 30
0.0
 40
0.100000000000017
100
AcDbArc
 50
180.0000000000097
 51
270.0
  0
ARC
  5
F3
330
2
100
AcDbEntity
  8
GAIKEI
100
AcDbCircle
 10
-31.61750259046747
 20
40.21672648443671
 30
0.0
 40
0.100000000000017
100
AcDbArc
 50
180.0000000000097
 51
270.0
  0
LINE
  5
F4
330
2
100
AcDbEntity
  8
GAIKEI
100
AcDbLine
 10
-31.71750259046738
 20
43.31672648443668
 30
0.0
 11
-31.71750259046738
 21
40.21672648443671
 31
0.0
  0
LINE
  5
F5
330
2
100
AcDbEntity
  8
GAIKEI
 62
     1
100
AcDbLine
 10
-31.51763963698741
 20
43.30970804575668
 30
0.0
 11
-31.61750259046747
 21
43.41494164137668
 31
0.0
  0
LINE
  5
F6
330
2
100
AcDbEntity
  8
GAIKEI
 62
     1
100
AcDbLine
 10
-30.99750259046746
 20
43.28244881821672
 30
0.0
 11
-31.51763963698741
 21
43.30970804575668
 31
0.0
  0
LINE
  5
F7
330
2
100
AcDbEntity
  8
GAIKEI
 62
     1
100
AcDbLine
 10
-31.51763963698741
 20
42.88453003005668
 30
0.0
 11
-31.61750259046747
 21
42.92811921259669
 31
0.0
  0
LINE
  5
F8
330
2
100
AcDbEntity
  8
GAIKEI
 62
     1
100
AcDbLine
 10
-30.99750259046746
 20
42.87323888831667
 30
0.0
 11
-31.51763963698741
 21
42.88453003005668
 31
0.0
  0
LINE
  5
F9
330
2
100
AcDbEntity
  8
GAIKEI
 62
     1
100
AcDbLine
 10
-31.51763963698741
 20
41.3489229387967
 30
0.0
 11
-31.61750259046747
 21
41.3053337562767
 31
0.0
  0
LINE
  5
FA
330
2
100
AcDbEntity
  8
GAIKEI
 62
     1
100
AcDbLine
 10
-30.99750259046746
 20
41.36021408055671
 30
0.0
 11
-31.51763963698741
 21
41.3489229387967
 31
0.0
  0
LINE
  5
FB
330
2
100
AcDbEntity
  8
GAIKEI
 62
     1
100
AcDbLine
 10
-31.51763963698741
 20
40.92374492311671
 30
0.0
 11
-31.51763963698741
 21
43.30970804575668
 31
0.0
  0
LINE
  5
FC
330
2
100
AcDbEntity
  8
GAIKEI
 62
     1
100
AcDbLine
 10
-31.51763963698741
 20
40.92374492311671
 30
0.0
 11
-31.61750259046747
 21
40.81851132749671
 31
0.0
  0
LINE
  5
FD
330
2
100
AcDbEntity
  8
GAIKEI
 62
     1
100
AcDbLine
 10
-30.99750259046746
 20
40.95100415065667
 30
0.0
 11
-31.51763963698741
 21
40.92374492311671
 31
0.0
  0
LINE
  5
FE
330
2
100
AcDbEntity
  8
GAIKEI
 62
     1
100
AcDbLine
 10
-31.41777668350747
 20
40.14660568533668
 30
0.0
 11
-31.61750259046747
 21
40.14660568533668
 31
0.0
  0
LINE
  5
FF
330
2
100
AcDbEntity
  8
GAIKEI
 62
     1
100
AcDbLine
 10
-31.41778995950748
 20
39.7471626999967
 30
0.0
 11
-31.41777668350747
 21
40.9289785187367
 31
0.0
  0
ARC
  5
100
330
2
100
AcDbEntity
  8
GAIKEI
100
AcDbCircle
 10
-31.51730268702127
 20
39.94471303963877
 30
0.0
 40
0.1001999034539572
100
AcDbArc
 50
180.0007143921952
 51
223.4543766985137
  0
LINE
  5
101
330
2
100
AcDbEntity
  8
GAIKEI
100
AcDbLine
 10
-31.41777668350747
 20
39.69399184001668
 30
0.0
 11
-31.59004002756743
 21
39.87579787481673
 31
0.0
  0
LINE
  5
102
330
2
100
AcDbEntity
  8
GAIKEI
100
AcDbLine
 10
-30.99750259046746
 20
39.6716454503723
 30
0.0
 11
-31.41777668350747
 21
39.69399184001668
 31
0.0
  0
LINE
  5
103
330
2
100
AcDbEntity
  8
GAIKEI
100
AcDbLine
 10
-31.59004002756868
 20
46.66317316424607
 30
0.0
 11
-31.61750259046747
 21
46.59433770667675
 31
0.0
  0
LINE
  5
104
330
2
100
AcDbEntity
  8
GAIKEI
100
AcDbLine
 10
-31.41777668350747
 20
46.84470085253673
 30
0.0
 11
-31.59004002756743
 21
46.66317316425664
 31
0.0
  0
LINE
  5
105
330
2
100
AcDbEntity
  8
GAIKEI
 62
     7
100
AcDbLine
 10
-31.61750259046747
 20
46.59433770667675
 30
0.0
 11
-31.61750259046747
 21
43.41672648443671
 31
0.0
  0
LINE
  5
106
330
2
100
AcDbEntity
  8
GAIKEI
 62
     1
100
AcDbLine
 10
-31.41777668350747
 20
46.44524903861674
 30
0.0
 11
-31.59004002756743
 21
46.44524903861674
 31
0.0
  0
LINE
  5
107
330
2
100
AcDbEntity
  8
GAIKEI
 62
     1
100
AcDbLine
 10
-31.41777668350747
 20
46.84470085253673
 30
0.0
 11
-31.41777668350747
 21
43.30447445011668
 31
0.0
  0
LINE
  5
108
330
2
100
AcDbEntity
  8
GAIKEI
100
AcDbLine
 10
-30.99750259046746
 20
46.8667264844367
 30
0.0
 11
-31.41777668350747
 21
46.84470085253673
 31
0.0
  0
LINE
  5
109
330
2
100
AcDbEntity
  8
GAIKEI
100
AcDbLine
 10
-30.09752162864746
 20
38.1167264844367
 30
0.0
 11
-18.51748355228736
 21
38.1167264844367
 31
0.0
  0
ARC
  5
10A
330
2
100
AcDbEntity
  8
GAIKEI
100
AcDbCircle
 10
-19.72108919450412
 20
47.54874243226794
 30
0.0
 40
2.128893012020578
100
AcDbArc
 50
8.843152502175527
 51
28.96928841976482
  0
ARC
  5
10B
330
2
100
AcDbEntity
  8
GAIKEI
100
AcDbCircle
 10
-18.74482521463611
 20
48.11677917702565
 30
0.0
 40
0.9999473104047316
100
AcDbArc
 50
27.58714993841128
 51
90.00443354217777
  0
LINE
  5
10C
330
2
100
AcDbEntity
  8
GAIKEI
100
AcDbLine
 10
-17.61750259046735
 20
47.87601732581669
 30
0.0
 11
-17.61750259046735
 21
39.41672648443671
 31
0.0
  0
LINE
  5
10D
330
2
100
AcDbEntity
  8
GAIKEI
100
AcDbLine
 10
-17.61750259046735
 20
39.41672648443671
 30
0.0
 11
-17.81633097372733
 21
39.21789810119668
 31
0.0
  0
LINE
  5
10E
330
2
100
AcDbEntity
  8
GAIKEI
100
AcDbLine
 10
-17.81751020614743
 20
39.21672648443672
 30
0.0
 11
-17.8175025904674
 21
38.81672648443668
 31
0.0
  0
ARC
  5
10F
330
2
100
AcDbEntity
  8
GAIKEI
100
AcDbCircle
 10
-18.51749251441336
 20
38.81671640839778
 30
0.0
 40
0.6999899240184383
100
AcDbArc
 50
270.0007335705471
 51
0.0008247468789011
  0
LINE
  5
110
330
2
100
AcDbEntity
  8
KIJUN
  6
S130
100
AcDbLine
 10
-24.30750259046741
 20
52.40773029143184
 30
0.0
 11
-24.30750259046741
 21
37.35546931626851
 31
0.0
  0
ARC
  5
114
330
2
100
AcDbEntity
  8
GAIKEI
100
AcDbCircle
 10
-30.09751266652145
 20
38.81671640839778
 30
0.0
 40
0.6999899240184383
100
AcDbArc
 50
179.9991752531211
 51
269.9992664294529
  0
LINE
  5
115
330
2
100
AcDbEntity
  8
GAIKEI
100
AcDbLine
 10
-30.79749497478739
 20
39.21672648443672
 30
0.0
 11
-30.79750259046742
 21
38.81672648443668
 31
0.0
  0
LINE
  5
116
330
2
100
AcDbEntity
  8
GAIKEI
100
AcDbLine
 10
-30.99750259046746
 20
39.41672648443671
 30
0.0
 11
-30.79867420720749
 21
39.21789810119668
 31
0.0
  0
ARC
  5
117
330
2
100
AcDbEntity
  8
GAIKEI
100
AcDbCircle
 10
-29.87017996629871
 20
48.11677917702565
 30
0.0
 40
0.9999473104047316
100
AcDbArc
 50
89.99556645782222
 51
152.4128500615887
  0
ARC
  5
118
330
2
100
AcDbEntity
  8
GAIKEI
100
AcDbCircle
 10
-28.8939159864307
 20
47.54874243226794
 30
0.0
 40
2.128893012020578
100
AcDbArc
 50
151.0307115802352
 51
171.1568474978245
  0
LINE
  5
119
330
2
100
AcDbEntity
  8
GAIKEI
100
AcDbLine
 10
-30.99750259046746
 20
47.87601732581669
 30
0.0
 11
-30.99750259046746
 21
39.41672648443671
 31
0.0
  0
LINE
  5
11A
330
2
100
AcDbEntity
  8
GAIKEI
100
AcDbLine
 10
-29.87010259046738
 20
49.11672648443669
 30
0.0
 11
-25.21805987136742
 21
49.11672648443675
 31
0.0
  0
LINE
  5
11B
330
2
100
AcDbEntity
  8
GAIKEI
 62
     1
100
AcDbLine
 10
-24.90750259046743
 20
49.6167264844367
 30
0.0
 11
-23.70750259046738
 21
49.6167264844367
 31
0.0
  0
LINE
  5
11C
330
2
100
AcDbEntity
  8
GAIKEI
100
AcDbLine
 10
-28.20750259046739
 20
49.31672648443674
 30
0.0
 11
-25.03917443316752
 21
49.31672648443674
 31
0.0
  0
LINE
  5
11D
330
2
100
AcDbEntity
  8
GAIKEI
100
AcDbLine
 10
-20.40750259046743
 20
49.31672648443674
 30
0.0
 11
-20.40750259046743
 21
49.11672648443669
 31
0.0
  0
LINE
  5
11E
330
2
100
AcDbEntity
  8
GAIKEI
100
AcDbLine
 10
-21.00750259046745
 20
51.11672648443669
 30
0.0
 11
-20.40750259046743
 21
49.31672648443674
 31
0.0
  0
LINE
  5
11F
330
2
100
AcDbEntity
  8
GAIKEI
100
AcDbLine
 10
-27.60750259046736
 20
51.11672648443669
 30
0.0
 11
-21.00750259046745
 21
51.11672648443669
 31
0.0
  0
LINE
  5
120
330
2
100
AcDbEntity
  8
GAIKEI
100
AcDbLine
 10
-28.20750259046739
 20
49.31672648443674
 30
0.0
 11
-27.60750259046736
 21
51.11672648443669
 31
0.0
  0
LINE
  5
121
330
2
100
AcDbEntity
  8
GAIKEI
100
AcDbLine
 10
-28.20750259046739
 20
49.11672648443669
 30
0.0
 11
-28.20750259046739
 21
49.31672648443674
 31
0.0
  0
LINE
  5
122
330
2
100
AcDbEntity
  8
GAIKEI
 62
     1
100
AcDbLine
 10
-23.75750259046745
 20
49.91672648443665
 30
0.0
 11
-23.75750259046745
 21
51.11672648443669
 31
0.0
  0
LINE
  5
123
330
2
100
AcDbEntity
  8
GAIKEI
 62
     1
100
AcDbLine
 10
-24.85750259046736
 20
49.91672648443665
 30
0.0
 11
-23.75750259046745
 21
49.91672648443665
 31
0.0
  0
LINE
  5
124
330
2
100
AcDbEntity
  8
GAIKEI
 62
     1
100
AcDbLine
 10
-24.85750259046736
 20
51.11672648443669
 30
0.0
 11
-24.85750259046736
 21
49.91672648443665
 31
0.0
  0
ARC
  5
125
330
2
100
AcDbEntity
  8
GAIKEI
 62
     1
100
AcDbCircle
 10
-23.30750259046752
 20
49.6167264844367
 30
0.0
 40
0.3999999999998325
100
AcDbArc
 50
180.0
 51
221.8103148957841
  0
LINE
  5
126
330
2
100
AcDbEntity
  8
GAIKEI
 62
     1
100
AcDbLine
 10
-23.6056449874674
 20
49.35005981777016
 30
0.0
 11
-23.30750259046741
 21
49.01672648443668
 31
0.0
  0
LINE
  5
127
330
2
100
AcDbEntity
  8
GAIKEI
 62
     1
100
AcDbLine
 10
-23.30750259046741
 20
47.92949821499672
 30
0.0
 11
-23.30750259046741
 21
49.01672648443668
 31
0.0
  0
ARC
  5
128
330
2
100
AcDbEntity
  8
GAIKEI
 62
     1
100
AcDbCircle
 10
-22.70750259046739
 20
47.92949821500627
 30
0.0
 40
0.5999999999999908
100
AcDbArc
 50
180.0000000009162
 51
249.6455936017591
  0
LINE
  5
129
330
2
100
AcDbEntity
  8
GAIKEI
 62
     1
100
AcDbLine
 10
-25.00936019346742
 20
49.35005981777016
 30
0.0
 11
-25.30750259046741
 21
49.01672648443668
 31
0.0
  0
ARC
  5
12A
330
2
100
AcDbEntity
  8
GAIKEI
 62
     1
100
AcDbCircle
 10
-25.30750259046718
 20
49.6167264844367
 30
0.0
 40
0.3999999999998325
100
AcDbArc
 50
318.1896851042159
 51
0.0
  0
LINE
  5
12B
330
2
100
AcDbEntity
  8
GAIKEI
 62
     1
100
AcDbLine
 10
-25.30750259046741
 20
47.92949821499672
 30
0.0
 11
-25.30750259046741
 21
49.01672648443668
 31
0.0
  0
LINE
  5
12C
330
2
100
AcDbEntity
  8
GAIKEI
 62
     1
100
AcDbLine
 10
-23.70750259046738
 20
47.81672648443674
 30
0.0
 11
-24.30750259046741
 21
47.21672648443671
 31
0.0
  0
LINE
  5
12D
330
2
100
AcDbEntity
  8
GAIKEI
 62
     1
100
AcDbLine
 10
-24.05750259046741
 20
47.81672648443674
 30
0.0
 11
-23.70750259046738
 21
47.81672648443674
 31
0.0
  0
LINE
  5
12E
330
2
100
AcDbEntity
  8
GAIKEI
 62
     1
100
AcDbLine
 10
-24.05750259046741
 20
48.81672648443674
 30
0.0
 11
-24.05750259046741
 21
47.81672648443674
 31
0.0
  0
LINE
  5
12F
330
2
100
AcDbEntity
  8
GAIKEI
 62
     1
100
AcDbLine
 10
-24.55750259046741
 20
48.81672648443674
 30
0.0
 11
-24.05750259046741
 21
48.81672648443674
 31
0.0
  0
LINE
  5
130
330
2
100
AcDbEntity
  8
GAIKEI
 62
     1
100
AcDbLine
 10
-24.55750259046741
 20
47.81672648443674
 30
0.0
 11
-24.55750259046741
 21
48.81672648443674
 31
0.0
  0
LINE
  5
131
330
2
100
AcDbEntity
  8
GAIKEI
 62
     1
100
AcDbLine
 10
-24.90750259046743
 20
47.81672648443674
 30
0.0
 11
-24.55750259046741
 21
47.81672648443674
 31
0.0
  0
LINE
  5
132
330
2
100
AcDbEntity
  8
GAIKEI
 62
     1
100
AcDbLine
 10
-24.30750259046741
 20
47.21672648443671
 30
0.0
 11
-24.90750259046743
 21
47.81672648443674
 31
0.0
  0
ARC
  5
133
330
2
100
AcDbEntity
  8
GAIKEI
 62
     1
100
AcDbCircle
 10
-25.90750259046743
 20
47.92949821500627
 30
0.0
 40
0.5999999999999908
100
AcDbArc
 50
290.3544063982409
 51
359.9999999990838
  0
ARC
  5
134
330
2
100
AcDbEntity
  8
GAIKEI
 62
     1
100
AcDbCircle
 10
-24.30750259046741
 20
43.61672648443669
 30
0.0
 40
3.999999999999801
100
AcDbArc
 50
110.3544063982377
 51
69.64559360176227
  0
LINE
  5
135
330
2
100
AcDbEntity
  8
KIJUN
  6
S130
100
AcDbLine
 10
-32.14159934735952
 20
43.61672648443669
 30
0.0
 11
-16.94072184904419
 21
43.61672648443669
 31
0.0
  0
DIMENSION
  5
136
330
2
100
AcDbEntity
  8
SUNPO
100
AcDbDimension
  2
*D5
 10
29.12236791388213
 20
59.11447247918459
 30
0.0
 11
14.07236791388212
 21
60.8644724791846
 31
0.0
 70
    33
  1
151
 71
     5
 42
30.10000000000002
  3
STANDARD
100
AcDbAlignedDimension
 13
-0.977632086117893
 23
51.1144724791846
 33
0.0
 14
29.12236791388213
 24
51.1144724791846
 34
0.0
1001
ACAD
1000
DSTYLE
1002
{
1070
    40
1040
1.0
1070
   140
1040
2.5
1070
   147
1040
0.5
1070
   172
1070
     1
1070
   279
1070
     0
1070
   288
1070
     0
1002
}
  0
DIMENSION
  5
143
330
2
100
AcDbEntity
  8
SUNPO
100
AcDbDimension
  2
*D4
 10
-17.61750259046735
 20
59.11447247918459
 30
0.0
 11
-24.61750259046735
 21
60.8644724791846
 31
0.0
 70
    33
  1
70
 71
     5
 42
14.0
  3
STANDARD
100
AcDbAlignedDimension
 13
-31.61750259046736
 23
51.1144724791846
 33
0.0
 14
-17.61750259046735
 24
51.1144724791846
 34
0.0
1001
ACAD
1000
DSTYLE
1002
{
1070
    40
1040
1.0
1070
   140
1040
2.5
1070
   147
1040
0.5
1070
   172
1070
     1
1070
   279
1070
     0
1070
   288
1070
     0
1002
}
  0
TEXT
  5
150
330
2
100
AcDbEntity
  8
MOJI1
100
AcDbText
 10
-35.30524381889075
 20
69.91395084804122
 30
0.0
 40
4.0
  1
カラーテレビカメラ
100
AcDbText
  0
TEXT
  5
152
330
2
100
AcDbEntity
  8
TOUROKU
100
AcDbText
 10
46.82803954736921
 20
63.91395084804094
 30
0.0
 40
2.0
  1
ＷＶＣＬ９３０
 72
     2
 11
62.69470621403588
 21
63.91395084804094
 31
0.0
100
AcDbText
  0
TEXT
  5
154
330
2
100
AcDbEntity
  8
MOJI1
100
AcDbText
 10
-19.80524381889143
 20
11.91395084804151
 30
0.0
 40
3.0
  1
　　：５４０ＴＶ本ｔｙｐ、５２０ＴＶ本以上（カラーモード時）
 41
0.7700000000000001
100
AcDbText
  0
TEXT
  5
155
330
2
100
AcDbEntity
  8
MOJI1
100
AcDbText
 10
-19.80524381889143
 20
1.913950848041508
 30
0.0
 40
3.0
  1
白黒モード時０．００８ルクス（Ｆ１．４）
100
AcDbText
  0
TEXT
  5
156
330
2
100
AcDbEntity
  8
MOJI1
100
AcDbText
 10
-19.80524381889143
 20
-38.08604915195843
 30
0.0
 40
3.0
  1
バックフォーカス(ＡＢＦ／マニュアル／カラー白黒切換連動）
 41
0.8
100
AcDbText
  0
TEXT
  5
157
330
2
100
AcDbEntity
  8
MOJI1
100
AcDbText
 10
-19.80524381889143
 20
-18.08604915195849
 30
0.0
 40
3.0
  1
アラーム出力（オープンコレクタ、ｍａｘ１６Ｖ、１００ｍＡ）
 41
0.8
100
AcDbText
  0
TEXT
  5
158
330
2
100
AcDbEntity
  8
MOJI1
100
AcDbText
 10
-19.80524381889143
 20
-13.08604915195849
 30
0.0
 40
3.0
  1
ＣＳマウント（Ｃマウントアダプタ付属）
100
AcDbText
  0
TEXT
  5
159
330
2
100
AcDbEntity
  8
MOJI1
100
AcDbText
 10
-19.80524381889143
 20
-8.086049151958491
 30
0.0
 40
3.0
  1
５０ｄＢ（ＡＧＣ ＯＦＦ時）
100
AcDbText
  0
TEXT
  5
15A
330
2
100
AcDbEntity
  8
MOJI1
100
AcDbText
 10
-59.80524381889146
 20
-18.08604915195849
 30
0.0
 40
3.0
  1
外部端子
100
AcDbText
  0
TEXT
  5
15B
330
2
100
AcDbEntity
  8
MOJI1
100
AcDbText
 10
-59.80524381889146
 20
-13.08604915195849
 30
0.0
 40
3.0
  1
レンズマウント
100
AcDbText
  0
TEXT
  5
15C
330
2
100
AcDbEntity
  8
MOJI1
100
AcDbText
 10
-59.80524381889146
 20
-3.086049151958548
 30
0.0
 40
3.0
  1
映像出力
100
AcDbText
  0
TEXT
  5
15D
330
2
100
AcDbEntity
  8
MOJI1
100
AcDbText
 10
-59.80524381889146
 20
16.91395084804145
 30
0.0
 40
3.0
  1
解像度
100
AcDbText
  0
TEXT
  5
15E
330
2
100
AcDbEntity
  8
MOJI1
100
AcDbText
 10
-59.80524381889146
 20
6.913950848041451
 30
0.0
 40
3.0
  1
最低照度
100
AcDbText
  0
TEXT
  5
15F
330
2
100
AcDbEntity
  8
MOJI1
100
AcDbText
 10
-59.80524381889146
 20
-8.086049151958548
 30
0.0
 40
3.0
  1
Ｓ／Ｎ
100
AcDbText
  0
LINE
  5
160
330
2
100
AcDbEntity
  8
WAKU
  6
Continuous
 62
     1
100
AcDbLine
 10
-62.30524381889143
 20
10.91395084804151
 30
0.0
 11
62.69475618110857
 21
10.91395084804151
 31
0.0
  0
LINE
  5
162
330
2
100
AcDbEntity
  8
WAKU
  6
Continuous
 62
     1
100
AcDbLine
 10
-62.30524381889143
 20
15.91395084804151
 30
0.0
 11
62.69475618110857
 21
15.91395084804151
 31
0.0
  0
LINE
  5
163
330
2
100
AcDbEntity
  8
WAKU
 62
     1
100
AcDbLine
 10
-62.30524381889143
 20
10.91395084804151
 30
0.0
 11
62.69475618110857
 21
10.91395084804151
 31
0.0
  0
LINE
  5
164
330
2
100
AcDbEntity
  8
WAKU
 62
     1
100
AcDbLine
 10
-62.30524381889143
 20
15.91395084804151
 30
0.0
 11
62.69475618110857
 21
15.91395084804151
 31
0.0
  0
LINE
  5
165
330
2
100
AcDbEntity
  8
WAKU
  6
Continuous
 62
     1
100
AcDbLine
 10
-62.30524381889143
 20
5.913950848041508
 30
0.0
 11
62.69475618110857
 21
5.913950848041508
 31
0.0
  0
LINE
  5
166
330
2
100
AcDbEntity
  8
WAKU
 62
     1
100
AcDbLine
 10
-62.30524381889143
 20
5.913950848041508
 30
0.0
 11
62.69475618110857
 21
5.913950848041508
 31
0.0
  0
TEXT
  5
167
330
2
100
AcDbEntity
  8
MOJI1
100
AcDbText
 10
-19.80524381889143
 20
-3.086049151958491
 30
0.0
 40
3.0
  1
ＶＢＳ：１．０Ｖ[Ｐ－Ｐ]／７５Ω、コンポジト信号
 41
0.9200000000000001
100
AcDbText
  0
TEXT
  5
168
330
2
100
AcDbEntity
  8
MOJI1
100
AcDbText
 10
-19.80524381889143
 20
6.913950848041508
 30
0.0
 40
3.0
  1
カラーモード時０．０９ルクス（Ｆ１．４）
100
AcDbText
  0
TEXT
  5
169
330
2
100
AcDbEntity
  8
MOJI1
100
AcDbText
 10
-19.80524381889143
 20
16.91395084804151
 30
0.0
 40
3.0
  1
水平：５７０ＴＶ本以上（白黒モード）
 41
0.95
100
AcDbText
  0
LINE
  5
16A
330
2
100
AcDbEntity
  8
WAKU
  6
Continuous
 62
     1
100
AcDbLine
 10
-62.30524381889143
 20
20.91395084804151
 30
0.0
 11
62.69475618110857
 21
20.91395084804151
 31
0.0
  0
LINE
  5
16B
330
2
100
AcDbEntity
  8
WAKU
  6
Continuous
 62
     1
100
AcDbLine
 10
-62.30524381889143
 20
25.91395084804151
 30
0.0
 11
62.69475618110857
 21
25.91395084804151
 31
0.0
  0
LINE
  5
16C
330
2
100
AcDbEntity
  8
WAKU
 62
     4
100
AcDbLine
 10
62.69475618110857
 20
30.91395084804151
 30
0.0
 11
-62.30524381889143
 21
30.91395084804151
 31
0.0
  0
LINE
  5
16D
330
2
100
AcDbEntity
  8
WAKU
 62
     1
100
AcDbLine
 10
-62.30524381889143
 20
20.91395084804151
 30
0.0
 11
62.69475618110857
 21
20.91395084804151
 31
0.0
  0
LINE
  5
16E
330
2
100
AcDbEntity
  8
WAKU
 62
     1
100
AcDbLine
 10
-62.30524381889143
 20
25.91395084804151
 30
0.0
 11
62.69475618110857
 21
25.91395084804151
 31
0.0
  0
LINE
  5
16F
330
2
100
AcDbEntity
  8
WAKU
 62
     4
100
AcDbLine
 10
62.69475618110857
 20
-39.08604915195843
 30
0.0
 11
62.69475618110857
 21
30.91395084804151
 31
0.0
  0
LINE
  5
170
330
2
100
AcDbEntity
  8
WAKU
 62
     4
100
AcDbLine
 10
-22.30524381889143
 20
-39.08604915195843
 30
0.0
 11
-22.30524381889143
 21
30.91395084804151
 31
0.0
  0
TEXT
  5
171
330
2
100
AcDbEntity
  8
MOJI1
100
AcDbText
 10
-19.80524381889143
 20
-28.08604915195843
 30
0.0
 40
3.0
  1
電子感度アップ、カラー／白黒切換（デイナイト対応）
 41
0.9200000000000001
100
AcDbText
  0
TEXT
  5
172
330
2
100
AcDbEntity
  8
MOJI1
100
AcDbText
 10
-19.80524381889143
 20
-33.08604915195843
 30
0.0
 40
3.0
  1
モーションディテクタ
100
AcDbText
  0
LINE
  5
173
330
2
100
AcDbEntity
  8
WAKU
 62
     4
100
AcDbLine
 10
-62.30524381889143
 20
30.91395084804151
 30
0.0
 11
-62.30524381889143
 21
-39.08604915195843
 31
0.0
  0
TEXT
  5
174
330
2
100
AcDbEntity
  8
MOJI1
100
AcDbText
 10
-59.80524381889143
 20
21.91395084804145
 30
0.0
 40
3.0
  1
撮像素子
100
AcDbText
  0
TEXT
  5
175
330
2
100
AcDbEntity
  8
MOJI1
100
AcDbText
 10
-59.80524381889143
 20
26.91395084804145
 30
0.0
 40
3.0
  1
電　源
100
AcDbText
  0
TEXT
  5
176
330
2
100
AcDbEntity
  8
MOJI1
100
AcDbText
 10
-59.80524381889143
 20
-28.08604915195843
 30
0.0
 40
3.0
  1
機　能
100
AcDbText
  0
LINE
  5
177
330
2
100
AcDbEntity
  8
WAKU
 62
     1
100
AcDbLine
 10
-62.30524381889143
 20
-29.08604915195843
 30
0.0
 11
62.69475618110857
 21
-29.08604915195843
 31
0.0
  0
LINE
  5
178
330
2
100
AcDbEntity
  8
WAKU
  6
Continuous
 62
     1
100
AcDbLine
 10
-62.30524381889143
 20
-29.08604915195843
 30
0.0
 11
62.69475618110857
 21
-29.08604915195843
 31
0.0
  0
LINE
  5
179
330
2
100
AcDbEntity
  8
WAKU
  6
Continuous
 62
     4
100
AcDbLine
 10
62.69475618110857
 20
-39.08604915195843
 30
0.0
 11
-62.30524381889143
 21
-39.08604915195843
 31
0.0
  0
LINE
  5
17A
330
2
100
AcDbEntity
  8
WAKU
 62
     1
100
AcDbLine
 10
-62.30524381889143
 20
-4.086049151958434
 30
0.0
 11
62.69475618110857
 21
-4.086049151958434
 31
0.0
  0
LINE
  5
17B
330
2
100
AcDbEntity
  8
WAKU
 62
     1
100
AcDbLine
 10
-62.30524381889143
 20
-9.086049151958434
 30
0.0
 11
62.69475618110857
 21
-9.086049151958434
 31
0.0
  0
LINE
  5
17C
330
2
100
AcDbEntity
  8
WAKU
 62
     1
100
AcDbLine
 10
-62.30524381889143
 20
-14.08604915195843
 30
0.0
 11
62.69475618110857
 21
-14.08604915195843
 31
0.0
  0
LINE
  5
17D
330
2
100
AcDbEntity
  8
WAKU
 62
     1
100
AcDbLine
 10
-62.30524381889143
 20
-19.08604915195843
 30
0.0
 11
62.69475618110857
 21
-19.08604915195843
 31
0.0
  0
LINE
  5
17E
330
2
100
AcDbEntity
  8
WAKU
 62
     1
100
AcDbLine
 10
-62.30524381889143
 20
-24.08604915195843
 30
0.0
 11
62.69475618110857
 21
-24.08604915195843
 31
0.0
  0
LINE
  5
17F
330
2
100
AcDbEntity
  8
WAKU
  6
Continuous
 62
     1
100
AcDbLine
 10
-62.30524381889143
 20
-14.08604915195843
 30
0.0
 11
62.69475618110857
 21
-14.08604915195843
 31
0.0
  0
LINE
  5
180
330
2
100
AcDbEntity
  8
WAKU
  6
Continuous
 62
     1
100
AcDbLine
 10
-62.30524381889143
 20
-19.08604915195843
 30
0.0
 11
62.69475618110857
 21
-19.08604915195843
 31
0.0
  0
LINE
  5
181
330
2
100
AcDbEntity
  8
WAKU
  6
Continuous
 62
     1
100
AcDbLine
 10
-62.30524381889143
 20
0.9139508480415656
 30
0.0
 11
62.69475618110857
 21
0.9139508480415656
 31
0.0
  0
LINE
  5
182
330
2
100
AcDbEntity
  8
WAKU
  6
Continuous
 62
     1
100
AcDbLine
 10
-62.30524381889143
 20
-4.086049151958434
 30
0.0
 11
62.69475618110857
 21
-4.086049151958434
 31
0.0
  0
LINE
  5
183
330
2
100
AcDbEntity
  8
WAKU
  6
Continuous
 62
     1
100
AcDbLine
 10
-62.30524381889143
 20
-9.086049151958434
 30
0.0
 11
62.69475618110857
 21
-9.086049151958434
 31
0.0
  0
LINE
  5
184
330
2
100
AcDbEntity
  8
WAKU
  6
Continuous
 62
     1
100
AcDbLine
 10
-62.30524381889143
 20
-24.08604915195843
 30
0.0
 11
62.69475618110857
 21
-24.08604915195843
 31
0.0
  0
TEXT
  5
185
330
2
100
AcDbEntity
  8
MOJI1
100
AcDbText
 10
-19.80524381889143
 20
21.91395084804145
 30
0.0
 40
3.0
  1
１／２型インターライン転送方式ＣＣＤ（近赤外対応）
 41
0.9200000000000001
100
AcDbText
  0
TEXT
  5
186
330
2
100
AcDbEntity
  8
MOJI1
100
AcDbText
 10
-18.80524381889143
 20
26.91395084804145
 30
0.0
 40
3.0
  1
ＡＶ１００Ｖ　５０Ｈｚ／６０Ｈｚ
100
AcDbText
  0
TEXT
  5
187
330
2
100
AcDbEntity
  8
MOJI1
100
AcDbText
 10
-19.80524381889143
 20
-23.08604915195843
 30
0.0
 40
3.0
  1
カラー／白黒切換入力（５Ｖ、プルアップ)
 41
0.95
100
AcDbText
  0
LINE
  5
188
330
2
100
AcDbEntity
  8
WAKU
  6
Continuous
 62
     1
100
AcDbLine
 10
-62.30524381889143
 20
-34.08604915195843
 30
0.0
 11
62.69475618110857
 21
-34.08604915195843
 31
0.0
  0
ENDSEC
  0
SECTION
  2
OBJECTS
  0
DICTIONARY
  5
7
330
0
100
AcDbDictionary
281
     1
  3
ACAD_COLOR
350
2C
  3
ACAD_GROUP
350
28
  3
ACAD_LAYOUT
350
B
  3
ACAD_MATERIAL
350
2B
  3
ACAD_MLINESTYLE
350
29
  3
ACAD_PLOTSETTINGS
350
2A
  3
ACAD_PLOTSTYLENAME
350
6
  3
ACDBHEADERROUNDTRIPXREC
350
1C5
  3
AcDbVariableDictionary
350
1C0
  0
DICTIONARY
  5
11
330
10
100
AcDbDictionary
280
     1
281
     1
  3
ACAD_LAYERSTATES
360
12
  0
DICTIONARY
  5
2C
102
{ACAD_REACTORS
330
7
102
}
330
7
100
AcDbDictionary
281
     1
  0
DICTIONARY
  5
28
102
{ACAD_REACTORS
330
7
102
}
330
7
100
AcDbDictionary
281
     1
  0
DICTIONARY
  5
B
102
{ACAD_REACTORS
330
7
102
}
330
7
100
AcDbDictionary
281
     1
  3
Model
350
A
  3
レイアウト1
350
F
  0
DICTIONARY
  5
2B
102
{ACAD_REACTORS
330
7
102
}
330
7
100
AcDbDictionary
281
     1
  0
DICTIONARY
  5
29
102
{ACAD_REACTORS
330
7
102
}
330
7
100
AcDbDictionary
281
     1
  3
Standard
350
2E
  0
DICTIONARY
  5
2A
102
{ACAD_REACTORS
330
7
102
}
330
7
100
AcDbDictionary
281
     1
  0
ACDBDICTIONARYWDFLT
  5
6
102
{ACAD_REACTORS
330
7
102
}
330
7
100
AcDbDictionary
281
     1
  3
Normal
350
5
100
AcDbDictionaryWithDefault
340
5
  0
DICTIONARY
  5
1C5
102
{ACAD_REACTORS
330
7
102
}
330
7
100
AcDbDictionary
281
     1
  3
COLORDICT
350
1C7
  3
MATERIALDICT
350
1C6
  0
DICTIONARY
  5
1C0
102
{ACAD_REACTORS
330
7
102
}
330
7
100
AcDbDictionary
281
     1
  3
DIMASSOC
350
1C2
  3
HIDETEXT
350
1C1
  3
PROJECTNAME
350
1C3
  0
DICTIONARY
  5
12
102
{ACAD_REACTORS
330
11
102
}
330
11
100
AcDbDictionary
281
     1
  0
LAYOUT
  5
A
102
{ACAD_XDICTIONARY
360
1C8
102
}
102
{ACAD_REACTORS
330
B
102
}
330
B
100
AcDbPlotSettings
  1

  2
Ａ４－縦3FRIM01.pc3
  4
A4
  6

 40
5.873749732971191
 41
5.873747825622558
 42
5.873748779296875
 43
5.873748779296875
 44
209.9733276367187
 45
296.9259948730469
 46
5.429999999999999
 47
0.0
 48
0.0
 49
0.0
140
0.0
141
0.0
142
1.0
143
1.382388793903341
 70
 11956
 72
     1
 73
     0
 74
     1
  7
tmsacad.ctb
 75
     0
147
0.7233854935820042
148
0.0064050313486632
149
0.0060110292993159
100
AcDbLayout
  1
Model
 70
     1
 71
     0
 10
0.0
 20
0.0
 11
12.0
 21
9.0
 12
0.0
 22
0.0
 32
0.0
 14
0.0
 24
0.0
 34
0.0
 15
0.0
 25
0.0
 35
0.0
146
0.0
 13
0.0
 23
0.0
 33
0.0
 16
1.0
 26
0.0
 36
0.0
 17
0.0
 27
1.0
 37
0.0
 76
     0
330
2
  0
LAYOUT
  5
F
102
{ACAD_XDICTIONARY
360
1CA
102
}
102
{ACAD_REACTORS
330
B
102
}
330
B
100
AcDbPlotSettings
  1

  2
None
  4

  6

 40
0.0
 41
0.0
 42
0.0
 43
0.0
 44
0.0
 45
0.0
 46
0.0
 47
0.0
 48
0.0
 49
0.0
140
0.0
141
0.0
142
1.0
143
1.0
 70
   688
 72
     0
 73
     0
 74
     5
  7
tmsacad.ctb
 75
    16
147
1.0
148
0.0
149
0.0
100
AcDbLayout
  1
レイアウト1
 70
     1
 71
     1
 10
0.0
 20
0.0
 11
12.0
 21
9.0
 12
0.0
 22
0.0
 32
0.0
 14
0.0
 24
0.0
 34
0.0
 15
0.0
 25
0.0
 35
0.0
146
0.0
 13
0.0
 23
0.0
 33
0.0
 16
1.0
 26
0.0
 36
0.0
 17
0.0
 27
1.0
 37
0.0
 76
     0
330
C
  0
MLINESTYLE
  5
2E
102
{ACAD_REACTORS
330
29
102
}
330
29
100
AcDbMlineStyle
  2
STANDARD
 70
     0
  3

 62
   256
 51
90.0
 52
90.0
 71
     2
 49
0.5
 62
   256
  6
BYLAYER
 49
-0.5
 62
   256
  6
BYLAYER
  0
ACDBPLACEHOLDER
  5
5
102
{ACAD_REACTORS
330
6
102
}
330
6
  0
XRECORD
  5
1C7
102
{ACAD_REACTORS
330
1C5
102
}
330
1C5
100
AcDbXrecord
280
     1
340
2C
  0
XRECORD
  5
1C6
102
{ACAD_REACTORS
330
1C5
102
}
330
1C5
100
AcDbXrecord
280
     1
340
2B
  0
DICTIONARYVAR
  5
1C2
102
{ACAD_REACTORS
330
1C0
102
}
330
1C0
100
DictionaryVariables
280
     0
  1
1
  0
DICTIONARYVAR
  5
1C1
102
{ACAD_REACTORS
330
1C0
102
}
330
1C0
100
DictionaryVariables
280
     0
  1
1
  0
DICTIONARYVAR
  5
1C3
102
{ACAD_REACTORS
330
1C0
102
}
330
1C0
100
DictionaryVariables
280
     0
  1

  0
DICTIONARY
  5
1C8
330
A
100
AcDbDictionary
280
     1
281
     1
  3
ACAD_XREC_ROUNDTRIP
360
1C9
  0
DICTIONARY
  5
1CA
330
F
100
AcDbDictionary
280
     1
281
     1
  3
ACAD_XREC_ROUNDTRIP
360
1CB
  0
XRECORD
  5
1C9
102
{ACAD_REACTORS
330
1C8
102
}
330
1C8
100
AcDbXrecord
280
     1
102
SHADEPLOT
 70
     0
102
SHADEPLOTRESLEVEL
 70
     2
102
SHADEPLOTCUSTOMDPI
 70
   300
  0
XRECORD
  5
1CB
102
{ACAD_REACTORS
330
1CA
102
}
330
1CA
100
AcDbXrecord
280
     1
102
SHADEPLOT
 70
     0
102
SHADEPLOTRESLEVEL
 70
     2
102
SHADEPLOTCUSTOMDPI
 70
   300
  0
ENDSEC
  0
EOF
