  0
SECTION
  2
HEADER
  9
$ACADVER
  1
AC1015
  9
$ACADMAINTVER
 70
    13
  9
$DWGCODEPAGE
  3
ANSI_932
  9
$INSBASE
 10
0.0
 20
246.4992141396417
 30
0.0
  9
$EXTMIN
 10
-61.08460431196681
 20
-119.3108566998162
 30
-0.0000000349181948
  9
$EXTMAX
 10
64.07388033929783
 20
113.5728368416157
 30
0.0000000814935746
  9
$LIMMIN
 10
-1101.784450318844
 20
-1579.160531687243
  9
$LIMMAX
 10
-508.2420711400536
 20
-1161.440814074914
  9
$ORTHOMODE
 70
     1
  9
$REGENMODE
 70
     1
  9
$FILLMODE
 70
     1
  9
$QTEXTMODE
 70
     0
  9
$MIRRTEXT
 70
     1
  9
$LTSCALE
 40
1.0
  9
$ATTMODE
 70
     1
  9
$TEXTSIZE
 40
3.0
  9
$TRACEWID
 40
0.5
  9
$TEXTSTYLE
  7
STANDARD
  9
$CLAYER
  8
SUNPO
  9
$CELTYPE
  6
BYLAYER
  9
$CECOLOR
 62
   256
  9
$CELTSCALE
 40
1.0
  9
$DISPSILH
 70
     0
  9
$DIMSCALE
 40
1.0
  9
$DIMASZ
 40
2.0
  9
$DIMEXO
 40
2.0
  9
$DIMDLI
 40
8.0
  9
$DIMRND
 40
0.0
  9
$DIMDLE
 40
0.0
  9
$DIMEXE
 40
2.0
  9
$DIMTP
 40
0.0
  9
$DIMTM
 40
0.0
  9
$DIMTXT
 40
2.5
  9
$DIMCEN
 40
0.0
  9
$DIMTSZ
 40
0.0
  9
$DIMTOL
 70
     0
  9
$DIMLIM
 70
     0
  9
$DIMTIH
 70
     0
  9
$DIMTOH
 70
     0
  9
$DIMSE1
 70
     0
  9
$DIMSE2
 70
     0
  9
$DIMTAD
 70
     3
  9
$DIMZIN
 70
     0
  9
$DIMBLK
  1

  9
$DIMASO
 70
     1
  9
$DIMSHO
 70
     1
  9
$DIMPOST
  1

  9
$DIMAPOST
  1

  9
$DIMALT
 70
     0
  9
$DIMALTD
 70
     2
  9
$DIMALTF
 40
25.4
  9
$DIMLFAC
 40
1.0
  9
$DIMTOFL
 70
     1
  9
$DIMTVP
 40
0.0
  9
$DIMTIX
 70
     0
  9
$DIMSOXD
 70
     0
  9
$DIMSAH
 70
     1
  9
$DIMBLK1
  1
OPEN30
  9
$DIMBLK2
  1
OPEN30
  9
$DIMSTYLE
  2
STANDARD
  9
$DIMCLRD
 70
     0
  9
$DIMCLRE
 70
     0
  9
$DIMCLRT
 70
     0
  9
$DIMTFAC
 40
1.0
  9
$DIMGAP
 40
0.5
  9
$DIMJUST
 70
     0
  9
$DIMSD1
 70
     0
  9
$DIMSD2
 70
     0
  9
$DIMTOLJ
 70
     1
  9
$DIMTZIN
 70
     0
  9
$DIMALTZ
 70
     0
  9
$DIMALTTZ
 70
     0
  9
$DIMUPT
 70
     0
  9
$DIMDEC
 70
     4
  9
$DIMTDEC
 70
     4
  9
$DIMALTU
 70
     2
  9
$DIMALTTD
 70
     2
  9
$DIMTXSTY
  7
STANDARD
  9
$DIMAUNIT
 70
     0
  9
$DIMADEC
 70
     0
  9
$DIMALTRND
 40
0.0
  9
$DIMAZIN
 70
     0
  9
$DIMDSEP
 70
    46
  9
$DIMATFIT
 70
     3
  9
$DIMFRAC
 70
     0
  9
$DIMLDRBLK
  1
OPEN30
  9
$DIMLUNIT
 70
     2
  9
$DIMLWD
 70
    -2
  9
$DIMLWE
 70
    -2
  9
$DIMTMOVE
 70
     0
  9
$LUNITS
 70
     2
  9
$LUPREC
 70
     4
  9
$SKETCHINC
 40
0.1
  9
$FILLETRAD
 40
0.0
  9
$AUNITS
 70
     0
  9
$AUPREC
 70
     0
  9
$MENU
  1
ACAD
  9
$ELEVATION
 40
0.0
  9
$PELEVATION
 40
0.0
  9
$THICKNESS
 40
0.0
  9
$LIMCHECK
 70
     0
  9
$CHAMFERA
 40
0.0
  9
$CHAMFERB
 40
0.0
  9
$CHAMFERC
 40
0.0
  9
$CHAMFERD
 40
0.0
  9
$SKPOLY
 70
     0
  9
$TDCREATE
 40
2451815.565532581
  9
$TDUCREATE
 40
2451815.190532581
  9
$TDUPDATE
 40
2453955.360685937
  9
$TDUUPDATE
 40
2453954.985685937
  9
$TDINDWG
 40
0.7246396644
  9
$TDUSRTIMER
 40
0.7246396644
  9
$USRTIMER
 70
     1
  9
$ANGBASE
 50
0.0
  9
$ANGDIR
 70
     0
  9
$PDMODE
 70
     0
  9
$PDSIZE
 40
0.0
  9
$PLINEWID
 40
0.0
  9
$SPLFRAME
 70
     0
  9
$SPLINETYPE
 70
     6
  9
$SPLINESEGS
 70
     8
  9
$HANDSEED
  5
401
  9
$SURFTAB1
 70
     6
  9
$SURFTAB2
 70
     6
  9
$SURFTYPE
 70
     6
  9
$SURFU
 70
     6
  9
$SURFV
 70
     6
  9
$UCSBASE
  2

  9
$UCSNAME
  2

  9
$UCSORG
 10
0.0
 20
0.0
 30
0.0
  9
$UCSXDIR
 10
1.0
 20
0.0
 30
0.0
  9
$UCSYDIR
 10
0.0
 20
1.0
 30
0.0
  9
$UCSORTHOREF
  2

  9
$UCSORTHOVIEW
 70
     0
  9
$UCSORGTOP
 10
0.0
 20
0.0
 30
0.0
  9
$UCSORGBOTTOM
 10
0.0
 20
0.0
 30
0.0
  9
$UCSORGLEFT
 10
0.0
 20
0.0
 30
0.0
  9
$UCSORGRIGHT
 10
0.0
 20
0.0
 30
0.0
  9
$UCSORGFRONT
 10
0.0
 20
0.0
 30
0.0
  9
$UCSORGBACK
 10
0.0
 20
0.0
 30
0.0
  9
$PUCSBASE
  2

  9
$PUCSNAME
  2

  9
$PUCSORG
 10
0.0
 20
0.0
 30
0.0
  9
$PUCSXDIR
 10
1.0
 20
0.0
 30
0.0
  9
$PUCSYDIR
 10
0.0
 20
1.0
 30
0.0
  9
$PUCSORTHOREF
  2

  9
$PUCSORTHOVIEW
 70
     0
  9
$PUCSORGTOP
 10
0.0
 20
0.0
 30
0.0
  9
$PUCSORGBOTTOM
 10
0.0
 20
0.0
 30
0.0
  9
$PUCSORGLEFT
 10
0.0
 20
0.0
 30
0.0
  9
$PUCSORGRIGHT
 10
0.0
 20
0.0
 30
0.0
  9
$PUCSORGFRONT
 10
0.0
 20
0.0
 30
0.0
  9
$PUCSORGBACK
 10
0.0
 20
0.0
 30
0.0
  9
$USERI1
 70
     0
  9
$USERI2
 70
     0
  9
$USERI3
 70
     0
  9
$USERI4
 70
     0
  9
$USERI5
 70
     0
  9
$USERR1
 40
0.0
  9
$USERR2
 40
0.0
  9
$USERR3
 40
0.0
  9
$USERR4
 40
0.0
  9
$USERR5
 40
0.0
  9
$WORLDVIEW
 70
     1
  9
$SHADEDGE
 70
     3
  9
$SHADEDIF
 70
    70
  9
$TILEMODE
 70
     1
  9
$MAXACTVP
 70
    48
  9
$PINSBASE
 10
0.0
 20
0.0
 30
0.0
  9
$PLIMCHECK
 70
     0
  9
$PEXTMIN
 10
1.000000000000000E+20
 20
1.000000000000000E+20
 30
1.000000000000000E+20
  9
$PEXTMAX
 10
-1.000000000000000E+20
 20
-1.000000000000000E+20
 30
-1.000000000000000E+20
  9
$PLIMMIN
 10
0.0
 20
0.0
  9
$PLIMMAX
 10
12.0
 20
9.0
  9
$UNITMODE
 70
     0
  9
$VISRETAIN
 70
     1
  9
$PLINEGEN
 70
     0
  9
$PSLTSCALE
 70
     1
  9
$TREEDEPTH
 70
  3020
  9
$CMLSTYLE
  2
STANDARD
  9
$CMLJUST
 70
     0
  9
$CMLSCALE
 40
1.0
  9
$PROXYGRAPHICS
 70
     1
  9
$MEASUREMENT
 70
     0
  9
$CELWEIGHT
370
    -1
  9
$ENDCAPS
280
     0
  9
$JOINSTYLE
280
     0
  9
$LWDISPLAY
290
     0
  9
$INSUNITS
 70
     0
  9
$HYPERLINKBASE
  1

  9
$STYLESHEET
  1

  9
$XEDIT
290
     1
  9
$CEPSNTYPE
380
     0
  9
$PSTYLEMODE
290
     1
  9
$FINGERPRINTGUID
  2
{1754B7AB-9B3C-11D4-AD9E-00104B1004F2}
  9
$VERSIONGUID
  2
{97D3B3FB-E421-444E-9168-617852877761}
  9
$EXTNAMES
290
     1
  9
$PSVPSCALE
 40
0.0
  9
$OLESTARTUP
290
     0
  0
ENDSEC
  0
SECTION
  2
CLASSES
  0
CLASS
  1
ACDBDICTIONARYWDFLT
  2
AcDbDictionaryWithDefault
  3
AutoCAD 2000
 90
        0
280
     0
281
     0
  0
CLASS
  1
ACDBPLACEHOLDER
  2
AcDbPlaceHolder
  3
AutoCAD 2000
 90
        0
280
     0
281
     0
  0
CLASS
  1
LAYOUT
  2
AcDbLayout
  3
AutoCAD 2000
 90
        0
280
     0
281
     0
  0
CLASS
  1
LONG_TRANSACTION
  2
AcDbLongTransaction
  3
AutoCAD 2000
 90
    32768
280
     0
281
     0
  0
CLASS
  1
LWPOLYLINE
  2
AcDbPolyline
  3
AutoCAD 2000
 90
    32768
280
     0
281
     1
  0
CLASS
  1
HATCH
  2
AcDbHatch
  3
AutoCAD 2000
 90
    32768
280
     0
281
     1
  0
CLASS
  1
XRECORD
  2
AcDbXrecord
  3
AutoCAD 2000
 90
    32768
280
     0
281
     0
  0
CLASS
  1
LONG_TRANSACTION
  2
AcDbLongTransaction
  3
AutoCAD 2000
 90
    32768
280
     0
281
     0
  0
CLASS
  1
LWPOLYLINE
  2
AcDbPolyline
  3
AutoCAD 2000
 90
    32768
280
     0
281
     1
  0
CLASS
  1
HATCH
  2
AcDbHatch
  3
AutoCAD 2000
 90
    32768
280
     0
281
     1
  0
CLASS
  1
XRECORD
  2
AcDbXrecord
  3
AutoCAD 2000
 90
    32768
280
     0
281
     0
  0
CLASS
  1
LONG_TRANSACTION
  2
AcDbLongTransaction
  3
AutoCAD 2000
 90
    32768
280
     0
281
     0
  0
CLASS
  1
LWPOLYLINE
  2
AcDbPolyline
  3
AutoCAD 2000
 90
    32768
280
     0
281
     1
  0
CLASS
  1
HATCH
  2
AcDbHatch
  3
AutoCAD 2000
 90
    32768
280
     0
281
     1
  0
CLASS
  1
XRECORD
  2
AcDbXrecord
  3
AutoCAD 2000
 90
    32768
280
     0
281
     0
  0
CLASS
  1
LONG_TRANSACTION
  2
AcDbLongTransaction
  3
AutoCAD 2000
 90
    32768
280
     0
281
     0
  0
CLASS
  1
LWPOLYLINE
  2
AcDbPolyline
  3
AutoCAD 2000
 90
    32768
280
     0
281
     1
  0
CLASS
  1
HATCH
  2
AcDbHatch
  3
AutoCAD 2000
 90
    32768
280
     0
281
     1
  0
CLASS
  1
XRECORD
  2
AcDbXrecord
  3
AutoCAD 2000
 90
    32768
280
     0
281
     0
  0
CLASS
  1
LONG_TRANSACTION
  2
AcDbLongTransaction
  3
AutoCAD 2000
 90
    32768
280
     0
281
     0
  0
CLASS
  1
LWPOLYLINE
  2
AcDbPolyline
  3
AutoCAD 2000
 90
    32768
280
     0
281
     1
  0
CLASS
  1
HATCH
  2
AcDbHatch
  3
AutoCAD 2000
 90
    32768
280
     0
281
     1
  0
CLASS
  1
XRECORD
  2
AcDbXrecord
  3
AutoCAD 2000
 90
    32768
280
     0
281
     0
  0
CLASS
  1
LONG_TRANSACTION
  2
AcDbLongTransaction
  3
AutoCAD 2000
 90
    32768
280
     0
281
     0
  0
CLASS
  1
LWPOLYLINE
  2
AcDbPolyline
  3
AutoCAD 2000
 90
    32768
280
     0
281
     1
  0
CLASS
  1
HATCH
  2
AcDbHatch
  3
AutoCAD 2000
 90
    32768
280
     0
281
     1
  0
CLASS
  1
XRECORD
  2
AcDbXrecord
  3
AutoCAD 2000
 90
    32768
280
     0
281
     0
  0
CLASS
  1
LONG_TRANSACTION
  2
AcDbLongTransaction
  3
AutoCAD 2000
 90
    32768
280
     0
281
     0
  0
CLASS
  1
LWPOLYLINE
  2
AcDbPolyline
  3
AutoCAD 2000
 90
    32768
280
     0
281
     1
  0
CLASS
  1
HATCH
  2
AcDbHatch
  3
AutoCAD 2000
 90
    32768
280
     0
281
     1
  0
CLASS
  1
XRECORD
  2
AcDbXrecord
  3
AutoCAD 2000
 90
    32768
280
     0
281
     0
  0
CLASS
  1
LONG_TRANSACTION
  2
AcDbLongTransaction
  3
AutoCAD 2000
 90
    32768
280
     0
281
     0
  0
CLASS
  1
LWPOLYLINE
  2
AcDbPolyline
  3
AutoCAD 2000
 90
    32768
280
     0
281
     1
  0
CLASS
  1
HATCH
  2
AcDbHatch
  3
AutoCAD 2000
 90
    32768
280
     0
281
     1
  0
CLASS
  1
XRECORD
  2
AcDbXrecord
  3
AutoCAD 2000
 90
    32768
280
     0
281
     0
  0
CLASS
  1
DICTIONARYVAR
  2
AcDbDictionaryVar
  3
AutoCAD 2000
 90
        0
280
     0
281
     0
  0
CLASS
  1
LONG_TRANSACTION
  2
AcDbLongTransaction
  3
AutoCAD 2000
 90
    32768
280
     0
281
     0
  0
CLASS
  1
LWPOLYLINE
  2
AcDbPolyline
  3
AutoCAD 2000
 90
    32768
280
     0
281
     1
  0
CLASS
  1
HATCH
  2
AcDbHatch
  3
AutoCAD 2000
 90
    32768
280
     0
281
     1
  0
CLASS
  1
XRECORD
  2
AcDbXrecord
  3
AutoCAD 2000
 90
    32768
280
     0
281
     0
  0
CLASS
  1
LONG_TRANSACTION
  2
AcDbLongTransaction
  3
AutoCAD 2000
 90
    32768
280
     0
281
     0
  0
CLASS
  1
LWPOLYLINE
  2
AcDbPolyline
  3
AutoCAD 2000
 90
    32768
280
     0
281
     1
  0
CLASS
  1
HATCH
  2
AcDbHatch
  3
AutoCAD 2000
 90
    32768
280
     0
281
     1
  0
CLASS
  1
XRECORD
  2
AcDbXrecord
  3
AutoCAD 2000
 90
    32768
280
     0
281
     0
  0
CLASS
  1
LONG_TRANSACTION
  2
AcDbLongTransaction
  3
AutoCAD 2000
 90
    32768
280
     0
281
     0
  0
CLASS
  1
LWPOLYLINE
  2
AcDbPolyline
  3
AutoCAD 2000
 90
    32768
280
     0
281
     1
  0
CLASS
  1
HATCH
  2
AcDbHatch
  3
AutoCAD 2000
 90
    32768
280
     0
281
     1
  0
CLASS
  1
XRECORD
  2
AcDbXrecord
  3
AutoCAD 2000
 90
    32768
280
     0
281
     0
  0
CLASS
  1
LONG_TRANSACTION
  2
AcDbLongTransaction
  3
AutoCAD 2000
 90
    32768
280
     0
281
     0
  0
CLASS
  1
LWPOLYLINE
  2
AcDbPolyline
  3
AutoCAD 2000
 90
    32768
280
     0
281
     1
  0
CLASS
  1
HATCH
  2
AcDbHatch
  3
AutoCAD 2000
 90
    32768
280
     0
281
     1
  0
CLASS
  1
XRECORD
  2
AcDbXrecord
  3
AutoCAD 2000
 90
    32768
280
     0
281
     0
  0
CLASS
  1
LONG_TRANSACTION
  2
AcDbLongTransaction
  3
AutoCAD 2000
 90
    32768
280
     0
281
     0
  0
CLASS
  1
LWPOLYLINE
  2
AcDbPolyline
  3
AutoCAD 2000
 90
    32768
280
     0
281
     1
  0
CLASS
  1
HATCH
  2
AcDbHatch
  3
AutoCAD 2000
 90
    32768
280
     0
281
     1
  0
CLASS
  1
XRECORD
  2
AcDbXrecord
  3
AutoCAD 2000
 90
    32768
280
     0
281
     0
  0
ENDSEC
  0
SECTION
  2
TABLES
  0
TABLE
  2
VPORT
  5
21
330
0
100
AcDbSymbolTable
 70
     3
  0
VPORT
  5
400
330
21
100
AcDbSymbolTableRecord
100
AcDbViewportTableRecord
  2
*Active
 70
     0
 10
0.0
 20
0.0
 11
1.0
 21
1.0
 12
1.494638013665522
 22
-2.869009929100229
 13
0.0
 23
0.0
 14
1.0
 24
1.0
 15
0.0
 25
0.0
 16
0.0
 26
0.0
 36
1.0
 17
0.0
 27
0.0
 37
0.0
 40
234.6614316600688
 41
1.439490445859872
 42
50.0
 43
0.0
 44
0.0
 50
0.0
 51
0.0
 71
     0
 72
  1000
 73
     1
 74
     0
 75
     0
 76
     1
 77
     0
 78
     0
281
     0
 65
     1
110
0.0
120
0.0
130
0.0
111
1.0
121
0.0
131
0.0
112
0.0
122
1.0
132
0.0
 79
     0
146
0.0
  0
ENDTAB
  0
TABLE
  2
LTYPE
  5
1C
330
0
100
AcDbSymbolTable
 70
     1
  0
LTYPE
  5
1D
330
1C
100
AcDbSymbolTableRecord
100
AcDbLinetypeTableRecord
  2
BYBLOCK
 70
     0
  3

 72
    65
 73
     0
 40
0.0
  0
LTYPE
  5
1E
330
1C
100
AcDbSymbolTableRecord
100
AcDbLinetypeTableRecord
  2
BYLAYER
 70
     0
  3

 72
    65
 73
     0
 40
0.0
  0
LTYPE
  5
A
330
1C
100
AcDbSymbolTableRecord
100
AcDbLinetypeTableRecord
  2
CONTINUOUS
 70
     0
  3
Solid line
 72
    65
 73
     0
 40
0.0
  0
ENDTAB
  0
TABLE
  2
LAYER
  5
14
102
{ACAD_XDICTIONARY
360
15
102
}
330
0
100
AcDbSymbolTable
 70
     7
  0
LAYER
  5
6
330
14
100
AcDbSymbolTableRecord
100
AcDbLayerTableRecord
  2
0
 70
     0
 62
     7
  6
CONTINUOUS
370
    -3
390
7
  0
LAYER
  5
43
330
14
100
AcDbSymbolTableRecord
100
AcDbLayerTableRecord
  2
DEFPOINTS
 70
     0
 62
     7
  6
CONTINUOUS
290
     0
370
    -3
390
7
  0
LAYER
  5
307
330
14
100
AcDbSymbolTableRecord
100
AcDbLayerTableRecord
  2
WAKU
 70
     0
 62
     4
  6
CONTINUOUS
370
    -3
390
7
  0
LAYER
  5
36
330
14
100
AcDbSymbolTableRecord
100
AcDbLayerTableRecord
  2
MOJI1
 70
     0
 62
     2
  6
CONTINUOUS
370
    -3
390
7
  0
LAYER
  5
62
330
14
100
AcDbSymbolTableRecord
100
AcDbLayerTableRecord
  2
GAIKEI
 70
     0
 62
     7
  6
CONTINUOUS
370
    -3
390
7
  0
LAYER
  5
33
330
14
100
AcDbSymbolTableRecord
100
AcDbLayerTableRecord
  2
SUNPO
 70
     0
 62
     3
  6
CONTINUOUS
370
    -3
390
7
  0
LAYER
  5
38
330
14
100
AcDbSymbolTableRecord
100
AcDbLayerTableRecord
  2
TOUROKU
 70
     0
 62
     1
  6
CONTINUOUS
370
    -3
390
7
  0
ENDTAB
  0
TABLE
  2
STYLE
  5
19
330
0
100
AcDbSymbolTable
 70
     1
  0
STYLE
  5
1A
330
19
100
AcDbSymbolTableRecord
100
AcDbTextStyleTableRecord
  2
STANDARD
 70
     0
 40
0.0
 41
1.0
 50
0.0
 71
     0
 42
3.0
  3
MONOTXT.shx
  4
BIGFONT.shx
  0
ENDTAB
  0
TABLE
  2
VIEW
  5
1F
330
0
100
AcDbSymbolTable
 70
     0
  0
ENDTAB
  0
TABLE
  2
UCS
  5
20
330
0
100
AcDbSymbolTable
 70
     0
  0
ENDTAB
  0
TABLE
  2
APPID
  5
23
330
0
100
AcDbSymbolTable
 70
     1
  0
APPID
  5
24
330
23
100
AcDbSymbolTableRecord
100
AcDbRegAppTableRecord
  2
ACAD
 70
     0
  0
ENDTAB
  0
TABLE
  2
DIMSTYLE
  5
25
330
0
100
AcDbSymbolTable
 70
     1
100
AcDbDimStyleTable
 71
     0
  0
DIMSTYLE
105
26
102
{ACAD_REACTORS
330
54
330
47
330
39
102
}
330
25
100
AcDbSymbolTableRecord
100
AcDbDimStyleTableRecord
  2
STANDARD
 70
     0
 40
0.0
 41
2.0
 42
2.0
 43
8.0
 44
2.0
 73
     0
 74
     0
 77
     3
140
3.0
141
0.0
173
     1
279
     2
288
     1
340
1A
341
27
343
27
344
27
  0
ENDTAB
  0
TABLE
  2
BLOCK_RECORD
  5
1
330
0
100
AcDbSymbolTable
 70
     7
  0
BLOCK_RECORD
  5
2
102
{ACAD_XDICTIONARY
360
3
102
}
330
1
100
AcDbSymbolTableRecord
100
AcDbBlockTableRecord
  2
*MODEL_SPACE
340
C
  0
BLOCK_RECORD
  5
E
102
{ACAD_XDICTIONARY
360
F
102
}
330
1
100
AcDbSymbolTableRecord
100
AcDbBlockTableRecord
  2
*PAPER_SPACE
340
13
  0
BLOCK_RECORD
  5
27
330
1
100
AcDbSymbolTableRecord
100
AcDbBlockTableRecord
  2
_OPEN30
340
0
102
{BLKREFS
331
5A
331
5B
331
4D
331
4E
331
3F
331
40
331
376
331
377
331
384
331
385
331
390
331
391
331
3E8
331
3E9
331
3F1
331
3F2
331
3FA
331
3FB
102
}
  0
BLOCK_RECORD
  5
372
330
1
100
AcDbSymbolTableRecord
100
AcDbBlockTableRecord
  2
*D4
340
0
  0
BLOCK_RECORD
  5
380
330
1
100
AcDbSymbolTableRecord
100
AcDbBlockTableRecord
  2
*D5
340
0
  0
BLOCK_RECORD
  5
38C
330
1
100
AcDbSymbolTableRecord
100
AcDbBlockTableRecord
  2
*D6
340
0
  0
ENDTAB
  0
ENDSEC
  0
SECTION
  2
BLOCKS
  0
BLOCK
  5
5
330
2
100
AcDbEntity
  8
0
100
AcDbBlockBegin
  2
*MODEL_SPACE
 70
     0
 10
0.0
 20
0.0
 30
0.0
  3
*MODEL_SPACE
  1

  0
ENDBLK
  5
B
330
2
100
AcDbEntity
  8
0
100
AcDbBlockEnd
  0
BLOCK
  5
11
330
E
100
AcDbEntity
 67
     1
  8
0
100
AcDbBlockBegin
  2
*PAPER_SPACE
 70
     0
 10
0.0
 20
0.0
 30
0.0
  3
*PAPER_SPACE
  1

  0
ENDBLK
  5
12
330
E
100
AcDbEntity
 67
     1
  8
0
100
AcDbBlockEnd
  0
BLOCK
  5
28
330
27
100
AcDbEntity
  8
0
100
AcDbBlockBegin
  2
_OPEN30
 70
     0
 10
0.0
 20
0.0
 30
0.0
  3
_OPEN30
  1

  0
LINE
  5
29
330
27
100
AcDbEntity
  8
0
  6
ByBlock
 62
     0
100
AcDbLine
 10
-1.0
 20
0.26794919
 30
0.0
 11
0.0
 21
0.0
 31
0.0
  0
LINE
  5
2A
330
27
100
AcDbEntity
  8
0
  6
ByBlock
 62
     0
100
AcDbLine
 10
0.0
 20
0.0
 30
0.0
 11
-1.0
 21
-0.26794919
 31
0.0
  0
LINE
  5
2B
330
27
100
AcDbEntity
  8
0
  6
ByBlock
 62
     0
100
AcDbLine
 10
0.0
 20
0.0
 30
0.0
 11
-1.0
 21
0.0
 31
0.0
  0
ENDBLK
  5
2C
330
27
100
AcDbEntity
  8
0
100
AcDbBlockEnd
  0
BLOCK
  5
37C
330
372
100
AcDbEntity
  8
0
100
AcDbBlockBegin
  2
*D4
 70
     1
 10
0.0
 20
0.0
 30
0.0
  3
*D4
  1

  0
LINE
  5
3E5
330
372
100
AcDbEntity
  8
SUNPO
 62
     0
370
    -2
100
AcDbLine
 10
56.18145359461372
 20
63.69578341889499
 30
0.0
 11
56.18145359461367
 21
71.69578341889501
 31
0.0
  0
LINE
  5
3E6
330
372
100
AcDbEntity
  8
SUNPO
 62
     0
370
    -2
100
AcDbLine
 10
18.98148247610357
 20
63.69578341889473
 30
0.0
 11
18.98148247610352
 21
71.69578341889473
 31
0.0
  0
LINE
  5
3E7
330
372
100
AcDbEntity
  8
SUNPO
 62
     0
370
    -2
100
AcDbLine
 10
54.18145359461369
 20
69.69578341889499
 30
0.0
 11
20.98148247610353
 21
69.69578341889475
 31
0.0
  0
INSERT
  5
3E8
330
372
100
AcDbEntity
  8
SUNPO
 62
     0
370
    -2
100
AcDbBlockReference
  2
_OPEN30
 10
56.18145359461369
 20
69.695783418895
 30
0.0
 41
2.0
 42
2.0
 43
2.0
 50
0.0000000000003997
  0
INSERT
  5
3E9
330
372
100
AcDbEntity
  8
SUNPO
 62
     0
370
    -2
100
AcDbBlockReference
  2
_OPEN30
 10
18.98148247610353
 20
69.69578341889473
 30
0.0
 41
2.0
 42
2.0
 43
2.0
 50
180.0000000000004
  0
MTEXT
  5
3EA
330
372
100
AcDbEntity
  8
SUNPO
 62
     0
100
AcDbMText
 10
37.5814680353586
 20
71.44578341889488
 30
0.0
 40
2.5
 41
0.0
 71
     5
 72
     1
  1
\A1;372
 73
     1
 44
1.0
  0
POINT
  5
3EB
330
372
100
AcDbEntity
  8
DEFPOINTS
 62
     0
100
AcDbPoint
 10
56.18145359461374
 20
61.69578341889499
 30
0.0
  0
POINT
  5
3EC
330
372
100
AcDbEntity
  8
DEFPOINTS
 62
     0
100
AcDbPoint
 10
18.98148247610359
 20
61.69578341889473
 30
0.0
  0
POINT
  5
3ED
330
372
100
AcDbEntity
  8
DEFPOINTS
 62
     0
100
AcDbPoint
 10
18.98148247610353
 20
69.69578341889473
 30
0.0
  0
ENDBLK
  5
37D
330
372
100
AcDbEntity
  8
0
100
AcDbBlockEnd
  0
BLOCK
  5
38A
330
380
100
AcDbEntity
  8
0
100
AcDbBlockBegin
  2
*D5
 70
     1
 10
0.0
 20
0.0
 30
0.0
  3
*D5
  1

  0
LINE
  5
3EE
330
380
100
AcDbEntity
  8
SUNPO
 62
     0
370
    -2
100
AcDbLine
 10
-1.0111908553082
 20
35.19578341889484
 30
0.0
 11
6.988809144691794
 21
35.19578341889484
 31
0.0
  0
LINE
  5
3EF
330
380
100
AcDbEntity
  8
SUNPO
 62
     0
370
    -2
100
AcDbLine
 10
-1.0111908553082
 20
61.69578341889479
 30
0.0
 11
6.988809144691798
 21
61.69578341889479
 31
0.0
  0
LINE
  5
3F0
330
380
100
AcDbEntity
  8
SUNPO
 62
     0
370
    -2
100
AcDbLine
 10
4.988809144691794
 20
37.19578341889484
 30
0.0
 11
4.988809144691799
 21
59.69578341889479
 31
0.0
  0
INSERT
  5
3F1
330
380
100
AcDbEntity
  8
SUNPO
 62
     0
370
    -2
100
AcDbBlockReference
  2
_OPEN30
 10
4.988809144691794
 20
35.19578341889484
 30
0.0
 41
2.0
 42
2.0
 43
2.0
 50
270.0
  0
INSERT
  5
3F2
330
380
100
AcDbEntity
  8
SUNPO
 62
     0
370
    -2
100
AcDbBlockReference
  2
_OPEN30
 10
4.988809144691799
 20
61.69578341889479
 30
0.0
 41
2.0
 42
2.0
 43
2.0
 50
90.0
  0
MTEXT
  5
3F3
330
380
100
AcDbEntity
  8
SUNPO
 62
     0
100
AcDbMText
 10
3.238809144691789
 20
48.44578341889482
 30
0.0
 40
2.5
 41
0.0
 71
     5
 72
     1
  1
\A1;265
 11
0.0000000000000001
 21
1.0
 31
0.0
 73
     1
 44
1.0
  0
POINT
  5
3F4
330
380
100
AcDbEntity
  8
DEFPOINTS
 62
     0
100
AcDbPoint
 10
-3.0111908553082
 20
35.19578341889484
 30
0.0
  0
POINT
  5
3F5
330
380
100
AcDbEntity
  8
DEFPOINTS
 62
     0
100
AcDbPoint
 10
-3.0111908553082
 20
61.69578341889479
 30
0.0
  0
POINT
  5
3F6
330
380
100
AcDbEntity
  8
DEFPOINTS
 62
     0
100
AcDbPoint
 10
4.988809144691799
 20
61.69578341889479
 30
0.0
  0
ENDBLK
  5
38B
330
380
100
AcDbEntity
  8
0
100
AcDbBlockEnd
  0
BLOCK
  5
396
330
38C
100
AcDbEntity
  8
0
100
AcDbBlockBegin
  2
*D6
 70
     1
 10
0.0
 20
0.0
 30
0.0
  3
*D6
  1

  0
LINE
  5
3F7
330
38C
100
AcDbEntity
  8
SUNPO
 62
     0
370
    -2
100
AcDbLine
 10
-48.01119085530832
 20
63.69578341889479
 30
0.0
 11
-48.01119085530832
 21
71.69578341889479
 31
0.0
  0
LINE
  5
3F8
330
38C
100
AcDbEntity
  8
SUNPO
 62
     0
370
    -2
100
AcDbLine
 10
-6.011190855308313
 20
63.69578341889479
 30
0.0
 11
-6.011190855308313
 21
71.69578341889479
 31
0.0
  0
LINE
  5
3F9
330
38C
100
AcDbEntity
  8
SUNPO
 62
     0
370
    -2
100
AcDbLine
 10
-46.01119085530831
 20
69.69578341889479
 30
0.0
 11
-8.011190855308313
 21
69.69578341889479
 31
0.0
  0
INSERT
  5
3FA
330
38C
100
AcDbEntity
  8
SUNPO
 62
     0
370
    -2
100
AcDbBlockReference
  2
_OPEN30
 10
-48.01119085530832
 20
69.69578341889479
 30
0.0
 41
2.0
 42
2.0
 43
2.0
 50
180.0
  0
INSERT
  5
3FB
330
38C
100
AcDbEntity
  8
SUNPO
 62
     0
370
    -2
100
AcDbBlockReference
  2
_OPEN30
 10
-6.011190855308313
 20
69.69578341889479
 30
0.0
 41
2.0
 42
2.0
 43
2.0
  0
MTEXT
  5
3FC
330
38C
100
AcDbEntity
  8
SUNPO
 62
     0
100
AcDbMText
 10
-27.01119085530831
 20
71.44578341889479
 30
0.0
 40
2.5
 41
0.0
 71
     5
 72
     1
  1
\A1;420
 73
     1
 44
1.0
  0
POINT
  5
3FD
330
38C
100
AcDbEntity
  8
DEFPOINTS
 62
     0
100
AcDbPoint
 10
-48.01119085530832
 20
61.69578341889479
 30
0.0
  0
POINT
  5
3FE
330
38C
100
AcDbEntity
  8
DEFPOINTS
 62
     0
100
AcDbPoint
 10
-6.011190855308313
 20
61.69578341889479
 30
0.0
  0
POINT
  5
3FF
330
38C
100
AcDbEntity
  8
DEFPOINTS
 62
     0
100
AcDbPoint
 10
-6.011190855308313
 20
69.69578341889479
 30
0.0
  0
ENDBLK
  5
397
330
38C
100
AcDbEntity
  8
0
100
AcDbBlockEnd
  0
ENDSEC
  0
SECTION
  2
ENTITIES
  0
TEXT
  5
35
330
2
100
AcDbEntity
  8
MOJI1
100
AcDbText
 10
-34.00242666469336
 20
109.7609733598702
 30
0.0
 40
4.0
  1
マトリクススイッチャー
100
AcDbText
  0
TEXT
  5
37
330
2
100
AcDbEntity
  8
TOUROKU
100
AcDbText
 10
48.13085670156731
 20
103.7609733598703
 30
0.0
 40
2.0
  1
ＷＪＳＸ６５０
 72
     2
 11
63.99752336823398
 21
103.7609733598703
 31
0.0
100
AcDbText
  0
DIMENSION
  5
39
330
2
100
AcDbEntity
  8
SUNPO
100
AcDbDimension
  2
*D4
 10
18.98148247610353
 20
69.69578341889473
 30
0.0
 11
37.5814680353586
 21
71.44578341889488
 31
0.0
 70
    33
  1
372
 71
     5
 42
37.19997111851014
  3
STANDARD
100
AcDbAlignedDimension
 13
56.18145359461374
 23
61.69578341889499
 33
0.0
 14
18.98148247610359
 24
61.69578341889473
 34
0.0
1001
ACAD
1000
DSTYLE
1002
{
1070
   287
1070
     3
1070
    40
1040
1.0
1070
   140
1040
2.5
1070
   147
1040
0.5
1070
   172
1070
     1
1070
   279
1070
     0
1070
   288
1070
     0
1002
}
  0
DIMENSION
  5
47
330
2
100
AcDbEntity
  8
SUNPO
100
AcDbDimension
  2
*D5
 10
4.988809144691799
 20
61.69578341889479
 30
0.0
 11
3.238809144691789
 21
48.44578341889482
 31
0.0
 70
    33
  1
265
 71
     5
 42
26.49999999999994
  3
STANDARD
100
AcDbAlignedDimension
 13
-3.0111908553082
 23
35.19578341889484
 33
0.0
 14
-3.0111908553082
 24
61.69578341889479
 34
0.0
1001
ACAD
1000
DSTYLE
1002
{
1070
   287
1070
     3
1070
    40
1040
1.0
1070
   140
1040
2.5
1070
   147
1040
0.5
1070
   172
1070
     1
1070
   279
1070
     0
1070
   288
1070
     0
1002
}
  0
DIMENSION
  5
54
330
2
100
AcDbEntity
  8
SUNPO
100
AcDbDimension
  2
*D6
 10
-6.011190855308313
 20
69.69578341889479
 30
0.0
 11
-27.01119085530831
 21
71.44578341889479
 31
0.0
 70
    33
  1
420
 71
     5
 42
42.0
  3
STANDARD
100
AcDbAlignedDimension
 13
-48.01119085530832
 23
61.69578341889479
 33
0.0
 14
-6.011190855308313
 24
61.69578341889479
 34
0.0
1001
ACAD
1000
DSTYLE
1002
{
1070
   287
1070
     3
1070
    40
1040
1.0
1070
   140
1040
2.5
1070
   147
1040
0.5
1070
   172
1070
     1
1070
   279
1070
     0
1070
   288
1070
     0
1002
}
  0
ELLIPSE
  5
61
330
2
100
AcDbEntity
  8
GAIKEI
 62
     1
100
AcDbEllipse
 10
-44.54670315189832
 20
42.93987215386596
 30
0.0
 11
0.2852228014029379
 21
0.0
 31
0.0
210
0.0
220
0.0
230
1.0
 40
0.4024069559575568
 41
0.0
 42
6.283185307179586
  0
LINE
  5
63
330
2
100
AcDbEntity
  8
GAIKEI
 62
     1
100
AcDbLine
 10
54.02170244343654
 20
38.58039229413753
 30
0.0
 11
56.08364326387373
 21
38.51031552553138
 31
0.0
  0
LINE
  5
64
330
2
100
AcDbEntity
  8
GAIKEI
 62
     1
100
AcDbLine
 10
56.18145359461379
 20
38.40903849952457
 30
0.0
 11
56.18145359461379
 21
36.78786322014394
 31
0.0
  0
LINE
  5
65
330
2
100
AcDbEntity
  8
GAIKEI
 62
     1
100
AcDbLine
 10
56.08364326387373
 20
36.6868338152276
 30
0.0
 11
54.02170244343654
 21
36.61650942553092
 31
0.0
  0
LINE
  5
66
330
2
100
AcDbEntity
  8
GAIKEI
 62
     1
100
AcDbLine
 10
55.05106331656702
 20
36.74923433002885
 30
0.0
 11
55.05106331656702
 21
38.4476673896396
 31
0.0
  0
LINE
  5
67
330
2
100
AcDbEntity
  8
GAIKEI
 62
     1
100
AcDbLine
 10
55.24321728278045
 20
37.96753009519653
 30
0.0
 11
55.24321728278045
 21
38.53854432984622
 31
0.0
  0
LINE
  5
68
330
2
100
AcDbEntity
  8
GAIKEI
 62
     1
100
AcDbLine
 10
55.64659203917438
 20
37.97000630610131
 30
0.0
 11
55.64659203917438
 21
38.52492516986973
 31
0.0
  0
LINE
  5
69
330
2
100
AcDbEntity
  8
GAIKEI
 62
     1
100
AcDbLine
 10
55.84840322791655
 20
37.95787287266773
 30
0.0
 11
55.84840322791655
 21
38.51799177933628
 31
0.0
  0
ARC
  5
6A
330
2
100
AcDbEntity
  8
GAIKEI
 62
     1
100
AcDbCircle
 10
54.9501801615159
 20
36.74902517912267
 30
0.0
 40
0.1008833718566655
100
AcDbArc
 50
272.0268731405882
 51
0.1187854110284281
  0
ARC
  5
6B
330
2
100
AcDbEntity
  8
GAIKEI
 62
     1
100
AcDbCircle
 10
54.95056451043677
 20
38.44800025721025
 30
0.0
 40
0.1004993573831423
100
AcDbArc
 50
359.810228221331
 51
88.18462417113606
  0
ARC
  5
6C
330
2
100
AcDbEntity
  8
GAIKEI
 62
     1
100
AcDbCircle
 10
56.07993005342388
 20
38.40885975470681
 30
0.0
 40
0.1015236985410308
100
AcDbArc
 50
0.100876239782508
 51
87.90394999039827
  0
ARC
  5
6D
330
2
100
AcDbEntity
  8
GAIKEI
 62
     1
100
AcDbCircle
 10
56.08031521049809
 20
36.78791744269693
 30
0.0
 40
0.1011383986506614
100
AcDbArc
 50
271.885711497856
 51
359.9692824522695
  0
LINE
  5
6E
330
2
100
AcDbEntity
  8
GAIKEI
 62
     1
100
AcDbLine
 10
55.97964240587163
 20
37.93979653306263
 30
0.0
 11
56.18145359461379
 21
37.93979653306263
 31
0.0
  0
ARC
  5
6F
330
2
100
AcDbEntity
  8
GAIKEI
 62
     1
100
AcDbCircle
 10
55.53055630220774
 20
34.75697307968829
 30
0.0
 40
3.214349617551518
100
AcDbArc
 50
81.96876670038614
 51
91.29512382599585
  0
LINE
  5
70
330
2
100
AcDbEntity
  8
GAIKEI
 62
     1
100
AcDbLine
 10
55.45493331514188
 20
37.97149203264422
 30
0.0
 11
55.45493331514188
 21
38.53161093931277
 31
0.0
  0
ARC
  5
71
330
2
100
AcDbEntity
  8
GAIKEI
 62
     1
100
AcDbCircle
 10
55.76130538098749
 20
37.59837614712978
 30
0.0
 40
0.2183370304044753
100
AcDbArc
 50
301.8726153820601
 51
58.13154691384174
  0
ARC
  5
72
330
2
100
AcDbEntity
  8
GAIKEI
 62
     1
100
AcDbCircle
 10
54.9850045336313
 20
35.80863513102357
 30
0.0
 40
2.16706970729222
100
AcDbArc
 50
65.70591412608867
 51
82.54314167893877
  0
ARC
  5
73
330
2
100
AcDbEntity
  8
GAIKEI
 62
     1
100
AcDbCircle
 10
54.97850507571058
 20
39.4159221588535
 30
0.0
 40
2.195091260017512
100
AcDbArc
 50
277.5322271556307
 51
294.1505282283001
  0
LINE
  5
74
330
2
100
AcDbEntity
  8
GAIKEI
 62
     1
100
AcDbLine
 10
55.24321728278045
 20
37.96753009519653
 30
0.0
 11
55.26624604419521
 21
37.95737763048677
 31
0.0
  0
LINE
  5
75
330
2
100
AcDbEntity
  8
GAIKEI
 62
     1
100
AcDbLine
 10
54.02170244343654
 20
37.72089948907722
 30
0.0
 11
54.4456297503404
 21
37.72089948907722
 31
0.0
  0
LINE
  5
76
330
2
100
AcDbEntity
  8
GAIKEI
 62
     1
100
AcDbLine
 10
54.02170244343654
 20
36.92331195663717
 30
0.0
 11
54.4456297503404
 21
36.92331195663717
 31
0.0
  0
CIRCLE
  5
77
330
2
100
AcDbEntity
  8
GAIKEI
 62
     1
100
AcDbCircle
 10
54.44575356088563
 20
37.32222953340243
 30
0.0
 40
0.2777070529747067
  0
ARC
  5
78
330
2
100
AcDbEntity
  8
GAIKEI
 62
     1
100
AcDbCircle
 10
54.44550592220713
 20
37.32210572285717
 30
0.0
 40
0.3987937854447412
100
AcDbArc
 50
270.0177907224008
 51
89.98220927759096
  0
LINE
  5
79
330
2
100
AcDbEntity
  8
GAIKEI
 62
     1
100
AcDbLine
 10
54.41046755549206
 20
37.39280154418958
 30
0.0
 11
54.41046755549206
 21
37.45346871135751
 31
0.0
  0
LINE
  5
7A
330
2
100
AcDbEntity
  8
GAIKEI
 62
     1
100
AcDbLine
 10
54.41046755549206
 20
37.45346871135751
 30
0.0
 11
54.48103956627921
 21
37.45346871135751
 31
0.0
  0
LINE
  5
7B
330
2
100
AcDbEntity
  8
GAIKEI
 62
     1
100
AcDbLine
 10
54.48103956627921
 20
37.45346871135751
 30
0.0
 11
54.48103956627921
 21
37.39280154418958
 31
0.0
  0
LINE
  5
7C
330
2
100
AcDbEntity
  8
GAIKEI
 62
     1
100
AcDbLine
 10
54.5162017611276
 20
37.35763934934124
 30
0.0
 11
54.57686892829548
 21
37.35763934934124
 31
0.0
  0
LINE
  5
7D
330
2
100
AcDbEntity
  8
GAIKEI
 62
     1
100
AcDbLine
 10
54.57686892829548
 20
37.35763934934124
 30
0.0
 11
54.57686892829548
 21
37.28657209637316
 31
0.0
  0
LINE
  5
7E
330
2
100
AcDbEntity
  8
GAIKEI
 62
     1
100
AcDbLine
 10
54.57686892829548
 20
37.28657209637316
 30
0.0
 11
54.5162017611276
 21
37.28657209637316
 31
0.0
  0
LINE
  5
7F
330
2
100
AcDbEntity
  8
GAIKEI
 62
     1
100
AcDbLine
 10
54.48103956627921
 20
37.25140990152482
 30
0.0
 11
54.48103956627921
 21
37.19099035544741
 31
0.0
  0
LINE
  5
80
330
2
100
AcDbEntity
  8
GAIKEI
 62
     1
100
AcDbLine
 10
54.48103956627921
 20
37.19099035544741
 30
0.0
 11
54.41046755549206
 21
37.19099035544741
 31
0.0
  0
LINE
  5
81
330
2
100
AcDbEntity
  8
GAIKEI
 62
     1
100
AcDbLine
 10
54.41046755549206
 20
37.19099035544741
 30
0.0
 11
54.41046755549206
 21
37.25140990152482
 31
0.0
  0
LINE
  5
82
330
2
100
AcDbEntity
  8
GAIKEI
 62
     1
100
AcDbLine
 10
54.37481011846273
 20
37.28657209637316
 30
0.0
 11
54.31463819347584
 21
37.28657209637316
 31
0.0
  0
LINE
  5
83
330
2
100
AcDbEntity
  8
GAIKEI
 62
     1
100
AcDbLine
 10
54.31463819347584
 20
37.28657209637316
 30
0.0
 11
54.31463819347584
 21
37.35763934934124
 31
0.0
  0
LINE
  5
84
330
2
100
AcDbEntity
  8
GAIKEI
 62
     1
100
AcDbLine
 10
54.31463819347584
 20
37.35763934934124
 30
0.0
 11
54.37481011846273
 21
37.35763934934124
 31
0.0
  0
ARC
  5
85
330
2
100
AcDbEntity
  8
GAIKEI
 62
     1
100
AcDbCircle
 10
54.37506347269447
 20
37.39304335139047
 30
0.0
 40
0.035404908550466
100
AcDbArc
 50
269.5899932329766
 51
359.6086802552525
  0
ARC
  5
86
330
2
100
AcDbEntity
  8
GAIKEI
 62
     1
100
AcDbCircle
 10
54.37506347879002
 20
37.25116810050536
 30
0.0
 40
0.0354049024128063
100
AcDbArc
 50
0.3913098089274758
 51
90.41001670278289
  0
ARC
  5
87
330
2
100
AcDbEntity
  8
GAIKEI
 62
     1
100
AcDbCircle
 10
54.51617758342132
 20
37.25143407923093
 30
0.0
 40
0.0351380254601931
100
AcDbArc
 50
89.96057602499575
 51
180.0394239747262
  0
ARC
  5
88
330
2
100
AcDbEntity
  8
GAIKEI
 62
     1
100
AcDbCircle
 10
54.51617758267309
 20
37.39277736573504
 30
0.0
 40
0.0351380247123788
100
AcDbArc
 50
179.9605748040292
 51
270.0394251959013
  0
LINE
  5
89
330
2
100
AcDbEntity
  8
GAIKEI
 62
     1
100
AcDbLine
 10
55.45493331514188
 20
37.22540968702429
 30
0.0
 11
55.45493331514188
 21
36.66529078035575
 31
0.0
  0
ARC
  5
8A
330
2
100
AcDbEntity
  8
GAIKEI
 62
     1
100
AcDbCircle
 10
55.53055630220774
 20
40.43992863998022
 30
0.0
 40
3.214349617551518
100
AcDbArc
 50
268.7048761740041
 51
278.0312332996138
  0
LINE
  5
8B
330
2
100
AcDbEntity
  8
GAIKEI
 62
     1
100
AcDbLine
 10
55.84840322791655
 20
37.23902884700078
 30
0.0
 11
55.84840322791655
 21
36.67890994033223
 31
0.0
  0
LINE
  5
8C
330
2
100
AcDbEntity
  8
GAIKEI
 62
     1
100
AcDbLine
 10
55.64659203917438
 20
37.2268954135672
 30
0.0
 11
55.64659203917438
 21
36.67197654979878
 31
0.0
  0
LINE
  5
8D
330
2
100
AcDbEntity
  8
GAIKEI
 62
     1
100
AcDbLine
 10
55.97964240587163
 20
37.25710518660588
 30
0.0
 11
56.18145359461379
 21
37.25710518660588
 31
0.0
  0
LINE
  5
8E
330
2
100
AcDbEntity
  8
GAIKEI
 62
     1
100
AcDbLine
 10
55.24321728278045
 20
37.22937162447198
 30
0.0
 11
55.26624604419521
 21
37.23952408918174
 31
0.0
  0
LINE
  5
8F
330
2
100
AcDbEntity
  8
GAIKEI
 62
     1
100
AcDbLine
 10
55.24321728278045
 20
37.22937162447198
 30
0.0
 11
55.24321728278045
 21
36.6583573898223
 31
0.0
  0
LINE
  5
90
330
2
100
AcDbEntity
  8
GAIKEI
 62
     1
100
AcDbLine
 10
54.02170244343648
 20
42.47200535214048
 30
0.0
 11
56.08364326387368
 21
42.4019285835343
 31
0.0
  0
LINE
  5
91
330
2
100
AcDbEntity
  8
GAIKEI
 62
     1
100
AcDbLine
 10
56.18145359461374
 20
42.30065155752749
 30
0.0
 11
56.18145359461374
 21
40.67947627814689
 31
0.0
  0
LINE
  5
92
330
2
100
AcDbEntity
  8
GAIKEI
 62
     1
100
AcDbLine
 10
56.08364326387368
 20
40.57844687323054
 30
0.0
 11
54.02170244343648
 21
40.50812248353383
 31
0.0
  0
LINE
  5
93
330
2
100
AcDbEntity
  8
GAIKEI
 62
     1
100
AcDbLine
 10
55.05106331656697
 20
40.6408473880318
 30
0.0
 11
55.05106331656697
 21
42.33928044764255
 31
0.0
  0
LINE
  5
94
330
2
100
AcDbEntity
  8
GAIKEI
 62
     1
100
AcDbLine
 10
55.24321728278039
 20
41.85914315319945
 30
0.0
 11
55.24321728278039
 21
42.43015738784913
 31
0.0
  0
LINE
  5
95
330
2
100
AcDbEntity
  8
GAIKEI
 62
     1
100
AcDbLine
 10
55.64659203917432
 20
41.86161936410425
 30
0.0
 11
55.64659203917432
 21
42.41653822787267
 31
0.0
  0
LINE
  5
96
330
2
100
AcDbEntity
  8
GAIKEI
 62
     1
100
AcDbLine
 10
55.84840322791649
 20
41.84948593067068
 30
0.0
 11
55.84840322791649
 21
42.40960483733923
 31
0.0
  0
ARC
  5
97
330
2
100
AcDbEntity
  8
GAIKEI
 62
     1
100
AcDbCircle
 10
54.95018016151584
 20
40.64063823712558
 30
0.0
 40
0.1008833718566655
100
AcDbArc
 50
272.0268731405882
 51
0.1187854110284281
  0
ARC
  5
98
330
2
100
AcDbEntity
  8
GAIKEI
 62
     1
100
AcDbCircle
 10
54.95056451043672
 20
42.3396133152132
 30
0.0
 40
0.1004993573831423
100
AcDbArc
 50
359.810228221331
 51
88.18462417113606
  0
ARC
  5
99
330
2
100
AcDbEntity
  8
GAIKEI
 62
     1
100
AcDbCircle
 10
56.07993005342382
 20
42.30047281270976
 30
0.0
 40
0.1015236985410308
100
AcDbArc
 50
0.100876239782508
 51
87.90394999039827
  0
ARC
  5
9A
330
2
100
AcDbEntity
  8
GAIKEI
 62
     1
100
AcDbCircle
 10
56.08031521049804
 20
40.67953050069985
 30
0.0
 40
0.1011383986506614
100
AcDbArc
 50
271.885711497856
 51
359.9692824522695
  0
LINE
  5
9B
330
2
100
AcDbEntity
  8
GAIKEI
 62
     1
100
AcDbLine
 10
55.97964240587157
 20
41.83140959106554
 30
0.0
 11
56.18145359461374
 21
41.83140959106554
 31
0.0
  0
ARC
  5
9C
330
2
100
AcDbEntity
  8
GAIKEI
 62
     1
100
AcDbCircle
 10
55.53055630220768
 20
38.64858613769124
 30
0.0
 40
3.214349617551518
100
AcDbArc
 50
81.96876670038614
 51
91.29512382599585
  0
LINE
  5
9D
330
2
100
AcDbEntity
  8
GAIKEI
 62
     1
100
AcDbLine
 10
55.45493331514183
 20
41.86310509064713
 30
0.0
 11
55.45493331514183
 21
42.42322399731569
 31
0.0
  0
ARC
  5
9E
330
2
100
AcDbEntity
  8
GAIKEI
 62
     1
100
AcDbCircle
 10
55.76130538098744
 20
41.4899892051327
 30
0.0
 40
0.2183370304044753
100
AcDbArc
 50
301.8726153820601
 51
58.13154691384174
  0
ARC
  5
9F
330
2
100
AcDbEntity
  8
GAIKEI
 62
     1
100
AcDbCircle
 10
54.98500453363124
 20
39.70024818902652
 30
0.0
 40
2.16706970729222
100
AcDbArc
 50
65.70591412608867
 51
82.54314167893877
  0
ARC
  5
A0
330
2
100
AcDbEntity
  8
GAIKEI
 62
     1
100
AcDbCircle
 10
54.97850507571053
 20
43.30753521685645
 30
0.0
 40
2.195091260017512
100
AcDbArc
 50
277.5322271556307
 51
294.1505282283001
  0
LINE
  5
A1
330
2
100
AcDbEntity
  8
GAIKEI
 62
     1
100
AcDbLine
 10
55.24321728278039
 20
41.85914315319945
 30
0.0
 11
55.26624604419516
 21
41.84899068848972
 31
0.0
  0
LINE
  5
A2
330
2
100
AcDbEntity
  8
GAIKEI
 62
     1
100
AcDbLine
 10
54.02170244343648
 20
41.61251254708014
 30
0.0
 11
54.44562975034035
 21
41.61251254708014
 31
0.0
  0
LINE
  5
A3
330
2
100
AcDbEntity
  8
GAIKEI
 62
     1
100
AcDbLine
 10
54.02170244343648
 20
40.81492501464009
 30
0.0
 11
54.44562975034035
 21
40.81492501464009
 31
0.0
  0
CIRCLE
  5
A4
330
2
100
AcDbEntity
  8
GAIKEI
 62
     1
100
AcDbCircle
 10
54.44575356088558
 20
41.21384259140538
 30
0.0
 40
0.2777070529747067
  0
ARC
  5
A5
330
2
100
AcDbEntity
  8
GAIKEI
 62
     1
100
AcDbCircle
 10
54.44550592220707
 20
41.21371878086011
 30
0.0
 40
0.3987937854447412
100
AcDbArc
 50
270.0177907224008
 51
89.98220927759096
  0
LINE
  5
A6
330
2
100
AcDbEntity
  8
GAIKEI
 62
     1
100
AcDbLine
 10
54.41046755549201
 20
41.28441460219252
 30
0.0
 11
54.41046755549201
 21
41.34508176936043
 31
0.0
  0
LINE
  5
A7
330
2
100
AcDbEntity
  8
GAIKEI
 62
     1
100
AcDbLine
 10
54.41046755549201
 20
41.34508176936043
 30
0.0
 11
54.48103956627915
 21
41.34508176936043
 31
0.0
  0
LINE
  5
A8
330
2
100
AcDbEntity
  8
GAIKEI
 62
     1
100
AcDbLine
 10
54.48103956627915
 20
41.34508176936043
 30
0.0
 11
54.48103956627915
 21
41.28441460219252
 31
0.0
  0
LINE
  5
A9
330
2
100
AcDbEntity
  8
GAIKEI
 62
     1
100
AcDbLine
 10
54.51620176112754
 20
41.24925240734419
 30
0.0
 11
54.57686892829542
 21
41.24925240734419
 31
0.0
  0
LINE
  5
AA
330
2
100
AcDbEntity
  8
GAIKEI
 62
     1
100
AcDbLine
 10
54.57686892829542
 20
41.24925240734419
 30
0.0
 11
54.57686892829542
 21
41.17818515437607
 31
0.0
  0
LINE
  5
AB
330
2
100
AcDbEntity
  8
GAIKEI
 62
     1
100
AcDbLine
 10
54.57686892829542
 20
41.17818515437607
 30
0.0
 11
54.51620176112754
 21
41.17818515437607
 31
0.0
  0
LINE
  5
AC
330
2
100
AcDbEntity
  8
GAIKEI
 62
     1
100
AcDbLine
 10
54.48103956627915
 20
41.14302295952774
 30
0.0
 11
54.48103956627915
 21
41.08260341345032
 31
0.0
  0
LINE
  5
AD
330
2
100
AcDbEntity
  8
GAIKEI
 62
     1
100
AcDbLine
 10
54.48103956627915
 20
41.08260341345032
 30
0.0
 11
54.41046755549201
 21
41.08260341345032
 31
0.0
  0
LINE
  5
AE
330
2
100
AcDbEntity
  8
GAIKEI
 62
     1
100
AcDbLine
 10
54.41046755549201
 20
41.08260341345032
 30
0.0
 11
54.41046755549201
 21
41.14302295952774
 31
0.0
  0
LINE
  5
AF
330
2
100
AcDbEntity
  8
GAIKEI
 62
     1
100
AcDbLine
 10
54.37481011846267
 20
41.17818515437607
 30
0.0
 11
54.31463819347579
 21
41.17818515437607
 31
0.0
  0
LINE
  5
B0
330
2
100
AcDbEntity
  8
GAIKEI
 62
     1
100
AcDbLine
 10
54.31463819347579
 20
41.17818515437607
 30
0.0
 11
54.31463819347579
 21
41.24925240734419
 31
0.0
  0
LINE
  5
B1
330
2
100
AcDbEntity
  8
GAIKEI
 62
     1
100
AcDbLine
 10
54.31463819347579
 20
41.24925240734419
 30
0.0
 11
54.37481011846267
 21
41.24925240734419
 31
0.0
  0
ARC
  5
B2
330
2
100
AcDbEntity
  8
GAIKEI
 62
     1
100
AcDbCircle
 10
54.37506347269442
 20
41.28465640939339
 30
0.0
 40
0.035404908550466
100
AcDbArc
 50
269.5899932329766
 51
359.6086802552525
  0
ARC
  5
B3
330
2
100
AcDbEntity
  8
GAIKEI
 62
     1
100
AcDbCircle
 10
54.37506347878997
 20
41.14278115850831
 30
0.0
 40
0.0354049024128063
100
AcDbArc
 50
0.3913098089274758
 51
90.41001670278289
  0
ARC
  5
B4
330
2
100
AcDbEntity
  8
GAIKEI
 62
     1
100
AcDbCircle
 10
54.51617758342127
 20
41.14304713723385
 30
0.0
 40
0.0351380254601931
100
AcDbArc
 50
89.96057602499575
 51
180.0394239747262
  0
ARC
  5
B5
330
2
100
AcDbEntity
  8
GAIKEI
 62
     1
100
AcDbCircle
 10
54.51617758267303
 20
41.28439042373798
 30
0.0
 40
0.0351380247123788
100
AcDbArc
 50
179.9605748040292
 51
270.0394251959013
  0
LINE
  5
B6
330
2
100
AcDbEntity
  8
GAIKEI
 62
     1
100
AcDbLine
 10
55.45493331514183
 20
41.11702274502724
 30
0.0
 11
55.45493331514183
 21
40.55690383835869
 31
0.0
  0
ARC
  5
B7
330
2
100
AcDbEntity
  8
GAIKEI
 62
     1
100
AcDbCircle
 10
55.53055630220768
 20
44.33154169798314
 30
0.0
 40
3.214349617551518
100
AcDbArc
 50
268.7048761740041
 51
278.0312332996138
  0
LINE
  5
B8
330
2
100
AcDbEntity
  8
GAIKEI
 62
     1
100
AcDbLine
 10
55.84840322791649
 20
41.13064190500369
 30
0.0
 11
55.84840322791649
 21
40.57052299833515
 31
0.0
  0
LINE
  5
B9
330
2
100
AcDbEntity
  8
GAIKEI
 62
     1
100
AcDbLine
 10
55.64659203917432
 20
41.11850847157012
 30
0.0
 11
55.64659203917432
 21
40.5635896078017
 31
0.0
  0
LINE
  5
BA
330
2
100
AcDbEntity
  8
GAIKEI
 62
     1
100
AcDbLine
 10
55.97964240587157
 20
41.14871824460883
 30
0.0
 11
56.18145359461374
 21
41.14871824460883
 31
0.0
  0
LINE
  5
BB
330
2
100
AcDbEntity
  8
GAIKEI
 62
     1
100
AcDbLine
 10
55.24321728278039
 20
41.12098468247492
 30
0.0
 11
55.26624604419516
 21
41.13113714718468
 31
0.0
  0
LINE
  5
BC
330
2
100
AcDbEntity
  8
GAIKEI
 62
     1
100
AcDbLine
 10
55.24321728278039
 20
41.12098468247492
 30
0.0
 11
55.24321728278039
 21
40.54997044782524
 31
0.0
  0
LINE
  5
BD
330
2
100
AcDbEntity
  8
GAIKEI
 62
     1
100
AcDbLine
 10
55.24321728278045
 20
43.23888786936089
 30
0.0
 11
55.24321728278045
 21
42.66787363471121
 31
0.0
  0
LINE
  5
BE
330
2
100
AcDbEntity
  8
GAIKEI
 62
     1
100
AcDbLine
 10
55.24321728278045
 20
43.23888786936089
 30
0.0
 11
55.26624604419521
 21
43.24904033407065
 31
0.0
  0
LINE
  5
BF
330
2
100
AcDbEntity
  8
GAIKEI
 62
     1
100
AcDbLine
 10
55.97964240587163
 20
43.26662143149479
 30
0.0
 11
56.18145359461379
 21
43.26662143149479
 31
0.0
  0
LINE
  5
C0
330
2
100
AcDbEntity
  8
GAIKEI
 62
     1
100
AcDbLine
 10
55.64659203917438
 20
43.23641165845612
 30
0.0
 11
55.64659203917438
 21
42.6814927946877
 31
0.0
  0
LINE
  5
C1
330
2
100
AcDbEntity
  8
GAIKEI
 62
     1
100
AcDbLine
 10
55.84840322791655
 20
43.24854509188969
 30
0.0
 11
55.84840322791655
 21
42.68842618522114
 31
0.0
  0
ARC
  5
C2
330
2
100
AcDbEntity
  8
GAIKEI
 62
     1
100
AcDbCircle
 10
55.53055630220774
 20
46.44944488486913
 30
0.0
 40
3.214349617551518
100
AcDbArc
 50
268.7048761740041
 51
278.0312332996138
  0
LINE
  5
C3
330
2
100
AcDbEntity
  8
GAIKEI
 62
     1
100
AcDbLine
 10
55.45493331514188
 20
43.2349259319132
 30
0.0
 11
55.45493331514188
 21
42.67480702524466
 31
0.0
  0
ARC
  5
C4
330
2
100
AcDbEntity
  8
GAIKEI
 62
     1
100
AcDbCircle
 10
54.51617758267309
 20
43.40229361062395
 30
0.0
 40
0.0351380247123788
100
AcDbArc
 50
179.9605748040292
 51
270.0394251959013
  0
ARC
  5
C5
330
2
100
AcDbEntity
  8
GAIKEI
 62
     1
100
AcDbCircle
 10
54.51617758342132
 20
43.26095032411984
 30
0.0
 40
0.0351380254601931
100
AcDbArc
 50
89.96057602499575
 51
180.0394239747262
  0
ARC
  5
C6
330
2
100
AcDbEntity
  8
GAIKEI
 62
     1
100
AcDbCircle
 10
54.37506347879002
 20
43.26068434539428
 30
0.0
 40
0.0354049024128063
100
AcDbArc
 50
0.3913098089274758
 51
90.41001670278289
  0
ARC
  5
C7
330
2
100
AcDbEntity
  8
GAIKEI
 62
     1
100
AcDbCircle
 10
54.37506347269447
 20
43.40255959627938
 30
0.0
 40
0.035404908550466
100
AcDbArc
 50
269.5899932329766
 51
359.6086802552525
  0
LINE
  5
C8
330
2
100
AcDbEntity
  8
GAIKEI
 62
     1
100
AcDbLine
 10
54.31463819347584
 20
43.36715559423015
 30
0.0
 11
54.37481011846273
 21
43.36715559423015
 31
0.0
  0
LINE
  5
C9
330
2
100
AcDbEntity
  8
GAIKEI
 62
     1
100
AcDbLine
 10
54.31463819347584
 20
43.29608834126207
 30
0.0
 11
54.31463819347584
 21
43.36715559423015
 31
0.0
  0
LINE
  5
CA
330
2
100
AcDbEntity
  8
GAIKEI
 62
     1
100
AcDbLine
 10
54.37481011846273
 20
43.29608834126207
 30
0.0
 11
54.31463819347584
 21
43.29608834126207
 31
0.0
  0
LINE
  5
CB
330
2
100
AcDbEntity
  8
GAIKEI
 62
     1
100
AcDbLine
 10
54.41046755549206
 20
43.20050660033632
 30
0.0
 11
54.41046755549206
 21
43.26092614641374
 31
0.0
  0
LINE
  5
CC
330
2
100
AcDbEntity
  8
GAIKEI
 62
     1
100
AcDbLine
 10
54.48103956627921
 20
43.20050660033632
 30
0.0
 11
54.41046755549206
 21
43.20050660033632
 31
0.0
  0
LINE
  5
CD
330
2
100
AcDbEntity
  8
GAIKEI
 62
     1
100
AcDbLine
 10
54.48103956627921
 20
43.26092614641374
 30
0.0
 11
54.48103956627921
 21
43.20050660033632
 31
0.0
  0
LINE
  5
CE
330
2
100
AcDbEntity
  8
GAIKEI
 62
     1
100
AcDbLine
 10
54.57686892829548
 20
43.29608834126207
 30
0.0
 11
54.5162017611276
 21
43.29608834126207
 31
0.0
  0
LINE
  5
CF
330
2
100
AcDbEntity
  8
GAIKEI
 62
     1
100
AcDbLine
 10
54.57686892829548
 20
43.36715559423015
 30
0.0
 11
54.57686892829548
 21
43.29608834126207
 31
0.0
  0
LINE
  5
D0
330
2
100
AcDbEntity
  8
GAIKEI
 62
     1
100
AcDbLine
 10
54.5162017611276
 20
43.36715559423015
 30
0.0
 11
54.57686892829548
 21
43.36715559423015
 31
0.0
  0
LINE
  5
D1
330
2
100
AcDbEntity
  8
GAIKEI
 62
     1
100
AcDbLine
 10
54.48103956627921
 20
43.46298495624643
 30
0.0
 11
54.48103956627921
 21
43.40231778907849
 31
0.0
  0
LINE
  5
D2
330
2
100
AcDbEntity
  8
GAIKEI
 62
     1
100
AcDbLine
 10
54.41046755549206
 20
43.46298495624643
 30
0.0
 11
54.48103956627921
 21
43.46298495624643
 31
0.0
  0
LINE
  5
D3
330
2
100
AcDbEntity
  8
GAIKEI
 62
     1
100
AcDbLine
 10
54.41046755549206
 20
43.40231778907849
 30
0.0
 11
54.41046755549206
 21
43.46298495624643
 31
0.0
  0
ARC
  5
D4
330
2
100
AcDbEntity
  8
GAIKEI
 62
     1
100
AcDbCircle
 10
54.44550592220713
 20
43.33162196774608
 30
0.0
 40
0.3987937854447412
100
AcDbArc
 50
270.0177907224008
 51
89.98220927759096
  0
CIRCLE
  5
D5
330
2
100
AcDbEntity
  8
GAIKEI
 62
     1
100
AcDbCircle
 10
54.44575356088563
 20
43.33174577829135
 30
0.0
 40
0.2777070529747067
  0
LINE
  5
D6
330
2
100
AcDbEntity
  8
GAIKEI
 62
     1
100
AcDbLine
 10
54.02170244343654
 20
42.93282820152609
 30
0.0
 11
54.4456297503404
 21
42.93282820152609
 31
0.0
  0
LINE
  5
D7
330
2
100
AcDbEntity
  8
GAIKEI
 62
     1
100
AcDbLine
 10
54.02170244343654
 20
43.73041573396614
 30
0.0
 11
54.4456297503404
 21
43.73041573396614
 31
0.0
  0
LINE
  5
D8
330
2
100
AcDbEntity
  8
GAIKEI
 62
     1
100
AcDbLine
 10
55.24321728278045
 20
43.97704634008545
 30
0.0
 11
55.26624604419521
 21
43.96689387537569
 31
0.0
  0
ARC
  5
D9
330
2
100
AcDbEntity
  8
GAIKEI
 62
     1
100
AcDbCircle
 10
54.97850507571058
 20
45.42543840374242
 30
0.0
 40
2.195091260017512
100
AcDbArc
 50
277.5322271556307
 51
294.1505282283001
  0
ARC
  5
DA
330
2
100
AcDbEntity
  8
GAIKEI
 62
     1
100
AcDbCircle
 10
54.9850045336313
 20
41.81815137591249
 30
0.0
 40
2.16706970729222
100
AcDbArc
 50
65.70591412608867
 51
82.54314167893877
  0
ARC
  5
DB
330
2
100
AcDbEntity
  8
GAIKEI
 62
     1
100
AcDbCircle
 10
55.76130538098749
 20
43.6078923920187
 30
0.0
 40
0.2183370304044753
100
AcDbArc
 50
301.8726153820601
 51
58.13154691384174
  0
LINE
  5
DC
330
2
100
AcDbEntity
  8
GAIKEI
 62
     1
100
AcDbLine
 10
55.45493331514188
 20
43.98100827753313
 30
0.0
 11
55.45493331514188
 21
44.54112718420168
 31
0.0
  0
ARC
  5
DD
330
2
100
AcDbEntity
  8
GAIKEI
 62
     1
100
AcDbCircle
 10
55.53055630220774
 20
40.76648932457721
 30
0.0
 40
3.214349617551518
100
AcDbArc
 50
81.96876670038614
 51
91.29512382599585
  0
LINE
  5
DE
330
2
100
AcDbEntity
  8
GAIKEI
 62
     1
100
AcDbLine
 10
55.97964240587163
 20
43.94931277795154
 30
0.0
 11
56.18145359461379
 21
43.94931277795154
 31
0.0
  0
ARC
  5
DF
330
2
100
AcDbEntity
  8
GAIKEI
 62
     1
100
AcDbCircle
 10
56.08031521049809
 20
42.79743368758585
 30
0.0
 40
0.1011383986506614
100
AcDbArc
 50
271.885711497856
 51
359.9692824522695
  0
ARC
  5
E0
330
2
100
AcDbEntity
  8
GAIKEI
 62
     1
100
AcDbCircle
 10
56.07993005342388
 20
44.41837599959572
 30
0.0
 40
0.1015236985410308
100
AcDbArc
 50
0.100876239782508
 51
87.90394999039827
  0
ARC
  5
E1
330
2
100
AcDbEntity
  8
GAIKEI
 62
     1
100
AcDbCircle
 10
54.95056451043677
 20
44.45751650209916
 30
0.0
 40
0.1004993573831423
100
AcDbArc
 50
359.810228221331
 51
88.18462417113606
  0
ARC
  5
E2
330
2
100
AcDbEntity
  8
GAIKEI
 62
     1
100
AcDbCircle
 10
54.9501801615159
 20
42.75854142401158
 30
0.0
 40
0.1008833718566655
100
AcDbArc
 50
272.0268731405882
 51
0.1187854110284281
  0
LINE
  5
E3
330
2
100
AcDbEntity
  8
GAIKEI
 62
     1
100
AcDbLine
 10
55.84840322791655
 20
43.96738911755664
 30
0.0
 11
55.84840322791655
 21
44.5275080242252
 31
0.0
  0
LINE
  5
E4
330
2
100
AcDbEntity
  8
GAIKEI
 62
     1
100
AcDbLine
 10
55.64659203917438
 20
43.97952255099022
 30
0.0
 11
55.64659203917438
 21
44.53444141475864
 31
0.0
  0
LINE
  5
E5
330
2
100
AcDbEntity
  8
GAIKEI
 62
     1
100
AcDbLine
 10
55.24321728278045
 20
43.97704634008545
 30
0.0
 11
55.24321728278045
 21
44.54806057473513
 31
0.0
  0
LINE
  5
E6
330
2
100
AcDbEntity
  8
GAIKEI
 62
     1
100
AcDbLine
 10
55.05106331656702
 20
42.75875057491776
 30
0.0
 11
55.05106331656702
 21
44.45718363452852
 31
0.0
  0
LINE
  5
E7
330
2
100
AcDbEntity
  8
GAIKEI
 62
     1
100
AcDbLine
 10
56.08364326387373
 20
42.69635006011651
 30
0.0
 11
54.02170244343654
 21
42.62602567041983
 31
0.0
  0
LINE
  5
E8
330
2
100
AcDbEntity
  8
GAIKEI
 62
     1
100
AcDbLine
 10
56.18145359461379
 20
44.41855474441348
 30
0.0
 11
56.18145359461379
 21
42.79737946503286
 31
0.0
  0
LINE
  5
E9
330
2
100
AcDbEntity
  8
GAIKEI
 62
     1
100
AcDbLine
 10
54.02170244343654
 20
44.58990853902645
 30
0.0
 11
56.08364326387373
 21
44.5198317704203
 31
0.0
  0
LINE
  5
EA
330
2
100
AcDbEntity
  8
GAIKEI
 62
     1
100
AcDbLine
 10
54.02170244343654
 20
54.48134294772422
 30
0.0
 11
56.08364326387373
 21
54.41126617911805
 31
0.0
  0
LINE
  5
EB
330
2
100
AcDbEntity
  8
GAIKEI
 62
     1
100
AcDbLine
 10
56.18145359461379
 20
54.30998915311125
 30
0.0
 11
56.18145359461379
 21
52.68881387373062
 31
0.0
  0
LINE
  5
EC
330
2
100
AcDbEntity
  8
GAIKEI
 62
     1
100
AcDbLine
 10
56.08364326387373
 20
52.58778446881428
 30
0.0
 11
54.02170244343654
 21
52.51746007911759
 31
0.0
  0
LINE
  5
ED
330
2
100
AcDbEntity
  8
GAIKEI
 62
     1
100
AcDbLine
 10
55.05106331656702
 20
52.65018498361553
 30
0.0
 11
55.05106331656702
 21
54.34861804322628
 31
0.0
  0
LINE
  5
EE
330
2
100
AcDbEntity
  8
GAIKEI
 62
     1
100
AcDbLine
 10
55.24321728278045
 20
53.86848074878321
 30
0.0
 11
55.24321728278045
 21
54.4394949834329
 31
0.0
  0
LINE
  5
EF
330
2
100
AcDbEntity
  8
GAIKEI
 62
     1
100
AcDbLine
 10
55.64659203917438
 20
53.87095695968799
 30
0.0
 11
55.64659203917438
 21
54.42587582345641
 31
0.0
  0
LINE
  5
F0
330
2
100
AcDbEntity
  8
GAIKEI
 62
     1
100
AcDbLine
 10
55.84840322791655
 20
53.85882352625441
 30
0.0
 11
55.84840322791655
 21
54.41894243292296
 31
0.0
  0
ARC
  5
F1
330
2
100
AcDbEntity
  8
GAIKEI
 62
     1
100
AcDbCircle
 10
54.9501801615159
 20
52.64997583270934
 30
0.0
 40
0.1008833718566655
100
AcDbArc
 50
272.0268731405882
 51
0.1187854110284281
  0
ARC
  5
F2
330
2
100
AcDbEntity
  8
GAIKEI
 62
     1
100
AcDbCircle
 10
54.95056451043677
 20
54.34895091079693
 30
0.0
 40
0.1004993573831423
100
AcDbArc
 50
359.810228221331
 51
88.18462417113606
  0
ARC
  5
F3
330
2
100
AcDbEntity
  8
GAIKEI
 62
     1
100
AcDbCircle
 10
56.07993005342388
 20
54.30981040829348
 30
0.0
 40
0.1015236985410308
100
AcDbArc
 50
0.100876239782508
 51
87.90394999039827
  0
ARC
  5
F4
330
2
100
AcDbEntity
  8
GAIKEI
 62
     1
100
AcDbCircle
 10
56.08031521049809
 20
52.68886809628361
 30
0.0
 40
0.1011383986506614
100
AcDbArc
 50
271.885711497856
 51
359.9692824522695
  0
LINE
  5
F5
330
2
100
AcDbEntity
  8
GAIKEI
 62
     1
100
AcDbLine
 10
55.97964240587163
 20
53.84074718664931
 30
0.0
 11
56.18145359461379
 21
53.84074718664931
 31
0.0
  0
ARC
  5
F6
330
2
100
AcDbEntity
  8
GAIKEI
 62
     1
100
AcDbCircle
 10
55.53055630220774
 20
50.65792373327496
 30
0.0
 40
3.214349617551518
100
AcDbArc
 50
81.96876670038614
 51
91.29512382599585
  0
LINE
  5
F7
330
2
100
AcDbEntity
  8
GAIKEI
 62
     1
100
AcDbLine
 10
55.45493331514188
 20
53.87244268623089
 30
0.0
 11
55.45493331514188
 21
54.43256159289944
 31
0.0
  0
ARC
  5
F8
330
2
100
AcDbEntity
  8
GAIKEI
 62
     1
100
AcDbCircle
 10
55.76130538098749
 20
53.49932680071646
 30
0.0
 40
0.2183370304044753
100
AcDbArc
 50
301.8726153820601
 51
58.13154691384174
  0
ARC
  5
F9
330
2
100
AcDbEntity
  8
GAIKEI
 62
     1
100
AcDbCircle
 10
54.9850045336313
 20
51.70958578461025
 30
0.0
 40
2.16706970729222
100
AcDbArc
 50
65.70591412608867
 51
82.54314167893877
  0
ARC
  5
FA
330
2
100
AcDbEntity
  8
GAIKEI
 62
     1
100
AcDbCircle
 10
54.97850507571058
 20
55.31687281244018
 30
0.0
 40
2.195091260017512
100
AcDbArc
 50
277.5322271556307
 51
294.1505282283001
  0
LINE
  5
FB
330
2
100
AcDbEntity
  8
GAIKEI
 62
     1
100
AcDbLine
 10
55.24321728278045
 20
53.86848074878321
 30
0.0
 11
55.26624604419521
 21
53.85832828407345
 31
0.0
  0
LINE
  5
FC
330
2
100
AcDbEntity
  8
GAIKEI
 62
     1
100
AcDbLine
 10
54.02170244343654
 20
53.6218501426639
 30
0.0
 11
54.4456297503404
 21
53.6218501426639
 31
0.0
  0
LINE
  5
FD
330
2
100
AcDbEntity
  8
GAIKEI
 62
     1
100
AcDbLine
 10
54.02170244343654
 20
52.82426261022385
 30
0.0
 11
54.4456297503404
 21
52.82426261022385
 31
0.0
  0
CIRCLE
  5
FE
330
2
100
AcDbEntity
  8
GAIKEI
 62
     1
100
AcDbCircle
 10
54.44575356088563
 20
53.22318018698911
 30
0.0
 40
0.2777070529747067
  0
ARC
  5
FF
330
2
100
AcDbEntity
  8
GAIKEI
 62
     1
100
AcDbCircle
 10
54.44550592220713
 20
53.22305637644385
 30
0.0
 40
0.3987937854447412
100
AcDbArc
 50
270.0177907224008
 51
89.98220927759096
  0
LINE
  5
100
330
2
100
AcDbEntity
  8
GAIKEI
 62
     1
100
AcDbLine
 10
54.41046755549206
 20
53.29375219777626
 30
0.0
 11
54.41046755549206
 21
53.35441936494419
 31
0.0
  0
LINE
  5
101
330
2
100
AcDbEntity
  8
GAIKEI
 62
     1
100
AcDbLine
 10
54.41046755549206
 20
53.35441936494419
 30
0.0
 11
54.48103956627921
 21
53.35441936494419
 31
0.0
  0
LINE
  5
102
330
2
100
AcDbEntity
  8
GAIKEI
 62
     1
100
AcDbLine
 10
54.48103956627921
 20
53.35441936494419
 30
0.0
 11
54.48103956627921
 21
53.29375219777626
 31
0.0
  0
LINE
  5
103
330
2
100
AcDbEntity
  8
GAIKEI
 62
     1
100
AcDbLine
 10
54.5162017611276
 20
53.25859000292791
 30
0.0
 11
54.57686892829548
 21
53.25859000292791
 31
0.0
  0
LINE
  5
104
330
2
100
AcDbEntity
  8
GAIKEI
 62
     1
100
AcDbLine
 10
54.57686892829548
 20
53.25859000292791
 30
0.0
 11
54.57686892829548
 21
53.18752274995984
 31
0.0
  0
LINE
  5
105
330
2
100
AcDbEntity
  8
GAIKEI
 62
     1
100
AcDbLine
 10
54.57686892829548
 20
53.18752274995984
 30
0.0
 11
54.5162017611276
 21
53.18752274995984
 31
0.0
  0
LINE
  5
106
330
2
100
AcDbEntity
  8
GAIKEI
 62
     1
100
AcDbLine
 10
54.48103956627921
 20
53.15236055511149
 30
0.0
 11
54.48103956627921
 21
53.09194100903408
 31
0.0
  0
LINE
  5
107
330
2
100
AcDbEntity
  8
GAIKEI
 62
     1
100
AcDbLine
 10
54.48103956627921
 20
53.09194100903408
 30
0.0
 11
54.41046755549206
 21
53.09194100903408
 31
0.0
  0
LINE
  5
108
330
2
100
AcDbEntity
  8
GAIKEI
 62
     1
100
AcDbLine
 10
54.41046755549206
 20
53.09194100903408
 30
0.0
 11
54.41046755549206
 21
53.15236055511149
 31
0.0
  0
LINE
  5
109
330
2
100
AcDbEntity
  8
GAIKEI
 62
     1
100
AcDbLine
 10
54.37481011846273
 20
53.18752274995984
 30
0.0
 11
54.31463819347584
 21
53.18752274995984
 31
0.0
  0
LINE
  5
10A
330
2
100
AcDbEntity
  8
GAIKEI
 62
     1
100
AcDbLine
 10
54.31463819347584
 20
53.18752274995984
 30
0.0
 11
54.31463819347584
 21
53.25859000292791
 31
0.0
  0
LINE
  5
10B
330
2
100
AcDbEntity
  8
GAIKEI
 62
     1
100
AcDbLine
 10
54.31463819347584
 20
53.25859000292791
 30
0.0
 11
54.37481011846273
 21
53.25859000292791
 31
0.0
  0
ARC
  5
10C
330
2
100
AcDbEntity
  8
GAIKEI
 62
     1
100
AcDbCircle
 10
54.37506347269447
 20
53.29399400497715
 30
0.0
 40
0.035404908550466
100
AcDbArc
 50
269.5899932329766
 51
359.6086802552525
  0
ARC
  5
10D
330
2
100
AcDbEntity
  8
GAIKEI
 62
     1
100
AcDbCircle
 10
54.37506347879002
 20
53.15211875409204
 30
0.0
 40
0.0354049024128063
100
AcDbArc
 50
0.3913098089274758
 51
90.41001670278289
  0
ARC
  5
10E
330
2
100
AcDbEntity
  8
GAIKEI
 62
     1
100
AcDbCircle
 10
54.51617758342132
 20
53.15238473281761
 30
0.0
 40
0.0351380254601931
100
AcDbArc
 50
89.96057602499575
 51
180.0394239747262
  0
ARC
  5
10F
330
2
100
AcDbEntity
  8
GAIKEI
 62
     1
100
AcDbCircle
 10
54.51617758267309
 20
53.29372801932172
 30
0.0
 40
0.0351380247123788
100
AcDbArc
 50
179.9605748040292
 51
270.0394251959013
  0
LINE
  5
110
330
2
100
AcDbEntity
  8
GAIKEI
 62
     1
100
AcDbLine
 10
55.45493331514188
 20
53.12636034061097
 30
0.0
 11
55.45493331514188
 21
52.56624143394242
 31
0.0
  0
ARC
  5
111
330
2
100
AcDbEntity
  8
GAIKEI
 62
     1
100
AcDbCircle
 10
55.53055630220774
 20
56.3408792935669
 30
0.0
 40
3.214349617551518
100
AcDbArc
 50
268.7048761740041
 51
278.0312332996138
  0
LINE
  5
112
330
2
100
AcDbEntity
  8
GAIKEI
 62
     1
100
AcDbLine
 10
55.84840322791655
 20
53.13997950058745
 30
0.0
 11
55.84840322791655
 21
52.57986059391891
 31
0.0
  0
LINE
  5
113
330
2
100
AcDbEntity
  8
GAIKEI
 62
     1
100
AcDbLine
 10
55.64659203917438
 20
53.12784606715388
 30
0.0
 11
55.64659203917438
 21
52.57292720338546
 31
0.0
  0
LINE
  5
114
330
2
100
AcDbEntity
  8
GAIKEI
 62
     1
100
AcDbLine
 10
55.97964240587163
 20
53.15805584019256
 30
0.0
 11
56.18145359461379
 21
53.15805584019256
 31
0.0
  0
LINE
  5
115
330
2
100
AcDbEntity
  8
GAIKEI
 62
     1
100
AcDbLine
 10
55.24321728278045
 20
53.13032227805866
 30
0.0
 11
55.26624604419521
 21
53.14047474276842
 31
0.0
  0
LINE
  5
116
330
2
100
AcDbEntity
  8
GAIKEI
 62
     1
100
AcDbLine
 10
55.24321728278045
 20
53.13032227805866
 30
0.0
 11
55.24321728278045
 21
52.55930804340898
 31
0.0
  0
LINE
  5
117
330
2
100
AcDbEntity
  8
GAIKEI
 62
     1
100
AcDbLine
 10
55.24321728278039
 20
51.01241909117269
 30
0.0
 11
55.24321728278039
 21
50.44140485652301
 31
0.0
  0
LINE
  5
118
330
2
100
AcDbEntity
  8
GAIKEI
 62
     1
100
AcDbLine
 10
55.24321728278039
 20
51.01241909117269
 30
0.0
 11
55.26624604419516
 21
51.02257155588245
 31
0.0
  0
LINE
  5
119
330
2
100
AcDbEntity
  8
GAIKEI
 62
     1
100
AcDbLine
 10
55.97964240587157
 20
51.04015265330659
 30
0.0
 11
56.18145359461374
 21
51.04015265330659
 31
0.0
  0
LINE
  5
11A
330
2
100
AcDbEntity
  8
GAIKEI
 62
     1
100
AcDbLine
 10
55.64659203917432
 20
51.00994288026789
 30
0.0
 11
55.64659203917432
 21
50.45502401649947
 31
0.0
  0
LINE
  5
11B
330
2
100
AcDbEntity
  8
GAIKEI
 62
     1
100
AcDbLine
 10
55.84840322791649
 20
51.02207631370146
 30
0.0
 11
55.84840322791649
 21
50.46195740703291
 31
0.0
  0
ARC
  5
11C
330
2
100
AcDbEntity
  8
GAIKEI
 62
     1
100
AcDbCircle
 10
55.53055630220768
 20
54.2229761066809
 30
0.0
 40
3.214349617551518
100
AcDbArc
 50
268.7048761740041
 51
278.0312332996138
  0
LINE
  5
11D
330
2
100
AcDbEntity
  8
GAIKEI
 62
     1
100
AcDbLine
 10
55.45493331514183
 20
51.008457153725
 30
0.0
 11
55.45493331514183
 21
50.44833824705645
 31
0.0
  0
ARC
  5
11E
330
2
100
AcDbEntity
  8
GAIKEI
 62
     1
100
AcDbCircle
 10
54.51617758267303
 20
51.17582483243575
 30
0.0
 40
0.0351380247123788
100
AcDbArc
 50
179.9605748040292
 51
270.0394251959013
  0
ARC
  5
11F
330
2
100
AcDbEntity
  8
GAIKEI
 62
     1
100
AcDbCircle
 10
54.51617758342127
 20
51.03448154593161
 30
0.0
 40
0.0351380254601931
100
AcDbArc
 50
89.96057602499575
 51
180.0394239747262
  0
ARC
  5
120
330
2
100
AcDbEntity
  8
GAIKEI
 62
     1
100
AcDbCircle
 10
54.37506347878997
 20
51.03421556720608
 30
0.0
 40
0.0354049024128063
100
AcDbArc
 50
0.3913098089274758
 51
90.41001670278289
  0
ARC
  5
121
330
2
100
AcDbEntity
  8
GAIKEI
 62
     1
100
AcDbCircle
 10
54.37506347269442
 20
51.17609081809115
 30
0.0
 40
0.035404908550466
100
AcDbArc
 50
269.5899932329766
 51
359.6086802552525
  0
LINE
  5
122
330
2
100
AcDbEntity
  8
GAIKEI
 62
     1
100
AcDbLine
 10
54.31463819347579
 20
51.14068681604194
 30
0.0
 11
54.37481011846267
 21
51.14068681604194
 31
0.0
  0
LINE
  5
123
330
2
100
AcDbEntity
  8
GAIKEI
 62
     1
100
AcDbLine
 10
54.31463819347579
 20
51.06961956307384
 30
0.0
 11
54.31463819347579
 21
51.14068681604194
 31
0.0
  0
LINE
  5
124
330
2
100
AcDbEntity
  8
GAIKEI
 62
     1
100
AcDbLine
 10
54.37481011846267
 20
51.06961956307384
 30
0.0
 11
54.31463819347579
 21
51.06961956307384
 31
0.0
  0
LINE
  5
125
330
2
100
AcDbEntity
  8
GAIKEI
 62
     1
100
AcDbLine
 10
54.41046755549201
 20
50.97403782214809
 30
0.0
 11
54.41046755549201
 21
51.0344573682255
 31
0.0
  0
LINE
  5
126
330
2
100
AcDbEntity
  8
GAIKEI
 62
     1
100
AcDbLine
 10
54.48103956627915
 20
50.97403782214809
 30
0.0
 11
54.41046755549201
 21
50.97403782214809
 31
0.0
  0
LINE
  5
127
330
2
100
AcDbEntity
  8
GAIKEI
 62
     1
100
AcDbLine
 10
54.48103956627915
 20
51.0344573682255
 30
0.0
 11
54.48103956627915
 21
50.97403782214809
 31
0.0
  0
LINE
  5
128
330
2
100
AcDbEntity
  8
GAIKEI
 62
     1
100
AcDbLine
 10
54.57686892829542
 20
51.06961956307384
 30
0.0
 11
54.51620176112754
 21
51.06961956307384
 31
0.0
  0
LINE
  5
129
330
2
100
AcDbEntity
  8
GAIKEI
 62
     1
100
AcDbLine
 10
54.57686892829542
 20
51.14068681604194
 30
0.0
 11
54.57686892829542
 21
51.06961956307384
 31
0.0
  0
LINE
  5
12A
330
2
100
AcDbEntity
  8
GAIKEI
 62
     1
100
AcDbLine
 10
54.51620176112754
 20
51.14068681604194
 30
0.0
 11
54.57686892829542
 21
51.14068681604194
 31
0.0
  0
LINE
  5
12B
330
2
100
AcDbEntity
  8
GAIKEI
 62
     1
100
AcDbLine
 10
54.48103956627915
 20
51.23651617805819
 30
0.0
 11
54.48103956627915
 21
51.17584901089029
 31
0.0
  0
LINE
  5
12C
330
2
100
AcDbEntity
  8
GAIKEI
 62
     1
100
AcDbLine
 10
54.41046755549201
 20
51.23651617805819
 30
0.0
 11
54.48103956627915
 21
51.23651617805819
 31
0.0
  0
LINE
  5
12D
330
2
100
AcDbEntity
  8
GAIKEI
 62
     1
100
AcDbLine
 10
54.41046755549201
 20
51.17584901089029
 30
0.0
 11
54.41046755549201
 21
51.23651617805819
 31
0.0
  0
ARC
  5
12E
330
2
100
AcDbEntity
  8
GAIKEI
 62
     1
100
AcDbCircle
 10
54.44550592220707
 20
51.10515318955788
 30
0.0
 40
0.3987937854447412
100
AcDbArc
 50
270.0177907224008
 51
89.98220927759096
  0
CIRCLE
  5
12F
330
2
100
AcDbEntity
  8
GAIKEI
 62
     1
100
AcDbCircle
 10
54.44575356088558
 20
51.10527700010314
 30
0.0
 40
0.2777070529747067
  0
LINE
  5
130
330
2
100
AcDbEntity
  8
GAIKEI
 62
     1
100
AcDbLine
 10
54.02170244343648
 20
50.70635942333786
 30
0.0
 11
54.44562975034035
 21
50.70635942333786
 31
0.0
  0
LINE
  5
131
330
2
100
AcDbEntity
  8
GAIKEI
 62
     1
100
AcDbLine
 10
54.02170244343648
 20
51.50394695577791
 30
0.0
 11
54.44562975034035
 21
51.50394695577791
 31
0.0
  0
LINE
  5
132
330
2
100
AcDbEntity
  8
GAIKEI
 62
     1
100
AcDbLine
 10
55.24321728278039
 20
51.75057756189722
 30
0.0
 11
55.26624604419516
 21
51.74042509718749
 31
0.0
  0
ARC
  5
133
330
2
100
AcDbEntity
  8
GAIKEI
 62
     1
100
AcDbCircle
 10
54.97850507571053
 20
53.19896962555421
 30
0.0
 40
2.195091260017512
100
AcDbArc
 50
277.5322271556307
 51
294.1505282283001
  0
ARC
  5
134
330
2
100
AcDbEntity
  8
GAIKEI
 62
     1
100
AcDbCircle
 10
54.98500453363124
 20
49.59168259772429
 30
0.0
 40
2.16706970729222
100
AcDbArc
 50
65.70591412608867
 51
82.54314167893877
  0
ARC
  5
135
330
2
100
AcDbEntity
  8
GAIKEI
 62
     1
100
AcDbCircle
 10
55.76130538098744
 20
51.38142361383046
 30
0.0
 40
0.2183370304044753
100
AcDbArc
 50
301.8726153820601
 51
58.13154691384174
  0
LINE
  5
136
330
2
100
AcDbEntity
  8
GAIKEI
 62
     1
100
AcDbLine
 10
55.45493331514183
 20
51.7545394993449
 30
0.0
 11
55.45493331514183
 21
52.31465840601345
 31
0.0
  0
ARC
  5
137
330
2
100
AcDbEntity
  8
GAIKEI
 62
     1
100
AcDbCircle
 10
55.53055630220768
 20
48.540020546389
 30
0.0
 40
3.214349617551518
100
AcDbArc
 50
81.96876670038614
 51
91.29512382599585
  0
LINE
  5
138
330
2
100
AcDbEntity
  8
GAIKEI
 62
     1
100
AcDbLine
 10
55.97964240587157
 20
51.72284399976331
 30
0.0
 11
56.18145359461374
 21
51.72284399976331
 31
0.0
  0
ARC
  5
139
330
2
100
AcDbEntity
  8
GAIKEI
 62
     1
100
AcDbCircle
 10
56.08031521049804
 20
50.57096490939762
 30
0.0
 40
0.1011383986506614
100
AcDbArc
 50
271.885711497856
 51
359.9692824522695
  0
ARC
  5
13A
330
2
100
AcDbEntity
  8
GAIKEI
 62
     1
100
AcDbCircle
 10
56.07993005342382
 20
52.19190722140751
 30
0.0
 40
0.1015236985410308
100
AcDbArc
 50
0.100876239782508
 51
87.90394999039827
  0
ARC
  5
13B
330
2
100
AcDbEntity
  8
GAIKEI
 62
     1
100
AcDbCircle
 10
54.95056451043672
 20
52.23104772391096
 30
0.0
 40
0.1004993573831423
100
AcDbArc
 50
359.810228221331
 51
88.18462417113606
  0
ARC
  5
13C
330
2
100
AcDbEntity
  8
GAIKEI
 62
     1
100
AcDbCircle
 10
54.95018016151584
 20
50.53207264582335
 30
0.0
 40
0.1008833718566655
100
AcDbArc
 50
272.0268731405882
 51
0.1187854110284281
  0
LINE
  5
13D
330
2
100
AcDbEntity
  8
GAIKEI
 62
     1
100
AcDbLine
 10
55.84840322791649
 20
51.74092033936844
 30
0.0
 11
55.84840322791649
 21
52.30103924603699
 31
0.0
  0
LINE
  5
13E
330
2
100
AcDbEntity
  8
GAIKEI
 62
     1
100
AcDbLine
 10
55.64659203917432
 20
51.75305377280202
 30
0.0
 11
55.64659203917432
 21
52.30797263657044
 31
0.0
  0
LINE
  5
13F
330
2
100
AcDbEntity
  8
GAIKEI
 62
     1
100
AcDbLine
 10
55.24321728278039
 20
51.75057756189722
 30
0.0
 11
55.24321728278039
 21
52.3215917965469
 31
0.0
  0
LINE
  5
140
330
2
100
AcDbEntity
  8
GAIKEI
 62
     1
100
AcDbLine
 10
55.05106331656697
 20
50.53228179672956
 30
0.0
 11
55.05106331656697
 21
52.23071485634031
 31
0.0
  0
LINE
  5
141
330
2
100
AcDbEntity
  8
GAIKEI
 62
     1
100
AcDbLine
 10
56.08364326387368
 20
50.46988128192831
 30
0.0
 11
54.02170244343648
 21
50.3995568922316
 31
0.0
  0
LINE
  5
142
330
2
100
AcDbEntity
  8
GAIKEI
 62
     1
100
AcDbLine
 10
56.18145359461374
 20
52.19208596622525
 30
0.0
 11
56.18145359461374
 21
50.57091068684465
 31
0.0
  0
LINE
  5
143
330
2
100
AcDbEntity
  8
GAIKEI
 62
     1
100
AcDbLine
 10
54.02170244343648
 20
52.36343976083825
 30
0.0
 11
56.08364326387368
 21
52.29336299223206
 31
0.0
  0
LINE
  5
144
330
2
100
AcDbEntity
  8
GAIKEI
 62
     1
100
AcDbLine
 10
54.02170244343648
 20
58.37988939626064
 30
0.0
 11
56.08364326387368
 21
58.30981262765445
 31
0.0
  0
LINE
  5
145
330
2
100
AcDbEntity
  8
GAIKEI
 62
     1
100
AcDbLine
 10
56.18145359461374
 20
58.20853560164763
 30
0.0
 11
56.18145359461374
 21
56.58736032226705
 31
0.0
  0
LINE
  5
146
330
2
100
AcDbEntity
  8
GAIKEI
 62
     1
100
AcDbLine
 10
56.08364326387368
 20
56.4863309173507
 30
0.0
 11
54.02170244343648
 21
56.41600652765399
 31
0.0
  0
LINE
  5
147
330
2
100
AcDbEntity
  8
GAIKEI
 62
     1
100
AcDbLine
 10
55.05106331656697
 20
56.54873143215195
 30
0.0
 11
55.05106331656697
 21
58.2471644917627
 31
0.0
  0
LINE
  5
148
330
2
100
AcDbEntity
  8
GAIKEI
 62
     1
100
AcDbLine
 10
55.24321728278039
 20
57.76702719731961
 30
0.0
 11
55.24321728278039
 21
58.33804143196928
 31
0.0
  0
LINE
  5
149
330
2
100
AcDbEntity
  8
GAIKEI
 62
     1
100
AcDbLine
 10
55.64659203917432
 20
57.76950340822441
 30
0.0
 11
55.64659203917432
 21
58.32442227199283
 31
0.0
  0
LINE
  5
14A
330
2
100
AcDbEntity
  8
GAIKEI
 62
     1
100
AcDbLine
 10
55.84840322791649
 20
57.75736997479083
 30
0.0
 11
55.84840322791649
 21
58.31748888145938
 31
0.0
  0
ARC
  5
14B
330
2
100
AcDbEntity
  8
GAIKEI
 62
     1
100
AcDbCircle
 10
54.95018016151584
 20
56.54852228124574
 30
0.0
 40
0.1008833718566655
100
AcDbArc
 50
272.0268731405882
 51
0.1187854110284281
  0
ARC
  5
14C
330
2
100
AcDbEntity
  8
GAIKEI
 62
     1
100
AcDbCircle
 10
54.95056451043672
 20
58.24749735933335
 30
0.0
 40
0.1004993573831423
100
AcDbArc
 50
359.810228221331
 51
88.18462417113606
  0
ARC
  5
14D
330
2
100
AcDbEntity
  8
GAIKEI
 62
     1
100
AcDbCircle
 10
56.07993005342382
 20
58.20835685682988
 30
0.0
 40
0.1015236985410308
100
AcDbArc
 50
0.100876239782508
 51
87.90394999039827
  0
ARC
  5
14E
330
2
100
AcDbEntity
  8
GAIKEI
 62
     1
100
AcDbCircle
 10
56.08031521049804
 20
56.58741454482001
 30
0.0
 40
0.1011383986506614
100
AcDbArc
 50
271.885711497856
 51
359.9692824522695
  0
LINE
  5
14F
330
2
100
AcDbEntity
  8
GAIKEI
 62
     1
100
AcDbLine
 10
55.97964240587157
 20
57.7392936351857
 30
0.0
 11
56.18145359461374
 21
57.7392936351857
 31
0.0
  0
ARC
  5
150
330
2
100
AcDbEntity
  8
GAIKEI
 62
     1
100
AcDbCircle
 10
55.53055630220768
 20
54.55647018181139
 30
0.0
 40
3.214349617551518
100
AcDbArc
 50
81.96876670038614
 51
91.29512382599585
  0
LINE
  5
151
330
2
100
AcDbEntity
  8
GAIKEI
 62
     1
100
AcDbLine
 10
55.45493331514183
 20
57.77098913476729
 30
0.0
 11
55.45493331514183
 21
58.33110804143584
 31
0.0
  0
ARC
  5
152
330
2
100
AcDbEntity
  8
GAIKEI
 62
     1
100
AcDbCircle
 10
55.76130538098744
 20
57.39787324925285
 30
0.0
 40
0.2183370304044753
100
AcDbArc
 50
301.8726153820601
 51
58.13154691384174
  0
ARC
  5
153
330
2
100
AcDbEntity
  8
GAIKEI
 62
     1
100
AcDbCircle
 10
54.98500453363124
 20
55.60813223314664
 30
0.0
 40
2.16706970729222
100
AcDbArc
 50
65.70591412608867
 51
82.54314167893877
  0
ARC
  5
154
330
2
100
AcDbEntity
  8
GAIKEI
 62
     1
100
AcDbCircle
 10
54.97850507571053
 20
59.2154192609766
 30
0.0
 40
2.195091260017512
100
AcDbArc
 50
277.5322271556307
 51
294.1505282283001
  0
LINE
  5
155
330
2
100
AcDbEntity
  8
GAIKEI
 62
     1
100
AcDbLine
 10
55.24321728278039
 20
57.76702719731961
 30
0.0
 11
55.26624604419516
 21
57.75687473260984
 31
0.0
  0
LINE
  5
156
330
2
100
AcDbEntity
  8
GAIKEI
 62
     1
100
AcDbLine
 10
54.02170244343648
 20
57.52039659120029
 30
0.0
 11
54.44562975034035
 21
57.52039659120029
 31
0.0
  0
LINE
  5
157
330
2
100
AcDbEntity
  8
GAIKEI
 62
     1
100
AcDbLine
 10
54.02170244343648
 20
56.72280905876025
 30
0.0
 11
54.44562975034035
 21
56.72280905876025
 31
0.0
  0
CIRCLE
  5
158
330
2
100
AcDbEntity
  8
GAIKEI
 62
     1
100
AcDbCircle
 10
54.44575356088558
 20
57.12172663552554
 30
0.0
 40
0.2777070529747067
  0
ARC
  5
159
330
2
100
AcDbEntity
  8
GAIKEI
 62
     1
100
AcDbCircle
 10
54.44550592220707
 20
57.12160282498024
 30
0.0
 40
0.3987937854447412
100
AcDbArc
 50
270.0177907224008
 51
89.98220927759096
  0
LINE
  5
15A
330
2
100
AcDbEntity
  8
GAIKEI
 62
     1
100
AcDbLine
 10
54.41046755549201
 20
57.19229864631268
 30
0.0
 11
54.41046755549201
 21
57.25296581348058
 31
0.0
  0
LINE
  5
15B
330
2
100
AcDbEntity
  8
GAIKEI
 62
     1
100
AcDbLine
 10
54.41046755549201
 20
57.25296581348058
 30
0.0
 11
54.48103956627915
 21
57.25296581348058
 31
0.0
  0
LINE
  5
15C
330
2
100
AcDbEntity
  8
GAIKEI
 62
     1
100
AcDbLine
 10
54.48103956627915
 20
57.25296581348058
 30
0.0
 11
54.48103956627915
 21
57.19229864631268
 31
0.0
  0
LINE
  5
15D
330
2
100
AcDbEntity
  8
GAIKEI
 62
     1
100
AcDbLine
 10
54.51620176112754
 20
57.15713645146434
 30
0.0
 11
54.57686892829542
 21
57.15713645146434
 31
0.0
  0
LINE
  5
15E
330
2
100
AcDbEntity
  8
GAIKEI
 62
     1
100
AcDbLine
 10
54.57686892829542
 20
57.15713645146434
 30
0.0
 11
54.57686892829542
 21
57.08606919849623
 31
0.0
  0
LINE
  5
15F
330
2
100
AcDbEntity
  8
GAIKEI
 62
     1
100
AcDbLine
 10
54.57686892829542
 20
57.08606919849623
 30
0.0
 11
54.51620176112754
 21
57.08606919849623
 31
0.0
  0
LINE
  5
160
330
2
100
AcDbEntity
  8
GAIKEI
 62
     1
100
AcDbLine
 10
54.48103956627915
 20
57.05090700364789
 30
0.0
 11
54.48103956627915
 21
56.99048745757048
 31
0.0
  0
LINE
  5
161
330
2
100
AcDbEntity
  8
GAIKEI
 62
     1
100
AcDbLine
 10
54.48103956627915
 20
56.99048745757048
 30
0.0
 11
54.41046755549201
 21
56.99048745757048
 31
0.0
  0
LINE
  5
162
330
2
100
AcDbEntity
  8
GAIKEI
 62
     1
100
AcDbLine
 10
54.41046755549201
 20
56.99048745757048
 30
0.0
 11
54.41046755549201
 21
57.05090700364789
 31
0.0
  0
LINE
  5
163
330
2
100
AcDbEntity
  8
GAIKEI
 62
     1
100
AcDbLine
 10
54.37481011846267
 20
57.08606919849623
 30
0.0
 11
54.31463819347579
 21
57.08606919849623
 31
0.0
  0
LINE
  5
164
330
2
100
AcDbEntity
  8
GAIKEI
 62
     1
100
AcDbLine
 10
54.31463819347579
 20
57.08606919849623
 30
0.0
 11
54.31463819347579
 21
57.15713645146434
 31
0.0
  0
LINE
  5
165
330
2
100
AcDbEntity
  8
GAIKEI
 62
     1
100
AcDbLine
 10
54.31463819347579
 20
57.15713645146434
 30
0.0
 11
54.37481011846267
 21
57.15713645146434
 31
0.0
  0
ARC
  5
166
330
2
100
AcDbEntity
  8
GAIKEI
 62
     1
100
AcDbCircle
 10
54.37506347269442
 20
57.19254045351354
 30
0.0
 40
0.035404908550466
100
AcDbArc
 50
269.5899932329766
 51
359.6086802552525
  0
ARC
  5
167
330
2
100
AcDbEntity
  8
GAIKEI
 62
     1
100
AcDbCircle
 10
54.37506347878997
 20
57.05066520262846
 30
0.0
 40
0.0354049024128063
100
AcDbArc
 50
0.3913098089274758
 51
90.41001670278289
  0
ARC
  5
168
330
2
100
AcDbEntity
  8
GAIKEI
 62
     1
100
AcDbCircle
 10
54.51617758342127
 20
57.050931181354
 30
0.0
 40
0.0351380254601931
100
AcDbArc
 50
89.96057602499575
 51
180.0394239747262
  0
ARC
  5
169
330
2
100
AcDbEntity
  8
GAIKEI
 62
     1
100
AcDbCircle
 10
54.51617758267303
 20
57.19227446785811
 30
0.0
 40
0.0351380247123788
100
AcDbArc
 50
179.9605748040292
 51
270.0394251959013
  0
LINE
  5
16A
330
2
100
AcDbEntity
  8
GAIKEI
 62
     1
100
AcDbLine
 10
55.45493331514183
 20
57.02490678914739
 30
0.0
 11
55.45493331514183
 21
56.46478788247884
 31
0.0
  0
ARC
  5
16B
330
2
100
AcDbEntity
  8
GAIKEI
 62
     1
100
AcDbCircle
 10
55.53055630220768
 20
60.23942574210329
 30
0.0
 40
3.214349617551518
100
AcDbArc
 50
268.7048761740041
 51
278.0312332996138
  0
LINE
  5
16C
330
2
100
AcDbEntity
  8
GAIKEI
 62
     1
100
AcDbLine
 10
55.84840322791649
 20
57.03852594912385
 30
0.0
 11
55.84840322791649
 21
56.4784070424553
 31
0.0
  0
LINE
  5
16D
330
2
100
AcDbEntity
  8
GAIKEI
 62
     1
100
AcDbLine
 10
55.64659203917432
 20
57.02639251569028
 30
0.0
 11
55.64659203917432
 21
56.47147365192186
 31
0.0
  0
LINE
  5
16E
330
2
100
AcDbEntity
  8
GAIKEI
 62
     1
100
AcDbLine
 10
55.97964240587157
 20
57.05660228872898
 30
0.0
 11
56.18145359461374
 21
57.05660228872898
 31
0.0
  0
LINE
  5
16F
330
2
100
AcDbEntity
  8
GAIKEI
 62
     1
100
AcDbLine
 10
55.24321728278039
 20
57.02886872659508
 30
0.0
 11
55.26624604419516
 21
57.03902119130481
 31
0.0
  0
LINE
  5
170
330
2
100
AcDbEntity
  8
GAIKEI
 62
     1
100
AcDbLine
 10
55.24321728278039
 20
57.02886872659508
 30
0.0
 11
55.24321728278039
 21
56.4578544919454
 31
0.0
  0
LINE
  5
171
330
2
100
AcDbEntity
  8
GAIKEI
 62
     1
100
AcDbLine
 10
55.24321728278045
 20
59.14677191348108
 30
0.0
 11
55.24321728278045
 21
58.57575767883139
 31
0.0
  0
LINE
  5
172
330
2
100
AcDbEntity
  8
GAIKEI
 62
     1
100
AcDbLine
 10
55.24321728278045
 20
59.14677191348108
 30
0.0
 11
55.26624604419521
 21
59.15692437819081
 31
0.0
  0
LINE
  5
173
330
2
100
AcDbEntity
  8
GAIKEI
 62
     1
100
AcDbLine
 10
55.97964240587163
 20
59.17450547561498
 30
0.0
 11
56.18145359461379
 21
59.17450547561498
 31
0.0
  0
LINE
  5
174
330
2
100
AcDbEntity
  8
GAIKEI
 62
     1
100
AcDbLine
 10
55.64659203917438
 20
59.14429570257624
 30
0.0
 11
55.64659203917438
 21
58.58937683880782
 31
0.0
  0
LINE
  5
175
330
2
100
AcDbEntity
  8
GAIKEI
 62
     1
100
AcDbLine
 10
55.84840322791655
 20
59.15642913600982
 30
0.0
 11
55.84840322791655
 21
58.59631022934127
 31
0.0
  0
ARC
  5
176
330
2
100
AcDbEntity
  8
GAIKEI
 62
     1
100
AcDbCircle
 10
55.53055630220774
 20
62.35732892898926
 30
0.0
 40
3.214349617551518
100
AcDbArc
 50
268.7048761740041
 51
278.0312332996138
  0
LINE
  5
177
330
2
100
AcDbEntity
  8
GAIKEI
 62
     1
100
AcDbLine
 10
55.45493331514188
 20
59.14280997603339
 30
0.0
 11
55.45493331514188
 21
58.58269106936484
 31
0.0
  0
ARC
  5
178
330
2
100
AcDbEntity
  8
GAIKEI
 62
     1
100
AcDbCircle
 10
54.51617758267309
 20
59.31017765474411
 30
0.0
 40
0.0351380247123788
100
AcDbArc
 50
179.9605748040292
 51
270.0394251959013
  0
ARC
  5
179
330
2
100
AcDbEntity
  8
GAIKEI
 62
     1
100
AcDbCircle
 10
54.51617758342132
 20
59.16883436823997
 30
0.0
 40
0.0351380254601931
100
AcDbArc
 50
89.96057602499575
 51
180.0394239747262
  0
ARC
  5
17A
330
2
100
AcDbEntity
  8
GAIKEI
 62
     1
100
AcDbCircle
 10
54.37506347879002
 20
59.16856838951446
 30
0.0
 40
0.0354049024128063
100
AcDbArc
 50
0.3913098089274758
 51
90.41001670278289
  0
ARC
  5
17B
330
2
100
AcDbEntity
  8
GAIKEI
 62
     1
100
AcDbCircle
 10
54.37506347269447
 20
59.31044364039951
 30
0.0
 40
0.035404908550466
100
AcDbArc
 50
269.5899932329766
 51
359.6086802552525
  0
LINE
  5
17C
330
2
100
AcDbEntity
  8
GAIKEI
 62
     1
100
AcDbLine
 10
54.31463819347584
 20
59.27503963835033
 30
0.0
 11
54.37481011846273
 21
59.27503963835033
 31
0.0
  0
LINE
  5
17D
330
2
100
AcDbEntity
  8
GAIKEI
 62
     1
100
AcDbLine
 10
54.31463819347584
 20
59.2039723853822
 30
0.0
 11
54.31463819347584
 21
59.27503963835033
 31
0.0
  0
LINE
  5
17E
330
2
100
AcDbEntity
  8
GAIKEI
 62
     1
100
AcDbLine
 10
54.37481011846273
 20
59.2039723853822
 30
0.0
 11
54.31463819347584
 21
59.2039723853822
 31
0.0
  0
LINE
  5
17F
330
2
100
AcDbEntity
  8
GAIKEI
 62
     1
100
AcDbLine
 10
54.41046755549206
 20
59.10839064445645
 30
0.0
 11
54.41046755549206
 21
59.16881019053386
 31
0.0
  0
LINE
  5
180
330
2
100
AcDbEntity
  8
GAIKEI
 62
     1
100
AcDbLine
 10
54.48103956627921
 20
59.10839064445645
 30
0.0
 11
54.41046755549206
 21
59.10839064445645
 31
0.0
  0
LINE
  5
181
330
2
100
AcDbEntity
  8
GAIKEI
 62
     1
100
AcDbLine
 10
54.48103956627921
 20
59.16881019053386
 30
0.0
 11
54.48103956627921
 21
59.10839064445645
 31
0.0
  0
LINE
  5
182
330
2
100
AcDbEntity
  8
GAIKEI
 62
     1
100
AcDbLine
 10
54.57686892829548
 20
59.2039723853822
 30
0.0
 11
54.5162017611276
 21
59.2039723853822
 31
0.0
  0
LINE
  5
183
330
2
100
AcDbEntity
  8
GAIKEI
 62
     1
100
AcDbLine
 10
54.57686892829548
 20
59.27503963835033
 30
0.0
 11
54.57686892829548
 21
59.2039723853822
 31
0.0
  0
LINE
  5
184
330
2
100
AcDbEntity
  8
GAIKEI
 62
     1
100
AcDbLine
 10
54.5162017611276
 20
59.27503963835033
 30
0.0
 11
54.57686892829548
 21
59.27503963835033
 31
0.0
  0
LINE
  5
185
330
2
100
AcDbEntity
  8
GAIKEI
 62
     1
100
AcDbLine
 10
54.48103956627921
 20
59.37086900036655
 30
0.0
 11
54.48103956627921
 21
59.31020183319867
 31
0.0
  0
LINE
  5
186
330
2
100
AcDbEntity
  8
GAIKEI
 62
     1
100
AcDbLine
 10
54.41046755549206
 20
59.37086900036655
 30
0.0
 11
54.48103956627921
 21
59.37086900036655
 31
0.0
  0
LINE
  5
187
330
2
100
AcDbEntity
  8
GAIKEI
 62
     1
100
AcDbLine
 10
54.41046755549206
 20
59.31020183319867
 30
0.0
 11
54.41046755549206
 21
59.37086900036655
 31
0.0
  0
ARC
  5
188
330
2
100
AcDbEntity
  8
GAIKEI
 62
     1
100
AcDbCircle
 10
54.44550592220713
 20
59.23950601186624
 30
0.0
 40
0.3987937854447412
100
AcDbArc
 50
270.0177907224008
 51
89.98220927759096
  0
CIRCLE
  5
189
330
2
100
AcDbEntity
  8
GAIKEI
 62
     1
100
AcDbCircle
 10
54.44575356088563
 20
59.23962982241153
 30
0.0
 40
0.2777070529747067
  0
LINE
  5
18A
330
2
100
AcDbEntity
  8
GAIKEI
 62
     1
100
AcDbLine
 10
54.02170244343654
 20
58.84071224564621
 30
0.0
 11
54.4456297503404
 21
58.84071224564621
 31
0.0
  0
LINE
  5
18B
330
2
100
AcDbEntity
  8
GAIKEI
 62
     1
100
AcDbLine
 10
54.02170244343654
 20
59.63829977808626
 30
0.0
 11
54.4456297503404
 21
59.63829977808626
 31
0.0
  0
LINE
  5
18C
330
2
100
AcDbEntity
  8
GAIKEI
 62
     1
100
AcDbLine
 10
55.24321728278045
 20
59.88493038420557
 30
0.0
 11
55.26624604419521
 21
59.87477791949584
 31
0.0
  0
ARC
  5
18D
330
2
100
AcDbEntity
  8
GAIKEI
 62
     1
100
AcDbCircle
 10
54.97850507571058
 20
61.33332244786259
 30
0.0
 40
2.195091260017512
100
AcDbArc
 50
277.5322271556307
 51
294.1505282283001
  0
ARC
  5
18E
330
2
100
AcDbEntity
  8
GAIKEI
 62
     1
100
AcDbCircle
 10
54.9850045336313
 20
57.72603542003264
 30
0.0
 40
2.16706970729222
100
AcDbArc
 50
65.70591412608867
 51
82.54314167893877
  0
ARC
  5
18F
330
2
100
AcDbEntity
  8
GAIKEI
 62
     1
100
AcDbCircle
 10
55.76130538098749
 20
59.51577643613882
 30
0.0
 40
0.2183370304044753
100
AcDbArc
 50
301.8726153820601
 51
58.13154691384174
  0
LINE
  5
190
330
2
100
AcDbEntity
  8
GAIKEI
 62
     1
100
AcDbLine
 10
55.45493331514188
 20
59.88889232165326
 30
0.0
 11
55.45493331514188
 21
60.44901122832181
 31
0.0
  0
ARC
  5
191
330
2
100
AcDbEntity
  8
GAIKEI
 62
     1
100
AcDbCircle
 10
55.53055630220774
 20
56.67437336869738
 30
0.0
 40
3.214349617551518
100
AcDbArc
 50
81.96876670038614
 51
91.29512382599585
  0
LINE
  5
192
330
2
100
AcDbEntity
  8
GAIKEI
 62
     1
100
AcDbLine
 10
55.97964240587163
 20
59.85719682207167
 30
0.0
 11
56.18145359461379
 21
59.85719682207167
 31
0.0
  0
ARC
  5
193
330
2
100
AcDbEntity
  8
GAIKEI
 62
     1
100
AcDbCircle
 10
56.08031521049809
 20
58.70531773170597
 30
0.0
 40
0.1011383986506614
100
AcDbArc
 50
271.885711497856
 51
359.9692824522695
  0
ARC
  5
194
330
2
100
AcDbEntity
  8
GAIKEI
 62
     1
100
AcDbCircle
 10
56.07993005342388
 20
60.32626004371588
 30
0.0
 40
0.1015236985410308
100
AcDbArc
 50
0.100876239782508
 51
87.90394999039827
  0
ARC
  5
195
330
2
100
AcDbEntity
  8
GAIKEI
 62
     1
100
AcDbCircle
 10
54.95056451043677
 20
60.36540054621934
 30
0.0
 40
0.1004993573831423
100
AcDbArc
 50
359.810228221331
 51
88.18462417113606
  0
ARC
  5
196
330
2
100
AcDbEntity
  8
GAIKEI
 62
     1
100
AcDbCircle
 10
54.9501801615159
 20
58.66642546813171
 30
0.0
 40
0.1008833718566655
100
AcDbArc
 50
272.0268731405882
 51
0.1187854110284281
  0
LINE
  5
197
330
2
100
AcDbEntity
  8
GAIKEI
 62
     1
100
AcDbLine
 10
55.84840322791655
 20
59.87527316167683
 30
0.0
 11
55.84840322791655
 21
60.43539206834537
 31
0.0
  0
LINE
  5
198
330
2
100
AcDbEntity
  8
GAIKEI
 62
     1
100
AcDbLine
 10
55.64659203917438
 20
59.88740659511041
 30
0.0
 11
55.64659203917438
 21
60.44232545887883
 31
0.0
  0
LINE
  5
199
330
2
100
AcDbEntity
  8
GAIKEI
 62
     1
100
AcDbLine
 10
55.24321728278045
 20
59.88493038420557
 30
0.0
 11
55.24321728278045
 21
60.45594461885525
 31
0.0
  0
LINE
  5
19A
330
2
100
AcDbEntity
  8
GAIKEI
 62
     1
100
AcDbLine
 10
55.05106331656702
 20
58.66663461903795
 30
0.0
 11
55.05106331656702
 21
60.3650676786487
 31
0.0
  0
LINE
  5
19B
330
2
100
AcDbEntity
  8
GAIKEI
 62
     1
100
AcDbLine
 10
56.08364326387373
 20
58.6042341042367
 30
0.0
 11
54.02170244343654
 21
58.53390971453996
 31
0.0
  0
LINE
  5
19C
330
2
100
AcDbEntity
  8
GAIKEI
 62
     1
100
AcDbLine
 10
56.18145359461379
 20
60.3264387885336
 30
0.0
 11
56.18145359461379
 21
58.70526350915304
 31
0.0
  0
LINE
  5
19D
330
2
100
AcDbEntity
  8
GAIKEI
 62
     1
100
AcDbLine
 10
54.02170244343654
 20
60.49779258314663
 30
0.0
 11
56.08364326387373
 21
60.42771581454042
 31
0.0
  0
CIRCLE
  5
19E
330
2
100
AcDbEntity
  8
GAIKEI
 62
     1
100
AcDbCircle
 10
22.21095673815983
 20
48.32399691181797
 30
0.0
 40
0.4792706206264174
  0
CIRCLE
  5
19F
330
2
100
AcDbEntity
  8
GAIKEI
 62
     1
100
AcDbCircle
 10
22.21145198034077
 20
48.32399691181803
 30
0.0
 40
0.252202080655131
  0
CIRCLE
  5
1A0
330
2
100
AcDbEntity
  8
GAIKEI
 62
     1
100
AcDbCircle
 10
22.21108054870501
 20
48.32399691181803
 30
0.0
 40
0.3533552961167127
  0
LINE
  5
1A1
330
2
100
AcDbEntity
  8
GAIKEI
 62
     1
100
AcDbLine
 10
22.16576588914699
 20
48.41536909420558
 30
0.0
 11
22.16576588914699
 21
48.53571294417941
 31
0.0
  0
LINE
  5
1A2
330
2
100
AcDbEntity
  8
GAIKEI
 62
     1
100
AcDbLine
 10
22.16576588914699
 20
48.53571294417941
 30
0.0
 11
22.25689045044407
 21
48.53571294417941
 31
0.0
  0
LINE
  5
1A3
330
2
100
AcDbEntity
  8
GAIKEI
 62
     1
100
AcDbLine
 10
22.25689045044407
 20
48.53571294417941
 30
0.0
 11
22.25689045044407
 21
48.41536909420558
 31
0.0
  0
LINE
  5
1A4
330
2
100
AcDbEntity
  8
GAIKEI
 62
     1
100
AcDbLine
 10
22.30170986782116
 20
48.36931157137605
 30
0.0
 11
22.42304420215697
 21
48.36931157137605
 31
0.0
  0
LINE
  5
1A5
330
2
100
AcDbEntity
  8
GAIKEI
 62
     1
100
AcDbLine
 10
22.42304420215697
 20
48.36931157137605
 30
0.0
 11
22.42304420215697
 21
48.2786822522599
 31
0.0
  0
LINE
  5
1A6
330
2
100
AcDbEntity
  8
GAIKEI
 62
     1
100
AcDbLine
 10
22.42304420215697
 20
48.2786822522599
 30
0.0
 11
22.30170986782116
 21
48.2786822522599
 31
0.0
  0
LINE
  5
1A7
330
2
100
AcDbEntity
  8
GAIKEI
 62
     1
100
AcDbLine
 10
22.25689045044407
 20
48.23336759270183
 30
0.0
 11
22.25689045044407
 21
48.11228087945654
 31
0.0
  0
LINE
  5
1A8
330
2
100
AcDbEntity
  8
GAIKEI
 62
     1
100
AcDbLine
 10
22.25689045044407
 20
48.11228087945654
 30
0.0
 11
22.16576588914699
 21
48.11228087945654
 31
0.0
  0
LINE
  5
1A9
330
2
100
AcDbEntity
  8
GAIKEI
 62
     1
100
AcDbLine
 10
22.16576588914699
 20
48.11228087945654
 30
0.0
 11
22.16576588914699
 21
48.23336759270183
 31
0.0
  0
LINE
  5
1AA
330
2
100
AcDbEntity
  8
GAIKEI
 62
     1
100
AcDbLine
 10
22.12020360849845
 20
48.2786822522599
 30
0.0
 11
21.99936451634363
 21
48.2786822522599
 31
0.0
  0
LINE
  5
1AB
330
2
100
AcDbEntity
  8
GAIKEI
 62
     1
100
AcDbLine
 10
21.99936451634363
 20
48.2786822522599
 30
0.0
 11
21.99936451634363
 21
48.36931157137605
 31
0.0
  0
LINE
  5
1AC
330
2
100
AcDbEntity
  8
GAIKEI
 62
     1
100
AcDbLine
 10
21.99936451634363
 20
48.36931157137605
 30
0.0
 11
22.12020360849845
 21
48.36931157137605
 31
0.0
  0
ARC
  5
1AD
330
2
100
AcDbEntity
  8
GAIKEI
 62
     1
100
AcDbCircle
 10
22.12037224098094
 20
48.41470969538699
 30
0.0
 40
0.0453984372047078
100
AcDbArc
 50
269.7871743533774
 51
0.8322334465143308
  0
ARC
  5
1AE
330
2
100
AcDbEntity
  8
GAIKEI
 62
     1
100
AcDbCircle
 10
22.30213590363484
 20
48.41456221319339
 30
0.0
 40
0.0452526473414126
100
AcDbArc
 50
178.9783287978178
 51
269.4605748814484
  0
ARC
  5
1AF
330
2
100
AcDbEntity
  8
GAIKEI
 62
     1
100
AcDbCircle
 10
22.30196478820676
 20
48.23360799427098
 30
0.0
 40
0.0450749788425272
100
AcDbArc
 50
90.32403653740674
 51
180.3055810774727
  0
ARC
  5
1B0
330
2
100
AcDbEntity
  8
GAIKEI
 62
     1
100
AcDbCircle
 10
22.12053288730294
 20
48.23345037319325
 30
0.0
 40
0.0452330775918896
100
AcDbArc
 50
359.8951436496493
 51
90.41709415802531
  0
ARC
  5
1B1
330
2
100
AcDbEntity
  8
GAIKEI
 62
     1
100
AcDbCircle
 10
22.12090431893875
 20
38.38522584478448
 30
0.0
 40
0.0452330775918896
100
AcDbArc
 50
359.8951436496493
 51
90.41709415802531
  0
ARC
  5
1B2
330
2
100
AcDbEntity
  8
GAIKEI
 62
     1
100
AcDbCircle
 10
22.30233621984257
 20
38.38538346586222
 30
0.0
 40
0.0450749788425272
100
AcDbArc
 50
90.32403653740674
 51
180.3055810774727
  0
ARC
  5
1B3
330
2
100
AcDbEntity
  8
GAIKEI
 62
     1
100
AcDbCircle
 10
22.30250733527066
 20
38.56633768478463
 30
0.0
 40
0.0452526473414126
100
AcDbArc
 50
178.9783287978178
 51
269.4605748814484
  0
ARC
  5
1B4
330
2
100
AcDbEntity
  8
GAIKEI
 62
     1
100
AcDbCircle
 10
22.12074367261675
 20
38.56648516697822
 30
0.0
 40
0.0453984372047078
100
AcDbArc
 50
269.7871743533774
 51
0.8322334465143308
  0
LINE
  5
1B5
330
2
100
AcDbEntity
  8
GAIKEI
 62
     1
100
AcDbLine
 10
21.99973594797944
 20
38.52108704296725
 30
0.0
 11
22.12057504013427
 21
38.52108704296725
 31
0.0
  0
LINE
  5
1B6
330
2
100
AcDbEntity
  8
GAIKEI
 62
     1
100
AcDbLine
 10
21.99973594797944
 20
38.43045772385113
 30
0.0
 11
21.99973594797944
 21
38.52108704296725
 31
0.0
  0
LINE
  5
1B7
330
2
100
AcDbEntity
  8
GAIKEI
 62
     1
100
AcDbLine
 10
22.12057504013427
 20
38.43045772385113
 30
0.0
 11
21.99973594797944
 21
38.43045772385113
 31
0.0
  0
LINE
  5
1B8
330
2
100
AcDbEntity
  8
GAIKEI
 62
     1
100
AcDbLine
 10
22.1661373207828
 20
38.26405635104774
 30
0.0
 11
22.1661373207828
 21
38.38514306429306
 31
0.0
  0
LINE
  5
1B9
330
2
100
AcDbEntity
  8
GAIKEI
 62
     1
100
AcDbLine
 10
22.25726188207989
 20
38.26405635104774
 30
0.0
 11
22.1661373207828
 21
38.26405635104774
 31
0.0
  0
LINE
  5
1BA
330
2
100
AcDbEntity
  8
GAIKEI
 62
     1
100
AcDbLine
 10
22.25726188207989
 20
38.38514306429306
 30
0.0
 11
22.25726188207989
 21
38.26405635104774
 31
0.0
  0
LINE
  5
1BB
330
2
100
AcDbEntity
  8
GAIKEI
 62
     1
100
AcDbLine
 10
22.42341563379278
 20
38.43045772385113
 30
0.0
 11
22.30208129945697
 21
38.43045772385113
 31
0.0
  0
LINE
  5
1BC
330
2
100
AcDbEntity
  8
GAIKEI
 62
     1
100
AcDbLine
 10
22.42341563379278
 20
38.52108704296725
 30
0.0
 11
22.42341563379278
 21
38.43045772385113
 31
0.0
  0
LINE
  5
1BD
330
2
100
AcDbEntity
  8
GAIKEI
 62
     1
100
AcDbLine
 10
22.30208129945697
 20
38.52108704296725
 30
0.0
 11
22.42341563379278
 21
38.52108704296725
 31
0.0
  0
LINE
  5
1BE
330
2
100
AcDbEntity
  8
GAIKEI
 62
     1
100
AcDbLine
 10
22.25726188207989
 20
38.68748841577064
 30
0.0
 11
22.25726188207989
 21
38.56714456579678
 31
0.0
  0
LINE
  5
1BF
330
2
100
AcDbEntity
  8
GAIKEI
 62
     1
100
AcDbLine
 10
22.1661373207828
 20
38.68748841577064
 30
0.0
 11
22.25726188207989
 21
38.68748841577064
 31
0.0
  0
LINE
  5
1C0
330
2
100
AcDbEntity
  8
GAIKEI
 62
     1
100
AcDbLine
 10
22.1661373207828
 20
38.56714456579678
 30
0.0
 11
22.1661373207828
 21
38.68748841577064
 31
0.0
  0
CIRCLE
  5
1C1
330
2
100
AcDbEntity
  8
GAIKEI
 62
     1
100
AcDbCircle
 10
22.21145198034082
 20
38.47577238340923
 30
0.0
 40
0.3533552961167127
  0
CIRCLE
  5
1C2
330
2
100
AcDbEntity
  8
GAIKEI
 62
     1
100
AcDbCircle
 10
22.21182341197658
 20
38.47577238340923
 30
0.0
 40
0.252202080655131
  0
CIRCLE
  5
1C3
330
2
100
AcDbEntity
  8
GAIKEI
 62
     1
100
AcDbCircle
 10
22.21132816979565
 20
38.47577238340921
 30
0.0
 40
0.4792706206264174
  0
CIRCLE
  5
1C4
330
2
100
AcDbEntity
  8
GAIKEI
 62
     1
100
AcDbCircle
 10
28.9637076861282
 20
35.74079743904405
 30
0.0
 40
0.4792706206264174
  0
CIRCLE
  5
1C5
330
2
100
AcDbEntity
  8
GAIKEI
 62
     1
100
AcDbCircle
 10
28.96420292830913
 20
35.74079743904408
 30
0.0
 40
0.252202080655131
  0
CIRCLE
  5
1C6
330
2
100
AcDbEntity
  8
GAIKEI
 62
     1
100
AcDbCircle
 10
28.96383149667338
 20
35.74079743904408
 30
0.0
 40
0.3533552961167127
  0
LINE
  5
1C7
330
2
100
AcDbEntity
  8
GAIKEI
 62
     1
100
AcDbLine
 10
28.91851683711536
 20
35.83216962143163
 30
0.0
 11
28.91851683711536
 21
35.95251347140549
 31
0.0
  0
LINE
  5
1C8
330
2
100
AcDbEntity
  8
GAIKEI
 62
     1
100
AcDbLine
 10
28.91851683711536
 20
35.95251347140549
 30
0.0
 11
29.00964139841244
 21
35.95251347140549
 31
0.0
  0
LINE
  5
1C9
330
2
100
AcDbEntity
  8
GAIKEI
 62
     1
100
AcDbLine
 10
29.00964139841244
 20
35.95251347140549
 30
0.0
 11
29.00964139841244
 21
35.83216962143163
 31
0.0
  0
LINE
  5
1CA
330
2
100
AcDbEntity
  8
GAIKEI
 62
     1
100
AcDbLine
 10
29.05446081578952
 20
35.7861120986021
 30
0.0
 11
29.17579515012533
 21
35.7861120986021
 31
0.0
  0
LINE
  5
1CB
330
2
100
AcDbEntity
  8
GAIKEI
 62
     1
100
AcDbLine
 10
29.17579515012533
 20
35.7861120986021
 30
0.0
 11
29.17579515012533
 21
35.69548277948598
 31
0.0
  0
LINE
  5
1CC
330
2
100
AcDbEntity
  8
GAIKEI
 62
     1
100
AcDbLine
 10
29.17579515012533
 20
35.69548277948598
 30
0.0
 11
29.05446081578952
 21
35.69548277948598
 31
0.0
  0
LINE
  5
1CD
330
2
100
AcDbEntity
  8
GAIKEI
 62
     1
100
AcDbLine
 10
29.00964139841244
 20
35.65016811992791
 30
0.0
 11
29.00964139841244
 21
35.52908140668259
 31
0.0
  0
LINE
  5
1CE
330
2
100
AcDbEntity
  8
GAIKEI
 62
     1
100
AcDbLine
 10
29.00964139841244
 20
35.52908140668259
 30
0.0
 11
28.91851683711536
 21
35.52908140668259
 31
0.0
  0
LINE
  5
1CF
330
2
100
AcDbEntity
  8
GAIKEI
 62
     1
100
AcDbLine
 10
28.91851683711536
 20
35.52908140668259
 30
0.0
 11
28.91851683711536
 21
35.65016811992791
 31
0.0
  0
LINE
  5
1D0
330
2
100
AcDbEntity
  8
GAIKEI
 62
     1
100
AcDbLine
 10
28.87295455646682
 20
35.69548277948598
 30
0.0
 11
28.752115464312
 21
35.69548277948598
 31
0.0
  0
LINE
  5
1D1
330
2
100
AcDbEntity
  8
GAIKEI
 62
     1
100
AcDbLine
 10
28.752115464312
 20
35.69548277948598
 30
0.0
 11
28.752115464312
 21
35.7861120986021
 31
0.0
  0
LINE
  5
1D2
330
2
100
AcDbEntity
  8
GAIKEI
 62
     1
100
AcDbLine
 10
28.752115464312
 20
35.7861120986021
 30
0.0
 11
28.87295455646682
 21
35.7861120986021
 31
0.0
  0
ARC
  5
1D3
330
2
100
AcDbEntity
  8
GAIKEI
 62
     1
100
AcDbCircle
 10
28.87312318894931
 20
35.83151022261307
 30
0.0
 40
0.0453984372047078
100
AcDbArc
 50
269.7871743533774
 51
0.8322334465143308
  0
ARC
  5
1D4
330
2
100
AcDbEntity
  8
GAIKEI
 62
     1
100
AcDbCircle
 10
29.05488685160321
 20
35.83136274041947
 30
0.0
 40
0.0452526473414126
100
AcDbArc
 50
178.9783287978178
 51
269.4605748814484
  0
ARC
  5
1D5
330
2
100
AcDbEntity
  8
GAIKEI
 62
     1
100
AcDbCircle
 10
29.05471573617512
 20
35.65040852149707
 30
0.0
 40
0.0450749788425272
100
AcDbArc
 50
90.32403653740674
 51
180.3055810774727
  0
ARC
  5
1D6
330
2
100
AcDbEntity
  8
GAIKEI
 62
     1
100
AcDbCircle
 10
28.87328383527131
 20
35.65025090041933
 30
0.0
 40
0.0452330775918896
100
AcDbArc
 50
359.8951436496493
 51
90.41709415802531
  0
ARC
  5
1D7
330
2
100
AcDbEntity
  8
GAIKEI
 62
     1
100
AcDbCircle
 10
45.35343639721941
 20
35.65025090041933
 30
0.0
 40
0.0452330775918896
100
AcDbArc
 50
359.8951436496493
 51
90.41709415802531
  0
ARC
  5
1D8
330
2
100
AcDbEntity
  8
GAIKEI
 62
     1
100
AcDbCircle
 10
45.53486829812323
 20
35.65040852149707
 30
0.0
 40
0.0450749788425272
100
AcDbArc
 50
90.32403653740674
 51
180.3055810774727
  0
ARC
  5
1D9
330
2
100
AcDbEntity
  8
GAIKEI
 62
     1
100
AcDbCircle
 10
45.53503941355131
 20
35.83136274041947
 30
0.0
 40
0.0452526473414126
100
AcDbArc
 50
178.9783287978178
 51
269.4605748814484
  0
ARC
  5
1DA
330
2
100
AcDbEntity
  8
GAIKEI
 62
     1
100
AcDbCircle
 10
45.3532757508974
 20
35.83151022261307
 30
0.0
 40
0.0453984372047078
100
AcDbArc
 50
269.7871743533774
 51
0.8322334465143308
  0
LINE
  5
1DB
330
2
100
AcDbEntity
  8
GAIKEI
 62
     1
100
AcDbLine
 10
45.2322680262601
 20
35.7861120986021
 30
0.0
 11
45.35310711841492
 21
35.7861120986021
 31
0.0
  0
LINE
  5
1DC
330
2
100
AcDbEntity
  8
GAIKEI
 62
     1
100
AcDbLine
 10
45.2322680262601
 20
35.69548277948598
 30
0.0
 11
45.2322680262601
 21
35.7861120986021
 31
0.0
  0
LINE
  5
1DD
330
2
100
AcDbEntity
  8
GAIKEI
 62
     1
100
AcDbLine
 10
45.35310711841492
 20
35.69548277948598
 30
0.0
 11
45.2322680262601
 21
35.69548277948598
 31
0.0
  0
LINE
  5
1DE
330
2
100
AcDbEntity
  8
GAIKEI
 62
     1
100
AcDbLine
 10
45.39866939906346
 20
35.52908140668259
 30
0.0
 11
45.39866939906346
 21
35.65016811992791
 31
0.0
  0
LINE
  5
1DF
330
2
100
AcDbEntity
  8
GAIKEI
 62
     1
100
AcDbLine
 10
45.48979396036054
 20
35.52908140668259
 30
0.0
 11
45.39866939906346
 21
35.52908140668259
 31
0.0
  0
LINE
  5
1E0
330
2
100
AcDbEntity
  8
GAIKEI
 62
     1
100
AcDbLine
 10
45.48979396036054
 20
35.65016811992791
 30
0.0
 11
45.48979396036054
 21
35.52908140668259
 31
0.0
  0
LINE
  5
1E1
330
2
100
AcDbEntity
  8
GAIKEI
 62
     1
100
AcDbLine
 10
45.65594771207344
 20
35.69548277948598
 30
0.0
 11
45.53461337773763
 21
35.69548277948598
 31
0.0
  0
LINE
  5
1E2
330
2
100
AcDbEntity
  8
GAIKEI
 62
     1
100
AcDbLine
 10
45.65594771207344
 20
35.7861120986021
 30
0.0
 11
45.65594771207344
 21
35.69548277948598
 31
0.0
  0
LINE
  5
1E3
330
2
100
AcDbEntity
  8
GAIKEI
 62
     1
100
AcDbLine
 10
45.53461337773763
 20
35.7861120986021
 30
0.0
 11
45.65594771207344
 21
35.7861120986021
 31
0.0
  0
LINE
  5
1E4
330
2
100
AcDbEntity
  8
GAIKEI
 62
     1
100
AcDbLine
 10
45.48979396036054
 20
35.95251347140549
 30
0.0
 11
45.48979396036054
 21
35.83216962143163
 31
0.0
  0
LINE
  5
1E5
330
2
100
AcDbEntity
  8
GAIKEI
 62
     1
100
AcDbLine
 10
45.39866939906346
 20
35.95251347140549
 30
0.0
 11
45.48979396036054
 21
35.95251347140549
 31
0.0
  0
LINE
  5
1E6
330
2
100
AcDbEntity
  8
GAIKEI
 62
     1
100
AcDbLine
 10
45.39866939906346
 20
35.83216962143163
 30
0.0
 11
45.39866939906346
 21
35.95251347140549
 31
0.0
  0
CIRCLE
  5
1E7
330
2
100
AcDbEntity
  8
GAIKEI
 62
     1
100
AcDbCircle
 10
45.44398405862148
 20
35.74079743904408
 30
0.0
 40
0.3533552961167127
  0
CIRCLE
  5
1E8
330
2
100
AcDbEntity
  8
GAIKEI
 62
     1
100
AcDbCircle
 10
45.44435549025723
 20
35.74079743904408
 30
0.0
 40
0.252202080655131
  0
CIRCLE
  5
1E9
330
2
100
AcDbEntity
  8
GAIKEI
 62
     1
100
AcDbCircle
 10
45.4438602480763
 20
35.74079743904405
 30
0.0
 40
0.4792706206264174
  0
CIRCLE
  5
1EA
330
2
100
AcDbEntity
  8
GAIKEI
 62
     1
100
AcDbCircle
 10
52.00965727273137
 20
38.5953733701117
 30
0.0
 40
0.4792706206264174
  0
CIRCLE
  5
1EB
330
2
100
AcDbEntity
  8
GAIKEI
 62
     1
100
AcDbCircle
 10
52.01015251491231
 20
38.5953733701117
 30
0.0
 40
0.252202080655131
  0
CIRCLE
  5
1EC
330
2
100
AcDbEntity
  8
GAIKEI
 62
     1
100
AcDbCircle
 10
52.00978108327655
 20
38.5953733701117
 30
0.0
 40
0.3533552961167127
  0
LINE
  5
1ED
330
2
100
AcDbEntity
  8
GAIKEI
 62
     1
100
AcDbLine
 10
51.96446642371853
 20
38.68674555249924
 30
0.0
 11
51.96446642371853
 21
38.80708940247314
 31
0.0
  0
LINE
  5
1EE
330
2
100
AcDbEntity
  8
GAIKEI
 62
     1
100
AcDbLine
 10
51.96446642371853
 20
38.80708940247314
 30
0.0
 11
52.05559098501561
 21
38.80708940247314
 31
0.0
  0
LINE
  5
1EF
330
2
100
AcDbEntity
  8
GAIKEI
 62
     1
100
AcDbLine
 10
52.05559098501561
 20
38.80708940247314
 30
0.0
 11
52.05559098501561
 21
38.68674555249924
 31
0.0
  0
LINE
  5
1F0
330
2
100
AcDbEntity
  8
GAIKEI
 62
     1
100
AcDbLine
 10
52.1004104023927
 20
38.64068802966972
 30
0.0
 11
52.22174473672851
 21
38.64068802966972
 31
0.0
  0
LINE
  5
1F1
330
2
100
AcDbEntity
  8
GAIKEI
 62
     1
100
AcDbLine
 10
52.22174473672851
 20
38.64068802966972
 30
0.0
 11
52.22174473672851
 21
38.55005871055363
 31
0.0
  0
LINE
  5
1F2
330
2
100
AcDbEntity
  8
GAIKEI
 62
     1
100
AcDbLine
 10
52.22174473672851
 20
38.55005871055363
 30
0.0
 11
52.1004104023927
 21
38.55005871055363
 31
0.0
  0
LINE
  5
1F3
330
2
100
AcDbEntity
  8
GAIKEI
 62
     1
100
AcDbLine
 10
52.05559098501561
 20
38.50474405099555
 30
0.0
 11
52.05559098501561
 21
38.3836573377502
 31
0.0
  0
LINE
  5
1F4
330
2
100
AcDbEntity
  8
GAIKEI
 62
     1
100
AcDbLine
 10
52.05559098501561
 20
38.3836573377502
 30
0.0
 11
51.96446642371853
 21
38.3836573377502
 31
0.0
  0
LINE
  5
1F5
330
2
100
AcDbEntity
  8
GAIKEI
 62
     1
100
AcDbLine
 10
51.96446642371853
 20
38.3836573377502
 30
0.0
 11
51.96446642371853
 21
38.50474405099555
 31
0.0
  0
LINE
  5
1F6
330
2
100
AcDbEntity
  8
GAIKEI
 62
     1
100
AcDbLine
 10
51.91890414307
 20
38.55005871055363
 30
0.0
 11
51.79806505091517
 21
38.55005871055363
 31
0.0
  0
LINE
  5
1F7
330
2
100
AcDbEntity
  8
GAIKEI
 62
     1
100
AcDbLine
 10
51.79806505091517
 20
38.55005871055363
 30
0.0
 11
51.79806505091517
 21
38.64068802966972
 31
0.0
  0
LINE
  5
1F8
330
2
100
AcDbEntity
  8
GAIKEI
 62
     1
100
AcDbLine
 10
51.79806505091517
 20
38.64068802966972
 30
0.0
 11
51.91890414307
 21
38.64068802966972
 31
0.0
  0
ARC
  5
1F9
330
2
100
AcDbEntity
  8
GAIKEI
 62
     1
100
AcDbCircle
 10
51.91907277555248
 20
38.68608615368072
 30
0.0
 40
0.0453984372047078
100
AcDbArc
 50
269.7871743533774
 51
0.8322334465143308
  0
ARC
  5
1FA
330
2
100
AcDbEntity
  8
GAIKEI
 62
     1
100
AcDbCircle
 10
52.10083643820638
 20
38.68593867148709
 30
0.0
 40
0.0452526473414126
100
AcDbArc
 50
178.9783287978178
 51
269.4605748814484
  0
ARC
  5
1FB
330
2
100
AcDbEntity
  8
GAIKEI
 62
     1
100
AcDbCircle
 10
52.1006653227783
 20
38.50498445256471
 30
0.0
 40
0.0450749788425272
100
AcDbArc
 50
90.32403653740674
 51
180.3055810774727
  0
ARC
  5
1FC
330
2
100
AcDbEntity
  8
GAIKEI
 62
     1
100
AcDbCircle
 10
51.91923342187448
 20
38.50482683148695
 30
0.0
 40
0.0452330775918896
100
AcDbArc
 50
359.8951436496493
 51
90.41709415802531
  0
ARC
  5
1FD
330
2
100
AcDbEntity
  8
GAIKEI
 62
     1
100
AcDbCircle
 10
51.91972866405541
 20
48.30278427852801
 30
0.0
 40
0.0452330775918896
100
AcDbArc
 50
359.8951436496493
 51
90.41709415802531
  0
ARC
  5
1FE
330
2
100
AcDbEntity
  8
GAIKEI
 62
     1
100
AcDbCircle
 10
52.10116056495923
 20
48.30294189960574
 30
0.0
 40
0.0450749788425272
100
AcDbArc
 50
90.32403653740674
 51
180.3055810774727
  0
ARC
  5
1FF
330
2
100
AcDbEntity
  8
GAIKEI
 62
     1
100
AcDbCircle
 10
52.10133168038732
 20
48.48389611852815
 30
0.0
 40
0.0452526473414126
100
AcDbArc
 50
178.9783287978178
 51
269.4605748814484
  0
ARC
  5
200
330
2
100
AcDbEntity
  8
GAIKEI
 62
     1
100
AcDbCircle
 10
51.91956801773341
 20
48.48404360072175
 30
0.0
 40
0.0453984372047078
100
AcDbArc
 50
269.7871743533774
 51
0.8322334465143308
  0
LINE
  5
201
330
2
100
AcDbEntity
  8
GAIKEI
 62
     1
100
AcDbLine
 10
51.7985602930961
 20
48.4386454767108
 30
0.0
 11
51.91939938525092
 21
48.4386454767108
 31
0.0
  0
LINE
  5
202
330
2
100
AcDbEntity
  8
GAIKEI
 62
     1
100
AcDbLine
 10
51.7985602930961
 20
48.34801615759466
 30
0.0
 11
51.7985602930961
 21
48.4386454767108
 31
0.0
  0
LINE
  5
203
330
2
100
AcDbEntity
  8
GAIKEI
 62
     1
100
AcDbLine
 10
51.91939938525092
 20
48.34801615759466
 30
0.0
 11
51.7985602930961
 21
48.34801615759466
 31
0.0
  0
LINE
  5
204
330
2
100
AcDbEntity
  8
GAIKEI
 62
     1
100
AcDbLine
 10
51.96496166589946
 20
48.1816147847913
 30
0.0
 11
51.96496166589946
 21
48.30270149803658
 31
0.0
  0
LINE
  5
205
330
2
100
AcDbEntity
  8
GAIKEI
 62
     1
100
AcDbLine
 10
52.05608622719655
 20
48.1816147847913
 30
0.0
 11
51.96496166589946
 21
48.1816147847913
 31
0.0
  0
LINE
  5
206
330
2
100
AcDbEntity
  8
GAIKEI
 62
     1
100
AcDbLine
 10
52.05608622719655
 20
48.30270149803658
 30
0.0
 11
52.05608622719655
 21
48.1816147847913
 31
0.0
  0
LINE
  5
207
330
2
100
AcDbEntity
  8
GAIKEI
 62
     1
100
AcDbLine
 10
52.22223997890944
 20
48.34801615759466
 30
0.0
 11
52.10090564457363
 21
48.34801615759466
 31
0.0
  0
LINE
  5
208
330
2
100
AcDbEntity
  8
GAIKEI
 62
     1
100
AcDbLine
 10
52.22223997890944
 20
48.4386454767108
 30
0.0
 11
52.22223997890944
 21
48.34801615759466
 31
0.0
  0
LINE
  5
209
330
2
100
AcDbEntity
  8
GAIKEI
 62
     1
100
AcDbLine
 10
52.10090564457363
 20
48.4386454767108
 30
0.0
 11
52.22223997890944
 21
48.4386454767108
 31
0.0
  0
LINE
  5
20A
330
2
100
AcDbEntity
  8
GAIKEI
 62
     1
100
AcDbLine
 10
52.05608622719655
 20
48.60504684951417
 30
0.0
 11
52.05608622719655
 21
48.48470299954033
 31
0.0
  0
LINE
  5
20B
330
2
100
AcDbEntity
  8
GAIKEI
 62
     1
100
AcDbLine
 10
51.96496166589946
 20
48.60504684951417
 30
0.0
 11
52.05608622719655
 21
48.60504684951417
 31
0.0
  0
LINE
  5
20C
330
2
100
AcDbEntity
  8
GAIKEI
 62
     1
100
AcDbLine
 10
51.96496166589946
 20
48.48470299954033
 30
0.0
 11
51.96496166589946
 21
48.60504684951417
 31
0.0
  0
CIRCLE
  5
20D
330
2
100
AcDbEntity
  8
GAIKEI
 62
     1
100
AcDbCircle
 10
52.01027632545748
 20
48.39333081715278
 30
0.0
 40
0.3533552961167127
  0
CIRCLE
  5
20E
330
2
100
AcDbEntity
  8
GAIKEI
 62
     1
100
AcDbCircle
 10
52.01064775709324
 20
48.39333081715278
 30
0.0
 40
0.252202080655131
  0
CIRCLE
  5
20F
330
2
100
AcDbEntity
  8
GAIKEI
 62
     1
100
AcDbCircle
 10
52.01015251491231
 20
48.39333081715273
 30
0.0
 40
0.4792706206264174
  0
CIRCLE
  5
210
330
2
100
AcDbEntity
  8
GAIKEI
 62
     1
100
AcDbCircle
 10
52.00965727273137
 20
58.39375617732764
 30
0.0
 40
0.4792706206264174
  0
CIRCLE
  5
211
330
2
100
AcDbEntity
  8
GAIKEI
 62
     1
100
AcDbCircle
 10
52.01015251491231
 20
58.39375617732764
 30
0.0
 40
0.252202080655131
  0
CIRCLE
  5
212
330
2
100
AcDbEntity
  8
GAIKEI
 62
     1
100
AcDbCircle
 10
52.00978108327655
 20
58.39375617732764
 30
0.0
 40
0.3533552961167127
  0
LINE
  5
213
330
2
100
AcDbEntity
  8
GAIKEI
 62
     1
100
AcDbLine
 10
51.96446642371853
 20
58.48512835971519
 30
0.0
 11
51.96446642371853
 21
58.60547220968908
 31
0.0
  0
LINE
  5
214
330
2
100
AcDbEntity
  8
GAIKEI
 62
     1
100
AcDbLine
 10
51.96446642371853
 20
58.60547220968908
 30
0.0
 11
52.05559098501561
 21
58.60547220968908
 31
0.0
  0
LINE
  5
215
330
2
100
AcDbEntity
  8
GAIKEI
 62
     1
100
AcDbLine
 10
52.05559098501561
 20
58.60547220968908
 30
0.0
 11
52.05559098501561
 21
58.48512835971519
 31
0.0
  0
LINE
  5
216
330
2
100
AcDbEntity
  8
GAIKEI
 62
     1
100
AcDbLine
 10
52.1004104023927
 20
58.43907083688566
 30
0.0
 11
52.22174473672851
 21
58.43907083688566
 31
0.0
  0
LINE
  5
217
330
2
100
AcDbEntity
  8
GAIKEI
 62
     1
100
AcDbLine
 10
52.22174473672851
 20
58.43907083688566
 30
0.0
 11
52.22174473672851
 21
58.34844151776957
 31
0.0
  0
LINE
  5
218
330
2
100
AcDbEntity
  8
GAIKEI
 62
     1
100
AcDbLine
 10
52.22174473672851
 20
58.34844151776957
 30
0.0
 11
52.1004104023927
 21
58.34844151776957
 31
0.0
  0
LINE
  5
219
330
2
100
AcDbEntity
  8
GAIKEI
 62
     1
100
AcDbLine
 10
52.05559098501561
 20
58.3031268582115
 30
0.0
 11
52.05559098501561
 21
58.18204014496615
 31
0.0
  0
LINE
  5
21A
330
2
100
AcDbEntity
  8
GAIKEI
 62
     1
100
AcDbLine
 10
52.05559098501561
 20
58.18204014496615
 30
0.0
 11
51.96446642371853
 21
58.18204014496615
 31
0.0
  0
LINE
  5
21B
330
2
100
AcDbEntity
  8
GAIKEI
 62
     1
100
AcDbLine
 10
51.96446642371853
 20
58.18204014496615
 30
0.0
 11
51.96446642371853
 21
58.3031268582115
 31
0.0
  0
LINE
  5
21C
330
2
100
AcDbEntity
  8
GAIKEI
 62
     1
100
AcDbLine
 10
51.91890414307
 20
58.34844151776957
 30
0.0
 11
51.79806505091517
 21
58.34844151776957
 31
0.0
  0
LINE
  5
21D
330
2
100
AcDbEntity
  8
GAIKEI
 62
     1
100
AcDbLine
 10
51.79806505091517
 20
58.34844151776957
 30
0.0
 11
51.79806505091517
 21
58.43907083688566
 31
0.0
  0
LINE
  5
21E
330
2
100
AcDbEntity
  8
GAIKEI
 62
     1
100
AcDbLine
 10
51.79806505091517
 20
58.43907083688566
 30
0.0
 11
51.91890414307
 21
58.43907083688566
 31
0.0
  0
ARC
  5
21F
330
2
100
AcDbEntity
  8
GAIKEI
 62
     1
100
AcDbCircle
 10
51.91907277555248
 20
58.48446896089666
 30
0.0
 40
0.0453984372047078
100
AcDbArc
 50
269.7871743533774
 51
0.8322334465143308
  0
ARC
  5
220
330
2
100
AcDbEntity
  8
GAIKEI
 62
     1
100
AcDbCircle
 10
52.10083643820638
 20
58.48432147870304
 30
0.0
 40
0.0452526473414126
100
AcDbArc
 50
178.9783287978178
 51
269.4605748814484
  0
ARC
  5
221
330
2
100
AcDbEntity
  8
GAIKEI
 62
     1
100
AcDbCircle
 10
52.1006653227783
 20
58.30336725978066
 30
0.0
 40
0.0450749788425272
100
AcDbArc
 50
90.32403653740674
 51
180.3055810774727
  0
ARC
  5
222
330
2
100
AcDbEntity
  8
GAIKEI
 62
     1
100
AcDbCircle
 10
51.91923342187448
 20
58.30320963870289
 30
0.0
 40
0.0452330775918896
100
AcDbArc
 50
359.8951436496493
 51
90.41709415802531
  0
ARC
  5
223
330
2
100
AcDbEntity
  8
GAIKEI
 62
     1
100
AcDbCircle
 10
45.35343639721946
 20
60.41467467723632
 30
0.0
 40
0.0452330775918896
100
AcDbArc
 50
359.8951436496493
 51
90.41709415802531
  0
ARC
  5
224
330
2
100
AcDbEntity
  8
GAIKEI
 62
     1
100
AcDbCircle
 10
45.53486829812328
 20
60.41483229831408
 30
0.0
 40
0.0450749788425272
100
AcDbArc
 50
90.32403653740674
 51
180.3055810774727
  0
ARC
  5
225
330
2
100
AcDbEntity
  8
GAIKEI
 62
     1
100
AcDbCircle
 10
45.53503941355137
 20
60.59578651723646
 30
0.0
 40
0.0452526473414126
100
AcDbArc
 50
178.9783287978178
 51
269.4605748814484
  0
ARC
  5
226
330
2
100
AcDbEntity
  8
GAIKEI
 62
     1
100
AcDbCircle
 10
45.35327575089747
 20
60.59593399943008
 30
0.0
 40
0.0453984372047078
100
AcDbArc
 50
269.7871743533774
 51
0.8322334465143308
  0
LINE
  5
227
330
2
100
AcDbEntity
  8
GAIKEI
 62
     1
100
AcDbLine
 10
45.23226802626015
 20
60.55053587541909
 30
0.0
 11
45.35310711841498
 21
60.55053587541909
 31
0.0
  0
LINE
  5
228
330
2
100
AcDbEntity
  8
GAIKEI
 62
     1
100
AcDbLine
 10
45.23226802626015
 20
60.459906556303
 30
0.0
 11
45.23226802626015
 21
60.55053587541909
 31
0.0
  0
LINE
  5
229
330
2
100
AcDbEntity
  8
GAIKEI
 62
     1
100
AcDbLine
 10
45.35310711841498
 20
60.459906556303
 30
0.0
 11
45.23226802626015
 21
60.459906556303
 31
0.0
  0
LINE
  5
22A
330
2
100
AcDbEntity
  8
GAIKEI
 62
     1
100
AcDbLine
 10
45.39866939906352
 20
60.29350518349957
 30
0.0
 11
45.39866939906352
 21
60.41459189674492
 31
0.0
  0
LINE
  5
22B
330
2
100
AcDbEntity
  8
GAIKEI
 62
     1
100
AcDbLine
 10
45.4897939603606
 20
60.29350518349957
 30
0.0
 11
45.39866939906352
 21
60.29350518349957
 31
0.0
  0
LINE
  5
22C
330
2
100
AcDbEntity
  8
GAIKEI
 62
     1
100
AcDbLine
 10
45.4897939603606
 20
60.41459189674492
 30
0.0
 11
45.4897939603606
 21
60.29350518349957
 31
0.0
  0
LINE
  5
22D
330
2
100
AcDbEntity
  8
GAIKEI
 62
     1
100
AcDbLine
 10
45.6559477120735
 20
60.459906556303
 30
0.0
 11
45.53461337773768
 21
60.459906556303
 31
0.0
  0
LINE
  5
22E
330
2
100
AcDbEntity
  8
GAIKEI
 62
     1
100
AcDbLine
 10
45.6559477120735
 20
60.55053587541909
 30
0.0
 11
45.6559477120735
 21
60.459906556303
 31
0.0
  0
LINE
  5
22F
330
2
100
AcDbEntity
  8
GAIKEI
 62
     1
100
AcDbLine
 10
45.53461337773768
 20
60.55053587541909
 30
0.0
 11
45.6559477120735
 21
60.55053587541909
 31
0.0
  0
LINE
  5
230
330
2
100
AcDbEntity
  8
GAIKEI
 62
     1
100
AcDbLine
 10
45.4897939603606
 20
60.7169372482225
 30
0.0
 11
45.4897939603606
 21
60.59659339824861
 31
0.0
  0
LINE
  5
231
330
2
100
AcDbEntity
  8
GAIKEI
 62
     1
100
AcDbLine
 10
45.39866939906352
 20
60.7169372482225
 30
0.0
 11
45.4897939603606
 21
60.7169372482225
 31
0.0
  0
LINE
  5
232
330
2
100
AcDbEntity
  8
GAIKEI
 62
     1
100
AcDbLine
 10
45.39866939906352
 20
60.59659339824861
 30
0.0
 11
45.39866939906352
 21
60.7169372482225
 31
0.0
  0
CIRCLE
  5
233
330
2
100
AcDbEntity
  8
GAIKEI
 62
     1
100
AcDbCircle
 10
45.44398405862153
 20
60.50522121586107
 30
0.0
 40
0.3533552961167127
  0
CIRCLE
  5
234
330
2
100
AcDbEntity
  8
GAIKEI
 62
     1
100
AcDbCircle
 10
45.44435549025729
 20
60.50522121586107
 30
0.0
 40
0.252202080655131
  0
CIRCLE
  5
235
330
2
100
AcDbEntity
  8
GAIKEI
 62
     1
100
AcDbCircle
 10
45.44386024807636
 20
60.50522121586107
 30
0.0
 40
0.4792706206264174
  0
CIRCLE
  5
236
330
2
100
AcDbEntity
  8
GAIKEI
 62
     1
100
AcDbCircle
 10
28.78641098534365
 20
60.50522121586107
 30
0.0
 40
0.4792706206264174
  0
CIRCLE
  5
237
330
2
100
AcDbEntity
  8
GAIKEI
 62
     1
100
AcDbCircle
 10
28.78690622752458
 20
60.50522121586107
 30
0.0
 40
0.252202080655131
  0
CIRCLE
  5
238
330
2
100
AcDbEntity
  8
GAIKEI
 62
     1
100
AcDbCircle
 10
28.78653479588882
 20
60.50522121586107
 30
0.0
 40
0.3533552961167127
  0
LINE
  5
239
330
2
100
AcDbEntity
  8
GAIKEI
 62
     1
100
AcDbLine
 10
28.74122013633081
 20
60.59659339824861
 30
0.0
 11
28.74122013633081
 21
60.7169372482225
 31
0.0
  0
LINE
  5
23A
330
2
100
AcDbEntity
  8
GAIKEI
 62
     1
100
AcDbLine
 10
28.74122013633081
 20
60.7169372482225
 30
0.0
 11
28.83234469762788
 21
60.7169372482225
 31
0.0
  0
LINE
  5
23B
330
2
100
AcDbEntity
  8
GAIKEI
 62
     1
100
AcDbLine
 10
28.83234469762788
 20
60.7169372482225
 30
0.0
 11
28.83234469762788
 21
60.59659339824861
 31
0.0
  0
LINE
  5
23C
330
2
100
AcDbEntity
  8
GAIKEI
 62
     1
100
AcDbLine
 10
28.87716411500497
 20
60.55053587541909
 30
0.0
 11
28.99849844934078
 21
60.55053587541909
 31
0.0
  0
LINE
  5
23D
330
2
100
AcDbEntity
  8
GAIKEI
 62
     1
100
AcDbLine
 10
28.99849844934078
 20
60.55053587541909
 30
0.0
 11
28.99849844934078
 21
60.459906556303
 31
0.0
  0
LINE
  5
23E
330
2
100
AcDbEntity
  8
GAIKEI
 62
     1
100
AcDbLine
 10
28.99849844934078
 20
60.459906556303
 30
0.0
 11
28.87716411500497
 21
60.459906556303
 31
0.0
  0
LINE
  5
23F
330
2
100
AcDbEntity
  8
GAIKEI
 62
     1
100
AcDbLine
 10
28.83234469762788
 20
60.41459189674492
 30
0.0
 11
28.83234469762788
 21
60.29350518349957
 31
0.0
  0
LINE
  5
240
330
2
100
AcDbEntity
  8
GAIKEI
 62
     1
100
AcDbLine
 10
28.83234469762788
 20
60.29350518349957
 30
0.0
 11
28.74122013633081
 21
60.29350518349957
 31
0.0
  0
LINE
  5
241
330
2
100
AcDbEntity
  8
GAIKEI
 62
     1
100
AcDbLine
 10
28.74122013633081
 20
60.29350518349957
 30
0.0
 11
28.74122013633081
 21
60.41459189674492
 31
0.0
  0
LINE
  5
242
330
2
100
AcDbEntity
  8
GAIKEI
 62
     1
100
AcDbLine
 10
28.69565785568227
 20
60.459906556303
 30
0.0
 11
28.57481876352744
 21
60.459906556303
 31
0.0
  0
LINE
  5
243
330
2
100
AcDbEntity
  8
GAIKEI
 62
     1
100
AcDbLine
 10
28.57481876352744
 20
60.459906556303
 30
0.0
 11
28.57481876352744
 21
60.55053587541909
 31
0.0
  0
LINE
  5
244
330
2
100
AcDbEntity
  8
GAIKEI
 62
     1
100
AcDbLine
 10
28.57481876352744
 20
60.55053587541909
 30
0.0
 11
28.69565785568227
 21
60.55053587541909
 31
0.0
  0
ARC
  5
245
330
2
100
AcDbEntity
  8
GAIKEI
 62
     1
100
AcDbCircle
 10
28.69582648816475
 20
60.59593399943008
 30
0.0
 40
0.0453984372047078
100
AcDbArc
 50
269.7871743533774
 51
0.8322334465143308
  0
ARC
  5
246
330
2
100
AcDbEntity
  8
GAIKEI
 62
     1
100
AcDbCircle
 10
28.87759015081866
 20
60.59578651723646
 30
0.0
 40
0.0452526473414126
100
AcDbArc
 50
178.9783287978178
 51
269.4605748814484
  0
ARC
  5
247
330
2
100
AcDbEntity
  8
GAIKEI
 62
     1
100
AcDbCircle
 10
28.87741903539057
 20
60.41483229831408
 30
0.0
 40
0.0450749788425272
100
AcDbArc
 50
90.32403653740674
 51
180.3055810774727
  0
ARC
  5
248
330
2
100
AcDbEntity
  8
GAIKEI
 62
     1
100
AcDbCircle
 10
28.69598713448676
 20
60.41467467723632
 30
0.0
 40
0.0452330775918896
100
AcDbArc
 50
359.8951436496493
 51
90.41709415802531
  0
ARC
  5
249
330
2
100
AcDbEntity
  8
GAIKEI
 62
     1
100
AcDbCircle
 10
22.12040907675776
 20
58.32524791575571
 30
0.0
 40
0.0452330775918896
100
AcDbArc
 50
359.8951436496493
 51
90.41709415802531
  0
ARC
  5
24A
330
2
100
AcDbEntity
  8
GAIKEI
 62
     1
100
AcDbCircle
 10
22.30184097766158
 20
58.32540553683344
 30
0.0
 40
0.0450749788425272
100
AcDbArc
 50
90.32403653740674
 51
180.3055810774727
  0
ARC
  5
24B
330
2
100
AcDbEntity
  8
GAIKEI
 62
     1
100
AcDbCircle
 10
22.30201209308967
 20
58.50635975575585
 30
0.0
 40
0.0452526473414126
100
AcDbArc
 50
178.9783287978178
 51
269.4605748814484
  0
ARC
  5
24C
330
2
100
AcDbEntity
  8
GAIKEI
 62
     1
100
AcDbCircle
 10
22.12024843043576
 20
58.50650723794945
 30
0.0
 40
0.0453984372047078
100
AcDbArc
 50
269.7871743533774
 51
0.8322334465143308
  0
LINE
  5
24D
330
2
100
AcDbEntity
  8
GAIKEI
 62
     1
100
AcDbLine
 10
21.99924070579845
 20
58.4611091139385
 30
0.0
 11
22.12007979795328
 21
58.4611091139385
 31
0.0
  0
LINE
  5
24E
330
2
100
AcDbEntity
  8
GAIKEI
 62
     1
100
AcDbLine
 10
21.99924070579845
 20
58.37047979482235
 30
0.0
 11
21.99924070579845
 21
58.4611091139385
 31
0.0
  0
LINE
  5
24F
330
2
100
AcDbEntity
  8
GAIKEI
 62
     1
100
AcDbLine
 10
22.12007979795328
 20
58.37047979482235
 30
0.0
 11
21.99924070579845
 21
58.37047979482235
 31
0.0
  0
LINE
  5
250
330
2
100
AcDbEntity
  8
GAIKEI
 62
     1
100
AcDbLine
 10
22.16564207860181
 20
58.20407842201899
 30
0.0
 11
22.16564207860181
 21
58.32516513526428
 31
0.0
  0
LINE
  5
251
330
2
100
AcDbEntity
  8
GAIKEI
 62
     1
100
AcDbLine
 10
22.2567666398989
 20
58.20407842201899
 30
0.0
 11
22.16564207860181
 21
58.20407842201899
 31
0.0
  0
LINE
  5
252
330
2
100
AcDbEntity
  8
GAIKEI
 62
     1
100
AcDbLine
 10
22.2567666398989
 20
58.32516513526428
 30
0.0
 11
22.2567666398989
 21
58.20407842201899
 31
0.0
  0
LINE
  5
253
330
2
100
AcDbEntity
  8
GAIKEI
 62
     1
100
AcDbLine
 10
22.42292039161179
 20
58.37047979482235
 30
0.0
 11
22.30158605727598
 21
58.37047979482235
 31
0.0
  0
LINE
  5
254
330
2
100
AcDbEntity
  8
GAIKEI
 62
     1
100
AcDbLine
 10
22.42292039161179
 20
58.4611091139385
 30
0.0
 11
22.42292039161179
 21
58.37047979482235
 31
0.0
  0
LINE
  5
255
330
2
100
AcDbEntity
  8
GAIKEI
 62
     1
100
AcDbLine
 10
22.30158605727598
 20
58.4611091139385
 30
0.0
 11
22.42292039161179
 21
58.4611091139385
 31
0.0
  0
LINE
  5
256
330
2
100
AcDbEntity
  8
GAIKEI
 62
     1
100
AcDbLine
 10
22.2567666398989
 20
58.62751048674187
 30
0.0
 11
22.2567666398989
 21
58.50716663676803
 31
0.0
  0
LINE
  5
257
330
2
100
AcDbEntity
  8
GAIKEI
 62
     1
100
AcDbLine
 10
22.16564207860181
 20
58.62751048674187
 30
0.0
 11
22.2567666398989
 21
58.62751048674187
 31
0.0
  0
LINE
  5
258
330
2
100
AcDbEntity
  8
GAIKEI
 62
     1
100
AcDbLine
 10
22.16564207860181
 20
58.50716663676803
 30
0.0
 11
22.16564207860181
 21
58.62751048674187
 31
0.0
  0
LINE
  5
259
330
2
100
AcDbEntity
  8
GAIKEI
100
AcDbLine
 10
24.63056777063178
 20
34.34578341889488
 30
0.0
 11
22.93056777063174
 21
34.34578341889488
 31
0.0
  0
LINE
  5
25A
330
2
100
AcDbEntity
  8
GAIKEI
100
AcDbLine
 10
22.93056777063174
 20
34.34578341889488
 30
0.0
 11
24.63056777063178
 21
34.34578341889488
 31
0.0
  0
LINE
  5
25B
330
2
100
AcDbEntity
  8
GAIKEI
100
AcDbLine
 10
24.78056777063176
 20
35.19578341889484
 30
0.0
 11
24.63056777063178
 21
34.34578341889488
 31
0.0
  0
LINE
  5
25C
330
2
100
AcDbEntity
  8
GAIKEI
100
AcDbLine
 10
22.93056777063174
 20
34.34578341889488
 30
0.0
 11
22.78056777063176
 21
35.19578341889484
 31
0.0
  0
LINE
  5
25D
330
2
100
AcDbEntity
  8
GAIKEI
100
AcDbLine
 10
50.3717024434361
 20
34.34578341889488
 30
0.0
 11
52.07170244343604
 21
34.34578341889488
 31
0.0
  0
LINE
  5
25E
330
2
100
AcDbEntity
  8
GAIKEI
100
AcDbLine
 10
52.07170244343604
 20
34.34578341889488
 30
0.0
 11
50.3717024434361
 21
34.34578341889488
 31
0.0
  0
LINE
  5
25F
330
2
100
AcDbEntity
  8
GAIKEI
100
AcDbLine
 10
50.3717024434361
 20
34.34578341889488
 30
0.0
 11
50.22170244343602
 21
35.19578341889484
 31
0.0
  0
LINE
  5
260
330
2
100
AcDbEntity
  8
GAIKEI
100
AcDbLine
 10
52.22170244343601
 20
35.19578341889484
 30
0.0
 11
52.07170244343604
 21
34.34578341889488
 31
0.0
  0
LINE
  5
261
330
2
100
AcDbEntity
  8
GAIKEI
100
AcDbLine
 10
16.43148247610366
 20
51.74578341889514
 30
0.0
 11
16.43148247610366
 21
45.14578341889455
 31
0.0
  0
LINE
  5
262
330
2
100
AcDbEntity
  8
GAIKEI
100
AcDbLine
 10
15.63148247610371
 20
52.34578341889449
 30
0.0
 11
15.63148247610371
 21
44.54578341889453
 31
0.0
  0
LINE
  5
263
330
2
100
AcDbEntity
  8
GAIKEI
100
AcDbLine
 10
18.98148247610367
 20
44.89578341889518
 30
0.0
 11
18.91107453578706
 21
44.89578341889518
 31
0.0
  0
LINE
  5
264
330
2
100
AcDbEntity
  8
GAIKEI
100
AcDbLine
 10
18.91107453578706
 20
44.84578341889454
 30
0.0
 11
18.91107453578706
 21
44.04578341889453
 31
0.0
  0
LINE
  5
265
330
2
100
AcDbEntity
  8
GAIKEI
100
AcDbLine
 10
18.91107453578706
 20
44.04578341889453
 30
0.0
 11
18.91107453578706
 21
43.99578341889458
 31
0.0
  0
ARC
  5
266
330
2
100
AcDbEntity
  8
GAIKEI
100
AcDbCircle
 10
16.13148247610371
 20
44.54578341889453
 30
0.0
 40
0.5
100
AcDbArc
 50
180.0
 51
270.0
  0
LINE
  5
267
330
2
100
AcDbEntity
  8
GAIKEI
100
AcDbLine
 10
18.98148247610367
 20
43.99578341889458
 30
0.0
 11
18.91107453578706
 21
43.99578341889458
 31
0.0
  0
LINE
  5
268
330
2
100
AcDbEntity
  8
GAIKEI
100
AcDbLine
 10
18.91107453578706
 20
44.84578341889454
 30
0.0
 11
16.73148247610373
 21
44.84578341889454
 31
0.0
  0
LINE
  5
269
330
2
100
AcDbEntity
  8
GAIKEI
100
AcDbLine
 10
18.91107453578706
 20
44.04578341889453
 30
0.0
 11
16.13148247610371
 21
44.04578341889453
 31
0.0
  0
ARC
  5
26A
330
2
100
AcDbEntity
  8
GAIKEI
100
AcDbCircle
 10
16.73148247610373
 20
45.14578341889455
 30
0.0
 40
0.3
100
AcDbArc
 50
180.0
 51
270.0
  0
LINE
  5
26B
330
2
100
AcDbEntity
  8
GAIKEI
100
AcDbLine
 10
18.91107453578706
 20
44.89578341889518
 30
0.0
 11
18.91107453578706
 21
44.84578341889454
 31
0.0
  0
LINE
  5
26C
330
2
100
AcDbEntity
  8
GAIKEI
100
AcDbLine
 10
18.98148247610367
 20
52.89578341889449
 30
0.0
 11
18.91107453578706
 21
52.89578341889449
 31
0.0
  0
LINE
  5
26D
330
2
100
AcDbEntity
  8
GAIKEI
100
AcDbLine
 10
18.91107453578706
 20
52.89578341889449
 30
0.0
 11
18.91107453578706
 21
52.84578341889448
 31
0.0
  0
LINE
  5
26E
330
2
100
AcDbEntity
  8
GAIKEI
100
AcDbLine
 10
18.91107453578706
 20
52.84578341889448
 30
0.0
 11
16.13148247610371
 21
52.84578341889448
 31
0.0
  0
ARC
  5
26F
330
2
100
AcDbEntity
  8
GAIKEI
100
AcDbCircle
 10
16.73148247610373
 20
51.74578341889514
 30
0.0
 40
0.3
100
AcDbArc
 50
90.0
 51
180.0
  0
LINE
  5
270
330
2
100
AcDbEntity
  8
GAIKEI
100
AcDbLine
 10
18.98148247610367
 20
51.99578341889526
 30
0.0
 11
18.91107453578706
 21
51.99578341889526
 31
0.0
  0
LINE
  5
271
330
2
100
AcDbEntity
  8
GAIKEI
100
AcDbLine
 10
18.91107453578706
 20
52.04578341889515
 30
0.0
 11
16.73148247610373
 21
52.04578341889515
 31
0.0
  0
LINE
  5
272
330
2
100
AcDbEntity
  8
GAIKEI
100
AcDbLine
 10
18.91107453578706
 20
52.84578341889448
 30
0.0
 11
18.91107453578706
 21
51.99578341889526
 31
0.0
  0
ARC
  5
273
330
2
100
AcDbEntity
  8
GAIKEI
100
AcDbCircle
 10
16.13148247610371
 20
52.34578341889449
 30
0.0
 40
0.5
100
AcDbArc
 50
90.0
 51
180.0
  0
LINE
  5
274
330
2
100
AcDbEntity
  8
GAIKEI
100
AcDbLine
 10
23.01844911421921
 20
59.67742391038228
 30
0.0
 11
54.02170244343654
 21
59.67742391038228
 31
0.0
  0
LINE
  5
275
330
2
100
AcDbEntity
  8
GAIKEI
100
AcDbLine
 10
23.01844911421915
 20
61.4937246090621
 30
0.0
 11
22.81663792547692
 21
61.69578341889479
 31
0.0
  0
LINE
  5
276
330
2
100
AcDbEntity
  8
GAIKEI
 62
     1
100
AcDbLine
 10
19.30487562027218
 20
35.1957834188949
 30
0.0
 11
19.30487562027218
 21
61.69578341889485
 31
0.0
  0
LINE
  5
277
330
2
100
AcDbEntity
  8
GAIKEI
100
AcDbLine
 10
23.01844911421915
 20
35.398089849818
 30
0.0
 11
22.81663792547692
 21
35.1957834188949
 31
0.0
  0
LINE
  5
278
330
2
100
AcDbEntity
  8
GAIKEI
100
AcDbLine
 10
23.01844911421915
 20
35.398089849818
 30
0.0
 11
23.01844911421915
 21
61.4937246090621
 31
0.0
  0
LINE
  5
279
330
2
100
AcDbEntity
  8
GAIKEI
100
AcDbLine
 10
54.02170244343659
 20
61.69578341889482
 30
0.0
 11
54.02170244343654
 21
35.19578341889484
 31
0.0
  0
LINE
  5
27A
330
2
100
AcDbEntity
  8
GAIKEI
100
AcDbLine
 10
18.98148247610373
 20
35.19578341889484
 30
0.0
 11
54.02170244343654
 21
35.19578341889484
 31
0.0
  0
LINE
  5
27B
330
2
100
AcDbEntity
  8
GAIKEI
100
AcDbLine
 10
18.98148247610356
 20
61.69578341889479
 30
0.0
 11
54.02170244343659
 21
61.69578341889482
 31
0.0
  0
LINE
  5
27C
330
2
100
AcDbEntity
  8
GAIKEI
100
AcDbLine
 10
18.98148247610356
 20
61.69578341889479
 30
0.0
 11
18.98148247610373
 21
35.19578341889484
 31
0.0
  0
LINE
  5
27D
330
2
100
AcDbEntity
  8
GAIKEI
 62
     1
100
AcDbLine
 10
-3.561190855308268
 20
58.23339676480594
 30
0.0
 11
-3.961190855308359
 21
58.23339676480594
 31
0.0
  0
ARC
  5
27E
330
2
100
AcDbEntity
  8
GAIKEI
 62
     1
100
AcDbCircle
 10
-3.961190855308359
 20
57.93339676480593
 30
0.0
 40
0.3
100
AcDbArc
 50
90.0
 51
270.0
  0
ARC
  5
27F
330
2
100
AcDbEntity
  8
GAIKEI
 62
     1
100
AcDbCircle
 10
-3.561190855308268
 20
57.93339676480593
 30
0.0
 40
0.3
100
AcDbArc
 50
270.0
 51
90.0
  0
LINE
  5
280
330
2
100
AcDbEntity
  8
GAIKEI
 62
     1
100
AcDbLine
 10
-3.561190855308268
 20
57.63339676480592
 30
0.0
 11
-3.961190855308359
 21
57.63339676480592
 31
0.0
  0
LINE
  5
281
330
2
100
AcDbEntity
  8
GAIKEI
  6
Continuous
 62
     1
100
AcDbLine
 10
-3.561190855306733
 20
51.85347151496057
 30
0.0
 11
-3.961190855306767
 21
51.85347151496057
 31
0.0
  0
ARC
  5
282
330
2
100
AcDbEntity
  8
GAIKEI
  6
Continuous
 62
     1
100
AcDbCircle
 10
-3.561190855306733
 20
52.15347151496058
 30
0.0
 40
0.3
100
AcDbArc
 50
270.0
 51
90.0
  0
ARC
  5
283
330
2
100
AcDbEntity
  8
GAIKEI
  6
Continuous
 62
     1
100
AcDbCircle
 10
-3.961190855306767
 20
52.15347151496058
 30
0.0
 40
0.3
100
AcDbArc
 50
90.0
 51
270.0
  0
LINE
  5
284
330
2
100
AcDbEntity
  8
GAIKEI
  6
Continuous
 62
     1
100
AcDbLine
 10
-3.561190855306733
 20
52.45347151496059
 30
0.0
 11
-3.961190855306767
 21
52.45347151496059
 31
0.0
  0
LINE
  5
285
330
2
100
AcDbEntity
  8
GAIKEI
  6
Continuous
 62
     1
100
AcDbLine
 10
-3.561190855308211
 20
44.75343382314355
 30
0.0
 11
-3.961190855308245
 21
44.75343382314355
 31
0.0
  0
ARC
  5
286
330
2
100
AcDbEntity
  8
GAIKEI
  6
Continuous
 62
     1
100
AcDbCircle
 10
-3.961190855308245
 20
44.45343382314354
 30
0.0
 40
0.3
100
AcDbArc
 50
90.0
 51
270.0
  0
ARC
  5
287
330
2
100
AcDbEntity
  8
GAIKEI
  6
Continuous
 62
     1
100
AcDbCircle
 10
-3.561190855308211
 20
44.45343382314354
 30
0.0
 40
0.3
100
AcDbArc
 50
270.0
 51
90.0
  0
LINE
  5
288
330
2
100
AcDbEntity
  8
GAIKEI
  6
Continuous
 62
     1
100
AcDbLine
 10
-3.561190855308211
 20
44.15343382314353
 30
0.0
 11
-3.961190855308245
 21
44.15343382314353
 31
0.0
  0
LINE
  5
289
330
2
100
AcDbEntity
  8
GAIKEI
 62
     1
100
AcDbLine
 10
-3.561190855308211
 20
38.37375652170237
 30
0.0
 11
-3.961190855308245
 21
38.37375652170237
 31
0.0
  0
ARC
  5
28A
330
2
100
AcDbEntity
  8
GAIKEI
 62
     1
100
AcDbCircle
 10
-3.561190855308211
 20
38.67375652170238
 30
0.0
 40
0.3
100
AcDbArc
 50
270.0
 51
90.0
  0
ARC
  5
28B
330
2
100
AcDbEntity
  8
GAIKEI
 62
     1
100
AcDbCircle
 10
-3.961190855308245
 20
38.67375652170238
 30
0.0
 40
0.3
100
AcDbArc
 50
90.0
 51
270.0
  0
LINE
  5
28C
330
2
100
AcDbEntity
  8
GAIKEI
 62
     1
100
AcDbLine
 10
-3.561190855308211
 20
38.97375652170239
 30
0.0
 11
-3.961190855308245
 21
38.97375652170239
 31
0.0
  0
LINE
  5
28D
330
2
100
AcDbEntity
  8
GAIKEI
 62
     1
100
AcDbLine
 10
-50.46119085530841
 20
38.97375652170239
 30
0.0
 11
-50.06119085530838
 21
38.97375652170239
 31
0.0
  0
ARC
  5
28E
330
2
100
AcDbEntity
  8
GAIKEI
 62
     1
100
AcDbCircle
 10
-50.06119085530838
 20
38.67375652170238
 30
0.0
 40
0.3
100
AcDbArc
 50
270.0
 51
90.0
  0
ARC
  5
28F
330
2
100
AcDbEntity
  8
GAIKEI
 62
     1
100
AcDbCircle
 10
-50.46119085530841
 20
38.67375652170238
 30
0.0
 40
0.3
100
AcDbArc
 50
90.0
 51
270.0
  0
LINE
  5
290
330
2
100
AcDbEntity
  8
GAIKEI
 62
     1
100
AcDbLine
 10
-50.46119085530841
 20
38.37375652170237
 30
0.0
 11
-50.06119085530838
 21
38.37375652170237
 31
0.0
  0
LINE
  5
291
330
2
100
AcDbEntity
  8
GAIKEI
 62
     1
100
AcDbLine
 10
-50.46119085530841
 20
44.15343382314353
 30
0.0
 11
-50.06119085530838
 21
44.15343382314353
 31
0.0
  0
ARC
  5
292
330
2
100
AcDbEntity
  8
GAIKEI
 62
     1
100
AcDbCircle
 10
-50.46119085530841
 20
44.45343382314354
 30
0.0
 40
0.3
100
AcDbArc
 50
90.0
 51
270.0
  0
ARC
  5
293
330
2
100
AcDbEntity
  8
GAIKEI
 62
     1
100
AcDbCircle
 10
-50.06119085530838
 20
44.45343382314354
 30
0.0
 40
0.3
100
AcDbArc
 50
270.0
 51
90.0
  0
LINE
  5
294
330
2
100
AcDbEntity
  8
GAIKEI
 62
     1
100
AcDbLine
 10
-50.46119085530841
 20
44.75343382314355
 30
0.0
 11
-50.06119085530838
 21
44.75343382314355
 31
0.0
  0
LINE
  5
295
330
2
100
AcDbEntity
  8
GAIKEI
 62
     1
100
AcDbLine
 10
-50.46119085530989
 20
52.45347151496059
 30
0.0
 11
-50.06119085530986
 21
52.45347151496059
 31
0.0
  0
ARC
  5
296
330
2
100
AcDbEntity
  8
GAIKEI
 62
     1
100
AcDbCircle
 10
-50.06119085530986
 20
52.15347151496058
 30
0.0
 40
0.3
100
AcDbArc
 50
270.0
 51
90.0
  0
ARC
  5
297
330
2
100
AcDbEntity
  8
GAIKEI
 62
     1
100
AcDbCircle
 10
-50.46119085530989
 20
52.15347151496058
 30
0.0
 40
0.3
100
AcDbArc
 50
90.0
 51
270.0
  0
LINE
  5
298
330
2
100
AcDbEntity
  8
GAIKEI
 62
     1
100
AcDbLine
 10
-50.46119085530989
 20
51.85347151496057
 30
0.0
 11
-50.06119085530986
 21
51.85347151496057
 31
0.0
  0
LINE
  5
299
330
2
100
AcDbEntity
  8
GAIKEI
 62
     1
100
AcDbLine
 10
-50.4611908553083
 20
57.63339676480592
 30
0.0
 11
-50.06119085530826
 21
57.63339676480592
 31
0.0
  0
ARC
  5
29A
330
2
100
AcDbEntity
  8
GAIKEI
 62
     1
100
AcDbCircle
 10
-50.4611908553083
 20
57.93339676480593
 30
0.0
 40
0.3
100
AcDbArc
 50
90.0
 51
270.0
  0
ARC
  5
29B
330
2
100
AcDbEntity
  8
GAIKEI
 62
     1
100
AcDbCircle
 10
-50.06119085530826
 20
57.93339676480593
 30
0.0
 40
0.3
100
AcDbArc
 50
270.0
 51
90.0
  0
LINE
  5
29C
330
2
100
AcDbEntity
  8
GAIKEI
 62
     1
100
AcDbLine
 10
-50.4611908553083
 20
58.23339676480594
 30
0.0
 11
-50.06119085530826
 21
58.23339676480594
 31
0.0
  0
CIRCLE
  5
29D
330
2
100
AcDbEntity
  8
GAIKEI
 62
     1
100
AcDbCircle
 10
-10.00280805591455
 20
60.78630867236171
 30
0.0
 40
0.7578542973768731
  0
CIRCLE
  5
29E
330
2
100
AcDbEntity
  8
GAIKEI
 62
     1
100
AcDbCircle
 10
-44.01996539321913
 20
60.78630867236171
 30
0.0
 40
0.7578542973768731
  0
LINE
  5
29F
330
2
100
AcDbEntity
  8
GAIKEI
 62
     1
100
AcDbLine
 10
-44.77248879990611
 20
60.69555955643176
 30
0.0
 11
-43.25653225674819
 21
60.69555955643176
 31
0.0
  0
LINE
  5
2A0
330
2
100
AcDbEntity
  8
GAIKEI
 62
     1
100
AcDbLine
 10
-44.77248879990611
 20
60.87730573669586
 30
0.0
 11
-43.26744198653216
 21
60.87730573669586
 31
0.0
  0
LINE
  5
2A1
330
2
100
AcDbEntity
  8
GAIKEI
 62
     1
100
AcDbLine
 10
-10.75520748839949
 20
60.87730573669586
 30
0.0
 11
-9.250408623429677
 21
60.87730573669586
 31
0.0
  0
LINE
  5
2A2
330
2
100
AcDbEntity
  8
GAIKEI
 62
     1
100
AcDbLine
 10
-10.75520748839949
 20
60.69555955643176
 30
0.0
 11
-9.239498893645759
 21
60.69555955643176
 31
0.0
  0
LINE
  5
2A3
330
2
100
AcDbEntity
  8
GAIKEI
 62
     1
100
AcDbLine
 10
-25.23744345327258
 20
42.49783224209352
 30
0.0
 11
-7.091687050645532
 21
42.49783224209352
 31
0.0
  0
LINE
  5
2A4
330
2
100
AcDbEntity
  8
GAIKEI
 62
     1
100
AcDbLine
 10
-25.23744345327258
 20
42.49783224209352
 30
0.0
 11
-25.23744345327258
 21
38.4969796834265
 31
0.0
  0
LINE
  5
2A5
330
2
100
AcDbEntity
  8
GAIKEI
 62
     1
100
AcDbLine
 10
-25.23744345327258
 20
38.4969796834265
 30
0.0
 11
-7.091687050645532
 21
38.4969796834265
 31
0.0
  0
LINE
  5
2A6
330
2
100
AcDbEntity
  8
GAIKEI
 62
     1
100
AcDbLine
 10
-24.66744345327259
 20
42.49783224209352
 30
0.0
 11
-24.66744345327259
 21
38.4969796834265
 31
0.0
  0
LINE
  5
2A7
330
2
100
AcDbEntity
  8
GAIKEI
 62
     1
100
AcDbLine
 10
-24.0974434532726
 20
42.49783224209352
 30
0.0
 11
-24.0974434532726
 21
38.4969796834265
 31
0.0
  0
LINE
  5
2A8
330
2
100
AcDbEntity
  8
GAIKEI
 62
     1
100
AcDbLine
 10
-23.52744345327255
 20
42.49783224209352
 30
0.0
 11
-23.52744345327255
 21
38.4969796834265
 31
0.0
  0
LINE
  5
2A9
330
2
100
AcDbEntity
  8
GAIKEI
 62
     1
100
AcDbLine
 10
-22.95744345327261
 20
42.49783224209352
 30
0.0
 11
-22.95744345327261
 21
38.4969796834265
 31
0.0
  0
LINE
  5
2AA
330
2
100
AcDbEntity
  8
GAIKEI
 62
     1
100
AcDbLine
 10
-22.38744345327256
 20
42.49783224209352
 30
0.0
 11
-22.38744345327256
 21
38.4969796834265
 31
0.0
  0
LINE
  5
2AB
330
2
100
AcDbEntity
  8
GAIKEI
 62
     1
100
AcDbLine
 10
-21.81744345327257
 20
42.49783224209352
 30
0.0
 11
-21.81744345327257
 21
38.4969796834265
 31
0.0
  0
LINE
  5
2AC
330
2
100
AcDbEntity
  8
GAIKEI
 62
     1
100
AcDbLine
 10
-21.24744345327258
 20
42.49783224209352
 30
0.0
 11
-21.24744345327258
 21
38.4969796834265
 31
0.0
  0
LINE
  5
2AD
330
2
100
AcDbEntity
  8
GAIKEI
 62
     1
100
AcDbLine
 10
-20.67744345327259
 20
42.49783224209352
 30
0.0
 11
-20.67744345327259
 21
38.4969796834265
 31
0.0
  0
LINE
  5
2AE
330
2
100
AcDbEntity
  8
GAIKEI
 62
     1
100
AcDbLine
 10
-20.10744345327259
 20
42.49783224209352
 30
0.0
 11
-20.10744345327259
 21
38.4969796834265
 31
0.0
  0
LINE
  5
2AF
330
2
100
AcDbEntity
  8
GAIKEI
 62
     1
100
AcDbLine
 10
-19.5374434532726
 20
42.49783224209352
 30
0.0
 11
-19.5374434532726
 21
38.4969796834265
 31
0.0
  0
LINE
  5
2B0
330
2
100
AcDbEntity
  8
GAIKEI
 62
     1
100
AcDbLine
 10
-18.9674434532726
 20
42.49783224209352
 30
0.0
 11
-18.9674434532726
 21
38.4969796834265
 31
0.0
  0
LINE
  5
2B1
330
2
100
AcDbEntity
  8
GAIKEI
 62
     1
100
AcDbLine
 10
-18.39744345327255
 20
42.49783224209352
 30
0.0
 11
-18.39744345327255
 21
38.4969796834265
 31
0.0
  0
LINE
  5
2B2
330
2
100
AcDbEntity
  8
GAIKEI
 62
     1
100
AcDbLine
 10
-17.82744345327262
 20
42.49783224209352
 30
0.0
 11
-17.82744345327262
 21
38.4969796834265
 31
0.0
  0
LINE
  5
2B3
330
2
100
AcDbEntity
  8
GAIKEI
 62
     1
100
AcDbLine
 10
-17.25744345327257
 20
42.49783224209352
 30
0.0
 11
-17.25744345327257
 21
38.4969796834265
 31
0.0
  0
LINE
  5
2B4
330
2
100
AcDbEntity
  8
GAIKEI
 62
     1
100
AcDbLine
 10
-16.68744345327257
 20
42.49783224209352
 30
0.0
 11
-16.68744345327257
 21
38.4969796834265
 31
0.0
  0
LINE
  5
2B5
330
2
100
AcDbEntity
  8
GAIKEI
 62
     1
100
AcDbLine
 10
-16.11744345327258
 20
42.49783224209352
 30
0.0
 11
-16.11744345327258
 21
38.4969796834265
 31
0.0
  0
LINE
  5
2B6
330
2
100
AcDbEntity
  8
GAIKEI
 62
     1
100
AcDbLine
 10
-15.54744345327259
 20
42.49783224209352
 30
0.0
 11
-15.54744345327259
 21
38.4969796834265
 31
0.0
  0
LINE
  5
2B7
330
2
100
AcDbEntity
  8
GAIKEI
 62
     1
100
AcDbLine
 10
-14.9774434532726
 20
42.49783224209352
 30
0.0
 11
-14.9774434532726
 21
38.4969796834265
 31
0.0
  0
LINE
  5
2B8
330
2
100
AcDbEntity
  8
GAIKEI
 62
     1
100
AcDbLine
 10
-14.40744345327255
 20
42.49783224209352
 30
0.0
 11
-14.40744345327255
 21
38.4969796834265
 31
0.0
  0
LINE
  5
2B9
330
2
100
AcDbEntity
  8
GAIKEI
 62
     1
100
AcDbLine
 10
-13.83744345327261
 20
42.49783224209352
 30
0.0
 11
-13.83744345327261
 21
38.4969796834265
 31
0.0
  0
LINE
  5
2BA
330
2
100
AcDbEntity
  8
GAIKEI
 62
     1
100
AcDbLine
 10
-13.26744345327256
 20
42.49783224209352
 30
0.0
 11
-13.26744345327256
 21
38.4969796834265
 31
0.0
  0
LINE
  5
2BB
330
2
100
AcDbEntity
  8
GAIKEI
 62
     1
100
AcDbLine
 10
-12.69744345327256
 20
42.49783224209352
 30
0.0
 11
-12.69744345327256
 21
38.4969796834265
 31
0.0
  0
LINE
  5
2BC
330
2
100
AcDbEntity
  8
GAIKEI
 62
     1
100
AcDbLine
 10
-12.12744345327257
 20
42.49783224209352
 30
0.0
 11
-12.12744345327257
 21
38.4969796834265
 31
0.0
  0
LINE
  5
2BD
330
2
100
AcDbEntity
  8
GAIKEI
 62
     1
100
AcDbLine
 10
-11.55744345327258
 20
42.49783224209352
 30
0.0
 11
-11.55744345327258
 21
38.4969796834265
 31
0.0
  0
LINE
  5
2BE
330
2
100
AcDbEntity
  8
GAIKEI
 62
     1
100
AcDbLine
 10
-10.98744345327258
 20
42.49783224209352
 30
0.0
 11
-10.98744345327258
 21
38.4969796834265
 31
0.0
  0
LINE
  5
2BF
330
2
100
AcDbEntity
  8
GAIKEI
 62
     1
100
AcDbLine
 10
-10.41744345327259
 20
42.49783224209352
 30
0.0
 11
-10.41744345327259
 21
38.4969796834265
 31
0.0
  0
LINE
  5
2C0
330
2
100
AcDbEntity
  8
GAIKEI
 62
     1
100
AcDbLine
 10
-9.847443453272603
 20
42.49783224209352
 30
0.0
 11
-9.847443453272603
 21
38.4969796834265
 31
0.0
  0
LINE
  5
2C1
330
2
100
AcDbEntity
  8
GAIKEI
 62
     1
100
AcDbLine
 10
-9.277443453272553
 20
42.49783224209352
 30
0.0
 11
-9.277443453272553
 21
38.4969796834265
 31
0.0
  0
LINE
  5
2C2
330
2
100
AcDbEntity
  8
GAIKEI
 62
     1
100
AcDbLine
 10
-8.707443453272617
 20
42.49783224209352
 30
0.0
 11
-8.707443453272617
 21
38.4969796834265
 31
0.0
  0
LINE
  5
2C3
330
2
100
AcDbEntity
  8
GAIKEI
 62
     1
100
AcDbLine
 10
-8.137443453272567
 20
42.49783224209352
 30
0.0
 11
-8.137443453272567
 21
38.4969796834265
 31
0.0
  0
LINE
  5
2C4
330
2
100
AcDbEntity
  8
GAIKEI
 62
     1
100
AcDbLine
 10
-7.567443453272574
 20
42.49783224209352
 30
0.0
 11
-7.567443453272574
 21
38.4969796834265
 31
0.0
  0
LINE
  5
2C5
330
2
100
AcDbEntity
  8
GAIKEI
 62
     1
100
AcDbLine
 10
-6.99744345327258
 20
42.49783224209352
 30
0.0
 11
-6.99744345327258
 21
38.4969796834265
 31
0.0
  0
LINE
  5
2C6
330
2
100
AcDbEntity
  8
GAIKEI
 62
     1
100
AcDbLine
 10
-25.23744345327258
 20
41.91743153916365
 30
0.0
 11
-7.091687050645532
 21
41.91743153916365
 31
0.0
  0
LINE
  5
2C7
330
2
100
AcDbEntity
  8
GAIKEI
 62
     1
100
AcDbLine
 10
-25.23744345327258
 20
41.33703083623379
 30
0.0
 11
-7.091687050645532
 21
41.33703083623379
 31
0.0
  0
LINE
  5
2C8
330
2
100
AcDbEntity
  8
GAIKEI
 62
     1
100
AcDbLine
 10
-25.23744345327258
 20
40.78887491614864
 30
0.0
 11
-7.091687050645532
 21
40.78887491614864
 31
0.0
  0
LINE
  5
2C9
330
2
100
AcDbEntity
  8
GAIKEI
 62
     1
100
AcDbLine
 10
-25.23744345327258
 20
40.22459660464107
 30
0.0
 11
-7.091687050645532
 21
40.22459660464107
 31
0.0
  0
LINE
  5
2CA
330
2
100
AcDbEntity
  8
GAIKEI
 62
     1
100
AcDbLine
 10
-25.23744345327258
 20
39.65225676065518
 30
0.0
 11
-7.091687050645532
 21
39.65225676065518
 31
0.0
  0
LINE
  5
2CB
330
2
100
AcDbEntity
  8
GAIKEI
 62
     1
100
AcDbLine
 10
-25.23744345327258
 20
39.09603930809169
 30
0.0
 11
-7.091687050645532
 21
39.09603930809169
 31
0.0
  0
LINE
  5
2CC
330
2
100
AcDbEntity
  8
GAIKEI
100
AcDbLine
 10
-48.01119085530832
 20
61.69578341889479
 30
0.0
 11
-6.011190855308313
 21
61.69578341889479
 31
0.0
  0
LINE
  5
2CD
330
2
100
AcDbEntity
  8
GAIKEI
100
AcDbLine
 10
-48.01119085530832
 20
35.19578341889484
 30
0.0
 11
-6.011190855308313
 21
35.19578341889484
 31
0.0
  0
LINE
  5
2CE
330
2
100
AcDbEntity
  8
GAIKEI
100
AcDbLine
 10
-48.01119085530832
 20
35.19578341889484
 30
0.0
 11
-48.01119085530832
 21
61.69578341889479
 31
0.0
  0
LINE
  5
2CF
330
2
100
AcDbEntity
  8
GAIKEI
100
AcDbLine
 10
-51.01119085530831
 20
35.19578341889484
 30
0.0
 11
-51.01119085530831
 21
61.69578341889479
 31
0.0
  0
LINE
  5
2D0
330
2
100
AcDbEntity
  8
GAIKEI
100
AcDbLine
 10
-49.11119085530822
 20
43.23822054462721
 30
0.0
 11
-49.11119085530822
 21
53.46756733761878
 31
0.0
  0
LINE
  5
2D1
330
2
100
AcDbEntity
  8
GAIKEI
100
AcDbLine
 10
-48.31119085530827
 20
43.23822054462721
 30
0.0
 11
-48.31119085530827
 21
53.46756733761878
 31
0.0
  0
ARC
  5
2D2
330
2
100
AcDbEntity
  8
GAIKEI
100
AcDbCircle
 10
-48.71119085530825
 20
43.23822054462721
 30
0.0
 40
0.45
100
AcDbArc
 50
152.7339555492685
 51
27.26604445073148
  0
ARC
  5
2D3
330
2
100
AcDbEntity
  8
GAIKEI
100
AcDbCircle
 10
-48.71119085530825
 20
43.23822054462721
 30
0.0
 40
0.4
100
AcDbArc
 50
180.0
 51
0.0
  0
LINE
  5
2D4
330
2
100
AcDbEntity
  8
GAIKEI
100
AcDbLine
 10
-51.01119085530831
 20
35.19578341889484
 30
0.0
 11
-48.01119085530832
 21
35.19578341889484
 31
0.0
  0
ARC
  5
2D5
330
2
100
AcDbEntity
  8
GAIKEI
100
AcDbCircle
 10
-48.71119085530825
 20
53.46756733761878
 30
0.0
 40
0.45
100
AcDbArc
 50
332.7339555492685
 51
207.2660444507314
  0
ARC
  5
2D6
330
2
100
AcDbEntity
  8
GAIKEI
100
AcDbCircle
 10
-48.71119085530825
 20
53.46756733761878
 30
0.0
 40
0.4
100
AcDbArc
 50
0.0
 51
180.0
  0
LINE
  5
2D7
330
2
100
AcDbEntity
  8
GAIKEI
100
AcDbLine
 10
-51.01119085530831
 20
61.69578341889479
 30
0.0
 11
-48.01119085530832
 21
61.69578341889479
 31
0.0
  0
LINE
  5
2D8
330
2
100
AcDbEntity
  8
GAIKEI
  6
Continuous
100
AcDbLine
 10
-6.011190855308313
 20
35.19578341889484
 30
0.0
 11
-6.011190855308313
 21
61.69578341889479
 31
0.0
  0
LINE
  5
2D9
330
2
100
AcDbEntity
  8
GAIKEI
  6
Continuous
100
AcDbLine
 10
-3.0111908553082
 20
35.19578341889484
 30
0.0
 11
-3.0111908553082
 21
61.69578341889479
 31
0.0
  0
LINE
  5
2DA
330
2
100
AcDbEntity
  8
GAIKEI
  6
Continuous
100
AcDbLine
 10
-5.711190855308245
 20
44.44578341889484
 30
0.0
 11
-5.711190855308245
 21
52.44578341889485
 31
0.0
  0
LINE
  5
2DB
330
2
100
AcDbEntity
  8
GAIKEI
  6
Continuous
100
AcDbLine
 10
-4.911190855308177
 20
44.44578341889484
 30
0.0
 11
-4.911190855308177
 21
52.44578341889485
 31
0.0
  0
ARC
  5
2DC
330
2
100
AcDbEntity
  8
GAIKEI
  6
Continuous
100
AcDbCircle
 10
-5.311190855308268
 20
44.44578341889484
 30
0.0
 40
0.4
100
AcDbArc
 50
180.0
 51
0.0
  0
ARC
  5
2DD
330
2
100
AcDbEntity
  8
GAIKEI
  6
Continuous
100
AcDbCircle
 10
-5.311190855308268
 20
44.44578341889484
 30
0.0
 40
0.45
100
AcDbArc
 50
152.7339555492685
 51
27.26604445073148
  0
LINE
  5
2DE
330
2
100
AcDbEntity
  8
GAIKEI
100
AcDbLine
 10
-6.011190855308313
 20
35.19578341889484
 30
0.0
 11
-3.0111908553082
 21
35.19578341889484
 31
0.0
  0
ARC
  5
2DF
330
2
100
AcDbEntity
  8
GAIKEI
  6
Continuous
100
AcDbCircle
 10
-5.311190855308268
 20
52.44578341889485
 30
0.0
 40
0.4
100
AcDbArc
 50
0.0
 51
180.0
  0
ARC
  5
2E0
330
2
100
AcDbEntity
  8
GAIKEI
  6
Continuous
100
AcDbCircle
 10
-5.311190855308268
 20
52.44578341889485
 30
0.0
 40
0.45
100
AcDbArc
 50
332.7339555492685
 51
207.2660444507314
  0
LINE
  5
2E1
330
2
100
AcDbEntity
  8
GAIKEI
100
AcDbLine
 10
-6.011190855308313
 20
61.69578341889479
 30
0.0
 11
-3.0111908553082
 21
61.69578341889479
 31
0.0
  0
LINE
  5
2E2
330
2
100
AcDbEntity
  8
GAIKEI
100
AcDbLine
 10
-12.03420527164013
 20
35.19578341889484
 30
0.0
 11
-11.88420527164009
 21
34.34578341889488
 31
0.0
  0
LINE
  5
2E3
330
2
100
AcDbEntity
  8
GAIKEI
100
AcDbLine
 10
-11.88420527164009
 20
34.34578341889488
 30
0.0
 11
-10.1842052716401
 21
34.34578341889488
 31
0.0
  0
LINE
  5
2E4
330
2
100
AcDbEntity
  8
GAIKEI
100
AcDbLine
 10
-10.1842052716401
 20
34.34578341889488
 30
0.0
 11
-10.03420527164013
 21
35.19578341889484
 31
0.0
  0
LINE
  5
2E5
330
2
100
AcDbEntity
  8
GAIKEI
100
AcDbLine
 10
-43.98816293356879
 20
35.19578341889484
 30
0.0
 11
-43.83816293356875
 21
34.34578341889488
 31
0.0
  0
LINE
  5
2E6
330
2
100
AcDbEntity
  8
GAIKEI
100
AcDbLine
 10
-43.83816293356875
 20
34.34578341889488
 30
0.0
 11
-42.13816293356877
 21
34.34578341889488
 31
0.0
  0
LINE
  5
2E7
330
2
100
AcDbEntity
  8
GAIKEI
100
AcDbLine
 10
-42.13816293356877
 20
34.34578341889488
 30
0.0
 11
-41.98816293356879
 21
35.19578341889484
 31
0.0
  0
LINE
  5
2E8
330
2
100
AcDbEntity
  8
GAIKEI
 62
     1
100
AcDbLine
 10
18.83043361091012
 20
60.12537046306284
 30
0.0
 11
18.073455937309
 21
60.12537046306284
 31
0.0
  0
LINE
  5
2E9
330
2
100
AcDbEntity
  8
GAIKEI
 62
     1
100
AcDbLine
 10
18.21509520106428
 20
60.8781385781258
 30
0.0
 11
18.21509520106428
 21
60.69687993989356
 31
0.0
  0
LINE
  5
2EA
330
2
100
AcDbEntity
  8
GAIKEI
 62
     1
100
AcDbLine
 10
18.02269361376039
 20
60.8781385781258
 30
0.0
 11
18.21509520106428
 21
60.8781385781258
 31
0.0
  0
LINE
  5
2EB
330
2
100
AcDbEntity
  8
GAIKEI
 62
     1
100
AcDbLine
 10
18.02269361376039
 20
61.49372460906215
 30
0.0
 11
18.02269361376039
 21
60.8781385781258
 31
0.0
  0
LINE
  5
2EC
330
2
100
AcDbEntity
  8
GAIKEI
 62
     1
100
AcDbLine
 10
18.073455937309
 20
61.54399169042983
 30
0.0
 11
18.02269361376039
 21
61.49372460906215
 31
0.0
  0
LINE
  5
2ED
330
2
100
AcDbEntity
  8
GAIKEI
 62
     1
100
AcDbLine
 10
18.83043361091012
 20
61.54399169042983
 30
0.0
 11
18.073455937309
 21
61.54399169042983
 31
0.0
  0
LINE
  5
2EE
330
2
100
AcDbEntity
  8
GAIKEI
 62
     1
100
AcDbLine
 10
18.83043361091012
 20
60.03053158540854
 30
0.0
 11
18.83043361091012
 21
61.54399169042983
 31
0.0
  0
LINE
  5
2EF
330
2
100
AcDbEntity
  8
GAIKEI
 62
     1
100
AcDbLine
 10
18.073455937309
 20
60.03053158540854
 30
0.0
 11
18.83043361091012
 21
60.03053158540854
 31
0.0
  0
LINE
  5
2F0
330
2
100
AcDbEntity
  8
GAIKEI
 62
     1
100
AcDbLine
 10
18.02269361376039
 20
60.08129390895721
 30
0.0
 11
18.073455937309
 21
60.03053158540854
 31
0.0
  0
LINE
  5
2F1
330
2
100
AcDbEntity
  8
GAIKEI
 62
     1
100
AcDbLine
 10
18.02269361376039
 20
60.69687993989356
 30
0.0
 11
18.02269361376039
 21
60.08129390895721
 31
0.0
  0
LINE
  5
2F2
330
2
100
AcDbEntity
  8
GAIKEI
 62
     1
100
AcDbLine
 10
18.21509520106428
 20
60.69687993989356
 30
0.0
 11
18.02269361376039
 21
60.69687993989356
 31
0.0
  0
LINE
  5
2F3
330
2
100
AcDbEntity
  8
GAIKEI
 62
     1
100
AcDbLine
 10
18.83043361091012
 20
60.2578477464703
 30
0.0
 11
18.073455937309
 21
60.2578477464703
 31
0.0
  0
LINE
  5
2F4
330
2
100
AcDbEntity
  8
GAIKEI
 62
     1
100
AcDbLine
 10
18.83043361091012
 20
60.71148958423191
 30
0.0
 11
18.21509520106428
 21
60.71148958423191
 31
0.0
  0
LINE
  5
2F5
330
2
100
AcDbEntity
  8
GAIKEI
 62
     1
100
AcDbLine
 10
18.83043361091012
 20
60.56019309794788
 30
0.0
 11
18.073455937309
 21
60.56019309794788
 31
0.0
  0
LINE
  5
2F6
330
2
100
AcDbEntity
  8
GAIKEI
 62
     1
100
AcDbLine
 10
18.83043361091012
 20
60.40889661166386
 30
0.0
 11
18.073455937309
 21
60.40889661166386
 31
0.0
  0
LINE
  5
2F7
330
2
100
AcDbEntity
  8
GAIKEI
 62
     1
100
AcDbLine
 10
18.073455937309
 20
60.03053158540854
 30
0.0
 11
18.073455937309
 21
60.69687993989351
 31
0.0
  0
LINE
  5
2F8
330
2
100
AcDbEntity
  8
GAIKEI
 62
     1
100
AcDbLine
 10
18.21509520106428
 20
60.86303369160646
 30
0.0
 11
18.83043361091012
 21
60.86303369160646
 31
0.0
  0
LINE
  5
2F9
330
2
100
AcDbEntity
  8
GAIKEI
 62
     1
100
AcDbLine
 10
18.073455937309
 20
61.01457779898095
 30
0.0
 11
18.83043361091012
 21
61.01457779898095
 31
0.0
  0
LINE
  5
2FA
330
2
100
AcDbEntity
  8
GAIKEI
 62
     1
100
AcDbLine
 10
18.073455937309
 20
61.16612190635544
 30
0.0
 11
18.83043361091012
 21
61.16612190635544
 31
0.0
  0
LINE
  5
2FB
330
2
100
AcDbEntity
  8
GAIKEI
 62
     1
100
AcDbLine
 10
18.073455937309
 20
61.317170771549
 30
0.0
 11
18.83043361091012
 21
61.317170771549
 31
0.0
  0
LINE
  5
2FC
330
2
100
AcDbEntity
  8
GAIKEI
 62
     1
100
AcDbLine
 10
18.073455937309
 20
61.44940043386594
 30
0.0
 11
18.83043361091012
 21
61.44940043386594
 31
0.0
  0
LINE
  5
2FD
330
2
100
AcDbEntity
  8
GAIKEI
 62
     1
100
AcDbLine
 10
18.073455937309
 20
60.87813857812574
 30
0.0
 11
18.073455937309
 21
61.54399169042978
 31
0.0
  0
LINE
  5
2FE
330
2
100
AcDbEntity
  8
GAIKEI
 62
     1
100
AcDbLine
 10
18.98148247610367
 20
60.78775688010018
 30
0.0
 11
18.98148247610367
 21
61.19113163649405
 31
0.0
  0
LINE
  5
2FF
330
2
100
AcDbEntity
  8
GAIKEI
 62
     1
100
AcDbLine
 10
18.98148247610367
 20
60.38363926043479
 30
0.0
 11
18.83043361091012
 21
60.38363926043479
 31
0.0
  0
LINE
  5
300
330
2
100
AcDbEntity
  8
GAIKEI
 62
     1
100
AcDbLine
 10
18.98148247610367
 20
60.38363926043479
 30
0.0
 11
18.98148247610367
 21
60.78775688010018
 31
0.0
  0
LINE
  5
301
330
2
100
AcDbEntity
  8
GAIKEI
 62
     1
100
AcDbLine
 10
18.98148247610367
 20
61.19113163649405
 30
0.0
 11
18.83043361091012
 21
61.19113163649405
 31
0.0
  0
CIRCLE
  5
302
330
2
100
AcDbEntity
  8
GAIKEI
 62
     1
100
AcDbCircle
 10
22.21095673815983
 20
58.41579445438049
 30
0.0
 40
0.3533552961167127
  0
CIRCLE
  5
303
330
2
100
AcDbEntity
  8
GAIKEI
 62
     1
100
AcDbCircle
 10
22.21132816979559
 20
58.41579445438049
 30
0.0
 40
0.252202080655131
  0
CIRCLE
  5
304
330
2
100
AcDbEntity
  8
GAIKEI
 62
     1
100
AcDbCircle
 10
22.21083292761466
 20
58.41579445438043
 30
0.0
 40
0.4792706206264174
  0
TEXT
  5
305
330
2
100
AcDbEntity
  8
MOJI1
100
AcDbText
 10
-58.50242666469336
 20
-108.2390266401297
 30
0.0
 40
3.0
  1
拡張スロット部
100
AcDbText
  0
LINE
  5
306
330
2
100
AcDbEntity
  8
WAKU
 62
     1
100
AcDbLine
 10
-61.00242666469336
 20
-104.2390266401297
 30
0.0
 11
63.99757333530669
 21
-104.2390266401297
 31
0.0
  0
TEXT
  5
308
330
2
100
AcDbEntity
  8
MOJI1
100
AcDbText
 10
-19.50242666469335
 20
-108.2390266401297
 30
0.0
 40
3.0
  1
×１
100
AcDbText
  0
LINE
  5
309
330
2
100
AcDbEntity
  8
WAKU
 62
     1
100
AcDbLine
 10
63.99757333530669
 20
-59.23902664012974
 30
0.0
 11
-61.00242666469336
 21
-59.23902664012974
 31
0.0
  0
TEXT
  5
30A
330
2
100
AcDbEntity
  8
MOJI1
100
AcDbText
 10
-19.50242666469335
 20
-63.23902664012973
 30
0.0
 40
3.0
  1
カメラ制御端子×４
100
AcDbText
  0
TEXT
  5
30B
330
2
100
AcDbEntity
  8
MOJI1
100
AcDbText
 10
-19.50242666469335
 20
-118.2390266401297
 30
0.0
 40
3.0
  1
レコーダー制御、アラーム制御、タイマー制御
100
AcDbText
  0
TEXT
  5
30C
330
2
100
AcDbEntity
  8
MOJI1
100
AcDbText
 10
-19.50242666469335
 20
-113.2390266401297
 30
0.0
 40
3.0
  1
モニター制御、カメラ／レシーバ制御
100
AcDbText
  0
TEXT
  5
30D
330
2
100
AcDbEntity
  8
MOJI1
100
AcDbText
 10
-58.50242666469336
 20
-113.2390266401297
 30
0.0
 40
3.0
  1
機　能
100
AcDbText
  0
TEXT
  5
30E
330
2
100
AcDbEntity
  8
MOJI1
100
AcDbText
 10
-19.50242666469335
 20
-98.23902664012974
 30
0.0
 40
3.0
  1
外部同期入出力×各１
100
AcDbText
  0
TEXT
  5
30F
330
2
100
AcDbEntity
  8
MOJI1
100
AcDbText
 10
-19.50242666469335
 20
-103.2390266401297
 30
0.0
 40
3.0
  1
シリアル端子×２
100
AcDbText
  0
LINE
  5
310
330
2
100
AcDbEntity
  8
WAKU
 62
     1
100
AcDbLine
 10
-61.00242666469336
 20
-114.2390266401297
 30
0.0
 11
63.99757333530669
 21
-114.2390266401297
 31
0.0
  0
TEXT
  5
311
330
2
100
AcDbEntity
  8
MOJI1
100
AcDbText
 10
-58.50242666469336
 20
-43.23902664012973
 30
0.0
 40
3.0
  1
ビデオ入力ボード部
100
AcDbText
  0
LINE
  5
312
330
2
100
AcDbEntity
  8
WAKU
 62
     4
100
AcDbLine
 10
63.99757333530669
 20
-119.2390266401297
 30
0.0
 11
63.99757333530669
 21
-34.23902664012973
 31
0.0
  0
TEXT
  5
313
330
2
100
AcDbEntity
  8
MOJI1
100
AcDbText
 10
-19.50242666469335
 20
-58.23902664012973
 30
0.0
 40
3.0
  1
アラーム入力端子×３２
100
AcDbText
  0
TEXT
  5
314
330
2
100
AcDbEntity
  8
MOJI1
100
AcDbText
 10
-19.50242666469335
 20
-68.23902664012973
 30
0.0
 40
3.0
  1
増設用端子×２
100
AcDbText
  0
TEXT
  5
315
330
2
100
AcDbEntity
  8
MOJI1
100
AcDbText
 10
-58.50242666469336
 20
-73.23902664012973
 30
0.0
 40
3.0
  1
ビデオ出力ボード部
100
AcDbText
  0
TEXT
  5
316
330
2
100
AcDbEntity
  8
MOJI1
100
AcDbText
 10
-58.50242666469336
 20
-38.23902664012973
 30
0.0
 40
3.0
  1
電　源
100
AcDbText
  0
TEXT
  5
317
330
2
100
AcDbEntity
  8
MOJI1
100
AcDbText
 10
-19.50242666469335
 20
-48.23902664012973
 30
0.0
 40
3.0
  1
カメラ入力×３２
100
AcDbText
  0
TEXT
  5
318
330
2
100
AcDbEntity
  8
MOJI1
100
AcDbText
 10
-19.50242666469335
 20
-53.23902664012973
 30
0.0
 40
3.0
  1
映像出力×４
100
AcDbText
  0
TEXT
  5
319
330
2
100
AcDbEntity
  8
MOJI1
100
AcDbText
 10
-19.50242666469335
 20
-93.23902664012974
 30
0.0
 40
3.0
  1
増設用端子×２
100
AcDbText
  0
TEXT
  5
31A
330
2
100
AcDbEntity
  8
MOJI1
100
AcDbText
 10
-19.50242666469335
 20
-78.23902664012973
 30
0.0
 40
3.0
  1
モニター出力×１６
100
AcDbText
  0
TEXT
  5
31B
330
2
100
AcDbEntity
  8
MOJI1
100
AcDbText
 10
-19.50242666469335
 20
-83.23902664012974
 30
0.0
 40
3.0
  1
データ端子×４
100
AcDbText
  0
TEXT
  5
31C
330
2
100
AcDbEntity
  8
MOJI1
100
AcDbText
 10
-19.50242666469335
 20
-88.23902664012974
 30
0.0
 40
3.0
  1
アラーム出力×３２
100
AcDbText
  0
LINE
  5
31D
330
2
100
AcDbEntity
  8
WAKU
 62
     4
100
AcDbLine
 10
-61.00242666469336
 20
-34.23902664012973
 30
0.0
 11
-61.00242666469336
 21
-119.2390266401297
 31
0.0
  0
LINE
  5
31E
330
2
100
AcDbEntity
  8
WAKU
 62
     4
100
AcDbLine
 10
-22.00242666469335
 20
-119.2390266401297
 30
0.0
 11
-22.00242666469335
 21
-34.23902664012973
 31
0.0
  0
LINE
  5
31F
330
2
100
AcDbEntity
  8
WAKU
 62
     4
100
AcDbLine
 10
-61.00242666469336
 20
-119.2390266401297
 30
0.0
 11
63.99757333530669
 21
-119.2390266401297
 31
0.0
  0
LINE
  5
320
330
2
100
AcDbEntity
  8
WAKU
 62
     1
100
AcDbLine
 10
63.99757333530669
 20
-94.23902664012974
 30
0.0
 11
-61.00242666469336
 21
-94.23902664012974
 31
0.0
  0
LINE
  5
321
330
2
100
AcDbEntity
  8
WAKU
 62
     1
100
AcDbLine
 10
-61.00242666469336
 20
-109.2390266401297
 30
0.0
 11
63.99757333530669
 21
-109.2390266401297
 31
0.0
  0
LINE
  5
322
330
2
100
AcDbEntity
  8
WAKU
 62
     1
100
AcDbLine
 10
-61.00242666469336
 20
-99.23902664012974
 30
0.0
 11
63.99757333530669
 21
-99.23902664012974
 31
0.0
  0
LINE
  5
323
330
2
100
AcDbEntity
  8
WAKU
 62
     1
100
AcDbLine
 10
63.99757333530669
 20
-89.23902664012974
 30
0.0
 11
-61.00242666469336
 21
-89.23902664012974
 31
0.0
  0
LINE
  5
324
330
2
100
AcDbEntity
  8
WAKU
 62
     1
100
AcDbLine
 10
63.99757333530669
 20
-84.23902664012974
 30
0.0
 11
-61.00242666469336
 21
-84.23902664012974
 31
0.0
  0
LINE
  5
325
330
2
100
AcDbEntity
  8
WAKU
 62
     1
100
AcDbLine
 10
63.99757333530669
 20
-79.23902664012974
 30
0.0
 11
-61.00242666469336
 21
-79.23902664012974
 31
0.0
  0
LINE
  5
326
330
2
100
AcDbEntity
  8
WAKU
 62
     1
100
AcDbLine
 10
63.99757333530669
 20
-74.23902664012974
 30
0.0
 11
-61.00242666469336
 21
-74.23902664012974
 31
0.0
  0
LINE
  5
327
330
2
100
AcDbEntity
  8
WAKU
 62
     1
100
AcDbLine
 10
63.99757333530669
 20
-69.23902664012974
 30
0.0
 11
-61.00242666469336
 21
-69.23902664012974
 31
0.0
  0
LINE
  5
328
330
2
100
AcDbEntity
  8
WAKU
 62
     1
100
AcDbLine
 10
63.99757333530669
 20
-64.23902664012974
 30
0.0
 11
-61.00242666469336
 21
-64.23902664012974
 31
0.0
  0
LINE
  5
329
330
2
100
AcDbEntity
  8
WAKU
 62
     1
100
AcDbLine
 10
63.99757333530669
 20
-54.23902664012974
 30
0.0
 11
-61.00242666469336
 21
-54.23902664012974
 31
0.0
  0
LINE
  5
32A
330
2
100
AcDbEntity
  8
WAKU
 62
     1
100
AcDbLine
 10
63.99757333530669
 20
-49.23902664012974
 30
0.0
 11
-61.00242666469336
 21
-49.23902664012974
 31
0.0
  0
LINE
  5
32B
330
2
100
AcDbEntity
  8
WAKU
 62
     1
100
AcDbLine
 10
63.99757333530669
 20
-44.23902664012973
 30
0.0
 11
-61.00242666469336
 21
-44.23902664012973
 31
0.0
  0
LINE
  5
32C
330
2
100
AcDbEntity
  8
WAKU
 62
     1
100
AcDbLine
 10
63.99757333530669
 20
-39.23902664012974
 30
0.0
 11
-61.00242666469336
 21
-39.23902664012974
 31
0.0
  0
LINE
  5
32D
330
2
100
AcDbEntity
  8
WAKU
 62
     4
100
AcDbLine
 10
63.99757333530669
 20
-34.23902664012973
 30
0.0
 11
-61.0024266646933
 21
-34.23902664012973
 31
0.0
  0
TEXT
  5
32E
330
2
100
AcDbEntity
  8
MOJI1
100
AcDbText
 10
-19.50242666469335
 20
-38.23902664012973
 30
0.0
 40
3.0
  1
ＡＣ１００Ｖ　５０／６０Ｈｚ
100
AcDbText
  0
ENDSEC
  0
SECTION
  2
OBJECTS
  0
DICTIONARY
  5
9
330
0
100
AcDbDictionary
281
     1
  3
ACAD_COLOR
350
32
  3
ACAD_GROUP
350
2E
  3
ACAD_LAYOUT
350
D
  3
ACAD_MATERIAL
350
31
  3
ACAD_MLINESTYLE
350
2F
  3
ACAD_PLOTSETTINGS
350
30
  3
ACAD_PLOTSTYLENAME
350
8
  3
AcDbVariableDictionary
350
33E
  0
DICTIONARY
  5
15
330
14
100
AcDbDictionary
280
     1
281
     1
  3
ACAD_LAYERFILTERS
360
16
  3
ACAD_LAYERSTATES
360
18
  0
DICTIONARY
  5
3
330
2
100
AcDbDictionary
280
     1
281
     1
  0
DICTIONARY
  5
F
330
E
100
AcDbDictionary
280
     1
281
     1
  0
DICTIONARY
  5
32
102
{ACAD_REACTORS
330
9
102
}
330
9
100
AcDbDictionary
281
     1
  0
DICTIONARY
  5
2E
102
{ACAD_REACTORS
330
9
102
}
330
9
100
AcDbDictionary
281
     1
  0
DICTIONARY
  5
D
102
{ACAD_REACTORS
330
9
102
}
330
9
100
AcDbDictionary
281
     1
  3
Model
350
C
  3
ﾚｲｱｳﾄ1
350
13
  0
DICTIONARY
  5
31
102
{ACAD_REACTORS
330
9
102
}
330
9
100
AcDbDictionary
281
     1
  0
DICTIONARY
  5
2F
102
{ACAD_REACTORS
330
9
102
}
330
9
100
AcDbDictionary
281
     1
  3
STANDARD
350
34
  0
DICTIONARY
  5
30
102
{ACAD_REACTORS
330
9
102
}
330
9
100
AcDbDictionary
281
     1
  0
ACDBDICTIONARYWDFLT
  5
8
102
{ACAD_REACTORS
330
9
102
}
330
9
100
AcDbDictionary
281
     1
  3
Normal
350
7
100
AcDbDictionaryWithDefault
340
7
  0
DICTIONARY
  5
33E
102
{ACAD_REACTORS
330
9
102
}
330
9
100
AcDbDictionary
281
     1
  3
DIMASSOC
350
340
  3
HIDETEXT
350
33F
  3
PROJECTNAME
350
341
  0
DICTIONARY
  5
16
102
{ACAD_REACTORS
330
15
102
}
330
15
100
AcDbDictionary
280
     1
281
     1
  3
ロック画層
360
17
  0
DICTIONARY
  5
18
102
{ACAD_REACTORS
330
15
102
}
330
15
100
AcDbDictionary
281
     1
  0
LAYOUT
  5
C
102
{ACAD_XDICTIONARY
360
33A
102
}
102
{ACAD_REACTORS
330
D
102
}
330
D
100
AcDbPlotSettings
  1

  2
\\URANUS\8FPAM09
  4
A4
  6

 40
4.180416584014892
 41
4.349743366241455
 42
4.222747802734375
 43
4.349761962890625
 44
210.0156707763671
 45
297.0106506347656
 46
6.099999999999999
 47
0.0
 48
0.0
 49
0.0
140
0.0
141
0.0
142
1.0
143
1.367326719178609
 70
 11956
 72
     1
 73
     0
 74
     1
  7
tmsacad.ctb
 75
     0
147
0.7313540984562396
148
0.5
149
0.0016206966918162
100
AcDbLayout
  1
Model
 70
     1
 71
     0
 10
0.0
 20
0.0
 11
12.0
 21
9.0
 12
0.0
 22
0.0
 32
0.0
 14
0.0
 24
0.0
 34
0.0
 15
0.0
 25
0.0
 35
0.0
146
0.0
 13
0.0
 23
0.0
 33
0.0
 16
1.0
 26
0.0
 36
0.0
 17
0.0
 27
1.0
 37
0.0
 76
     0
330
2
  0
LAYOUT
  5
13
102
{ACAD_XDICTIONARY
360
33C
102
}
102
{ACAD_REACTORS
330
D
102
}
330
D
100
AcDbPlotSettings
  1

  2
C:\Program Files\ACAD2000\plotters\DWF ePlot.pc3
  4

  6

 40
0.0
 41
0.0
 42
0.0
 43
0.0
 44
0.0
 45
0.0
 46
0.0
 47
0.0
 48
0.0
 49
0.0
140
0.0
141
0.0
142
1.0
143
1.0
 70
   688
 72
     0
 73
     0
 74
     5
  7
tmsacad.ctb
 75
    16
147
1.0
148
0.0
149
0.0
100
AcDbLayout
  1
ﾚｲｱｳﾄ1
 70
     1
 71
     1
 10
0.0
 20
0.0
 11
12.0
 21
9.0
 12
0.0
 22
0.0
 32
0.0
 14
1.000000000000000E+20
 24
1.000000000000000E+20
 34
1.000000000000000E+20
 15
-1.000000000000000E+20
 25
-1.000000000000000E+20
 35
-1.000000000000000E+20
146
0.0
 13
0.0
 23
0.0
 33
0.0
 16
1.0
 26
0.0
 36
0.0
 17
0.0
 27
1.0
 37
0.0
 76
     0
330
E
  0
MLINESTYLE
  5
34
102
{ACAD_REACTORS
330
2F
102
}
330
2F
100
AcDbMlineStyle
  2
STANDARD
 70
     0
  3

 62
   256
 51
90.0
 52
90.0
 71
     2
 49
0.5
 62
   256
  6
BYLAYER
 49
-0.5
 62
   256
  6
BYLAYER
  0
ACDBPLACEHOLDER
  5
7
102
{ACAD_REACTORS
330
8
102
}
330
8
  0
DICTIONARYVAR
  5
340
102
{ACAD_REACTORS
330
33E
102
}
330
33E
100
DictionaryVariables
280
     0
  1
1
  0
DICTIONARYVAR
  5
33F
102
{ACAD_REACTORS
330
33E
102
}
330
33E
100
DictionaryVariables
280
     0
  1
1
  0
DICTIONARYVAR
  5
341
102
{ACAD_REACTORS
330
33E
102
}
330
33E
100
DictionaryVariables
280
     0
  1

  0
XRECORD
  5
17
102
{ACAD_REACTORS
330
16
102
}
330
16
100
AcDbXrecord
280
     1
  1
ロック画層
  1
*
  1
*
  1
*
 70
   256
  1
*
  1
*
  0
DICTIONARY
  5
33A
330
C
100
AcDbDictionary
280
     1
281
     1
  3
ACAD_XREC_ROUNDTRIP
360
33B
  0
DICTIONARY
  5
33C
330
13
100
AcDbDictionary
280
     1
281
     1
  3
ACAD_XREC_ROUNDTRIP
360
33D
  0
XRECORD
  5
33B
102
{ACAD_REACTORS
330
33A
102
}
330
33A
100
AcDbXrecord
280
     1
102
SHADEPLOT
 70
     0
102
SHADEPLOTRESLEVEL
 70
     2
102
SHADEPLOTCUSTOMDPI
 70
   300
  0
XRECORD
  5
33D
102
{ACAD_REACTORS
330
33C
102
}
330
33C
100
AcDbXrecord
280
     1
102
SHADEPLOT
 70
     0
102
SHADEPLOTRESLEVEL
 70
     2
102
SHADEPLOTCUSTOMDPI
 70
   300
  0
ENDSEC
  0
EOF
