  0
SECTION
  2
HEADER
  9
$ACADVER
  1
AC1015
  9
$ACADMAINTVER
 70
    20
  9
$DWGCODEPAGE
  3
ANSI_932
  9
$INSBASE
 10
0.4999999440410648
 20
372.5008351249344
 30
0.0
  9
$EXTMIN
 10
-63.93951325670286
 20
-57.49571165570023
 30
-0.0015258207003583
  9
$EXTMAX
 10
61.09405573584843
 20
55.25697367668261
 30
0.0000000349246037
  9
$LIMMIN
 10
0.0
 20
0.0
  9
$LIMMAX
 10
420.0
 20
297.0
  9
$ORTHOMODE
 70
     1
  9
$REGENMODE
 70
     0
  9
$FILLMODE
 70
     1
  9
$QTEXTMODE
 70
     0
  9
$MIRRTEXT
 70
     0
  9
$LTSCALE
 40
1.0
  9
$ATTMODE
 70
     1
  9
$TEXTSIZE
 40
2.5
  9
$TRACEWID
 40
1.0
  9
$TEXTSTYLE
  7
Standard
  9
$CLAYER
  8
WAKU
  9
$CELTYPE
  6
ByLayer
  9
$CECOLOR
 62
   256
  9
$CELTSCALE
 40
1.0
  9
$DISPSILH
 70
     0
  9
$DIMSCALE
 40
1.0
  9
$DIMASZ
 40
2.5
  9
$DIMEXO
 40
0.625
  9
$DIMDLI
 40
3.75
  9
$DIMRND
 40
0.0
  9
$DIMDLE
 40
0.0
  9
$DIMEXE
 40
1.25
  9
$DIMTP
 40
0.0
  9
$DIMTM
 40
0.0
  9
$DIMTXT
 40
2.5
  9
$DIMCEN
 40
2.5
  9
$DIMTSZ
 40
0.0
  9
$DIMTOL
 70
     0
  9
$DIMLIM
 70
     0
  9
$DIMTIH
 70
     0
  9
$DIMTOH
 70
     0
  9
$DIMSE1
 70
     0
  9
$DIMSE2
 70
     0
  9
$DIMTAD
 70
     1
  9
$DIMZIN
 70
     8
  9
$DIMBLK
  1

  9
$DIMASO
 70
     1
  9
$DIMSHO
 70
     1
  9
$DIMPOST
  1

  9
$DIMAPOST
  1

  9
$DIMALT
 70
     0
  9
$DIMALTD
 70
     3
  9
$DIMALTF
 40
0.03937007874016
  9
$DIMLFAC
 40
1.0
  9
$DIMTOFL
 70
     1
  9
$DIMTVP
 40
0.0
  9
$DIMTIX
 70
     0
  9
$DIMSOXD
 70
     0
  9
$DIMSAH
 70
     0
  9
$DIMBLK1
  1

  9
$DIMBLK2
  1

  9
$DIMSTYLE
  2
ISO-25
  9
$DIMCLRD
 70
     0
  9
$DIMCLRE
 70
     0
  9
$DIMCLRT
 70
     0
  9
$DIMTFAC
 40
1.0
  9
$DIMGAP
 40
0.625
  9
$DIMJUST
 70
     0
  9
$DIMSD1
 70
     0
  9
$DIMSD2
 70
     0
  9
$DIMTOLJ
 70
     0
  9
$DIMTZIN
 70
     8
  9
$DIMALTZ
 70
     0
  9
$DIMALTTZ
 70
     0
  9
$DIMUPT
 70
     0
  9
$DIMDEC
 70
     2
  9
$DIMTDEC
 70
     2
  9
$DIMALTU
 70
     2
  9
$DIMALTTD
 70
     3
  9
$DIMTXSTY
  7
Standard
  9
$DIMAUNIT
 70
     0
  9
$DIMADEC
 70
     0
  9
$DIMALTRND
 40
0.0
  9
$DIMAZIN
 70
     0
  9
$DIMDSEP
 70
    44
  9
$DIMATFIT
 70
     3
  9
$DIMFRAC
 70
     0
  9
$DIMLDRBLK
  1

  9
$DIMLUNIT
 70
     2
  9
$DIMLWD
 70
    -2
  9
$DIMLWE
 70
    -2
  9
$DIMTMOVE
 70
     0
  9
$LUNITS
 70
     2
  9
$LUPREC
 70
     4
  9
$SKETCHINC
 40
1.0
  9
$FILLETRAD
 40
0.0
  9
$AUNITS
 70
     0
  9
$AUPREC
 70
     0
  9
$MENU
  1
.
  9
$ELEVATION
 40
0.0
  9
$PELEVATION
 40
0.0
  9
$THICKNESS
 40
0.0
  9
$LIMCHECK
 70
     0
  9
$CHAMFERA
 40
0.0
  9
$CHAMFERB
 40
0.0
  9
$CHAMFERC
 40
0.0
  9
$CHAMFERD
 40
0.0
  9
$SKPOLY
 70
     0
  9
$TDCREATE
 40
2454349.434269746
  9
$TDUCREATE
 40
2454349.059269746
  9
$TDUPDATE
 40
2454867.735573507
  9
$TDUUPDATE
 40
2454867.360573507
  9
$TDINDWG
 40
0.0191883333
  9
$TDUSRTIMER
 40
0.0191883333
  9
$USRTIMER
 70
     1
  9
$ANGBASE
 50
0.0
  9
$ANGDIR
 70
     0
  9
$PDMODE
 70
     0
  9
$PDSIZE
 40
0.0
  9
$PLINEWID
 40
0.0
  9
$SPLFRAME
 70
     0
  9
$SPLINETYPE
 70
     6
  9
$SPLINESEGS
 70
     8
  9
$HANDSEED
  5
25B
  9
$SURFTAB1
 70
     6
  9
$SURFTAB2
 70
     6
  9
$SURFTYPE
 70
     6
  9
$SURFU
 70
     6
  9
$SURFV
 70
     6
  9
$UCSBASE
  2

  9
$UCSNAME
  2

  9
$UCSORG
 10
0.0
 20
0.0
 30
0.0
  9
$UCSXDIR
 10
1.0
 20
0.0
 30
0.0
  9
$UCSYDIR
 10
0.0
 20
1.0
 30
0.0
  9
$UCSORTHOREF
  2

  9
$UCSORTHOVIEW
 70
     0
  9
$UCSORGTOP
 10
0.0
 20
0.0
 30
0.0
  9
$UCSORGBOTTOM
 10
0.0
 20
0.0
 30
0.0
  9
$UCSORGLEFT
 10
0.0
 20
0.0
 30
0.0
  9
$UCSORGRIGHT
 10
0.0
 20
0.0
 30
0.0
  9
$UCSORGFRONT
 10
0.0
 20
0.0
 30
0.0
  9
$UCSORGBACK
 10
0.0
 20
0.0
 30
0.0
  9
$PUCSBASE
  2

  9
$PUCSNAME
  2

  9
$PUCSORG
 10
0.0
 20
0.0
 30
0.0
  9
$PUCSXDIR
 10
1.0
 20
0.0
 30
0.0
  9
$PUCSYDIR
 10
0.0
 20
1.0
 30
0.0
  9
$PUCSORTHOREF
  2

  9
$PUCSORTHOVIEW
 70
     0
  9
$PUCSORGTOP
 10
0.0
 20
0.0
 30
0.0
  9
$PUCSORGBOTTOM
 10
0.0
 20
0.0
 30
0.0
  9
$PUCSORGLEFT
 10
0.0
 20
0.0
 30
0.0
  9
$PUCSORGRIGHT
 10
0.0
 20
0.0
 30
0.0
  9
$PUCSORGFRONT
 10
0.0
 20
0.0
 30
0.0
  9
$PUCSORGBACK
 10
0.0
 20
0.0
 30
0.0
  9
$USERI1
 70
     0
  9
$USERI2
 70
     0
  9
$USERI3
 70
     0
  9
$USERI4
 70
     0
  9
$USERI5
 70
     0
  9
$USERR1
 40
0.0
  9
$USERR2
 40
0.0
  9
$USERR3
 40
0.0
  9
$USERR4
 40
0.0
  9
$USERR5
 40
0.0
  9
$WORLDVIEW
 70
     1
  9
$SHADEDGE
 70
     3
  9
$SHADEDIF
 70
    70
  9
$TILEMODE
 70
     1
  9
$MAXACTVP
 70
    64
  9
$PINSBASE
 10
0.0
 20
0.0
 30
0.0
  9
$PLIMCHECK
 70
     0
  9
$PEXTMIN
 10
0.0
 20
0.0
 30
0.0
  9
$PEXTMAX
 10
0.0
 20
0.0
 30
0.0
  9
$PLIMMIN
 10
0.0
 20
0.0
  9
$PLIMMAX
 10
12.0
 20
9.0
  9
$UNITMODE
 70
     0
  9
$VISRETAIN
 70
     1
  9
$PLINEGEN
 70
     0
  9
$PSLTSCALE
 70
     1
  9
$TREEDEPTH
 70
  3020
  9
$CMLSTYLE
  2
Standard
  9
$CMLJUST
 70
     0
  9
$CMLSCALE
 40
20.0
  9
$PROXYGRAPHICS
 70
     1
  9
$MEASUREMENT
 70
     1
  9
$CELWEIGHT
370
    -1
  9
$ENDCAPS
280
     0
  9
$JOINSTYLE
280
     0
  9
$LWDISPLAY
290
     0
  9
$INSUNITS
 70
     4
  9
$HYPERLINKBASE
  1

  9
$STYLESHEET
  1

  9
$XEDIT
290
     1
  9
$CEPSNTYPE
380
     0
  9
$PSTYLEMODE
290
     1
  9
$FINGERPRINTGUID
  2
{FDEAD578-A652-11D2-9A35-0060089B3A3F}
  9
$VERSIONGUID
  2
{BFD8A219-C827-4919-A05A-565C30E248B4}
  9
$EXTNAMES
290
     1
  9
$PSVPSCALE
 40
0.0
  9
$OLESTARTUP
290
     0
  0
ENDSEC
  0
SECTION
  2
CLASSES
  0
CLASS
  1
ACDBDICTIONARYWDFLT
  2
AcDbDictionaryWithDefault
  3
ObjectDBX Classes
 90
        0
280
     0
281
     0
  0
CLASS
  1
ACDBPLACEHOLDER
  2
AcDbPlaceHolder
  3
ObjectDBX Classes
 90
        0
280
     0
281
     0
  0
CLASS
  1
LAYOUT
  2
AcDbLayout
  3
ObjectDBX Classes
 90
        0
280
     0
281
     0
  0
CLASS
  1
DICTIONARYVAR
  2
AcDbDictionaryVar
  3
ObjectDBX Classes
 90
        0
280
     0
281
     0
  0
ENDSEC
  0
SECTION
  2
TABLES
  0
TABLE
  2
VPORT
  5
1B
330
0
100
AcDbSymbolTable
 70
     3
  0
VPORT
  5
253
330
1B
100
AcDbSymbolTableRecord
100
AcDbViewportTableRecord
  2
*Active
 70
     0
 10
0.0
 20
0.0
 11
1.0
 21
1.0
 12
-1.422728760427213
 22
-1.119368989508814
 13
0.0
 23
0.0
 14
10.0
 24
10.0
 15
10.0
 25
10.0
 16
0.0
 26
0.0
 36
1.0
 17
0.0
 27
0.0
 37
0.0
 40
113.6335656865421
 41
1.365058670143415
 42
50.0
 43
0.0
 44
0.0
 50
0.0
 51
0.0
 71
     0
 72
  1000
 73
     1
 74
     2
 75
     0
 76
     0
 77
     0
 78
     0
281
     0
 65
     1
110
0.0
120
0.0
130
0.0
111
1.0
121
0.0
131
0.0
112
0.0
122
1.0
132
0.0
 79
     0
146
0.0
  0
ENDTAB
  0
TABLE
  2
LTYPE
  5
16
330
0
100
AcDbSymbolTable
 70
     1
  0
LTYPE
  5
17
330
16
100
AcDbSymbolTableRecord
100
AcDbLinetypeTableRecord
  2
ByBlock
 70
     0
  3

 72
    65
 73
     0
 40
0.0
  0
LTYPE
  5
18
330
16
100
AcDbSymbolTableRecord
100
AcDbLinetypeTableRecord
  2
ByLayer
 70
     0
  3

 72
    65
 73
     0
 40
0.0
  0
LTYPE
  5
8
330
16
100
AcDbSymbolTableRecord
100
AcDbLinetypeTableRecord
  2
Continuous
 70
     0
  3
Solid line
 72
    65
 73
     0
 40
0.0
  0
ENDTAB
  0
TABLE
  2
LAYER
  5
10
102
{ACAD_XDICTIONARY
360
11
102
}
330
0
100
AcDbSymbolTable
 70
     7
  0
LAYER
  5
4
330
10
100
AcDbSymbolTableRecord
100
AcDbLayerTableRecord
  2
0
 70
     0
 62
     7
  6
Continuous
370
    -3
390
5
  0
LAYER
  5
26
330
10
100
AcDbSymbolTableRecord
100
AcDbLayerTableRecord
  2
WAKU
 70
     0
 62
     4
  6
Continuous
370
    -3
390
5
  0
LAYER
  5
2A
330
10
100
AcDbSymbolTableRecord
100
AcDbLayerTableRecord
  2
MOJI1
 70
     0
 62
     2
  6
Continuous
370
    -3
390
5
  0
LAYER
  5
2C
330
10
100
AcDbSymbolTableRecord
100
AcDbLayerTableRecord
  2
TOUROKU
 70
     0
 62
     1
  6
Continuous
370
    -3
390
5
  0
LAYER
  5
2F
330
10
100
AcDbSymbolTableRecord
100
AcDbLayerTableRecord
  2
GAIKEI
 70
     0
 62
     7
  6
Continuous
370
    -3
390
5
  0
LAYER
  5
74
330
10
100
AcDbSymbolTableRecord
100
AcDbLayerTableRecord
  2
Defpoints
 70
     0
 62
     7
  6
Continuous
290
     0
370
    -3
390
5
  0
LAYER
  5
63
330
10
100
AcDbSymbolTableRecord
100
AcDbLayerTableRecord
  2
SUNPO
 70
     0
 62
     3
  6
Continuous
370
    -3
390
5
  0
ENDTAB
  0
TABLE
  2
STYLE
  5
13
330
0
100
AcDbSymbolTable
 70
     1
  0
STYLE
  5
14
330
13
100
AcDbSymbolTableRecord
100
AcDbTextStyleTableRecord
  2
Standard
 70
     0
 40
0.0
 41
1.0
 50
0.0
 71
     0
 42
2.5
  3
MONOTXT.shx
  4
BIGFONT.shx
  0
ENDTAB
  0
TABLE
  2
VIEW
  5
19
330
0
100
AcDbSymbolTable
 70
     0
  0
ENDTAB
  0
TABLE
  2
UCS
  5
1A
330
0
100
AcDbSymbolTable
 70
     0
  0
ENDTAB
  0
TABLE
  2
APPID
  5
1D
330
0
100
AcDbSymbolTable
 70
     2
  0
APPID
  5
1E
330
1D
100
AcDbSymbolTableRecord
100
AcDbRegAppTableRecord
  2
ACAD
 70
     0
  0
APPID
  5
210
330
1D
100
AcDbSymbolTableRecord
100
AcDbRegAppTableRecord
  2
DCO15
 70
     0
  0
ENDTAB
  0
TABLE
  2
DIMSTYLE
  5
1F
330
0
100
AcDbSymbolTable
 70
     2
100
AcDbDimStyleTable
 71
     0
  0
DIMSTYLE
105
28
330
1F
100
AcDbSymbolTableRecord
100
AcDbDimStyleTableRecord
  2
ISO-25
 70
     0
 41
2.5
 42
0.625
 43
3.75
 44
1.25
 73
     0
 74
     0
 77
     1
 78
     8
140
2.5
141
2.5
143
0.03937007874016
147
0.625
171
     3
172
     1
271
     2
272
     2
274
     3
278
    44
283
     0
284
     8
340
14
  0
DIMSTYLE
105
6A
102
{ACAD_REACTORS
330
93
330
85
330
78
330
62
102
}
330
1F
100
AcDbSymbolTableRecord
100
AcDbDimStyleTableRecord
  2
STANDARD
 70
     0
 40
0.0
 41
2.0
 42
2.0
 43
8.0
 44
2.0
 73
     0
 74
     0
 77
     3
140
3.0
141
0.0
173
     1
279
     2
288
     1
340
14
341
64
343
64
344
64
  0
ENDTAB
  0
TABLE
  2
BLOCK_RECORD
  5
1
330
0
100
AcDbSymbolTable
 70
     9
  0
BLOCK_RECORD
  5
2
330
1
100
AcDbSymbolTableRecord
100
AcDbBlockTableRecord
  2
*Model_Space
340
A
  0
BLOCK_RECORD
  5
C
330
1
100
AcDbSymbolTableRecord
100
AcDbBlockTableRecord
  2
*Paper_Space
340
F
  0
BLOCK_RECORD
  5
64
330
1
100
AcDbSymbolTableRecord
100
AcDbBlockTableRecord
  2
_OPEN30
340
0
102
{BLKREFS
331
70
331
71
331
7E
331
7F
331
8C
331
8D
331
99
331
9A
331
222
331
223
331
22F
331
230
331
23B
331
23C
331
247
331
248
102
}
  0
BLOCK_RECORD
  5
94
330
1
100
AcDbSymbolTableRecord
100
AcDbBlockTableRecord
  2
*D1
340
0
  0
BLOCK_RECORD
  5
86
330
1
100
AcDbSymbolTableRecord
100
AcDbBlockTableRecord
  2
*D2
340
0
  0
BLOCK_RECORD
  5
79
330
1
100
AcDbSymbolTableRecord
100
AcDbBlockTableRecord
  2
*D3
340
0
  0
BLOCK_RECORD
  5
6B
330
1
100
AcDbSymbolTableRecord
100
AcDbBlockTableRecord
  2
*D4
340
0
  0
BLOCK_RECORD
  5
21E
330
1
100
AcDbSymbolTableRecord
100
AcDbBlockTableRecord
  2
*D5
340
0
  0
BLOCK_RECORD
  5
22A
330
1
100
AcDbSymbolTableRecord
100
AcDbBlockTableRecord
  2
*D6
340
0
  0
BLOCK_RECORD
  5
237
330
1
100
AcDbSymbolTableRecord
100
AcDbBlockTableRecord
  2
*D7
340
0
  0
BLOCK_RECORD
  5
243
330
1
100
AcDbSymbolTableRecord
100
AcDbBlockTableRecord
  2
*D8
340
0
  0
ENDTAB
  0
ENDSEC
  0
SECTION
  2
BLOCKS
  0
BLOCK
  5
3
330
2
100
AcDbEntity
  8
0
100
AcDbBlockBegin
  2
*Model_Space
 70
     0
 10
0.0
 20
0.0
 30
0.0
  3
*Model_Space
  1

  0
ENDBLK
  5
9
330
2
100
AcDbEntity
  8
0
100
AcDbBlockEnd
  0
BLOCK
  5
D
330
C
100
AcDbEntity
 67
     1
  8
0
100
AcDbBlockBegin
  2
*Paper_Space
 70
     0
 10
0.0
 20
0.0
 30
0.0
  3
*Paper_Space
  1

  0
ENDBLK
  5
E
330
C
100
AcDbEntity
 67
     1
  8
0
100
AcDbBlockEnd
  0
BLOCK
  5
65
330
64
100
AcDbEntity
  8
0
100
AcDbBlockBegin
  2
_OPEN30
 70
     0
 10
0.0
 20
0.0
 30
0.0
  3
_OPEN30
  1

  0
LINE
  5
66
330
64
100
AcDbEntity
  8
0
  6
ByBlock
 62
     0
100
AcDbLine
 10
-1.0
 20
0.26794919
 30
0.0
 11
0.0
 21
0.0
 31
0.0
  0
LINE
  5
67
330
64
100
AcDbEntity
  8
0
  6
ByBlock
 62
     0
100
AcDbLine
 10
0.0
 20
0.0
 30
0.0
 11
-1.0
 21
-0.26794919
 31
0.0
  0
LINE
  5
68
330
64
100
AcDbEntity
  8
0
  6
ByBlock
 62
     0
100
AcDbLine
 10
0.0
 20
0.0
 30
0.0
 11
-1.0
 21
0.0
 31
0.0
  0
ENDBLK
  5
69
330
64
100
AcDbEntity
  8
0
100
AcDbBlockEnd
  0
BLOCK
  5
95
330
94
100
AcDbEntity
  8
0
100
AcDbBlockBegin
  2
*D1
 70
     1
 10
0.0
 20
0.0
 30
0.0
  3
*D1
  1

  0
LINE
  5
96
330
94
100
AcDbEntity
  8
SUNPO
 62
     0
370
    -2
100
AcDbLine
 10
31.64962516246493
 20
323.5989683313508
 30
0.0
 11
31.64962516246493
 21
315.5989683313507
 31
0.0
  0
LINE
  5
97
330
94
100
AcDbEntity
  8
SUNPO
 62
     0
370
    -2
100
AcDbLine
 10
55.54965383376901
 20
323.5989683313508
 30
0.0
 11
55.54965383376901
 21
315.5989683313507
 31
0.0
  0
LINE
  5
98
330
94
100
AcDbEntity
  8
SUNPO
 62
     0
370
    -2
100
AcDbLine
 10
33.64962516246493
 20
317.5989683313507
 30
0.0
 11
53.54965383376901
 21
317.5989683313507
 31
0.0
  0
INSERT
  5
99
330
94
100
AcDbEntity
  8
SUNPO
 62
     0
370
    -2
100
AcDbBlockReference
  2
_OPEN30
 10
31.64962516246493
 20
317.5989683313507
 30
0.0
 41
2.0
 42
2.0
 43
2.0
 50
180.0
  0
INSERT
  5
9A
330
94
100
AcDbEntity
  8
SUNPO
 62
     0
370
    -2
100
AcDbBlockReference
  2
_OPEN30
 10
55.54965383376901
 20
317.5989683313507
 30
0.0
 41
2.0
 42
2.0
 43
2.0
  0
MTEXT
  5
9B
330
94
100
AcDbEntity
  8
SUNPO
 62
     0
100
AcDbMText
 10
43.59963949811697
 20
319.3489683313508
 30
0.0
 40
2.5
 41
0.0
 71
     5
 72
     1
  1
\A1;φ239
 73
     1
 44
1.0
1001
ACAD
1000
MTEXTBEGIN
1070
    73
1070
     1
1070
    44
1040
1.0
1070
    74
1070
     0
1000
MTEXTEND
  0
POINT
  5
9C
330
94
100
AcDbEntity
  8
Defpoints
 62
     0
100
AcDbPoint
 10
31.64962516246493
 20
325.5989683313508
 30
0.0
  0
POINT
  5
9D
330
94
100
AcDbEntity
  8
Defpoints
 62
     0
100
AcDbPoint
 10
55.54965383376901
 20
325.5989683313508
 30
0.0
  0
POINT
  5
9E
330
94
100
AcDbEntity
  8
Defpoints
 62
     0
100
AcDbPoint
 10
55.54965383376901
 20
317.5989683313507
 30
0.0
  0
ENDBLK
  5
9F
330
94
100
AcDbEntity
  8
0
100
AcDbBlockEnd
  0
BLOCK
  5
87
330
86
100
AcDbEntity
  8
0
100
AcDbBlockBegin
  2
*D2
 70
     1
 10
0.0
 20
0.0
 30
0.0
  3
*D2
  1

  0
LINE
  5
88
330
86
100
AcDbEntity
  8
SUNPO
 62
     0
370
    -2
100
AcDbLine
 10
57.60764588950451
 20
334.6542609477666
 30
0.0
 11
65.60764588950452
 21
334.6542609477666
 31
0.0
  0
LINE
  5
89
330
86
100
AcDbEntity
  8
SUNPO
 62
     0
370
    -2
100
AcDbLine
 10
57.60764588950451
 20
325.8052845667668
 30
0.0
 11
65.60764588950452
 21
325.8052845667668
 31
0.0
  0
LINE
  5
8A
330
86
100
AcDbEntity
  8
SUNPO
 62
     0
370
    -2
100
AcDbLine
 10
63.60764588950452
 20
332.6542609477666
 30
0.0
 11
63.60764588950452
 21
327.8052845667668
 31
0.0
  0
LINE
  5
8B
330
86
100
AcDbEntity
  8
SUNPO
 62
     0
370
    -2
100
AcDbLine
 10
63.60764588950452
 20
325.8052845667668
 30
0.0
 11
63.60764588950452
 21
313.6386179001001
 31
0.0
  0
INSERT
  5
8C
330
86
100
AcDbEntity
  8
SUNPO
 62
     0
370
    -2
100
AcDbBlockReference
  2
_OPEN30
 10
63.60764588950452
 20
334.6542609477666
 30
0.0
 41
2.0
 42
2.0
 43
2.0
 50
90.0
  0
INSERT
  5
8D
330
86
100
AcDbEntity
  8
SUNPO
 62
     0
370
    -2
100
AcDbBlockReference
  2
_OPEN30
 10
63.60764588950452
 20
325.8052845667668
 30
0.0
 41
2.0
 42
2.0
 43
2.0
 50
270.0
  0
MTEXT
  5
8E
330
86
100
AcDbEntity
  8
SUNPO
 62
     0
100
AcDbMText
 10
61.85764588950447
 20
318.7219512334335
 30
0.0
 40
2.5
 41
0.0
 71
     5
 72
     1
  1
\A1;88.5
 11
0.0000000000000001
 21
1.0
 31
0.0
 73
     1
 44
1.0
1001
ACAD
1000
MTEXTBEGIN
1070
    73
1070
     1
1070
    44
1040
1.0
1070
    74
1070
     0
1000
MTEXTEND
  0
POINT
  5
8F
330
86
100
AcDbEntity
  8
Defpoints
 62
     0
100
AcDbPoint
 10
55.60764588950451
 20
334.6542609477666
 30
0.0
  0
POINT
  5
90
330
86
100
AcDbEntity
  8
Defpoints
 62
     0
100
AcDbPoint
 10
55.60764588950451
 20
325.8052845667668
 30
0.0
  0
POINT
  5
91
330
86
100
AcDbEntity
  8
Defpoints
 62
     0
100
AcDbPoint
 10
63.60764588950452
 20
325.8052845667668
 30
0.0
  0
ENDBLK
  5
92
330
86
100
AcDbEntity
  8
0
100
AcDbBlockEnd
  0
BLOCK
  5
7A
330
79
100
AcDbEntity
  8
0
100
AcDbBlockBegin
  2
*D3
 70
     1
 10
0.0
 20
0.0
 30
0.0
  3
*D3
  1

  0
LINE
  5
7B
330
79
100
AcDbEntity
  8
SUNPO
 62
     0
370
    -2
100
AcDbLine
 10
57.60764588950451
 20
361.8552797315135
 30
0.0
 11
65.60764588950452
 21
361.8552797315135
 31
0.0
  0
LINE
  5
7C
330
79
100
AcDbEntity
  8
SUNPO
 62
     0
370
    -2
100
AcDbLine
 10
57.60764588950451
 20
334.6542609477666
 30
0.0
 11
65.60764588950451
 21
334.6542609477666
 31
0.0
  0
LINE
  5
7D
330
79
100
AcDbEntity
  8
SUNPO
 62
     0
370
    -2
100
AcDbLine
 10
63.60764588950452
 20
359.8552797315135
 30
0.0
 11
63.60764588950452
 21
336.6542609477666
 31
0.0
  0
INSERT
  5
7E
330
79
100
AcDbEntity
  8
SUNPO
 62
     0
370
    -2
100
AcDbBlockReference
  2
_OPEN30
 10
63.60764588950452
 20
361.8552797315135
 30
0.0
 41
2.0
 42
2.0
 43
2.0
 50
90.0
  0
INSERT
  5
7F
330
79
100
AcDbEntity
  8
SUNPO
 62
     0
370
    -2
100
AcDbBlockReference
  2
_OPEN30
 10
63.60764588950451
 20
334.6542609477666
 30
0.0
 41
2.0
 42
2.0
 43
2.0
 50
270.0
  0
MTEXT
  5
80
330
79
100
AcDbEntity
  8
SUNPO
 62
     0
100
AcDbMText
 10
61.85764588950446
 20
348.25477033964
 30
0.0
 40
2.5
 41
0.0
 71
     5
 72
     1
  1
\A1;272
 11
0.0000000000000001
 21
1.0
 31
0.0
 73
     1
 44
1.0
1001
ACAD
1000
MTEXTBEGIN
1070
    73
1070
     1
1070
    44
1040
1.0
1070
    74
1070
     0
1000
MTEXTEND
  0
POINT
  5
81
330
79
100
AcDbEntity
  8
Defpoints
 62
     0
100
AcDbPoint
 10
55.60764588950451
 20
361.8552797315135
 30
0.0
  0
POINT
  5
82
330
79
100
AcDbEntity
  8
Defpoints
 62
     0
100
AcDbPoint
 10
55.60764588950451
 20
334.6542609477666
 30
0.0
  0
POINT
  5
83
330
79
100
AcDbEntity
  8
Defpoints
 62
     0
100
AcDbPoint
 10
63.60764588950451
 20
334.6542609477666
 30
0.0
  0
ENDBLK
  5
84
330
79
100
AcDbEntity
  8
0
100
AcDbBlockEnd
  0
BLOCK
  5
6C
330
6B
100
AcDbEntity
  8
0
100
AcDbBlockBegin
  2
*D4
 70
     1
 10
0.0
 20
0.0
 30
0.0
  3
*D4
  1

  0
LINE
  5
6D
330
6B
100
AcDbEntity
  8
SUNPO
 62
     0
370
    -2
100
AcDbLine
 10
83.32127759077833
 20
323.3130506236078
 30
0.0
 11
83.32127759077833
 21
315.3130506236078
 31
0.0
  0
LINE
  5
6E
330
6B
100
AcDbEntity
  8
SUNPO
 62
     0
370
    -2
100
AcDbLine
 10
99.3453732011112
 20
323.3130506236078
 30
0.0
 11
99.3453732011112
 21
315.3130506236078
 31
0.0
  0
LINE
  5
6F
330
6B
100
AcDbEntity
  8
SUNPO
 62
     0
370
    -2
100
AcDbLine
 10
85.32127759077834
 20
317.3130506236078
 30
0.0
 11
97.34537320111121
 21
317.3130506236078
 31
0.0
  0
INSERT
  5
70
330
6B
100
AcDbEntity
  8
SUNPO
 62
     0
370
    -2
100
AcDbBlockReference
  2
_OPEN30
 10
83.32127759077833
 20
317.3130506236078
 30
0.0
 41
2.0
 42
2.0
 43
2.0
 50
180.0
  0
INSERT
  5
71
330
6B
100
AcDbEntity
  8
SUNPO
 62
     0
370
    -2
100
AcDbBlockReference
  2
_OPEN30
 10
99.3453732011112
 20
317.3130506236078
 30
0.0
 41
2.0
 42
2.0
 43
2.0
  0
MTEXT
  5
72
330
6B
100
AcDbEntity
  8
SUNPO
 62
     0
100
AcDbMText
 10
91.33332539594476
 20
319.0630506236078
 30
0.0
 40
2.5
 41
0.0
 71
     5
 72
     1
  1
\A1;160
 73
     1
 44
1.0
1001
ACAD
1000
MTEXTBEGIN
1070
    73
1070
     1
1070
    44
1040
1.0
1070
    74
1070
     0
1000
MTEXTEND
  0
POINT
  5
73
330
6B
100
AcDbEntity
  8
Defpoints
 62
     0
100
AcDbPoint
 10
83.32127759077833
 20
325.3130506236078
 30
0.0
  0
POINT
  5
75
330
6B
100
AcDbEntity
  8
Defpoints
 62
     0
100
AcDbPoint
 10
99.3453732011112
 20
325.3130506236078
 30
0.0
  0
POINT
  5
76
330
6B
100
AcDbEntity
  8
Defpoints
 62
     0
100
AcDbPoint
 10
99.3453732011112
 20
317.3130506236078
 30
0.0
  0
ENDBLK
  5
77
330
6B
100
AcDbEntity
  8
0
100
AcDbBlockEnd
  0
BLOCK
  5
228
330
21E
100
AcDbEntity
  8
0
100
AcDbBlockBegin
  2
*D5
 70
     1
 10
0.0
 20
0.0
 30
0.0
  3
*D5
  1

  0
LINE
  5
21F
330
21E
100
AcDbEntity
  8
SUNPO
 62
     0
370
    -2
100
AcDbLine
 10
-34.77197648725649
 20
8.609047840127459
 30
0.0
 11
-34.77197648725649
 21
0.6090478401274595
 31
0.0
  0
LINE
  5
220
330
21E
100
AcDbEntity
  8
SUNPO
 62
     0
370
    -2
100
AcDbLine
 10
-10.87194781595241
 20
8.609047840127459
 30
0.0
 11
-10.87194781595241
 21
0.6090478401274595
 31
0.0
  0
LINE
  5
221
330
21E
100
AcDbEntity
  8
SUNPO
 62
     0
370
    -2
100
AcDbLine
 10
-32.7719764872565
 20
2.609047840127459
 30
0.0
 11
-12.87194781595241
 21
2.609047840127459
 31
0.0
  0
INSERT
  5
222
330
21E
100
AcDbEntity
  8
SUNPO
 62
     0
370
    -2
100
AcDbBlockReference
  2
_OPEN30
 10
-34.77197648725649
 20
2.609047840127459
 30
0.0
 41
2.0
 42
2.0
 43
2.0
 50
180.0
  0
INSERT
  5
223
330
21E
100
AcDbEntity
  8
SUNPO
 62
     0
370
    -2
100
AcDbBlockReference
  2
_OPEN30
 10
-10.87194781595241
 20
2.609047840127459
 30
0.0
 41
2.0
 42
2.0
 43
2.0
  0
MTEXT
  5
224
330
21E
100
AcDbEntity
  8
SUNPO
 62
     0
100
AcDbMText
 10
-22.82196215160445
 20
4.359047840127459
 30
0.0
 40
2.5
 41
0.0
 71
     5
 72
     1
  1
\A1;φ239
 73
     1
 44
1.0
1001
ACAD
1000
MTEXTBEGIN
1070
    73
1070
     1
1070
    44
1040
1.0
1070
    74
1070
     0
1000
MTEXTEND
  0
POINT
  5
225
330
21E
100
AcDbEntity
  8
Defpoints
 62
     0
100
AcDbPoint
 10
-34.77197648725649
 20
10.60904784012746
 30
0.0
  0
POINT
  5
226
330
21E
100
AcDbEntity
  8
Defpoints
 62
     0
100
AcDbPoint
 10
-10.87194781595241
 20
10.60904784012746
 30
0.0
  0
POINT
  5
227
330
21E
100
AcDbEntity
  8
Defpoints
 62
     0
100
AcDbPoint
 10
-10.87194781595241
 20
2.609047840127459
 30
0.0
  0
ENDBLK
  5
229
330
21E
100
AcDbEntity
  8
0
100
AcDbBlockEnd
  0
BLOCK
  5
235
330
22A
100
AcDbEntity
  8
0
100
AcDbBlockBegin
  2
*D6
 70
     1
 10
0.0
 20
0.0
 30
0.0
  3
*D6
  1

  0
LINE
  5
22B
330
22A
100
AcDbEntity
  8
SUNPO
 62
     0
370
    -2
100
AcDbLine
 10
-8.813955760216906
 20
19.66434045654324
 30
0.0
 11
-0.8139557602169038
 21
19.66434045654324
 31
0.0
  0
LINE
  5
22C
330
22A
100
AcDbEntity
  8
SUNPO
 62
     0
370
    -2
100
AcDbLine
 10
-8.813955760216906
 20
10.81536407554347
 30
0.0
 11
-0.8139557602169055
 21
10.81536407554347
 31
0.0
  0
LINE
  5
22D
330
22A
100
AcDbEntity
  8
SUNPO
 62
     0
370
    -2
100
AcDbLine
 10
-2.813955760216904
 20
17.66434045654324
 30
0.0
 11
-2.813955760216905
 21
12.81536407554347
 31
0.0
  0
LINE
  5
22E
330
22A
100
AcDbEntity
  8
SUNPO
 62
     0
370
    -2
100
AcDbLine
 10
-2.813955760216906
 20
10.81536407554347
 30
0.0
 11
-2.813955760216908
 21
-1.351302591123196
 31
0.0
  0
INSERT
  5
22F
330
22A
100
AcDbEntity
  8
SUNPO
 62
     0
370
    -2
100
AcDbBlockReference
  2
_OPEN30
 10
-2.813955760216904
 20
19.66434045654324
 30
0.0
 41
2.0
 42
2.0
 43
2.0
 50
90.0
  0
INSERT
  5
230
330
22A
100
AcDbEntity
  8
SUNPO
 62
     0
370
    -2
100
AcDbBlockReference
  2
_OPEN30
 10
-2.813955760216906
 20
10.81536407554347
 30
0.0
 41
2.0
 42
2.0
 43
2.0
 50
270.0
  0
MTEXT
  5
231
330
22A
100
AcDbEntity
  8
SUNPO
 62
     0
100
AcDbMText
 10
-4.563955760216908
 20
3.732030742210136
 30
0.0
 40
2.5
 41
0.0
 71
     5
 72
     1
  1
\A1;88.5
 11
0.0000000000000001
 21
1.0
 31
0.0
 73
     1
 44
1.0
1001
ACAD
1000
MTEXTBEGIN
1070
    73
1070
     1
1070
    44
1040
1.0
1070
    74
1070
     0
1000
MTEXTEND
  0
POINT
  5
232
330
22A
100
AcDbEntity
  8
Defpoints
 62
     0
100
AcDbPoint
 10
-10.8139557602169
 20
19.66434045654324
 30
0.0
  0
POINT
  5
233
330
22A
100
AcDbEntity
  8
Defpoints
 62
     0
100
AcDbPoint
 10
-10.8139557602169
 20
10.81536407554347
 30
0.0
  0
POINT
  5
234
330
22A
100
AcDbEntity
  8
Defpoints
 62
     0
100
AcDbPoint
 10
-2.813955760216906
 20
10.81536407554347
 30
0.0
  0
ENDBLK
  5
236
330
22A
100
AcDbEntity
  8
0
100
AcDbBlockEnd
  0
BLOCK
  5
241
330
237
100
AcDbEntity
  8
0
100
AcDbBlockBegin
  2
*D7
 70
     1
 10
0.0
 20
0.0
 30
0.0
  3
*D7
  1

  0
LINE
  5
238
330
237
100
AcDbEntity
  8
SUNPO
 62
     0
370
    -2
100
AcDbLine
 10
-8.813955760216913
 20
46.86535924029022
 30
0.0
 11
-0.8139557602169064
 21
46.86535924029022
 31
0.0
  0
LINE
  5
239
330
237
100
AcDbEntity
  8
SUNPO
 62
     0
370
    -2
100
AcDbLine
 10
-8.813955760216906
 20
19.66434045654324
 30
0.0
 11
-0.8139557602169126
 21
19.66434045654324
 31
0.0
  0
LINE
  5
23A
330
237
100
AcDbEntity
  8
SUNPO
 62
     0
370
    -2
100
AcDbLine
 10
-2.813955760216908
 20
44.86535924029022
 30
0.0
 11
-2.813955760216913
 21
21.66434045654324
 31
0.0
  0
INSERT
  5
23B
330
237
100
AcDbEntity
  8
SUNPO
 62
     0
370
    -2
100
AcDbBlockReference
  2
_OPEN30
 10
-2.813955760216907
 20
46.86535924029022
 30
0.0
 41
2.0
 42
2.0
 43
2.0
 50
90.0
  0
INSERT
  5
23C
330
237
100
AcDbEntity
  8
SUNPO
 62
     0
370
    -2
100
AcDbBlockReference
  2
_OPEN30
 10
-2.813955760216913
 20
19.66434045654324
 30
0.0
 41
2.0
 42
2.0
 43
2.0
 50
270.0
  0
MTEXT
  5
23D
330
237
100
AcDbEntity
  8
SUNPO
 62
     0
100
AcDbMText
 10
-4.563955760216916
 20
33.26484984841673
 30
0.0
 40
2.5
 41
0.0
 71
     5
 72
     1
  1
\A1;272
 11
0.0000000000000001
 21
1.0
 31
0.0
 73
     1
 44
1.0
1001
ACAD
1000
MTEXTBEGIN
1070
    73
1070
     1
1070
    44
1040
1.0
1070
    74
1070
     0
1000
MTEXTEND
  0
POINT
  5
23E
330
237
100
AcDbEntity
  8
Defpoints
 62
     0
100
AcDbPoint
 10
-10.81395576021691
 20
46.86535924029022
 30
0.0
  0
POINT
  5
23F
330
237
100
AcDbEntity
  8
Defpoints
 62
     0
100
AcDbPoint
 10
-10.8139557602169
 20
19.66434045654324
 30
0.0
  0
POINT
  5
240
330
237
100
AcDbEntity
  8
Defpoints
 62
     0
100
AcDbPoint
 10
-2.813955760216913
 20
19.66434045654324
 30
0.0
  0
ENDBLK
  5
242
330
237
100
AcDbEntity
  8
0
100
AcDbBlockEnd
  0
BLOCK
  5
24D
330
243
100
AcDbEntity
  8
0
100
AcDbBlockBegin
  2
*D8
 70
     1
 10
0.0
 20
0.0
 30
0.0
  3
*D8
  1

  0
LINE
  5
244
330
243
100
AcDbEntity
  8
SUNPO
 62
     0
370
    -2
100
AcDbLine
 10
16.89967594105691
 20
8.323130132384505
 30
0.0
 11
16.89967594105691
 21
0.3231301323845059
 31
0.0
  0
LINE
  5
245
330
243
100
AcDbEntity
  8
SUNPO
 62
     0
370
    -2
100
AcDbLine
 10
32.92377155138978
 20
8.323130132384505
 30
0.0
 11
32.92377155138978
 21
0.3231301323845059
 31
0.0
  0
LINE
  5
246
330
243
100
AcDbEntity
  8
SUNPO
 62
     0
370
    -2
100
AcDbLine
 10
18.89967594105691
 20
2.323130132384505
 30
0.0
 11
30.92377155138978
 21
2.323130132384505
 31
0.0
  0
INSERT
  5
247
330
243
100
AcDbEntity
  8
SUNPO
 62
     0
370
    -2
100
AcDbBlockReference
  2
_OPEN30
 10
16.89967594105691
 20
2.323130132384505
 30
0.0
 41
2.0
 42
2.0
 43
2.0
 50
180.0
  0
INSERT
  5
248
330
243
100
AcDbEntity
  8
SUNPO
 62
     0
370
    -2
100
AcDbBlockReference
  2
_OPEN30
 10
32.92377155138978
 20
2.323130132384505
 30
0.0
 41
2.0
 42
2.0
 43
2.0
  0
MTEXT
  5
249
330
243
100
AcDbEntity
  8
SUNPO
 62
     0
100
AcDbMText
 10
24.91172374622335
 20
4.073130132384505
 30
0.0
 40
2.5
 41
0.0
 71
     5
 72
     1
  1
\A1;160
 73
     1
 44
1.0
1001
ACAD
1000
MTEXTBEGIN
1070
    73
1070
     1
1070
    44
1040
1.0
1070
    74
1070
     0
1000
MTEXTEND
  0
POINT
  5
24A
330
243
100
AcDbEntity
  8
Defpoints
 62
     0
100
AcDbPoint
 10
16.89967594105691
 20
10.3231301323845
 30
0.0
  0
POINT
  5
24B
330
243
100
AcDbEntity
  8
Defpoints
 62
     0
100
AcDbPoint
 10
32.92377155138978
 20
10.3231301323845
 30
0.0
  0
POINT
  5
24C
330
243
100
AcDbEntity
  8
Defpoints
 62
     0
100
AcDbPoint
 10
32.92377155138978
 20
2.323130132384505
 30
0.0
  0
ENDBLK
  5
24E
330
243
100
AcDbEntity
  8
0
100
AcDbBlockEnd
  0
ENDSEC
  0
SECTION
  2
ENTITIES
  0
TEXT
  5
29
330
2
100
AcDbEntity
  8
MOJI1
100
AcDbText
 10
-36.92160170568036
 20
51.51091463370744
 30
0.0
 40
4.0
  1
ネットワークカメラ
100
AcDbText
  0
TEXT
  5
2B
330
2
100
AcDbEntity
  8
TOUROKU
100
AcDbText
 10
45.21168166058026
 20
45.51091463371108
 30
0.0
 40
2.0
  1
ＤＧＮＷ９６０
 72
     2
 11
61.07834832724693
 21
45.51091463371108
 31
0.0
100
AcDbText
  0
LINE
  5
2D
330
2
100
AcDbEntity
  8
WAKU
 62
     1
100
AcDbLine
 10
-63.92160170568049
 20
-52.48908536628857
 30
0.0
 11
61.07839829431957
 21
-52.48908536628857
 31
0.0
  0
LINE
  5
2E
330
2
100
AcDbEntity
  8
GAIKEI
 62
     1
100
AcDbLine
 10
40.95845559004049
 20
37.35920331537125
 30
0.0
 11
34.03848040550173
 21
37.35920331537125
 31
0.0
  0
LINE
  5
30
330
2
100
AcDbEntity
  8
GAIKEI
 62
     1
100
AcDbLine
 10
40.96093647095085
 20
37.2397866624712
 30
0.0
 11
34.08817370390648
 21
37.2397866624712
 31
0.0
  0
ARC
  5
31
330
2
100
AcDbEntity
  8
GAIKEI
 62
     1
100
AcDbCircle
 10
40.95845559004049
 20
38.15920331537126
 30
0.0
 40
0.8
100
AcDbArc
 50
269.9999999999992
 51
0.0
  0
ARC
  5
32
330
2
100
AcDbEntity
  8
GAIKEI
 62
     1
100
AcDbCircle
 10
40.95553223123778
 20
38.16262470330276
 30
0.0
 40
0.9228460181991385
100
AcDbArc
 50
270.181499836621
 51
0.0051513080029358
  0
CIRCLE
  5
33
330
2
100
AcDbEntity
  8
GAIKEI
 62
     1
100
AcDbCircle
 10
41.45320942113392
 20
45.87952916599625
 30
0.0
 40
0.0746354080625271
  0
LINE
  5
34
330
2
100
AcDbEntity
  8
GAIKEI
 62
     1
100
AcDbLine
 10
41.87837824570704
 20
41.54700697831237
 30
0.0
 11
41.87837824570704
 21
38.16270767388295
 31
0.0
  0
LINE
  5
35
330
2
100
AcDbEntity
  8
GAIKEI
 62
     1
100
AcDbLine
 10
41.75845559004051
 20
41.54700697831237
 30
0.0
 11
41.75845559004051
 21
38.15920331537126
 31
0.0
  0
LINE
  5
36
330
2
100
AcDbEntity
  8
GAIKEI
 62
     1
100
AcDbLine
 10
40.40945221448322
 20
47.06610565349876
 30
0.0
 11
40.65220704172389
 21
47.02309541834409
 31
0.0
  0
LINE
  5
37
330
2
100
AcDbEntity
  8
GAIKEI
 62
     1
100
AcDbLine
 10
40.79489982188414
 20
47.12328396611616
 30
0.0
 11
40.65220704172389
 21
47.02309541834409
 31
0.0
  0
LINE
  5
38
330
2
100
AcDbEntity
  8
GAIKEI
 62
     1
100
AcDbLine
 10
41.71076482929544
 20
45.81627882018051
 30
0.0
 11
41.42474676551688
 21
45.61602822532802
 31
0.0
  0
LINE
  5
39
330
2
100
AcDbEntity
  8
GAIKEI
 62
     1
100
AcDbLine
 10
39.21009915712586
 20
46.08142426983994
 30
0.0
 11
40.96668776111954
 21
44.85107854303294
 31
0.0
  0
LINE
  5
3A
330
2
100
AcDbEntity
  8
GAIKEI
 62
     1
100
AcDbLine
 10
41.5511209564566
 20
45.43576473975327
 30
0.0
 11
40.32102823103286
 21
47.19222684305527
 31
0.0
  0
LINE
  5
3B
330
2
100
AcDbEntity
  8
GAIKEI
 62
     1
100
AcDbLine
 10
39.00959556089009
 20
45.79502670398648
 30
0.0
 11
40.94771265737484
 21
44.43830678623965
 31
0.0
  0
LINE
  5
3C
330
2
100
AcDbEntity
  8
GAIKEI
 62
     1
100
AcDbLine
 10
41.96414571463316
 20
45.45461334280633
 30
0.0
 11
40.60704629481148
 21
47.39247743790781
 31
0.0
  0
LINE
  5
3D
330
2
100
AcDbEntity
  8
GAIKEI
 62
     1
100
AcDbLine
 10
42.2537057977774
 20
43.91522642634379
 30
0.0
 11
41.79975899512379
 21
42.5578528995897
 31
0.0
  0
LINE
  5
3E
330
2
100
AcDbEntity
  8
GAIKEI
 62
     1
100
AcDbLine
 10
41.87837824570704
 20
42.04554620403172
 30
0.0
 11
41.87837824570704
 21
42.28506406874709
 31
0.0
  0
LINE
  5
3F
330
2
100
AcDbEntity
  8
GAIKEI
 62
     1
100
AcDbLine
 10
41.75845559004051
 20
42.04554620403172
 30
0.0
 11
41.75845559004051
 21
42.30412178824979
 31
0.0
  0
LINE
  5
40
330
2
100
AcDbEntity
  8
GAIKEI
 62
     1
100
AcDbLine
 10
41.64030394405677
 20
41.54700697831237
 30
0.0
 11
41.64030394405677
 21
40.91513602361345
 31
0.0
  0
LINE
  5
41
330
2
100
AcDbEntity
  8
GAIKEI
 62
     1
100
AcDbLine
 10
41.69001871586789
 20
41.54700697831237
 30
0.0
 11
41.55921700072105
 21
41.54700697831237
 31
0.0
  0
LINE
  5
42
330
2
100
AcDbEntity
  8
GAIKEI
 62
     1
100
AcDbLine
 10
41.75845559004051
 20
42.04554620403172
 30
0.0
 11
41.9578206800516
 21
42.04554620403172
 31
0.0
  0
LINE
  5
43
330
2
100
AcDbEntity
  8
GAIKEI
 62
     1
100
AcDbLine
 10
41.55921700072105
 20
41.54700697831237
 30
0.0
 11
41.55921700072105
 21
42.04554620403172
 31
0.0
  0
LINE
  5
44
330
2
100
AcDbEntity
  8
GAIKEI
 62
     1
100
AcDbLine
 10
41.9578206800516
 20
41.54700697831237
 30
0.0
 11
41.69001871586789
 21
41.54700697831237
 31
0.0
  0
LINE
  5
45
330
2
100
AcDbEntity
  8
GAIKEI
 62
     1
100
AcDbLine
 10
41.9578206800516
 20
42.04554620403172
 30
0.0
 11
41.9578206800516
 21
41.54700697831237
 31
0.0
  0
LINE
  5
46
330
2
100
AcDbEntity
  8
GAIKEI
 62
     1
100
AcDbLine
 10
41.55921700072105
 20
42.04554620403172
 30
0.0
 11
41.75845559004051
 21
42.04554620403172
 31
0.0
  0
LINE
  5
47
330
2
100
AcDbEntity
  8
GAIKEI
 62
     1
100
AcDbLine
 10
41.64030394405677
 20
40.91513602361345
 30
0.0
 11
41.75845559004051
 21
40.91513602361345
 31
0.0
  0
LINE
  5
48
330
2
100
AcDbEntity
  8
GAIKEI
 62
     1
100
AcDbLine
 10
41.64030394405677
 20
42.14404361540949
 30
0.0
 11
41.64030394405677
 21
42.04554620403172
 31
0.0
  0
LINE
  5
49
330
2
100
AcDbEntity
  8
GAIKEI
 62
     1
100
AcDbLine
 10
41.35238836990367
 20
44.03388407509408
 30
0.0
 11
41.63055354592893
 21
42.26856496595184
 31
0.0
  0
LINE
  5
4A
330
2
100
AcDbEntity
  8
GAIKEI
 62
     1
100
AcDbLine
 10
41.47054001588742
 20
44.05260617745551
 30
0.0
 11
41.74871251745929
 21
42.28656473486518
 31
0.0
  0
LINE
  5
4B
330
2
100
AcDbEntity
  8
GAIKEI
 62
     1
100
AcDbLine
 10
42.39057954612258
 20
43.94710460063492
 30
0.0
 11
41.91966813538567
 21
42.53875476328687
 31
0.0
  0
ARC
  5
4C
330
2
100
AcDbEntity
  8
GAIKEI
 62
     1
100
AcDbCircle
 10
40.84030394405675
 20
42.14404361540949
 30
0.0
 40
0.8
100
AcDbArc
 50
0.0
 51
8.954593975827881
  0
ARC
  5
4D
330
2
100
AcDbEntity
  8
GAIKEI
 62
     1
100
AcDbCircle
 10
40.95845559004049
 20
42.16208988332255
 30
0.0
 40
0.8
100
AcDbArc
 50
0.0
 51
8.951222656084189
  0
ARC
  5
4E
330
2
100
AcDbEntity
  8
GAIKEI
 62
     1
100
AcDbCircle
 10
42.67837824570705
 20
42.28506406874709
 30
0.0
 40
0.8
100
AcDbArc
 50
161.5115568545131
 51
180.0
  0
ARC
  5
4F
330
2
100
AcDbEntity
  8
GAIKEI
 62
     1
100
AcDbCircle
 10
42.55845559004046
 20
42.30412178824979
 30
0.0
 40
0.8
100
AcDbArc
 50
161.5085046575506
 51
180.0
  0
ARC
  5
50
330
2
100
AcDbEntity
  8
GAIKEI
 62
     1
100
AcDbCircle
 10
41.82061160683844
 20
44.58234273587748
 30
0.0
 40
0.4987885814692176
100
AcDbArc
 50
226.6500748166212
 51
210.3086396481689
  0
ARC
  5
51
330
2
100
AcDbEntity
  8
GAIKEI
 62
     1
100
AcDbCircle
 10
41.81524952408659
 20
44.58040063515153
 30
0.0
 40
0.3989621721123702
100
AcDbArc
 50
221.4168066028785
 51
202.2387875179888
  0
ARC
  5
52
330
2
100
AcDbEntity
  8
GAIKEI
 62
     1
100
AcDbCircle
 10
41.82061160683844
 20
44.58234273587748
 30
0.0
 40
0.7987885814692177
100
AcDbArc
 50
246.5325821179472
 51
235.6485638172461
  0
ARC
  5
53
330
2
100
AcDbEntity
  8
GAIKEI
 62
     1
100
AcDbCircle
 10
41.89297039090331
 20
44.11536029558334
 30
0.0
 40
0.5252854940321458
100
AcDbArc
 50
341.3181540747225
 51
352.5689689835049
  0
ARC
  5
54
330
2
100
AcDbEntity
  8
GAIKEI
 62
     1
100
AcDbCircle
 10
41.88225044699049
 20
44.11769823644408
 30
0.0
 40
0.4166440838253731
100
AcDbArc
 50
44.76691292759239
 51
180.0445150324537
  0
ARC
  5
55
330
2
100
AcDbEntity
  8
GAIKEI
 62
     1
100
AcDbCircle
 10
41.88242994440225
 20
44.11754175037606
 30
0.0
 40
0.5364931358318317
100
AcDbArc
 50
51.70912468745434
 51
180.0178584427538
  0
ARC
  5
56
330
2
100
AcDbEntity
  8
GAIKEI
 62
     1
100
AcDbCircle
 10
41.87454538792116
 20
44.11595209921109
 30
0.0
 40
0.408941372858246
100
AcDbArc
 50
179.8007060654574
 51
188.9111247060063
  0
ARC
  5
57
330
2
100
AcDbEntity
  8
GAIKEI
 62
     1
100
AcDbCircle
 10
42.0537335448202
 20
44.13007342162063
 30
0.0
 40
0.7079106191913358
100
AcDbArc
 50
181.0278583376043
 51
187.8093825963765
  0
ARC
  5
58
330
2
100
AcDbEntity
  8
GAIKEI
 62
     1
100
AcDbCircle
 10
40.713755869919
 20
44.10704203085453
 30
0.0
 40
0.4055516200892335
100
AcDbArc
 50
23.52572962033655
 51
54.76822853994731
  0
ARC
  5
59
330
2
100
AcDbEntity
  8
GAIKEI
 62
     1
100
AcDbCircle
 10
40.30062856688016
 20
43.88584809610546
 30
0.0
 40
1.171601863741605
100
AcDbArc
 50
24.62587282864969
 51
44.54337194440518
  0
ARC
  5
5A
330
2
100
AcDbEntity
  8
GAIKEI
 62
     1
100
AcDbCircle
 10
42.529830592542
 20
46.1202092942255
 30
0.0
 40
1.194293473109997
100
AcDbArc
 50
214.9663875717974
 51
245.1749662203257
  0
ARC
  5
5B
330
2
100
AcDbEntity
  8
GAIKEI
 62
     1
100
AcDbCircle
 10
42.28901267735113
 20
45.68075921826499
 30
0.0
 40
0.3958288777396075
100
AcDbArc
 50
214.8424871915204
 51
246.8311853807616
  0
ARC
  5
5C
330
2
100
AcDbEntity
  8
GAIKEI
 62
     1
100
AcDbCircle
 10
40.28041260223131
 20
43.87128224373333
 30
0.0
 40
1.196233414442227
100
AcDbArc
 50
44.36140689905154
 51
54.99158789799761
  0
ARC
  5
5D
330
2
100
AcDbEntity
  8
GAIKEI
 62
     1
100
AcDbCircle
 10
41.45358665177787
 20
45.87968580037591
 30
0.0
 40
0.1745447041906593
100
AcDbArc
 50
215.0924014478003
 51
35.01750761426764
  0
ARC
  5
5E
330
2
100
AcDbEntity
  8
GAIKEI
 62
     1
100
AcDbCircle
 10
39.66738545234859
 20
46.73501497893704
 30
0.0
 40
0.7976788644665152
100
AcDbArc
 50
34.97212619753978
 51
235.0213492019432
  0
ARC
  5
5F
330
2
100
AcDbEntity
  8
GAIKEI
 62
     1
100
AcDbCircle
 10
39.66739935698172
 20
46.73467364181618
 30
0.0
 40
1.147014473285058
100
AcDbArc
 50
34.99410476730505
 51
235.0058952326936
  0
TEXT
  5
60
330
2
100
AcDbEntity
  8
MOJI1
100
AcDbText
 10
-21.42160170568049
 20
-56.48908536628858
 30
0.0
 40
3.0
  1
－４０℃～＋５０℃
 41
0.9
100
AcDbText
  0
TEXT
  5
61
330
2
100
AcDbEntity
  8
MOJI1
100
AcDbText
 10
-61.42160170568049
 20
-56.48908536628858
 30
0.0
 40
3.0
  1
使用温度範囲
100
AcDbText
  0
DIMENSION
  5
62
330
2
100
AcDbEntity
  8
SUNPO
100
AcDbDimension
  2
*D8
 10
32.92377155138978
 20
2.323130132384505
 30
0.0
 11
24.91172374622335
 21
4.073130132384505
 31
0.0
 70
    33
  1
160
 71
     5
 42
16.02409561033286
  3
STANDARD
100
AcDbAlignedDimension
 13
16.89967594105691
 23
10.3231301323845
 33
0.0
 14
32.92377155138978
 24
10.3231301323845
 34
0.0
1001
ACAD
1000
DSTYLE
1002
{
1070
   287
1070
     3
1070
   287
1070
     3
1070
    40
1040
1.0
1070
   140
1040
2.5
1070
   147
1040
0.5
1070
   172
1070
     1
1070
   279
1070
     0
1070
   288
1070
     0
1002
}
  0
DIMENSION
  5
78
330
2
100
AcDbEntity
  8
SUNPO
100
AcDbDimension
  2
*D7
 10
-2.813955760216913
 20
19.66434045654324
 30
0.0
 11
-4.563955760216916
 21
33.26484984841673
 31
0.0
 70
    33
  1
272
 71
     5
 42
27.20101878374698
  3
STANDARD
100
AcDbAlignedDimension
 13
-10.81395576021691
 23
46.86535924029022
 33
0.0
 14
-10.8139557602169
 24
19.66434045654324
 34
0.0
1001
ACAD
1000
DSTYLE
1002
{
1070
   287
1070
     3
1070
   287
1070
     3
1070
    40
1040
1.0
1070
   140
1040
2.5
1070
   147
1040
0.5
1070
   172
1070
     1
1070
   279
1070
     0
1070
   288
1070
     0
1002
}
  0
DIMENSION
  5
85
330
2
100
AcDbEntity
  8
SUNPO
100
AcDbDimension
  2
*D6
 10
-2.813955760216906
 20
10.81536407554347
 30
0.0
 11
-4.563955760216908
 21
3.732030742210136
 31
0.0
 70
    33
  1
88.5
 71
     5
 42
8.84897638099977
  3
STANDARD
100
AcDbAlignedDimension
 13
-10.8139557602169
 23
19.66434045654324
 33
0.0
 14
-10.8139557602169
 24
10.81536407554347
 34
0.0
1001
ACAD
1000
DSTYLE
1002
{
1070
   287
1070
     3
1070
   287
1070
     3
1070
    40
1040
1.0
1070
   140
1040
2.5
1070
   147
1040
0.5
1070
   172
1070
     1
1070
   279
1070
     0
1070
   288
1070
     0
1002
}
  0
DIMENSION
  5
93
330
2
100
AcDbEntity
  8
SUNPO
100
AcDbDimension
  2
*D5
 10
-10.87194781595241
 20
2.609047840127459
 30
0.0
 11
-22.82196215160445
 21
4.359047840127459
 31
0.0
 70
    33
  1
φ239
 71
     5
 42
23.90002867130409
  3
STANDARD
100
AcDbAlignedDimension
 13
-34.77197648725649
 23
10.60904784012746
 33
0.0
 14
-10.87194781595241
 24
10.60904784012746
 34
0.0
1001
ACAD
1000
DSTYLE
1002
{
1070
   287
1070
     3
1070
   287
1070
     3
1070
    40
1040
1.0
1070
   140
1040
2.5
1070
   147
1040
0.5
1070
   172
1070
     1
1070
   279
1070
     0
1070
   288
1070
     0
1002
}
  0
ARC
  5
A0
330
2
100
AcDbEntity
  8
GAIKEI
 62
     1
100
AcDbCircle
 10
34.08817370390648
 20
37.03978666247122
 30
0.0
 40
0.2
100
AcDbArc
 50
90.0
 51
135.0209032385832
  0
ARC
  5
A1
330
2
100
AcDbEntity
  8
GAIKEI
 62
     1
100
AcDbCircle
 10
34.03848040550173
 20
37.15920331537126
 30
0.0
 40
0.2
100
AcDbArc
 50
89.99999999999982
 51
135.000000000004
  0
ARC
  5
A2
330
2
100
AcDbEntity
  8
GAIKEI
 62
     1
100
AcDbCircle
 10
24.88433174347625
 20
17.42468929705473
 30
0.0
 40
6.022677305431433
100
AcDbArc
 50
226.2122228980881
 51
270.2605903456387
  0
ARC
  5
A3
330
2
100
AcDbEntity
  8
GAIKEI
 62
     1
100
AcDbCircle
 10
24.90723377916038
 20
18.33635693239449
 30
0.0
 40
6.376162993194777
100
AcDbArc
 50
239.1959207598984
 51
270.0403465508008
  0
LINE
  5
A4
330
2
100
AcDbEntity
  8
GAIKEI
 62
     1
100
AcDbLine
 10
18.17910393621685
 20
19.28306737196618
 30
0.0
 11
18.17910393621685
 21
18.20958250278209
 31
0.0
  0
LINE
  5
A5
330
2
100
AcDbEntity
  8
GAIKEI
 62
     1
100
AcDbLine
 10
18.27929248398891
 20
17.65728048311934
 30
0.0
 11
18.27929248398891
 21
17.98643528274425
 31
0.0
  0
LINE
  5
A6
330
2
100
AcDbEntity
  8
GAIKEI
 62
     1
100
AcDbLine
 10
18.34760285746989
 20
18.38567146553299
 30
0.0
 11
18.34760285746989
 21
18.20958250278209
 31
0.0
  0
LINE
  5
A7
330
2
100
AcDbEntity
  8
GAIKEI
 62
     1
100
AcDbLine
 10
18.45006841769134
 20
17.69219467400961
 30
0.0
 11
18.45006841769134
 21
17.98643528274425
 31
0.0
  0
LINE
  5
A8
330
2
100
AcDbEntity
  8
GAIKEI
 62
     1
100
AcDbLine
 10
18.45158642599091
 20
18.38567146553299
 30
0.0
 11
18.45158642599091
 21
18.20958250278209
 31
0.0
  0
LINE
  5
A9
330
2
100
AcDbEntity
  8
GAIKEI
 62
     1
100
AcDbLine
 10
18.52343881883752
 20
18.20958250278209
 30
0.0
 11
18.52343881883752
 21
19.28306737196618
 31
0.0
  0
LINE
  5
AA
330
2
100
AcDbEntity
  8
GAIKEI
 62
     1
100
AcDbLine
 10
18.55506399174538
 20
17.69219467400961
 30
0.0
 11
18.55506399174538
 21
17.98643528274425
 31
0.0
  0
LINE
  5
AB
330
2
100
AcDbEntity
  8
GAIKEI
 62
     1
100
AcDbLine
 10
18.70686482170305
 20
17.98643528274425
 30
0.0
 11
18.70686482170305
 21
19.28306737196618
 31
0.0
  0
LINE
  5
AC
330
2
100
AcDbEntity
  8
GAIKEI
 62
     1
100
AcDbLine
 10
18.45158642599091
 20
18.38567146553299
 30
0.0
 11
18.34760285746989
 21
18.38567146553299
 31
0.0
  0
LINE
  5
AD
330
2
100
AcDbEntity
  8
GAIKEI
 62
     1
100
AcDbLine
 10
18.78630725604756
 20
17.36557505151103
 30
0.0
 11
18.78630725604756
 21
19.28306737196618
 31
0.0
  0
LINE
  5
AE
330
2
100
AcDbEntity
  8
GAIKEI
 62
     1
100
AcDbLine
 10
18.17910393621685
 20
18.20958250278209
 30
0.0
 11
18.34760285746989
 21
18.20958250278209
 31
0.0
  0
LINE
  5
AF
330
2
100
AcDbEntity
  8
GAIKEI
 62
     1
100
AcDbLine
 10
18.70686482170305
 20
17.98643528274425
 30
0.0
 11
18.55506399174538
 21
17.98643528274425
 31
0.0
  0
LINE
  5
B0
330
2
100
AcDbEntity
  8
GAIKEI
 62
     1
100
AcDbLine
 10
18.45006841769134
 20
17.98643528274425
 30
0.0
 11
18.27929248398891
 21
17.98643528274425
 31
0.0
  0
LINE
  5
B1
330
2
100
AcDbEntity
  8
GAIKEI
 62
     1
100
AcDbLine
 10
18.45006841769134
 20
17.69219467400961
 30
0.0
 11
18.55506399174538
 21
17.69219467400961
 31
0.0
  0
LINE
  5
B2
330
2
100
AcDbEntity
  8
GAIKEI
 62
     1
100
AcDbLine
 10
18.27929248398891
 20
17.65728048311934
 30
0.0
 11
18.48852462794724
 21
17.65728048311934
 31
0.0
  0
LINE
  5
B3
330
2
100
AcDbEntity
  8
GAIKEI
 62
     1
100
AcDbLine
 10
18.32888075510846
 20
17.60870421753293
 30
0.0
 11
18.53811289906679
 21
17.60870421753293
 31
0.0
  0
LINE
  5
B4
330
2
100
AcDbEntity
  8
GAIKEI
 62
     1
100
AcDbLine
 10
18.27929248398891
 20
17.65728048311934
 30
0.0
 11
18.32888075510846
 21
17.60870421753293
 31
0.0
  0
LINE
  5
B5
330
2
100
AcDbEntity
  8
GAIKEI
 62
     1
100
AcDbLine
 10
18.48852462794724
 20
17.65728048311934
 30
0.0
 11
18.78630725604756
 21
17.36557505151103
 31
0.0
  0
LINE
  5
B6
330
2
100
AcDbEntity
  8
GAIKEI
 62
     1
100
AcDbLine
 10
18.45158642599091
 20
18.20958250278209
 30
0.0
 11
18.52343881883752
 21
18.20958250278209
 31
0.0
  0
LINE
  5
B7
330
2
100
AcDbEntity
  8
GAIKEI
 62
     1
100
AcDbLine
 10
18.8943388467008
 20
19.28306737196618
 30
0.0
 11
18.9022627016173
 21
16.35158361651503
 31
0.0
  0
ARC
  5
B8
330
2
100
AcDbEntity
  8
GAIKEI
 62
     1
100
AcDbCircle
 10
26.34734619977002
 20
18.33670405169624
 30
0.0
 40
7.705191200524453
100
AcDbArc
 50
194.9297275412146
 51
223.0498927489381
  0
ARC
  5
B9
330
2
100
AcDbEntity
  8
GAIKEI
 62
     1
100
AcDbCircle
 10
24.71993980275437
 20
18.09540887133931
 30
0.0
 40
6.073408711132298
100
AcDbArc
 50
196.6858901306188
 51
239.7603062496753
  0
ARC
  5
BA
330
2
100
AcDbEntity
  8
GAIKEI
 62
     1
100
AcDbCircle
 10
24.91621371328625
 20
18.33635693239449
 30
0.0
 40
6.376162993194777
100
AcDbArc
 50
269.9596534491992
 51
300.8040792401016
  0
ARC
  5
BB
330
2
100
AcDbEntity
  8
GAIKEI
 62
     1
100
AcDbCircle
 10
25.10350768969227
 20
18.09540887133931
 30
0.0
 40
6.073408711132298
100
AcDbArc
 50
300.2396937503247
 51
343.3141098693813
  0
ARC
  5
BC
330
2
100
AcDbEntity
  8
GAIKEI
 62
     1
100
AcDbCircle
 10
24.93911574897038
 20
17.42468929705473
 30
0.0
 40
6.022677305431433
100
AcDbArc
 50
269.7394096543613
 51
313.7877771019119
  0
ARC
  5
BD
330
2
100
AcDbEntity
  8
GAIKEI
 62
     1
100
AcDbCircle
 10
23.47610129267668
 20
18.33670405169624
 30
0.0
 40
7.705191200524453
100
AcDbArc
 50
316.9501072510619
 51
345.0702724587854
  0
LINE
  5
BE
330
2
100
AcDbEntity
  8
GAIKEI
 62
     1
100
AcDbLine
 10
31.37186106645572
 20
18.20958250278209
 30
0.0
 11
31.30000867360911
 21
18.20958250278209
 31
0.0
  0
LINE
  5
BF
330
2
100
AcDbEntity
  8
GAIKEI
 62
     1
100
AcDbLine
 10
31.33492286449939
 20
17.65728048311934
 30
0.0
 11
31.03714023639907
 21
17.36557505151103
 31
0.0
  0
LINE
  5
C0
330
2
100
AcDbEntity
  8
GAIKEI
 62
     1
100
AcDbLine
 10
30.92917908409089
 20
19.3091265144422
 30
0.0
 11
30.92118479082933
 21
16.35158361651503
 31
0.0
  0
LINE
  5
C1
330
2
100
AcDbEntity
  8
GAIKEI
100
AcDbLine
 10
14.23999889950664
 20
20.1881798205888
 30
0.0
 11
14.23999889950664
 21
20.34769719273601
 31
0.0
  0
LINE
  5
C2
330
2
100
AcDbEntity
  8
GAIKEI
100
AcDbLine
 10
14.23999889950664
 20
20.1881798205888
 30
0.0
 11
14.4303824404119
 21
20.1881798205888
 31
0.0
  0
ARC
  5
C3
330
2
100
AcDbEntity
  8
GAIKEI
100
AcDbCircle
 10
17.34588289186757
 20
20.9534830994856
 30
0.0
 40
3.007909361672164
100
AcDbArc
 50
194.7398303351658
 51
204.6385653967506
  0
ARC
  5
C4
330
2
100
AcDbEntity
  8
GAIKEI
100
AcDbCircle
 10
32.47756460057906
 20
20.9534830994856
 30
0.0
 40
3.007909361672164
100
AcDbArc
 50
335.3614346032494
 51
345.2601696648341
  0
ARC
  5
C5
330
2
100
AcDbEntity
  8
GAIKEI
100
AcDbCircle
 10
-32.40981264346823
 20
23.12220307805802
 30
0.0
 40
65.44476126189625
100
AcDbArc
 50
355.3066281732142
 51
356.6598244457537
  0
ARC
  5
C6
330
2
100
AcDbEntity
  8
GAIKEI
100
AcDbCircle
 10
24.94199741695565
 20
18.8489643192691
 30
0.0
 40
7.947457734105853
100
AcDbArc
 50
314.1957903375999
 51
352.1776735796046
  0
ARC
  5
C7
330
2
100
AcDbEntity
  8
GAIKEI
100
AcDbCircle
 10
24.92207835153732
 20
18.83689996203117
 30
0.0
 40
7.952726251192598
100
AcDbArc
 50
269.9253997519968
 51
314.35927195228
  0
ARC
  5
C8
330
2
100
AcDbEntity
  8
GAIKEI
100
AcDbCircle
 10
24.90136914090931
 20
18.83689996203117
 30
0.0
 40
7.952726251192598
100
AcDbArc
 50
225.6407280477199
 51
270.0746002480032
  0
ARC
  5
C9
330
2
100
AcDbEntity
  8
GAIKEI
100
AcDbCircle
 10
24.88145007549105
 20
18.8489643192691
 30
0.0
 40
7.947457734105853
100
AcDbArc
 50
187.8223264203954
 51
225.8042096624001
  0
ARC
  5
CA
330
2
100
AcDbEntity
  8
GAIKEI
100
AcDbCircle
 10
82.23326013591492
 20
23.12220307805802
 30
0.0
 40
65.44476126189625
100
AcDbArc
 50
183.3401755542463
 51
184.6933718267858
  0
LINE
  5
CB
330
2
100
AcDbEntity
  8
GAIKEI
100
AcDbLine
 10
15.46633737023614
 20
19.69950764881673
 30
0.0
 11
15.98633962879768
 21
19.49625544156396
 31
0.0
  0
LINE
  5
CC
330
2
100
AcDbEntity
  8
GAIKEI
100
AcDbLine
 10
15.98633962879768
 20
19.49625544156396
 30
0.0
 11
16.56110633441898
 21
19.3091265144422
 31
0.0
  0
ARC
  5
CD
330
2
100
AcDbEntity
  8
GAIKEI
 62
     1
100
AcDbCircle
 10
18.86762512106338
 20
21.18062822320229
 30
0.0
 40
1.79962810126059
100
AcDbArc
 50
235.3877362671011
 51
267.8696783105259
  0
ARC
  5
CE
330
2
100
AcDbEntity
  8
GAIKEI
 62
     1
100
AcDbCircle
 10
18.98178305507952
 20
19.44463784201008
 30
0.0
 40
0.036588548234881
100
AcDbArc
 50
319.1378988560388
 51
10.10959864636777
  0
ARC
  5
CF
330
2
100
AcDbEntity
  8
GAIKEI
 62
     1
100
AcDbCircle
 10
18.83140611399364
 20
20.14306054992989
 30
0.0
 40
0.7614348818684209
100
AcDbArc
 50
267.6909605975899
 51
277.7188783424553
  0
ARC
  5
D0
330
2
100
AcDbEntity
  8
GAIKEI
 62
     1
100
AcDbCircle
 10
18.94009405274596
 20
19.49187470410965
 30
0.0
 40
0.0993815330630986
100
AcDbArc
 50
297.7411536814946
 51
314.2604139571859
  0
ARC
  5
D1
330
2
100
AcDbEntity
  8
GAIKEI
 62
     1
100
AcDbCircle
 10
18.90540856620413
 20
19.58311691380055
 30
0.0
 40
0.1966343723822126
100
AcDbArc
 50
278.2654102171043
 51
294.3087998455164
  0
ARC
  5
D2
330
2
100
AcDbEntity
  8
GAIKEI
 62
     1
100
AcDbCircle
 10
18.93048190145265
 20
19.43165147005089
 30
0.0
 40
0.0894526001733724
100
AcDbArc
 50
12.53131869959004
 51
39.67218746992482
  0
ARC
  5
D3
330
2
100
AcDbEntity
  8
GAIKEI
 62
     1
100
AcDbCircle
 10
18.76615846350603
 20
19.2946541814037
 30
0.0
 40
0.3033926894193737
100
AcDbArc
 50
39.77510708122936
 51
54.24870289448676
  0
ARC
  5
D4
330
2
100
AcDbEntity
  8
GAIKEI
 62
     1
100
AcDbCircle
 10
18.13046383718262
 20
18.37399059146361
 30
0.0
 40
1.422153501699292
100
AcDbArc
 50
55.135457903312
 51
68.75653734584374
  0
ARC
  5
D5
330
2
100
AcDbEntity
  8
GAIKEI
 62
     1
100
AcDbCircle
 10
31.69298365526401
 20
18.37399059146361
 30
0.0
 40
1.422153501699292
100
AcDbArc
 50
111.2434626541564
 51
124.864542096688
  0
ARC
  5
D6
330
2
100
AcDbEntity
  8
GAIKEI
 62
     1
100
AcDbCircle
 10
31.0572890289406
 20
19.2946541814037
 30
0.0
 40
0.3033926894193737
100
AcDbArc
 50
125.7512971055132
 51
140.2248929187706
  0
ARC
  5
D7
330
2
100
AcDbEntity
  8
GAIKEI
 62
     1
100
AcDbCircle
 10
30.89296559099398
 20
19.43165147005089
 30
0.0
 40
0.0894526001733724
100
AcDbArc
 50
140.3278125300752
 51
167.4686813004099
  0
ARC
  5
D8
330
2
100
AcDbEntity
  8
GAIKEI
 62
     1
100
AcDbCircle
 10
30.91803892624251
 20
19.58311691380055
 30
0.0
 40
0.1966343723822126
100
AcDbArc
 50
245.6912001544835
 51
261.7345897828956
  0
ARC
  5
D9
330
2
100
AcDbEntity
  8
GAIKEI
 62
     1
100
AcDbCircle
 10
30.88335343970067
 20
19.49187470410965
 30
0.0
 40
0.0993815330630986
100
AcDbArc
 50
225.739586042814
 51
242.2588463185054
  0
ARC
  5
DA
330
2
100
AcDbEntity
  8
GAIKEI
 62
     1
100
AcDbCircle
 10
30.992041378453
 20
20.14306054992989
 30
0.0
 40
0.7614348818684209
100
AcDbArc
 50
262.2811216575446
 51
272.3090394024101
  0
ARC
  5
DB
330
2
100
AcDbEntity
  8
GAIKEI
 62
     1
100
AcDbCircle
 10
30.84166443736712
 20
19.44463784201008
 30
0.0
 40
0.036588548234881
100
AcDbArc
 50
169.8904013536322
 51
220.8621011439611
  0
ARC
  5
DC
330
2
100
AcDbEntity
  8
GAIKEI
 62
     1
100
AcDbCircle
 10
30.95582237138325
 20
21.18062822320229
 30
0.0
 40
1.79962810126059
100
AcDbArc
 50
272.130321689474
 51
304.6122637328988
  0
LINE
  5
DD
330
2
100
AcDbEntity
  8
GAIKEI
100
AcDbLine
 10
16.56110633441898
 20
19.3091265144422
 30
0.0
 11
33.24647239849998
 21
19.3091265144422
 31
0.0
  0
ARC
  5
DE
330
2
100
AcDbEntity
  8
GAIKEI
100
AcDbCircle
 10
33.24647239849998
 20
19.40912651444222
 30
0.0
 40
0.1
100
AcDbArc
 50
270.0
 51
288.0338872864451
  0
LINE
  5
DF
330
2
100
AcDbEntity
  8
GAIKEI
100
AcDbLine
 10
33.83710786364901
 20
19.49625544156396
 30
0.0
 11
33.27743034226518
 21
19.31403915609297
 31
0.0
  0
LINE
  5
E0
330
2
100
AcDbEntity
  8
GAIKEI
100
AcDbLine
 10
34.35711012221054
 20
19.69950764881673
 30
0.0
 11
33.83710786364901
 21
19.49625544156396
 31
0.0
  0
ARC
  5
E1
330
2
100
AcDbEntity
  8
GAIKEI
100
AcDbCircle
 10
-6.675308978100076
 20
20.94508939224198
 30
0.0
 40
43.21724979929718
100
AcDbArc
 50
10.00554855145694
 51
12.03168114390389
  0
LINE
  5
E2
330
2
100
AcDbEntity
  8
GAIKEI
 62
     1
100
AcDbLine
 10
29.3549340390847
 20
34.04071067180467
 30
0.0
 11
33.69947379247355
 21
34.04071067180467
 31
0.0
  0
LINE
  5
E3
330
2
100
AcDbEntity
  8
GAIKEI
 62
     1
100
AcDbLine
 10
29.87232186785713
 20
32.14585681185793
 30
0.0
 11
29.3549340390847
 21
34.04071067180467
 31
0.0
  0
LINE
  5
E4
330
2
100
AcDbEntity
  8
GAIKEI
 62
     1
100
AcDbLine
 10
34.21964463646185
 20
32.14585681185793
 30
0.0
 11
29.87232186785713
 21
32.14585681185793
 31
0.0
  0
LINE
  5
E5
330
2
100
AcDbEntity
  8
GAIKEI
 62
     1
100
AcDbLine
 10
33.69947379247355
 20
34.04071067180467
 30
0.0
 11
34.21964463646185
 21
32.14585681185793
 31
0.0
  0
LINE
  5
E6
330
2
100
AcDbEntity
  8
GAIKEI
100
AcDbLine
 10
35.11552253459547
 20
30.50046231580831
 30
0.0
 11
35.59256538758791
 21
29.95383385644277
 31
0.0
  0
LINE
  5
E7
330
2
100
AcDbEntity
  8
GAIKEI
100
AcDbLine
 10
33.98840137215967
 20
34.62190117698117
 30
0.0
 11
35.11552253459547
 21
30.50046231580825
 31
0.0
  0
LINE
  5
E8
330
2
100
AcDbEntity
  8
GAIKEI
100
AcDbLine
 10
33.98840137215967
 20
35.60033769892823
 30
0.0
 11
33.98840137215967
 21
34.62190117698117
 31
0.0
  0
ARC
  5
E9
330
2
100
AcDbEntity
  8
GAIKEI
100
AcDbCircle
 10
-6.675308978100076
 20
20.94508939224198
 30
0.0
 40
43.21724979929718
100
AcDbArc
 50
19.79439805496044
 51
21.01806772075268
  0
ARC
  5
EA
330
2
100
AcDbEntity
  8
GAIKEI
100
AcDbCircle
 10
36.54592975739331
 20
20.5289579470928
 30
0.0
 40
0.181796169136783
100
AcDbArc
 50
274.3984239779265
 51
350.2762361205055
  0
LINE
  5
EB
330
2
100
AcDbEntity
  8
GAIKEI
100
AcDbLine
 10
36.80860779139016
 20
20.75857143915482
 30
0.0
 11
36.72511415222982
 21
20.49825290255825
 31
0.0
  0
ARC
  5
EC
330
2
100
AcDbEntity
  8
GAIKEI
100
AcDbCircle
 10
-2.491616262963418
 20
19.23244709190288
 30
0.0
 40
39.32984447268598
100
AcDbArc
 50
2.223818659796534
 51
5.969910613614993
  0
ARC
  5
ED
330
2
100
AcDbEntity
  8
GAIKEI
100
AcDbCircle
 10
-17.96646602343213
 20
18.0652716068767
 30
0.0
 40
54.84399717788395
100
AcDbArc
 50
5.501215020595022
 51
10.91892318781864
  0
ARC
  5
EE
330
2
100
AcDbEntity
  8
GAIKEI
100
AcDbCircle
 10
56.4987564705467
 20
20.94508939224198
 30
0.0
 40
43.21724979929718
100
AcDbArc
 50
158.9819322792473
 51
169.994451448543
  0
ARC
  5
EF
330
2
100
AcDbEntity
  8
GAIKEI
100
AcDbCircle
 10
67.78991351587876
 20
18.0652716068767
 30
0.0
 40
54.84399717788395
100
AcDbArc
 50
169.0810768121813
 51
174.498784979405
  0
ARC
  5
F0
330
2
100
AcDbEntity
  8
GAIKEI
100
AcDbCircle
 10
52.31506375541005
 20
19.23244709190288
 30
0.0
 40
39.32984447268598
100
AcDbArc
 50
174.030089386385
 51
177.7761813402034
  0
LINE
  5
F1
330
2
100
AcDbEntity
  8
GAIKEI
100
AcDbLine
 10
13.01483970105647
 20
20.75857143915482
 30
0.0
 11
13.09789012044285
 21
20.48661483892812
 31
0.0
  0
ARC
  5
F2
330
2
100
AcDbEntity
  8
GAIKEI
100
AcDbCircle
 10
13.28833419636356
 20
20.54769719273605
 30
0.0
 40
0.2
100
AcDbArc
 50
197.7829386262065
 51
270.0
  0
ARC
  5
F3
330
2
100
AcDbEntity
  8
GAIKEI
 62
     1
100
AcDbCircle
 10
25.61000756402865
 20
37.88038616489263
 30
0.0
 40
0.7481250904305538
100
AcDbArc
 50
270.0193828746027
 51
89.98062040340739
  0
ARC
  5
F4
330
2
100
AcDbEntity
  8
GAIKEI
 62
     1
100
AcDbCircle
 10
25.63261485391134
 20
37.87961032309096
 30
0.0
 40
0.5499903235198174
100
AcDbArc
 50
263.1114230812009
 51
92.32942152366343
  0
ARC
  5
F5
330
2
100
AcDbEntity
  8
GAIKEI
 62
     1
100
AcDbCircle
 10
25.16181802010937
 20
37.5320056666705
 30
0.0
 40
0.2
100
AcDbArc
 50
180.0
 51
270.0000000000007
  0
ARC
  5
F6
330
2
100
AcDbEntity
  8
GAIKEI
 62
     1
100
AcDbCircle
 10
25.16181802010937
 20
38.22914616518966
 30
0.0
 40
0.2
100
AcDbArc
 50
90.0
 51
180.0
  0
LINE
  5
F7
330
2
100
AcDbEntity
  8
GAIKEI
 62
     1
100
AcDbLine
 10
25.9892566375396
 20
46.71608842416532
 30
0.0
 11
25.90930820042848
 21
46.71608842416532
 31
0.0
  0
LINE
  5
F8
330
2
100
AcDbEntity
  8
GAIKEI
 62
     1
100
AcDbLine
 10
27.29297276549278
 20
46.71608842416532
 30
0.0
 11
27.05363345692621
 21
46.71608842416532
 31
0.0
  0
LINE
  5
F9
330
2
100
AcDbEntity
  8
GAIKEI
 62
     1
100
AcDbLine
 10
26.1585145629424
 20
46.67130717932781
 30
0.0
 11
25.9892566375396
 21
46.67130717932781
 31
0.0
  0
LINE
  5
FA
330
2
100
AcDbEntity
  8
GAIKEI
 62
     1
100
AcDbLine
 10
26.25617309688187
 20
46.66612065097092
 30
0.0
 11
26.1585145629424
 21
46.66612065097092
 31
0.0
  0
LINE
  5
FB
330
2
100
AcDbEntity
  8
GAIKEI
 62
     1
100
AcDbLine
 10
26.25617309688187
 20
45.96808983454883
 30
0.0
 11
26.1585145629424
 21
45.96808983454883
 31
0.0
  0
LINE
  5
FC
330
2
100
AcDbEntity
  8
GAIKEI
 62
     1
100
AcDbLine
 10
26.1585145629424
 20
45.96315630757522
 30
0.0
 11
25.9892566375396
 21
45.96315630757522
 31
0.0
  0
LINE
  5
FD
330
2
100
AcDbEntity
  8
GAIKEI
 62
     1
100
AcDbLine
 10
25.9892566375396
 20
45.91812206135443
 30
0.0
 11
25.90930820042848
 21
45.91812206135443
 31
0.0
  0
LINE
  5
FE
330
2
100
AcDbEntity
  8
GAIKEI
 62
     1
100
AcDbLine
 10
26.70859921070536
 20
45.86840728954331
 30
0.0
 11
25.90930820042848
 21
45.86840728954331
 31
0.0
  0
LINE
  5
FF
330
2
100
AcDbEntity
  8
GAIKEI
 62
     1
100
AcDbLine
 10
25.90930820042848
 20
45.86840728954331
 30
0.0
 11
25.90930820042848
 21
46.81577096917084
 31
0.0
  0
LINE
  5
100
330
2
100
AcDbEntity
  8
GAIKEI
 62
     1
100
AcDbLine
 10
25.98925663753954
 20
46.71608842416532
 30
0.0
 11
25.98925663753954
 21
45.91812206135443
 31
0.0
  0
LINE
  5
101
330
2
100
AcDbEntity
  8
GAIKEI
 62
     1
100
AcDbLine
 10
26.1585145629424
 20
46.67130717932781
 30
0.0
 11
26.1585145629424
 21
45.96315630757522
 31
0.0
  0
LINE
  5
102
330
2
100
AcDbEntity
  8
GAIKEI
 62
     1
100
AcDbLine
 10
27.00859921070543
 20
46.76055833146103
 30
0.0
 11
27.00859921070537
 21
46.16840728954332
 31
0.0
  0
LINE
  5
103
330
2
100
AcDbEntity
  8
GAIKEI
100
AcDbLine
 10
27.29297276549278
 20
43.46577120249389
 30
0.0
 11
27.29297276549278
 21
46.71608842416532
 31
0.0
  0
ARC
  5
104
330
2
100
AcDbEntity
  8
GAIKEI
 62
     1
100
AcDbCircle
 10
26.70859921070536
 20
46.16840728954332
 30
0.0
 40
0.3
100
AcDbArc
 50
270.0
 51
0.0
  0
ARC
  5
105
330
2
100
AcDbEntity
  8
GAIKEI
 62
     1
100
AcDbCircle
 10
26.25611166612856
 20
46.09784724839085
 30
0.0
 40
0.1297574283835351
100
AcDbArc
 50
270.0271254067693
 51
343.3008085153704
  0
ARC
  5
106
330
2
100
AcDbEntity
  8
GAIKEI
 62
     1
100
AcDbCircle
 10
25.4361514259395
 20
46.32512099278557
 30
0.0
 40
0.9806073763156025
100
AcDbArc
 50
344.3481629309512
 51
356.6249193728215
  0
ARC
  5
107
330
2
100
AcDbEntity
  8
GAIKEI
 62
     1
100
AcDbCircle
 10
25.60494453520681
 20
46.31723174345149
 30
0.0
 40
0.794979278166566
100
AcDbArc
 50
356.4054803008194
 51
3.594519699183834
  0
ARC
  5
108
330
2
100
AcDbEntity
  8
GAIKEI
 62
     1
100
AcDbCircle
 10
25.4361514259395
 20
46.30934249411746
 30
0.0
 40
0.9806073763156025
100
AcDbArc
 50
3.375080627178491
 51
15.65183706904882
  0
ARC
  5
109
330
2
100
AcDbEntity
  8
GAIKEI
 62
     1
100
AcDbCircle
 10
26.25611166612856
 20
46.53661623851218
 30
0.0
 40
0.1297574283835351
100
AcDbArc
 50
16.69919148462964
 51
89.97287459323066
  0
LINE
  5
10A
330
2
100
AcDbEntity
  8
GAIKEI
 62
     1
100
AcDbLine
 10
26.4150579655709
 20
46.26739047094872
 30
0.0
 11
26.39835987427551
 21
46.26739047094872
 31
0.0
  0
LINE
  5
10B
330
2
100
AcDbEntity
  8
GAIKEI
 62
     1
100
AcDbLine
 10
26.4150579655709
 20
46.3670730159543
 30
0.0
 11
26.39835987427551
 21
46.3670730159543
 31
0.0
  0
LINE
  5
10C
330
2
100
AcDbEntity
  8
GAIKEI
100
AcDbLine
 10
27.29297276549278
 20
46.71608842416532
 30
0.0
 11
27.18075188289953
 21
46.82690303003442
 31
0.0
  0
LINE
  5
10D
330
2
100
AcDbEntity
  8
GAIKEI
 62
     1
100
AcDbLine
 10
27.05363345692621
 20
46.71608842416532
 30
0.0
 11
26.95268590500433
 21
46.81577096917084
 31
0.0
  0
LINE
  5
10E
330
2
100
AcDbEntity
  8
GAIKEI
 62
     1
100
AcDbLine
 10
25.5100720176398
 20
43.46577120249389
 30
0.0
 11
25.5100720176398
 21
46.81577096917084
 31
0.0
  0
LINE
  5
10F
330
2
100
AcDbEntity
  8
GAIKEI
100
AcDbLine
 10
33.15602682122511
 20
36.69494818361477
 30
0.0
 11
33.66658361264945
 21
36.44548881971764
 31
0.0
  0
LINE
  5
110
330
2
100
AcDbEntity
  8
GAIKEI
100
AcDbLine
 10
33.48688250022173
 20
36.69494818361477
 30
0.0
 11
33.12364264416743
 21
36.69494818361477
 31
0.0
  0
ARC
  5
111
330
2
100
AcDbEntity
  8
GAIKEI
100
AcDbCircle
 10
16.11128013224385
 20
29.99850350500305
 30
0.0
 40
18.69128479927947
100
AcDbArc
 50
21.22378437568586
 51
45.87146134481432
  0
ARC
  5
112
330
2
100
AcDbEntity
  8
GAIKEI
100
AcDbCircle
 10
33.48688250022173
 20
36.74635487727477
 30
0.0
 40
0.05140669366
100
AcDbArc
 50
269.9999999999535
 51
21.22378437569635
  0
ARC
  5
113
330
2
100
AcDbEntity
  8
GAIKEI
100
AcDbCircle
 10
28.97207015879582
 20
43.25658886195748
 30
0.0
 40
0.2203144014
100
AcDbArc
 50
45.87146134481445
 51
89.99999999998916
  0
ARC
  5
114
330
2
100
AcDbEntity
  8
GAIKEI
100
AcDbCircle
 10
20.85137733365087
 20
43.25658886195748
 30
0.0
 40
0.2203144014
100
AcDbArc
 50
90.00000000001078
 51
134.1285386551855
  0
ARC
  5
115
330
2
100
AcDbEntity
  8
GAIKEI
100
AcDbCircle
 10
16.33656499222496
 20
36.74635487727477
 30
0.0
 40
0.05140669366
100
AcDbArc
 50
158.7762156243036
 51
270.0000000000465
  0
ARC
  5
116
330
2
100
AcDbEntity
  8
GAIKEI
100
AcDbCircle
 10
33.7121673602029
 20
29.99850350500305
 30
0.0
 40
18.69128479927947
100
AcDbArc
 50
134.1285386551856
 51
158.7762156243141
  0
LINE
  5
117
330
2
100
AcDbEntity
  8
GAIKEI
100
AcDbLine
 10
22.6053631363996
 20
46.72772648779539
 30
0.0
 11
22.54894382793202
 21
43.47690326335748
 31
0.0
  0
LINE
  5
118
330
2
100
AcDbEntity
  8
GAIKEI
 62
     1
100
AcDbLine
 10
22.77512706456895
 20
46.72772648779539
 30
0.0
 11
22.77512706456895
 21
43.47690326335748
 31
0.0
  0
LINE
  5
119
330
2
100
AcDbEntity
  8
GAIKEI
100
AcDbLine
 10
16.69980484827926
 20
36.69494818361477
 30
0.0
 11
33.15931583920747
 21
36.69494818361477
 31
0.0
  0
LINE
  5
11A
330
2
100
AcDbEntity
  8
GAIKEI
100
AcDbLine
 10
16.33656499222502
 20
36.69494818361477
 30
0.0
 11
16.69980484827926
 21
36.69494818361477
 31
0.0
  0
LINE
  5
11B
330
2
100
AcDbEntity
  8
GAIKEI
100
AcDbLine
 10
27.28259970877906
 20
43.47690326335748
 30
0.0
 11
28.98099799462227
 21
43.47690326335748
 31
0.0
  0
LINE
  5
11C
330
2
100
AcDbEntity
  8
GAIKEI
100
AcDbLine
 10
22.54717281824918
 20
43.47690326335748
 30
0.0
 11
27.28259970877906
 21
43.47690326335748
 31
0.0
  0
LINE
  5
11D
330
2
100
AcDbEntity
  8
GAIKEI
100
AcDbLine
 10
27.18075188289953
 20
46.82690303003442
 30
0.0
 11
22.70681669108796
 21
46.82690303003442
 31
0.0
  0
LINE
  5
11E
330
2
100
AcDbEntity
  8
GAIKEI
100
AcDbLine
 10
20.85137733365082
 20
43.47690326335748
 30
0.0
 11
22.54717281824918
 21
43.47690326335748
 31
0.0
  0
LINE
  5
11F
330
2
100
AcDbEntity
  8
GAIKEI
100
AcDbLine
 10
22.70681669108796
 20
46.82690303003442
 30
0.0
 11
22.60536313639966
 21
46.72772648779539
 31
0.0
  0
LINE
  5
120
330
2
100
AcDbEntity
  8
GAIKEI
100
AcDbLine
 10
16.66742067122157
 20
36.69494818361477
 30
0.0
 11
16.1568638797973
 21
36.44548881971764
 31
0.0
  0
LINE
  5
121
330
2
100
AcDbEntity
  8
GAIKEI
100
AcDbLine
 10
16.1568638797973
 20
36.44548881971764
 30
0.0
 11
33.66658361264939
 21
36.44548881971764
 31
0.0
  0
LINE
  5
122
330
2
100
AcDbEntity
  8
GAIKEI
 62
     1
100
AcDbLine
 10
22.60536313639966
 20
46.72772648779539
 30
0.0
 11
23.83267284660746
 21
46.72772648779539
 31
0.0
  0
LINE
  5
123
330
2
100
AcDbEntity
  8
GAIKEI
 62
     1
100
AcDbLine
 10
23.83267284660746
 20
46.72772648779539
 30
0.0
 11
25.90930820042848
 21
46.72772648779539
 31
0.0
  0
LINE
  5
124
330
2
100
AcDbEntity
  8
GAIKEI
 62
     1
100
AcDbLine
 10
23.83267284660746
 20
46.72772648779539
 30
0.0
 11
23.83267284660746
 21
43.47690326335748
 31
0.0
  0
ELLIPSE
  5
125
330
2
100
AcDbEntity
  8
GAIKEI
 62
     1
100
AcDbEllipse
 10
-22.8181671308555
 20
13.91429996331442
 30
0.0
 11
0.1579401784426798
 21
-0.0000000000000137
 31
0.0
210
0.0
220
0.0
230
1.0
 40
0.8275887111205866
 41
0.0
 42
6.283185307179586
  0
ARC
  5
126
330
2
100
AcDbEntity
  8
GAIKEI
 62
     1
100
AcDbCircle
 10
-20.57436231630885
 20
18.09250731594255
 30
0.0
 40
0.1
100
AcDbArc
 50
270.0
 51
0.0
  0
ARC
  5
127
330
2
100
AcDbEntity
  8
GAIKEI
 62
     1
100
AcDbCircle
 10
-20.79295551144793
 20
18.31590753736361
 30
0.0
 40
0.1
100
AcDbArc
 50
270.0
 51
0.0
  0
ARC
  5
128
330
2
100
AcDbEntity
  8
GAIKEI
 62
     1
100
AcDbCircle
 10
-25.06197194540209
 20
18.09250731594255
 30
0.0
 40
0.1
100
AcDbArc
 50
180.0
 51
270.0
  0
ARC
  5
129
330
2
100
AcDbEntity
  8
GAIKEI
 62
     1
100
AcDbCircle
 10
-24.8431257488798
 20
18.31590753736361
 30
0.0
 40
0.1
100
AcDbArc
 50
180.0
 51
269.9999999999975
  0
LINE
  5
12A
330
2
100
AcDbEntity
  8
GAIKEI
 62
     1
100
AcDbLine
 10
-21.16312226625388
 20
17.66335251631767
 30
0.0
 11
-20.56164779353458
 21
17.44425331841205
 31
0.0
  0
LINE
  5
12B
330
2
100
AcDbEntity
  8
GAIKEI
 62
     1
100
AcDbLine
 10
-24.47229017462774
 20
17.66335251631767
 30
0.0
 11
-25.07643994310991
 21
17.44425331841205
 31
0.0
  0
ARC
  5
12C
330
2
100
AcDbEntity
  8
GAIKEI
 62
     1
100
AcDbCircle
 10
-22.8214816596169
 20
17.0980694811285
 30
0.0
 40
1.898572452507345
100
AcDbArc
 50
359.9812238542484
 51
13.59933239350501
  0
ARC
  5
12D
330
2
100
AcDbEntity
  8
GAIKEI
 62
     1
100
AcDbCircle
 10
-22.81771501024611
 20
17.09729465663815
 30
0.0
 40
1.894805729110204
100
AcDbArc
 50
251.8823579343343
 51
0.0078406162318096
  0
ARC
  5
12E
330
2
100
AcDbEntity
  8
GAIKEI
 62
     1
100
AcDbCircle
 10
-22.81895415713524
 20
17.09711395658433
 30
0.0
 40
1.894249029568701
100
AcDbArc
 50
166.341142275557
 51
251.9209586851495
  0
ARC
  5
12F
330
2
100
AcDbEntity
  8
GAIKEI
 62
     1
100
AcDbCircle
 10
-22.8214816596169
 20
17.0980694811285
 30
0.0
 40
1.828822452507345
100
AcDbArc
 50
359.9812238542484
 51
15.06159663674296
  0
ARC
  5
130
330
2
100
AcDbEntity
  8
GAIKEI
 62
     1
100
AcDbCircle
 10
-22.81895415713524
 20
17.09711395658433
 30
0.0
 40
1.824499029568701
100
AcDbArc
 50
164.8738756380139
 51
251.9209586851495
  0
ARC
  5
131
330
2
100
AcDbEntity
  8
GAIKEI
 62
     1
100
AcDbCircle
 10
-22.81771501024611
 20
17.09729465663815
 30
0.0
 40
1.825055729110204
100
AcDbArc
 50
251.8823579343343
 51
0.0078406162318096
  0
ARC
  5
132
330
2
100
AcDbEntity
  8
GAIKEI
 62
     1
100
AcDbCircle
 10
-22.8214816596169
 20
17.0980694811285
 30
0.0
 40
1.669012452507345
100
AcDbArc
 50
359.9812238542484
 51
18.05269189883917
  0
ARC
  5
133
330
2
100
AcDbEntity
  8
GAIKEI
 62
     1
100
AcDbCircle
 10
-22.81771501024611
 20
17.09729465663815
 30
0.0
 40
1.665245729110204
100
AcDbArc
 50
251.8823579343343
 51
0.0078406162318096
  0
ARC
  5
134
330
2
100
AcDbEntity
  8
GAIKEI
 62
     1
100
AcDbCircle
 10
-22.81895415713524
 20
17.09711395658433
 30
0.0
 40
1.664689029568701
100
AcDbArc
 50
161.8641970863841
 51
251.9209586851495
  0
LINE
  5
135
330
2
100
AcDbEntity
  8
GAIKEI
 62
     1
100
AcDbLine
 10
-16.28567141500991
 20
19.30912651444214
 30
0.0
 11
-16.28567141500997
 21
16.37331937598458
 31
0.0
  0
ARC
  5
136
330
2
100
AcDbEntity
  8
GAIKEI
100
AcDbCircle
 10
-80.13970352054707
 20
23.12220307805796
 30
0.0
 40
65.44476126189625
100
AcDbArc
 50
355.3066281732142
 51
356.6598244457537
  0
ARC
  5
137
330
2
100
AcDbEntity
  8
GAIKEI
100
AcDbCircle
 10
-22.7878934601232
 20
18.84896431926904
 30
0.0
 40
7.947457734105853
100
AcDbArc
 50
314.1957903375999
 51
352.1776735796046
  0
ARC
  5
138
330
2
100
AcDbEntity
  8
GAIKEI
100
AcDbCircle
 10
-22.80781252554152
 20
18.83689996203111
 30
0.0
 40
7.952726251192598
100
AcDbArc
 50
269.9253997519968
 51
314.35927195228
  0
LINE
  5
139
330
2
100
AcDbEntity
  8
GAIKEI
 62
     1
100
AcDbLine
 10
-20.12522040740618
 20
11.97056839152128
 30
0.0
 11
-20.27474422491451
 21
14.3221383950405
 31
0.0
  0
ARC
  5
13A
330
2
100
AcDbEntity
  8
GAIKEI
 62
     1
100
AcDbCircle
 10
-22.81653384079147
 20
18.19317926053418
 30
0.0
 40
6.779679492710411
100
AcDbArc
 50
293.3887479610197
 51
344.4292191404106
  0
ARC
  5
13B
330
2
100
AcDbEntity
  8
GAIKEI
 62
     1
100
AcDbCircle
 10
-22.81829363154719
 20
17.09511218847001
 30
0.0
 40
5.681842591081675
100
AcDbArc
 50
243.9782290675575
 51
296.0274492172358
  0
LINE
  5
13C
330
2
100
AcDbEntity
  8
GAIKEI
 62
     1
100
AcDbLine
 10
-25.51111385430483
 20
11.97056839152128
 30
0.0
 11
-25.36159003679649
 21
14.32213839504084
 31
0.0
  0
ARC
  5
13D
330
2
100
AcDbEntity
  8
GAIKEI
100
AcDbCircle
 10
-22.82852173616953
 20
18.83689996203111
 30
0.0
 40
7.952726251192598
100
AcDbArc
 50
225.6407280477199
 51
270.0746002480032
  0
ARC
  5
13E
330
2
100
AcDbEntity
  8
GAIKEI
100
AcDbCircle
 10
-22.8484408015878
 20
18.84896431926904
 30
0.0
 40
7.947457734105853
100
AcDbArc
 50
187.8223264203954
 51
225.8042096624001
  0
ARC
  5
13F
330
2
100
AcDbEntity
  8
GAIKEI
100
AcDbCircle
 10
34.50336925883608
 20
23.12220307805796
 30
0.0
 40
65.44476126189625
100
AcDbArc
 50
183.3401755542463
 51
184.6933718267858
  0
ARC
  5
140
330
2
100
AcDbEntity
  8
GAIKEI
 62
     1
100
AcDbCircle
 10
-22.81980042091953
 20
18.19317926053418
 30
0.0
 40
6.779679492710411
100
AcDbArc
 50
195.5707808595895
 51
246.6112520389803
  0
LINE
  5
141
330
2
100
AcDbEntity
  8
GAIKEI
100
AcDbLine
 10
-13.34883135809531
 20
19.70886869999742
 30
0.0
 11
-13.89278301342983
 21
19.4962554415639
 31
0.0
  0
LINE
  5
142
330
2
100
AcDbEntity
  8
GAIKEI
100
AcDbLine
 10
-13.89278301342983
 20
19.4962554415639
 30
0.0
 11
-14.45246053481361
 21
19.31403915609297
 31
0.0
  0
ARC
  5
143
330
2
100
AcDbEntity
  8
GAIKEI
100
AcDbCircle
 10
-31.15291578313219
 20
19.40912651444216
 30
0.0
 40
0.1
100
AcDbArc
 50
251.9661127135549
 51
270.0
  0
LINE
  5
144
330
2
100
AcDbEntity
  8
GAIKEI
100
AcDbLine
 10
-31.74355124828116
 20
19.4962554415639
 30
0.0
 11
-31.18387372689739
 21
19.31403915609292
 31
0.0
  0
LINE
  5
145
330
2
100
AcDbEntity
  8
GAIKEI
100
AcDbLine
 10
-32.28750290361569
 20
19.70886869999742
 30
0.0
 11
-31.74355124828116
 21
19.4962554415639
 31
0.0
  0
ARC
  5
146
330
2
100
AcDbEntity
  8
GAIKEI
 62
     1
100
AcDbCircle
 10
-16.77406850569559
 20
21.18062822320224
 30
0.0
 40
1.79962810126059
100
AcDbArc
 50
272.130321689474
 51
305.2313822029143
  0
ARC
  5
147
330
2
100
AcDbEntity
  8
GAIKEI
 62
     1
100
AcDbCircle
 10
-16.88822643971173
 20
19.44463784201002
 30
0.0
 40
0.036588548234881
100
AcDbArc
 50
169.8904013536322
 51
220.8621011439611
  0
ARC
  5
148
330
2
100
AcDbEntity
  8
GAIKEI
 62
     1
100
AcDbCircle
 10
-16.73784949862585
 20
20.14306054992983
 30
0.0
 40
0.7614348818684209
100
AcDbArc
 50
262.2811216575446
 51
272.3090394024101
  0
ARC
  5
149
330
2
100
AcDbEntity
  8
GAIKEI
 62
     1
100
AcDbCircle
 10
-16.84653743737811
 20
19.49187470410959
 30
0.0
 40
0.0993815330630986
100
AcDbArc
 50
225.739586042814
 51
242.2588463185054
  0
ARC
  5
14A
330
2
100
AcDbEntity
  8
GAIKEI
 62
     1
100
AcDbCircle
 10
-16.81185195083634
 20
19.58311691380049
 30
0.0
 40
0.1966343723822126
100
AcDbArc
 50
245.6912001544835
 51
261.7345897828956
  0
ARC
  5
14B
330
2
100
AcDbEntity
  8
GAIKEI
 62
     1
100
AcDbCircle
 10
-16.83692528608486
 20
19.43165147005084
 30
0.0
 40
0.0894526001733724
100
AcDbArc
 50
140.3278125300752
 51
167.4686813004099
  0
ARC
  5
14C
330
2
100
AcDbEntity
  8
GAIKEI
 62
     1
100
AcDbCircle
 10
-16.67260184813824
 20
19.29465418140364
 30
0.0
 40
0.3033926894193737
100
AcDbArc
 50
125.7512971055132
 51
140.2248929187706
  0
ARC
  5
14D
330
2
100
AcDbEntity
  8
GAIKEI
 62
     1
100
AcDbCircle
 10
-16.03690722181483
 20
18.37399059146355
 30
0.0
 40
1.422153501699292
100
AcDbArc
 50
109.969118895009
 51
124.864542096688
  0
ARC
  5
14E
330
2
100
AcDbEntity
  8
GAIKEI
 62
     1
100
AcDbCircle
 10
-29.59942703989617
 20
18.37399059146355
 30
0.0
 40
1.422153501699292
100
AcDbArc
 50
55.135457903312
 51
70.03088110499103
  0
ARC
  5
14F
330
2
100
AcDbEntity
  8
GAIKEI
 62
     1
100
AcDbCircle
 10
-28.96373241357281
 20
19.29465418140364
 30
0.0
 40
0.3033926894193737
100
AcDbArc
 50
39.77510708122936
 51
54.24870289448676
  0
ARC
  5
150
330
2
100
AcDbEntity
  8
GAIKEI
 62
     1
100
AcDbCircle
 10
-28.79940897562614
 20
19.43165147005084
 30
0.0
 40
0.0894526001733724
100
AcDbArc
 50
12.53131869959004
 51
39.67218746992482
  0
ARC
  5
151
330
2
100
AcDbEntity
  8
GAIKEI
 62
     1
100
AcDbCircle
 10
-28.82448231087466
 20
19.58311691380049
 30
0.0
 40
0.1966343723822126
100
AcDbArc
 50
278.2654102171043
 51
294.3087998455164
  0
ARC
  5
152
330
2
100
AcDbEntity
  8
GAIKEI
 62
     1
100
AcDbCircle
 10
-28.78979682433288
 20
19.49187470410959
 30
0.0
 40
0.0993815330630986
100
AcDbArc
 50
297.7411536814946
 51
314.2604139571859
  0
ARC
  5
153
330
2
100
AcDbEntity
  8
GAIKEI
 62
     1
100
AcDbCircle
 10
-28.89848476308515
 20
20.14306054992983
 30
0.0
 40
0.7614348818684209
100
AcDbArc
 50
267.6909605975899
 51
277.7188783424553
  0
ARC
  5
154
330
2
100
AcDbEntity
  8
GAIKEI
 62
     1
100
AcDbCircle
 10
-28.74810782199933
 20
19.44463784201002
 30
0.0
 40
0.036588548234881
100
AcDbArc
 50
319.1378988560388
 51
10.10959864636777
  0
ARC
  5
155
330
2
100
AcDbEntity
  8
GAIKEI
 62
     1
100
AcDbCircle
 10
-28.86226575601546
 20
21.18062822320224
 30
0.0
 40
1.79962810126059
100
AcDbArc
 50
234.7686177970857
 51
267.8696783105259
  0
ARC
  5
156
330
2
100
AcDbEntity
  8
GAIKEI
100
AcDbCircle
 10
-15.25944978527224
 20
20.96306437080477
 30
0.0
 40
3.01381982527136
100
AcDbArc
 50
336.7026475993467
 51
348.4443135120911
  0
ARC
  5
157
330
2
100
AcDbEntity
  8
GAIKEI
100
AcDbCircle
 10
-12.58320925524202
 20
19.81063970968023
 30
0.0
 40
0.1
100
AcDbArc
 50
270.0
 51
336.7026475993467
  0
ARC
  5
158
330
2
100
AcDbEntity
  8
GAIKEI
100
AcDbCircle
 10
-33.05312500646897
 20
19.81063970968023
 30
0.0
 40
0.1
100
AcDbArc
 50
203.2973524006533
 51
270.0
  0
ARC
  5
159
330
2
100
AcDbEntity
  8
GAIKEI
100
AcDbCircle
 10
-30.37688447643882
 20
20.96306437080477
 30
0.0
 40
3.01381982527136
100
AcDbArc
 50
191.5556864879089
 51
203.2973524006533
  0
ARC
  5
15A
330
2
100
AcDbEntity
  8
GAIKEI
100
AcDbCircle
 10
-54.40519985517892
 20
20.94508939224192
 30
0.0
 40
43.21724979929718
100
AcDbArc
 50
10.00554855145694
 51
21.01806772075268
  0
ARC
  5
15B
330
2
100
AcDbEntity
  8
GAIKEI
100
AcDbCircle
 10
-65.69635690051097
 20
18.06527160687665
 30
0.0
 40
54.84399717788395
100
AcDbArc
 50
5.501215020595022
 51
10.91892318781864
  0
ARC
  5
15C
330
2
100
AcDbEntity
  8
GAIKEI
100
AcDbCircle
 10
-50.22150714004226
 20
19.23244709190283
 30
0.0
 40
39.32984447268598
100
AcDbArc
 50
2.223818659796534
 51
5.969910613614993
  0
LINE
  5
15D
330
2
100
AcDbEntity
  8
GAIKEI
100
AcDbLine
 10
-10.92128308568868
 20
20.75857143915476
 30
0.0
 11
-11.00477672484902
 21
20.49825290255819
 31
0.0
  0
ARC
  5
15E
330
2
100
AcDbEntity
  8
GAIKEI
100
AcDbCircle
 10
-11.19522080076967
 20
20.55933525636607
 30
0.0
 40
0.2
100
AcDbArc
 50
270.0
 51
342.2170613737935
  0
ARC
  5
15F
330
2
100
AcDbEntity
  8
GAIKEI
100
AcDbCircle
 10
-34.44111346094132
 20
20.55933525636607
 30
0.0
 40
0.2
100
AcDbArc
 50
197.7829386262065
 51
270.0
  0
LINE
  5
160
330
2
100
AcDbEntity
  8
GAIKEI
100
AcDbLine
 10
-34.71505117602237
 20
20.75857143915476
 30
0.0
 11
-34.63155753686204
 21
20.49825290255819
 31
0.0
  0
ARC
  5
161
330
2
100
AcDbEntity
  8
GAIKEI
100
AcDbCircle
 10
4.585172878331206
 20
19.23244709190283
 30
0.0
 40
39.32984447268598
100
AcDbArc
 50
174.030089386385
 51
177.7761813402034
  0
ARC
  5
162
330
2
100
AcDbEntity
  8
GAIKEI
100
AcDbCircle
 10
20.06002263879992
 20
18.06527160687665
 30
0.0
 40
54.84399717788395
100
AcDbArc
 50
169.0810768121813
 51
174.498784979405
  0
ARC
  5
163
330
2
100
AcDbEntity
  8
GAIKEI
100
AcDbCircle
 10
8.768865593467864
 20
20.94508939224192
 30
0.0
 40
43.21724979929718
100
AcDbArc
 50
158.9819322792473
 51
169.994451448543
  0
ELLIPSE
  5
164
330
2
100
AcDbEntity
  8
GAIKEI
 62
     1
100
AcDbEllipse
 10
-21.13441441560997
 20
44.33964653031
 30
0.0
 11
-0.0065625378484242
 21
-0.3342148079461028
 31
0.0
210
0.0
220
0.0
230
-1.0
 40
0.6563062739214749
 41
0.0
 42
6.283185307179586
  0
ELLIPSE
  5
165
330
2
100
AcDbEntity
  8
GAIKEI
 62
     1
100
AcDbEllipse
 10
-24.50191984610103
 20
44.33964653031
 30
0.0
 11
0.0065625378484242
 21
-0.3342148079461028
 31
0.0
210
0.0
220
0.0
230
1.0
 40
0.6563062739214749
 41
0.0
 42
6.283185307179586
  0
LINE
  5
166
330
2
100
AcDbEntity
  8
GAIKEI
100
AcDbLine
 10
-31.06247020585727
 20
36.69494818361471
 30
0.0
 11
-31.5730269972816
 21
36.44548881971758
 31
0.0
  0
LINE
  5
167
330
2
100
AcDbEntity
  8
GAIKEI
100
AcDbLine
 10
-31.39332588485388
 20
36.69494818361471
 30
0.0
 11
-31.03008602879959
 21
36.69494818361471
 31
0.0
  0
ARC
  5
168
330
2
100
AcDbEntity
  8
GAIKEI
100
AcDbCircle
 10
-14.017723516876
 20
29.99850350500299
 30
0.0
 40
18.69128479927947
100
AcDbArc
 50
134.1285386551856
 51
158.7762156243141
  0
ARC
  5
169
330
2
100
AcDbEntity
  8
GAIKEI
100
AcDbCircle
 10
-31.39332588485394
 20
36.74635487727471
 30
0.0
 40
0.05140669366
100
AcDbArc
 50
158.7762156243036
 51
270.0000000000465
  0
ARC
  5
16A
330
2
100
AcDbEntity
  8
GAIKEI
100
AcDbCircle
 10
-26.87851354342803
 20
43.25658886195742
 30
0.0
 40
0.2203144014
100
AcDbArc
 50
90.00000000001078
 51
134.1285386551855
  0
ARC
  5
16B
330
2
100
AcDbEntity
  8
GAIKEI
100
AcDbCircle
 10
-18.75782071828303
 20
43.25658886195742
 30
0.0
 40
0.2203144014
100
AcDbArc
 50
45.87146134481445
 51
89.99999999998914
  0
ARC
  5
16C
330
2
100
AcDbEntity
  8
GAIKEI
100
AcDbCircle
 10
-14.24300837685717
 20
36.74635487727471
 30
0.0
 40
0.05140669366
100
AcDbArc
 50
269.9999999999535
 51
21.22378437569635
  0
ARC
  5
16D
330
2
100
AcDbEntity
  8
GAIKEI
100
AcDbCircle
 10
-31.61861074483506
 20
29.99850350500299
 30
0.0
 40
18.69128479927947
100
AcDbArc
 50
21.22378437568586
 51
45.87146134481432
  0
LINE
  5
16E
330
2
100
AcDbEntity
  8
GAIKEI
 62
     1
100
AcDbLine
 10
24.91172374622329
 20
11.95943633065775
 30
0.0
 11
24.91172374622329
 21
11.40207428332979
 31
0.0
  0
LINE
  5
16F
330
2
100
AcDbEntity
  8
GAIKEI
 62
     1
100
AcDbLine
 10
24.91172374622332
 20
38.62838475450912
 30
0.0
 11
24.9117237462233
 21
37.13251407596783
 31
0.0
  0
LINE
  5
170
330
2
100
AcDbEntity
  8
GAIKEI
100
AcDbLine
 10
13.28833419636356
 20
20.34769719273601
 30
0.0
 11
14.40634730900189
 21
20.34769719273601
 31
0.0
  0
LINE
  5
171
330
2
100
AcDbEntity
  8
GAIKEI
100
AcDbLine
 10
36.80835479000689
 20
20.74693337552475
 30
0.0
 11
13.01509270243974
 21
20.74693337552475
 31
0.0
  0
LINE
  5
172
330
2
100
AcDbEntity
  8
GAIKEI
100
AcDbLine
 10
14.40634730900194
 20
20.34769719273601
 30
0.0
 11
36.55987199691328
 21
20.34769719273601
 31
0.0
  0
LINE
  5
173
330
2
100
AcDbEntity
  8
GAIKEI
100
AcDbLine
 10
36.18192336504819
 20
20.28786236559438
 30
0.0
 11
35.58344859293999
 21
20.28786236559438
 31
0.0
  0
LINE
  5
174
330
2
100
AcDbEntity
  8
GAIKEI
100
AcDbLine
 10
35.58344859293999
 20
20.1881798205888
 30
0.0
 11
35.39306505203479
 21
20.1881798205888
 31
0.0
  0
LINE
  5
175
330
2
100
AcDbEntity
  8
GAIKEI
100
AcDbLine
 10
36.43138272894527
 20
20.1881798205888
 30
0.0
 11
36.18344137334776
 21
20.1881798205888
 31
0.0
  0
LINE
  5
176
330
2
100
AcDbEntity
  8
GAIKEI
100
AcDbLine
 10
35.58344859293999
 20
20.1881798205888
 30
0.0
 11
35.58344859293999
 21
20.28786236559438
 31
0.0
  0
LINE
  5
177
330
2
100
AcDbEntity
  8
GAIKEI
100
AcDbLine
 10
36.18192336504819
 20
20.18817982058886
 30
0.0
 11
36.18192336504819
 21
20.28786236559438
 31
0.0
  0
LINE
  5
178
330
2
100
AcDbEntity
  8
GAIKEI
100
AcDbLine
 10
36.28185891143699
 20
20.34769719273601
 30
0.0
 11
36.28185891143699
 21
20.1881798205888
 31
0.0
  0
LINE
  5
179
330
2
100
AcDbEntity
  8
GAIKEI
 62
     1
100
AcDbLine
 10
25.65984883653147
 20
38.06027014839248
 30
0.0
 11
25.56041929290916
 21
38.06027014839248
 31
0.0
  0
LINE
  5
17A
330
2
100
AcDbEntity
  8
GAIKEI
 62
     1
100
AcDbLine
 10
25.56041929290916
 20
37.9309864415452
 30
0.0
 11
25.43037658191207
 21
37.9309864415452
 31
0.0
  0
LINE
  5
17B
330
2
100
AcDbEntity
  8
GAIKEI
 62
     1
100
AcDbLine
 10
25.78938554476201
 20
37.9309864415452
 30
0.0
 11
25.65984883653147
 21
37.9309864415452
 31
0.0
  0
LINE
  5
17C
330
2
100
AcDbEntity
  8
GAIKEI
 62
     1
100
AcDbLine
 10
25.65984883653147
 20
37.8306713930815
 30
0.0
 11
25.78938554476201
 21
37.8306713930815
 31
0.0
  0
LINE
  5
17D
330
2
100
AcDbEntity
  8
GAIKEI
 62
     1
100
AcDbLine
 10
25.43037658191207
 20
37.8306713930815
 30
0.0
 11
25.56041929290916
 21
37.8306713930815
 31
0.0
  0
LINE
  5
17E
330
2
100
AcDbEntity
  8
GAIKEI
 62
     1
100
AcDbLine
 10
25.56041929290916
 20
37.70088168346769
 30
0.0
 11
25.65984883653147
 21
37.70088168346769
 31
0.0
  0
LINE
  5
17F
330
2
100
AcDbEntity
  8
GAIKEI
 62
     1
100
AcDbLine
 10
25.43037658191207
 20
37.9309864415452
 30
0.0
 11
25.43037658191207
 21
37.8306713930815
 31
0.0
  0
LINE
  5
180
330
2
100
AcDbEntity
  8
GAIKEI
 62
     1
100
AcDbLine
 10
25.56041929290916
 20
37.8306713930815
 30
0.0
 11
25.56041929290916
 21
37.70088168346769
 31
0.0
  0
LINE
  5
181
330
2
100
AcDbEntity
  8
GAIKEI
 62
     1
100
AcDbLine
 10
25.56041929290916
 20
38.06027014839248
 30
0.0
 11
25.56041929290916
 21
37.9309864415452
 31
0.0
  0
LINE
  5
182
330
2
100
AcDbEntity
  8
GAIKEI
 62
     1
100
AcDbLine
 10
25.65984883653147
 20
37.9309864415452
 30
0.0
 11
25.65984883653147
 21
38.06027014839248
 31
0.0
  0
LINE
  5
183
330
2
100
AcDbEntity
  8
GAIKEI
 62
     1
100
AcDbLine
 10
25.65984883653147
 20
37.70088168346769
 30
0.0
 11
25.65984883653147
 21
37.8306713930815
 31
0.0
  0
LINE
  5
184
330
2
100
AcDbEntity
  8
GAIKEI
 62
     1
100
AcDbLine
 10
25.78938554476201
 20
37.8306713930815
 30
0.0
 11
25.78938554476201
 21
37.9309864415452
 31
0.0
  0
LINE
  5
185
330
2
100
AcDbEntity
  8
GAIKEI
 62
     1
100
AcDbLine
 10
33.7440020359278
 20
36.97830973286909
 30
0.0
 11
33.94670076228084
 21
37.18115641449685
 31
0.0
  0
LINE
  5
186
330
2
100
AcDbEntity
  8
GAIKEI
 62
     1
100
AcDbLine
 10
33.64811451167123
 20
37.05168013401533
 30
0.0
 11
33.89705904926444
 21
37.30062467160855
 31
0.0
  0
LINE
  5
187
330
2
100
AcDbEntity
  8
GAIKEI
 62
     1
100
AcDbLine
 10
33.47898308696
 20
36.52606976028682
 30
0.0
 11
33.72793644809059
 21
36.95794312151645
 31
0.0
  0
LINE
  5
188
330
2
100
AcDbEntity
  8
GAIKEI
 62
     1
100
AcDbLine
 10
33.50858424880176
 20
36.81702135103904
 30
0.0
 11
33.6321754245256
 21
37.03093402058778
 31
0.0
  0
LINE
  5
189
330
2
100
AcDbEntity
  8
GAIKEI
 62
     1
100
AcDbLine
 10
24.91172374622335
 20
37.13251407596778
 30
0.0
 11
25.61026056541192
 21
37.13251407596778
 31
0.0
  0
LINE
  5
18A
330
2
100
AcDbEntity
  8
GAIKEI
 62
     1
100
AcDbLine
 10
25.61026056541192
 20
38.62838475450912
 30
0.0
 11
24.91172374622335
 21
38.62838475450912
 31
0.0
  0
LINE
  5
18B
330
2
100
AcDbEntity
  8
GAIKEI
 62
     1
100
AcDbLine
 10
25.16181802010937
 20
38.42914616518965
 30
0.0
 11
25.61026056541192
 21
38.42914616518965
 31
0.0
  0
LINE
  5
18C
330
2
100
AcDbEntity
  8
GAIKEI
 62
     1
100
AcDbLine
 10
25.61026056541192
 20
37.33200566667051
 30
0.0
 11
25.16181802010937
 21
37.33200566667046
 31
0.0
  0
LINE
  5
18D
330
2
100
AcDbEntity
  8
GAIKEI
 62
     1
100
AcDbLine
 10
24.96181802010932
 20
37.53200566667044
 30
0.0
 11
24.96181802010932
 21
38.22914616518966
 31
0.0
  0
LINE
  5
18E
330
2
100
AcDbEntity
  8
GAIKEI
 62
     1
100
AcDbLine
 10
31.54415500845772
 20
17.65728048311934
 30
0.0
 11
31.49456673733818
 21
17.60870421753293
 31
0.0
  0
LINE
  5
18F
330
2
100
AcDbEntity
  8
GAIKEI
 62
     1
100
AcDbLine
 10
31.49456673733818
 20
17.60870421753293
 30
0.0
 11
31.2853345933799
 21
17.60870421753293
 31
0.0
  0
LINE
  5
190
330
2
100
AcDbEntity
  8
GAIKEI
 62
     1
100
AcDbLine
 10
31.54415500845772
 20
17.65728048311934
 30
0.0
 11
31.33492286449939
 21
17.65728048311934
 31
0.0
  0
LINE
  5
191
330
2
100
AcDbEntity
  8
GAIKEI
 62
     1
100
AcDbLine
 10
31.37337907475535
 20
17.69219467400961
 30
0.0
 11
31.26838350070125
 21
17.69219467400961
 31
0.0
  0
LINE
  5
192
330
2
100
AcDbEntity
  8
GAIKEI
 62
     1
100
AcDbLine
 10
31.37337907475535
 20
17.98643528274425
 30
0.0
 11
31.54415500845772
 21
17.98643528274425
 31
0.0
  0
LINE
  5
193
330
2
100
AcDbEntity
  8
GAIKEI
 62
     1
100
AcDbLine
 10
31.11658267074358
 20
17.98643528274425
 30
0.0
 11
31.26838350070125
 21
17.98643528274425
 31
0.0
  0
LINE
  5
194
330
2
100
AcDbEntity
  8
GAIKEI
 62
     1
100
AcDbLine
 10
31.64434355622979
 20
18.20958250278209
 30
0.0
 11
31.47584463497674
 21
18.20958250278209
 31
0.0
  0
LINE
  5
195
330
2
100
AcDbEntity
  8
GAIKEI
 62
     1
100
AcDbLine
 10
31.03714023639907
 20
17.36557505151103
 30
0.0
 11
31.03714023639907
 21
19.3091265144422
 31
0.0
  0
LINE
  5
196
330
2
100
AcDbEntity
  8
GAIKEI
 62
     1
100
AcDbLine
 10
31.37186106645572
 20
18.38567146553299
 30
0.0
 11
31.47584463497674
 21
18.38567146553299
 31
0.0
  0
LINE
  5
197
330
2
100
AcDbEntity
  8
GAIKEI
 62
     1
100
AcDbLine
 10
31.11658267074358
 20
17.98643528274425
 30
0.0
 11
31.11658267074358
 21
19.3091265144422
 31
0.0
  0
LINE
  5
198
330
2
100
AcDbEntity
  8
GAIKEI
 62
     1
100
AcDbLine
 10
31.26838350070125
 20
17.69219467400961
 30
0.0
 11
31.26838350070125
 21
17.98643528274425
 31
0.0
  0
LINE
  5
199
330
2
100
AcDbEntity
  8
GAIKEI
 62
     1
100
AcDbLine
 10
31.30000867360911
 20
18.20958250278209
 30
0.0
 11
31.30000867360911
 21
19.3091265144422
 31
0.0
  0
LINE
  5
19A
330
2
100
AcDbEntity
  8
GAIKEI
 62
     1
100
AcDbLine
 10
31.37186106645572
 20
18.38567146553299
 30
0.0
 11
31.37186106645572
 21
18.20958250278209
 31
0.0
  0
LINE
  5
19B
330
2
100
AcDbEntity
  8
GAIKEI
 62
     1
100
AcDbLine
 10
31.37337907475535
 20
17.69219467400961
 30
0.0
 11
31.37337907475535
 21
17.98643528274425
 31
0.0
  0
LINE
  5
19C
330
2
100
AcDbEntity
  8
GAIKEI
 62
     1
100
AcDbLine
 10
31.47584463497674
 20
18.38567146553299
 30
0.0
 11
31.47584463497674
 21
18.20958250278209
 31
0.0
  0
LINE
  5
19D
330
2
100
AcDbEntity
  8
GAIKEI
 62
     1
100
AcDbLine
 10
31.54415500845772
 20
17.65728048311934
 30
0.0
 11
31.54415500845772
 21
17.98643528274425
 31
0.0
  0
LINE
  5
19E
330
2
100
AcDbEntity
  8
GAIKEI
 62
     1
100
AcDbLine
 10
31.64434355622979
 20
19.3091265144422
 30
0.0
 11
31.64434355622979
 21
18.20958250278209
 31
0.0
  0
CIRCLE
  5
19F
330
2
100
AcDbEntity
  8
GAIKEI
 62
     1
100
AcDbCircle
 10
25.61000756402865
 20
37.88038616489263
 30
0.0
 40
0.3987301800221789
  0
SPLINE
  5
1A0
330
2
100
AcDbEntity
  8
GAIKEI
 62
     1
100
AcDbSpline
210
0.0
220
0.0
230
1.0
 70
     8
 71
     3
 72
     8
 73
     4
 74
     0
 42
0.0000000001
 43
0.0000000001
 40
0.0
 40
0.0
 40
0.0
 40
0.0
 40
1.0
 40
1.0
 40
1.0
 40
1.0
 10
33.72793644809059
 20
36.95794312151645
 30
0.0
 10
33.73236397229772
 20
36.96515366093939
 30
0.0
 10
33.73755050065455
 20
36.97185819759591
 30
0.0
 10
33.74400203592774
 20
36.97830973286909
 30
0.0
  0
SPLINE
  5
1A1
330
2
100
AcDbEntity
  8
GAIKEI
 62
     1
100
AcDbSpline
210
0.0
220
0.0
230
1.0
 70
     8
 71
     3
 72
     8
 73
     4
 74
     0
 42
0.0000000001
 43
0.0000000001
 40
0.0
 40
0.0
 40
0.0
 40
0.0
 40
1.0
 40
1.0
 40
1.0
 40
1.0
 10
33.6321754245256
 20
37.03093402058772
 30
0.0
 10
33.63647644804109
 20
37.03865056277726
 30
0.0
 10
33.64191597778126
 20
37.04548160012536
 30
0.0
 10
33.64811451167117
 20
37.05168013401527
 30
0.0
  0
LINE
  5
1A2
330
2
100
AcDbEntity
  8
GAIKEI
100
AcDbLine
 10
36.43138272894532
 20
20.34769719273601
 30
0.0
 11
36.43138272894527
 21
20.1881798205888
 31
0.0
  0
LINE
  5
1A3
330
2
100
AcDbEntity
  8
GAIKEI
100
AcDbLine
 10
14.61182651037961
 20
19.69950764881673
 30
0.0
 11
35.21162098206702
 21
19.69950764881673
 31
0.0
  0
LINE
  5
1A4
330
2
100
AcDbEntity
  8
GAIKEI
100
AcDbLine
 10
-14.48341847857881
 20
19.30912651444214
 30
0.0
 11
-31.15291578313219
 21
19.30912651444214
 31
0.0
  0
LINE
  5
1A5
330
2
100
AcDbEntity
  8
GAIKEI
100
AcDbLine
 10
-34.44111346094132
 20
20.35933525636608
 30
0.0
 11
-11.19522080076967
 21
20.35933525636608
 31
0.0
  0
LINE
  5
1A6
330
2
100
AcDbEntity
  8
GAIKEI
100
AcDbLine
 10
-34.71505117602232
 20
20.75857143915482
 30
0.0
 11
-10.92178908845517
 21
20.75857143915482
 31
0.0
  0
LINE
  5
1A7
330
2
100
AcDbEntity
  8
GAIKEI
100
AcDbLine
 10
-25.1240217379127
 20
46.72772648779534
 30
0.0
 11
-25.18069404776355
 21
43.47690326335743
 31
0.0
  0
LINE
  5
1A8
330
2
100
AcDbEntity
  8
GAIKEI
100
AcDbLine
 10
-20.51180652103176
 20
46.72772648779534
 30
0.0
 11
-20.45538721256418
 21
43.47690326335743
 31
0.0
  0
LINE
  5
1A9
330
2
100
AcDbEntity
  8
GAIKEI
 62
     1
100
AcDbLine
 10
-20.6815704492011
 20
46.72772648779534
 30
0.0
 11
-20.6815704492011
 21
43.47690326335743
 31
0.0
  0
LINE
  5
1AA
330
2
100
AcDbEntity
  8
GAIKEI
100
AcDbLine
 10
-14.60624823291147
 20
36.69494818361471
 30
0.0
 11
-31.06575922383962
 21
36.69494818361471
 31
0.0
  0
LINE
  5
1AB
330
2
100
AcDbEntity
  8
GAIKEI
100
AcDbLine
 10
-14.24300837685717
 20
36.69494818361471
 30
0.0
 11
-14.60624823291147
 21
36.69494818361471
 31
0.0
  0
LINE
  5
1AC
330
2
100
AcDbEntity
  8
GAIKEI
100
AcDbLine
 10
-25.18904309341122
 20
43.47690326335743
 30
0.0
 11
-26.88744137925443
 21
43.47690326335743
 31
0.0
  0
LINE
  5
1AD
330
2
100
AcDbEntity
  8
GAIKEI
100
AcDbLine
 10
-20.45361620288133
 20
43.47690326335743
 30
0.0
 11
-25.18904309341122
 21
43.47690326335743
 31
0.0
  0
LINE
  5
1AE
330
2
100
AcDbEntity
  8
GAIKEI
100
AcDbLine
 10
-25.02307418599088
 20
46.82690303003437
 30
0.0
 11
-20.61326007572012
 21
46.82690303003437
 31
0.0
  0
ELLIPSE
  5
1AF
330
2
100
AcDbEntity
  8
GAIKEI
100
AcDbEllipse
 10
-22.81791412947223
 20
20.35933525636608
 30
0.0
 11
-0.0002530013832628
 21
-0.0092345504890923
 31
0.0
210
0.0
220
0.0
230
1.0
 40
0.9859314143474241
 41
0.0
 42
6.283185307179586
  0
LINE
  5
1B0
330
2
100
AcDbEntity
  8
GAIKEI
100
AcDbLine
 10
-25.02307418599088
 20
46.82690303003437
 30
0.0
 11
-25.1240217379127
 21
46.72772648779534
 31
0.0
  0
LINE
  5
1B1
330
2
100
AcDbEntity
  8
GAIKEI
100
AcDbLine
 10
-18.75782071828297
 20
43.47690326335743
 30
0.0
 11
-20.45361620288133
 21
43.47690326335743
 31
0.0
  0
LINE
  5
1B2
330
2
100
AcDbEntity
  8
GAIKEI
100
AcDbLine
 10
-20.61326007572012
 20
46.82690303003437
 30
0.0
 11
-20.51180652103182
 21
46.72772648779534
 31
0.0
  0
LINE
  5
1B3
330
2
100
AcDbEntity
  8
GAIKEI
100
AcDbLine
 10
-14.57386405585379
 20
36.69494818361471
 30
0.0
 11
-14.06330726442945
 21
36.44548881971758
 31
0.0
  0
LINE
  5
1B4
330
2
100
AcDbEntity
  8
GAIKEI
 62
     1
100
AcDbLine
 10
-20.32509150018388
 20
17.39668905835867
 30
0.0
 11
-20.32509150018382
 21
11.98949975096593
 31
0.0
  0
LINE
  5
1B5
330
2
100
AcDbEntity
  8
GAIKEI
 62
     1
100
AcDbLine
 10
-20.27474422491451
 20
14.3221383950405
 30
0.0
 11
-20.27474422491451
 21
17.69624269614178
 31
0.0
  0
LINE
  5
1B6
330
2
100
AcDbEntity
  8
GAIKEI
100
AcDbLine
 10
-14.06330726442945
 20
36.44548881971758
 30
0.0
 11
-31.57302699728155
 21
36.44548881971758
 31
0.0
  0
LINE
  5
1B7
330
2
100
AcDbEntity
  8
GAIKEI
 62
     1
100
AcDbLine
 10
-23.0175322208666
 20
46.32849030500665
 30
0.0
 11
-22.61905504222767
 21
46.32849030500665
 31
0.0
  0
LINE
  5
1B8
330
2
100
AcDbEntity
  8
GAIKEI
 62
     1
100
AcDbLine
 10
-22.61905504222767
 20
46.57769666752051
 30
0.0
 11
-23.0175322208666
 21
46.57769666752051
 31
0.0
  0
LINE
  5
1B9
330
2
100
AcDbEntity
  8
GAIKEI
 62
     1
100
AcDbLine
 10
-20.51180652103182
 20
46.72772648779534
 30
0.0
 11
-21.73911623123962
 21
46.72772648779534
 31
0.0
  0
LINE
  5
1BA
330
2
100
AcDbEntity
  8
GAIKEI
 62
     1
100
AcDbLine
 10
-21.80413758673819
 20
46.72772648779534
 30
0.0
 11
-22.56896076834164
 21
46.72772648779534
 31
0.0
  0
LINE
  5
1BB
330
2
100
AcDbEntity
  8
GAIKEI
 62
     1
100
AcDbLine
 10
-23.06762649475263
 20
46.72772648779534
 30
0.0
 11
-23.83169067220632
 21
46.72772648779534
 31
0.0
  0
LINE
  5
1BC
330
2
100
AcDbEntity
  8
GAIKEI
 62
     1
100
AcDbLine
 10
-23.89696502908811
 20
46.72772648779534
 30
0.0
 11
-25.1240217379127
 21
46.72772648779534
 31
0.0
  0
LINE
  5
1BD
330
2
100
AcDbEntity
  8
GAIKEI
 62
     1
100
AcDbLine
 10
-23.89696502908811
 20
46.72772648779534
 30
0.0
 11
-23.89696502908811
 21
43.47690326335743
 31
0.0
  0
LINE
  5
1BE
330
2
100
AcDbEntity
  8
GAIKEI
 62
     1
100
AcDbLine
 10
-23.06762649475257
 20
43.47690326335743
 30
0.0
 11
-23.06762649475257
 21
46.82690303003437
 31
0.0
  0
LINE
  5
1BF
330
2
100
AcDbEntity
  8
GAIKEI
 62
     1
100
AcDbLine
 10
-23.0175322208666
 20
46.57769666752051
 30
0.0
 11
-23.0175322208666
 21
46.32849030500665
 31
0.0
  0
LINE
  5
1C0
330
2
100
AcDbEntity
  8
GAIKEI
 62
     1
100
AcDbLine
 10
-22.61905504222767
 20
46.32849030500665
 30
0.0
 11
-22.61905504222767
 21
46.57769666752051
 31
0.0
  0
LINE
  5
1C1
330
2
100
AcDbEntity
  8
GAIKEI
 62
     1
100
AcDbLine
 10
-22.56896076834164
 20
46.82690303003437
 30
0.0
 11
-22.56896076834164
 21
43.47690326335743
 31
0.0
  0
LINE
  5
1C2
330
2
100
AcDbEntity
  8
GAIKEI
 62
     1
100
AcDbLine
 10
-21.73911623123962
 20
46.72772648779534
 30
0.0
 11
-21.73911623123962
 21
43.47690326335743
 31
0.0
  0
LINE
  5
1C3
330
2
100
AcDbEntity
  8
GAIKEI
100
AcDbLine
 10
-12.58320925524202
 20
19.71063970968026
 30
0.0
 11
-33.05312500646897
 21
19.71063970968021
 31
0.0
  0
LINE
  5
1C4
330
2
100
AcDbEntity
  8
GAIKEI
 62
     1
100
AcDbLine
 10
-25.06709642667857
 20
17.39668905835867
 30
0.0
 11
-25.36159003679649
 21
17.39668905835867
 31
0.0
  0
LINE
  5
1C5
330
2
100
AcDbEntity
  8
GAIKEI
 62
     1
100
AcDbLine
 10
-25.36159003679649
 20
19.28939240654768
 30
0.0
 11
-25.36159003679649
 21
17.39668905835867
 31
0.0
  0
LINE
  5
1C6
330
2
100
AcDbEntity
  8
GAIKEI
 62
     1
100
AcDbLine
 10
-25.16197194540211
 20
18.09250731594255
 30
0.0
 11
-25.16197194540211
 21
19.28939240654768
 31
0.0
  0
LINE
  5
1C7
330
2
100
AcDbEntity
  8
GAIKEI
 62
     1
100
AcDbLine
 10
-24.94312574887982
 20
19.28939240654768
 30
0.0
 11
-24.94312574887982
 21
18.31590753736361
 31
0.0
  0
LINE
  5
1C8
330
2
100
AcDbEntity
  8
GAIKEI
 62
     1
100
AcDbLine
 10
-24.71289449011062
 20
17.69801370582468
 30
0.0
 11
-24.71289449011062
 21
18.39174349873121
 31
0.0
  0
LINE
  5
1C9
330
2
100
AcDbEntity
  8
GAIKEI
 62
     1
100
AcDbLine
 10
-24.31365830732199
 20
17.69801370582468
 30
0.0
 11
-24.31365830732199
 21
18.39174349873121
 31
0.0
  0
LINE
  5
1CA
330
2
100
AcDbEntity
  8
GAIKEI
 62
     1
100
AcDbLine
 10
-20.27474422491451
 20
17.39668905835867
 30
0.0
 11
-20.56923783503243
 21
17.39668905835867
 31
0.0
  0
LINE
  5
1CB
330
2
100
AcDbEntity
  8
GAIKEI
 62
     1
100
AcDbLine
 10
-20.27474422491451
 20
17.44425331841205
 30
0.0
 11
-20.56164779353452
 21
17.44425331841205
 31
0.0
  0
LINE
  5
1CC
330
2
100
AcDbEntity
  8
GAIKEI
 62
     1
100
AcDbLine
 10
-25.07643994310991
 20
17.44425331841205
 30
0.0
 11
-25.36159003679649
 21
17.44425331841205
 31
0.0
  0
LINE
  5
1CD
330
2
100
AcDbEntity
  8
GAIKEI
 62
     1
100
AcDbLine
 10
-24.4641941303633
 20
17.61528225349769
 30
0.0
 11
-21.17644115486314
 21
17.61528225349769
 31
0.0
  0
LINE
  5
1CE
330
2
100
AcDbEntity
  8
GAIKEI
 62
     1
100
AcDbLine
 10
-24.47229017462774
 20
17.66335251631767
 30
0.0
 11
-21.16312226625388
 21
17.66335251631767
 31
0.0
  0
LINE
  5
1CF
330
2
100
AcDbEntity
  8
GAIKEI
 62
     1
100
AcDbLine
 10
-24.71289449011062
 20
17.69801370582468
 30
0.0
 11
-24.31365830732199
 21
17.69801370582468
 31
0.0
  0
LINE
  5
1D0
330
2
100
AcDbEntity
  8
GAIKEI
 62
     1
100
AcDbLine
 10
-21.32216995162253
 20
17.69801370582468
 30
0.0
 11
-20.92343977160039
 21
17.69801370582468
 31
0.0
  0
LINE
  5
1D1
330
2
100
AcDbEntity
  8
GAIKEI
 62
     1
100
AcDbLine
 10
-20.57436231630885
 20
17.99250731594259
 30
0.0
 11
-20.92343977160039
 21
17.99250731594259
 31
0.0
  0
LINE
  5
1D2
330
2
100
AcDbEntity
  8
GAIKEI
 62
     1
100
AcDbLine
 10
-21.32216995162253
 20
17.99250731594259
 30
0.0
 11
-24.31365830732199
 21
17.99250731594259
 31
0.0
  0
LINE
  5
1D3
330
2
100
AcDbEntity
  8
GAIKEI
 62
     1
100
AcDbLine
 10
-24.71289449011062
 20
17.99250731594259
 30
0.0
 11
-25.06197194540209
 21
17.99250731594259
 31
0.0
  0
LINE
  5
1D4
330
2
100
AcDbEntity
  8
GAIKEI
 62
     1
100
AcDbLine
 10
-24.31365830732199
 20
18.21590753736359
 30
0.0
 11
-21.32216995162253
 21
18.21590753736359
 31
0.0
  0
LINE
  5
1D5
330
2
100
AcDbEntity
  8
GAIKEI
 62
     1
100
AcDbLine
 10
-24.8431257488798
 20
18.21590753736359
 30
0.0
 11
-24.71289449011062
 21
18.21590753736359
 31
0.0
  0
LINE
  5
1D6
330
2
100
AcDbEntity
  8
GAIKEI
 62
     1
100
AcDbLine
 10
-20.92343977160039
 20
18.21590753736359
 30
0.0
 11
-20.79295551144793
 21
18.21590753736359
 31
0.0
  0
LINE
  5
1D7
330
2
100
AcDbEntity
  8
GAIKEI
 62
     1
100
AcDbLine
 10
-21.17315213688079
 20
17.61604125764745
 30
0.0
 11
-20.56923783503243
 21
17.39668905835867
 31
0.0
  0
LINE
  5
1D8
330
2
100
AcDbEntity
  8
GAIKEI
 62
     1
100
AcDbLine
 10
-25.06709642667857
 20
17.39668905835867
 30
0.0
 11
-24.4641941303633
 21
17.61528225349769
 31
0.0
  0
LINE
  5
1D9
330
2
100
AcDbEntity
  8
GAIKEI
 62
     1
100
AcDbLine
 10
-20.92343977160039
 20
18.39174349873121
 30
0.0
 11
-21.32216995162253
 21
18.39174349873121
 31
0.0
  0
LINE
  5
1DA
330
2
100
AcDbEntity
  8
GAIKEI
 62
     1
100
AcDbLine
 10
-24.31365830732199
 20
18.39174349873121
 30
0.0
 11
-24.71289449011062
 21
18.39174349873121
 31
0.0
  0
LINE
  5
1DB
330
2
100
AcDbEntity
  8
GAIKEI
100
AcDbLine
 10
-25.36159003679649
 20
19.28939240654768
 30
0.0
 11
-20.27474422491451
 21
19.28939240654768
 31
0.0
  0
LINE
  5
1DC
330
2
100
AcDbEntity
  8
GAIKEI
 62
     1
100
AcDbLine
 10
-21.32216995162253
 20
17.69801370582468
 30
0.0
 11
-21.32216995162253
 21
18.39174349873121
 31
0.0
  0
LINE
  5
1DD
330
2
100
AcDbEntity
  8
GAIKEI
 62
     1
100
AcDbLine
 10
-20.92343977160039
 20
17.69801370582468
 30
0.0
 11
-20.92343977160039
 21
18.39174349873121
 31
0.0
  0
LINE
  5
1DE
330
2
100
AcDbEntity
  8
GAIKEI
 62
     1
100
AcDbLine
 10
-20.69295551144796
 20
18.31590753736361
 30
0.0
 11
-20.69295551144796
 21
19.28939240654768
 31
0.0
  0
LINE
  5
1DF
330
2
100
AcDbEntity
  8
GAIKEI
 62
     1
100
AcDbLine
 10
-20.47436231630888
 20
18.09250731594255
 30
0.0
 11
-20.47436231630888
 21
19.28939240654768
 31
0.0
  0
LINE
  5
1E0
330
2
100
AcDbEntity
  8
GAIKEI
 62
     1
100
AcDbLine
 10
-20.27474422491451
 20
17.39668905835867
 30
0.0
 11
-20.27474422491451
 21
19.28939240654768
 31
0.0
  0
LINE
  5
1E1
330
2
100
AcDbEntity
  8
GAIKEI
 62
     1
100
AcDbLine
 10
-29.35066284670109
 20
19.30912651444214
 30
0.0
 11
-29.35066284670109
 21
16.37331937598458
 31
0.0
  0
LINE
  5
1E2
330
2
100
AcDbEntity
  8
GAIKEI
 62
     1
100
AcDbLine
 10
-25.36159003679649
 20
17.69624269614178
 30
0.0
 11
-25.36159003679649
 21
14.32213839504084
 31
0.0
  0
LINE
  5
1E3
330
2
100
AcDbEntity
  8
GAIKEI
 62
     1
100
AcDbLine
 10
-25.31098976014391
 20
17.39668905835867
 30
0.0
 11
-25.31098976014391
 21
11.9892526878267
 31
0.0
  0
LINE
  5
1E4
330
2
100
AcDbEntity
  8
GAIKEI
 62
     1
100
AcDbLine
 10
-24.9547638125099
 20
46.72772648779534
 30
0.0
 11
-24.9547638125099
 21
43.47690326335743
 31
0.0
  0
TEXT
  5
1E5
330
2
100
AcDbEntity
  8
MOJI1
100
AcDbText
 10
-21.42160170568049
 20
-26.48908536628858
 30
0.0
 40
3.0
  1
最大３２倍
100
AcDbText
  0
TEXT
  5
1E6
330
2
100
AcDbEntity
  8
MOJI1
100
AcDbText
 10
-61.42160170568049
 20
-26.48908536628858
 30
0.0
 40
3.0
  1
電子感度アップ
100
AcDbText
  0
TEXT
  5
1E7
330
2
100
AcDbEntity
  8
MOJI1
100
AcDbText
 10
-21.42160170568049
 20
-51.48908536628858
 30
0.0
 40
3.0
  1
ＭＰＥＧ－４／ＪＰＥＧ   デュアルエンコーディング
 41
0.9
100
AcDbText
  0
TEXT
  5
1E8
330
2
100
AcDbEntity
  8
MOJI1
100
AcDbText
 10
-61.42160170568049
 20
-51.48908536628858
 30
0.0
 40
3.0
  1
画像圧縮方式
100
AcDbText
  0
TEXT
  5
1E9
330
2
100
AcDbEntity
  8
MOJI1
100
AcDbText
 10
-21.42160170568049
 20
-46.48908536628858
 30
0.0
 40
3.0
  1
ＶＧＡ（６４０×４８０)／ＱＶＧＡ（３２０×２４０）
 41
0.85
100
AcDbText
  0
LINE
  5
1EA
330
2
100
AcDbEntity
  8
WAKU
 62
     1
100
AcDbLine
 10
-63.92160170568049
 20
-47.48908536628857
 30
0.0
 11
61.07839829431957
 21
-47.48908536628857
 31
0.0
  0
TEXT
  5
1EB
330
2
100
AcDbEntity
  8
MOJI1
100
AcDbText
 10
-61.42160170568049
 20
-46.48908536628858
 30
0.0
 40
3.0
  1
画像解像度
100
AcDbText
  0
TEXT
  5
1EC
330
2
100
AcDbEntity
  8
MOJI1
100
AcDbText
 10
-61.42160170568049
 20
-41.48908536628858
 30
0.0
 40
3.0
  1
ネットワーク
100
AcDbText
  0
LINE
  5
1ED
330
2
100
AcDbEntity
  8
WAKU
 62
     1
100
AcDbLine
 10
-63.92160170568049
 20
-42.48908536628857
 30
0.0
 11
61.07839829431957
 21
-42.48908536628857
 31
0.0
  0
TEXT
  5
1EE
330
2
100
AcDbEntity
  8
MOJI1
100
AcDbText
 10
-21.42160170568049
 20
-41.48908536628858
 30
0.0
 40
3.0
  1
１０ＢＡＳＥ－Ｔ／１００ＢＡＳＥ－ＴＸ、ＲＪ４５コネクター
 41
0.75
100
AcDbText
  0
TEXT
  5
1EF
330
2
100
AcDbEntity
  8
MOJI1
100
AcDbText
 10
-21.42160170568049
 20
-36.48908536628858
 30
0.0
 40
3.0
  1
水平：１．９° ～５２°垂直：１．４° ～４０°
100
AcDbText
  0
LINE
  5
1F0
330
2
100
AcDbEntity
  8
WAKU
 62
     1
100
AcDbLine
 10
-63.92160170568049
 20
-37.48908536628858
 30
0.0
 11
61.07839829431957
 21
-37.48908536628858
 31
0.0
  0
TEXT
  5
1F1
330
2
100
AcDbEntity
  8
MOJI1
100
AcDbText
 10
-61.42160170568049
 20
-36.48908536628858
 30
0.0
 40
3.0
  1
画　角
100
AcDbText
  0
LINE
  5
1F2
330
2
100
AcDbEntity
  8
WAKU
 62
     4
100
AcDbLine
 10
61.07839829431957
 20
-57.48908536628857
 30
0.0
 11
61.07839829431957
 21
-2.489085366288577
 31
0.0
  0
TEXT
  5
1F3
330
2
100
AcDbEntity
  8
MOJI1
100
AcDbText
 10
-61.42160170568049
 20
-11.48908536628858
 30
0.0
 40
3.0
  1
撮像素子
100
AcDbText
  0
TEXT
  5
1F4
330
2
100
AcDbEntity
  8
MOJI1
100
AcDbText
 10
-61.42160170568049
 20
-6.489085366288577
 30
0.0
 40
3.0
  1
電　源
100
AcDbText
  0
TEXT
  5
1F5
330
2
100
AcDbEntity
  8
MOJI1
100
AcDbText
 10
-61.42160170568049
 20
-31.48908536628858
 30
0.0
 40
3.0
  1
ズーム比
100
AcDbText
  0
TEXT
  5
1F6
330
2
100
AcDbEntity
  8
MOJI1
100
AcDbText
 10
-61.42160170568049
 20
-16.48908536628858
 30
0.0
 40
3.0
  1
最低照度
100
AcDbText
  0
TEXT
  5
1F7
330
2
100
AcDbEntity
  8
MOJI1
100
AcDbText
 10
-61.42160170568049
 20
-21.48908536628858
 30
0.0
 40
3.0
  1
ダイナミックレンジ
100
AcDbText
  0
TEXT
  5
1F8
330
2
100
AcDbEntity
  8
MOJI1
100
AcDbText
 10
-21.42160170568049
 20
-21.48908536628858
 30
0.0
 40
3.0
  1
５２ｄＢ／ｔｙｐ
100
AcDbText
  0
TEXT
  5
1F9
330
2
100
AcDbEntity
  8
MOJI1
100
AcDbText
 10
-21.42160170568049
 20
-16.48908536628858
 30
0.0
 40
3.0
  1
０．５ルクス（カラー)　０．０４ルクス（白黒)
100
AcDbText
  0
TEXT
  5
1FA
330
2
100
AcDbEntity
  8
MOJI1
100
AcDbText
 10
-21.42160170568049
 20
-6.489085366288577
 30
0.0
 40
3.0
  1
ＡＣ１００Ｖ　５０／６０Ｈｚ　８５Ｗ
100
AcDbText
  0
LINE
  5
1FB
330
2
100
AcDbEntity
  8
WAKU
 62
     4
100
AcDbLine
 10
-23.92160170568049
 20
-57.48908536628857
 30
0.0
 11
-23.92160170568049
 21
-2.489085366288577
 31
0.0
  0
LINE
  5
1FC
330
2
100
AcDbEntity
  8
WAKU
 62
     4
100
AcDbLine
 10
-63.92160170568049
 20
-2.489085366288577
 30
0.0
 11
-63.92160170568049
 21
-57.48908536628857
 31
0.0
  0
TEXT
  5
1FD
330
2
100
AcDbEntity
  8
MOJI1
100
AcDbText
 10
-21.42160170568049
 20
-31.48908536628858
 30
0.0
 40
3.0
  1
３０倍
100
AcDbText
  0
TEXT
  5
1FE
330
2
100
AcDbEntity
  8
MOJI1
100
AcDbText
 10
-21.42160170568049
 20
-11.48908536628858
 30
0.0
 40
3.0
  1
１／４型インターライン転送方式ＣＣＤ
100
AcDbText
  0
LINE
  5
1FF
330
2
100
AcDbEntity
  8
WAKU
 62
     1
100
AcDbLine
 10
-63.92160170568049
 20
-17.48908536628858
 30
0.0
 11
61.07839829431957
 21
-17.48908536628858
 31
0.0
  0
LINE
  5
200
330
2
100
AcDbEntity
  8
WAKU
 62
     4
100
AcDbLine
 10
-63.92160170568049
 20
-57.48908536628857
 30
0.0
 11
61.07839829431957
 21
-57.48908536628857
 31
0.0
  0
LINE
  5
201
330
2
100
AcDbEntity
  8
WAKU
 62
     4
100
AcDbLine
 10
61.07839829431957
 20
-2.489085366288577
 30
0.0
 11
-63.92160170568049
 21
-2.489085366288577
 31
0.0
  0
LINE
  5
202
330
2
100
AcDbEntity
  8
WAKU
 62
     1
100
AcDbLine
 10
-63.92160170568049
 20
-32.48908536628858
 30
0.0
 11
61.07839829431957
 21
-32.48908536628858
 31
0.0
  0
LINE
  5
203
330
2
100
AcDbEntity
  8
WAKU
 62
     1
100
AcDbLine
 10
-63.92160170568049
 20
-27.48908536628858
 30
0.0
 11
61.07839829431957
 21
-27.48908536628858
 31
0.0
  0
LINE
  5
204
330
2
100
AcDbEntity
  8
WAKU
 62
     1
100
AcDbLine
 10
-63.92160170568049
 20
-22.48908536628858
 30
0.0
 11
61.07839829431957
 21
-22.48908536628858
 31
0.0
  0
LINE
  5
205
330
2
100
AcDbEntity
  8
WAKU
 62
     1
100
AcDbLine
 10
-63.92160170568049
 20
-12.48908536628858
 30
0.0
 11
61.07839829431957
 21
-12.48908536628858
 31
0.0
  0
LINE
  5
206
330
2
100
AcDbEntity
  8
WAKU
 62
     1
100
AcDbLine
 10
-63.92160170568049
 20
-7.489085366288577
 30
0.0
 11
61.07839829431957
 21
-7.489085366288577
 31
0.0
  0
ENDSEC
  0
SECTION
  2
OBJECTS
  0
DICTIONARY
  5
7
330
0
100
AcDbDictionary
281
     1
  3
ACAD_COLOR
350
25
  3
ACAD_GROUP
350
21
  3
ACAD_LAYOUT
350
B
  3
ACAD_MATERIAL
350
24
  3
ACAD_MLINESTYLE
350
22
  3
ACAD_PLOTSETTINGS
350
23
  3
ACAD_PLOTSTYLENAME
350
6
  3
ACDBHEADERROUNDTRIPXREC
350
254
  3
AcDbVariableDictionary
350
24F
  3
ASE_INDEX_DICTIONARY
350
20F
  0
DICTIONARY
  5
11
330
10
100
AcDbDictionary
280
     1
281
     1
  3
ACAD_LAYERSTATES
360
12
  0
DICTIONARY
  5
25
102
{ACAD_REACTORS
330
7
102
}
330
7
100
AcDbDictionary
281
     1
  0
DICTIONARY
  5
21
102
{ACAD_REACTORS
330
7
102
}
330
7
100
AcDbDictionary
281
     1
  0
DICTIONARY
  5
B
102
{ACAD_REACTORS
330
7
102
}
330
7
100
AcDbDictionary
281
     1
  3
Model
350
A
  3
レイアウト1
350
F
  0
DICTIONARY
  5
24
102
{ACAD_REACTORS
330
7
102
}
330
7
100
AcDbDictionary
281
     1
  0
DICTIONARY
  5
22
102
{ACAD_REACTORS
330
7
102
}
330
7
100
AcDbDictionary
281
     1
  3
Standard
350
27
  0
DICTIONARY
  5
23
102
{ACAD_REACTORS
330
7
102
}
330
7
100
AcDbDictionary
281
     1
  0
ACDBDICTIONARYWDFLT
  5
6
102
{ACAD_REACTORS
330
7
102
}
330
7
100
AcDbDictionary
281
     1
  3
Normal
350
5
100
AcDbDictionaryWithDefault
340
5
  0
DICTIONARY
  5
254
102
{ACAD_REACTORS
330
7
102
}
330
7
100
AcDbDictionary
281
     1
  3
COLORDICT
350
256
  3
MATERIALDICT
350
255
  0
DICTIONARY
  5
24F
102
{ACAD_REACTORS
330
7
102
}
330
7
100
AcDbDictionary
281
     1
  3
DIMASSOC
350
251
  3
HIDETEXT
350
250
  3
PROJECTNAME
350
252
  0
DICTIONARY
  5
20F
102
{ACAD_REACTORS
330
7
102
}
330
7
100
AcDbDictionary
281
     1
  3
ASEBlockHierarchyIndexRecord
350
211
1001
DCO15
1040
1647174849.551
  0
DICTIONARY
  5
12
102
{ACAD_REACTORS
330
11
102
}
330
11
100
AcDbDictionary
281
     1
  0
LAYOUT
  5
A
102
{ACAD_XDICTIONARY
360
257
102
}
102
{ACAD_REACTORS
330
B
102
}
330
B
100
AcDbPlotSettings
  1

  2
Ａ４－縦3FRIM01.pc3
  4
A4
  6

 40
5.873749732971191
 41
5.873747825622558
 42
5.873748779296875
 43
5.873748779296875
 44
209.9733276367187
 45
296.9259948730469
 46
5.429999999999999
 47
0.0
 48
0.0
 49
0.0
140
0.0
141
0.0
142
1.0
143
1.382388793903341
 70
 11956
 72
     1
 73
     0
 74
     1
  7
tmsacad.ctb
 75
     0
147
0.7233854935820042
148
0.0064050313486632
149
0.0060110292993159
100
AcDbLayout
  1
Model
 70
     1
 71
     0
 10
0.0
 20
0.0
 11
12.0
 21
9.0
 12
0.0
 22
0.0
 32
0.0
 14
0.0
 24
0.0
 34
0.0
 15
0.0
 25
0.0
 35
0.0
146
0.0
 13
0.0
 23
0.0
 33
0.0
 16
1.0
 26
0.0
 36
0.0
 17
0.0
 27
1.0
 37
0.0
 76
     0
330
2
  0
LAYOUT
  5
F
102
{ACAD_XDICTIONARY
360
259
102
}
102
{ACAD_REACTORS
330
B
102
}
330
B
100
AcDbPlotSettings
  1

  2
None
  4

  6

 40
0.0
 41
0.0
 42
0.0
 43
0.0
 44
0.0
 45
0.0
 46
0.0
 47
0.0
 48
0.0
 49
0.0
140
0.0
141
0.0
142
1.0
143
1.0
 70
   688
 72
     0
 73
     0
 74
     5
  7
tmsacad.ctb
 75
    16
147
1.0
148
0.0
149
0.0
100
AcDbLayout
  1
レイアウト1
 70
     1
 71
     1
 10
0.0
 20
0.0
 11
12.0
 21
9.0
 12
0.0
 22
0.0
 32
0.0
 14
0.0
 24
0.0
 34
0.0
 15
0.0
 25
0.0
 35
0.0
146
0.0
 13
0.0
 23
0.0
 33
0.0
 16
1.0
 26
0.0
 36
0.0
 17
0.0
 27
1.0
 37
0.0
 76
     0
330
C
  0
MLINESTYLE
  5
27
102
{ACAD_REACTORS
330
22
102
}
330
22
100
AcDbMlineStyle
  2
STANDARD
 70
     0
  3

 62
   256
 51
90.0
 52
90.0
 71
     2
 49
0.5
 62
   256
  6
BYLAYER
 49
-0.5
 62
   256
  6
BYLAYER
  0
ACDBPLACEHOLDER
  5
5
102
{ACAD_REACTORS
330
6
102
}
330
6
  0
XRECORD
  5
256
102
{ACAD_REACTORS
330
254
102
}
330
254
100
AcDbXrecord
280
     1
340
25
  0
XRECORD
  5
255
102
{ACAD_REACTORS
330
254
102
}
330
254
100
AcDbXrecord
280
     1
340
24
  0
DICTIONARYVAR
  5
251
102
{ACAD_REACTORS
330
24F
102
}
330
24F
100
DictionaryVariables
280
     0
  1
2
  0
DICTIONARYVAR
  5
250
102
{ACAD_REACTORS
330
24F
102
}
330
24F
100
DictionaryVariables
280
     0
  1
1
  0
DICTIONARYVAR
  5
252
102
{ACAD_REACTORS
330
24F
102
}
330
24F
100
DictionaryVariables
280
     0
  1

  0
XRECORD
  5
211
102
{ACAD_REACTORS
330
20F
102
}
330
20F
100
AcDbXrecord
280
     1
330
99
330
9A
330
8C
330
8D
330
7E
330
7F
330
70
330
71
330
222
330
223
330
22F
330
230
330
23B
330
23C
330
247
330
248
  0
DICTIONARY
  5
257
330
A
100
AcDbDictionary
280
     1
281
     1
  3
ACAD_XREC_ROUNDTRIP
360
258
  0
DICTIONARY
  5
259
330
F
100
AcDbDictionary
280
     1
281
     1
  3
ACAD_XREC_ROUNDTRIP
360
25A
  0
XRECORD
  5
258
102
{ACAD_REACTORS
330
257
102
}
330
257
100
AcDbXrecord
280
     1
102
SHADEPLOT
 70
     0
102
SHADEPLOTRESLEVEL
 70
     2
102
SHADEPLOTCUSTOMDPI
 70
   300
  0
XRECORD
  5
25A
102
{ACAD_REACTORS
330
259
102
}
330
259
100
AcDbXrecord
280
     1
102
SHADEPLOT
 70
     0
102
SHADEPLOTRESLEVEL
 70
     2
102
SHADEPLOTCUSTOMDPI
 70
   300
  0
ENDSEC
  0
EOF
