  0
SECTION
  2
HEADER
  9
$ACADVER
  1
AC1015
  9
$ACADMAINTVER
 70
    20
  9
$DWGCODEPAGE
  3
ANSI_932
  9
$INSBASE
 10
0.4999999440410648
 20
372.5008351249344
 30
0.0
  9
$EXTMIN
 10
-63.6511221430859
 20
-58.22080931279436
 30
-0.0015258207003583
  9
$EXTMAX
 10
61.38244684946551
 20
54.53187601958848
 30
0.0000000349246037
  9
$LIMMIN
 10
0.0
 20
0.0
  9
$LIMMAX
 10
420.0
 20
297.0
  9
$ORTHOMODE
 70
     1
  9
$REGENMODE
 70
     0
  9
$FILLMODE
 70
     1
  9
$QTEXTMODE
 70
     0
  9
$MIRRTEXT
 70
     0
  9
$LTSCALE
 40
1.0
  9
$ATTMODE
 70
     1
  9
$TEXTSIZE
 40
2.5
  9
$TRACEWID
 40
1.0
  9
$TEXTSTYLE
  7
Standard
  9
$CLAYER
  8
GAIKEI
  9
$CELTYPE
  6
ByLayer
  9
$CECOLOR
 62
   256
  9
$CELTSCALE
 40
1.0
  9
$DISPSILH
 70
     0
  9
$DIMSCALE
 40
1.0
  9
$DIMASZ
 40
2.0
  9
$DIMEXO
 40
2.0
  9
$DIMDLI
 40
8.0
  9
$DIMRND
 40
0.0
  9
$DIMDLE
 40
0.0
  9
$DIMEXE
 40
2.0
  9
$DIMTP
 40
0.0
  9
$DIMTM
 40
0.0
  9
$DIMTXT
 40
2.5
  9
$DIMCEN
 40
0.0
  9
$DIMTSZ
 40
0.0
  9
$DIMTOL
 70
     0
  9
$DIMLIM
 70
     0
  9
$DIMTIH
 70
     0
  9
$DIMTOH
 70
     0
  9
$DIMSE1
 70
     0
  9
$DIMSE2
 70
     0
  9
$DIMTAD
 70
     3
  9
$DIMZIN
 70
     0
  9
$DIMBLK
  1

  9
$DIMASO
 70
     1
  9
$DIMSHO
 70
     1
  9
$DIMPOST
  1

  9
$DIMAPOST
  1

  9
$DIMALT
 70
     0
  9
$DIMALTD
 70
     2
  9
$DIMALTF
 40
25.4
  9
$DIMLFAC
 40
1.0
  9
$DIMTOFL
 70
     1
  9
$DIMTVP
 40
0.0
  9
$DIMTIX
 70
     0
  9
$DIMSOXD
 70
     0
  9
$DIMSAH
 70
     1
  9
$DIMBLK1
  1
OPEN30
  9
$DIMBLK2
  1
OPEN30
  9
$DIMSTYLE
  2
STANDARD
  9
$DIMCLRD
 70
     0
  9
$DIMCLRE
 70
     0
  9
$DIMCLRT
 70
     0
  9
$DIMTFAC
 40
1.0
  9
$DIMGAP
 40
0.5
  9
$DIMJUST
 70
     0
  9
$DIMSD1
 70
     0
  9
$DIMSD2
 70
     0
  9
$DIMTOLJ
 70
     1
  9
$DIMTZIN
 70
     0
  9
$DIMALTZ
 70
     0
  9
$DIMALTTZ
 70
     0
  9
$DIMUPT
 70
     0
  9
$DIMDEC
 70
     4
  9
$DIMTDEC
 70
     4
  9
$DIMALTU
 70
     2
  9
$DIMALTTD
 70
     2
  9
$DIMTXSTY
  7
Standard
  9
$DIMAUNIT
 70
     0
  9
$DIMADEC
 70
     0
  9
$DIMALTRND
 40
0.0
  9
$DIMAZIN
 70
     0
  9
$DIMDSEP
 70
    46
  9
$DIMATFIT
 70
     3
  9
$DIMFRAC
 70
     0
  9
$DIMLDRBLK
  1
OPEN30
  9
$DIMLUNIT
 70
     2
  9
$DIMLWD
 70
    -2
  9
$DIMLWE
 70
    -2
  9
$DIMTMOVE
 70
     0
  9
$LUNITS
 70
     2
  9
$LUPREC
 70
     4
  9
$SKETCHINC
 40
1.0
  9
$FILLETRAD
 40
0.0
  9
$AUNITS
 70
     0
  9
$AUPREC
 70
     0
  9
$MENU
  1
.
  9
$ELEVATION
 40
0.0
  9
$PELEVATION
 40
0.0
  9
$THICKNESS
 40
0.0
  9
$LIMCHECK
 70
     0
  9
$CHAMFERA
 40
0.0
  9
$CHAMFERB
 40
0.0
  9
$CHAMFERC
 40
0.0
  9
$CHAMFERD
 40
0.0
  9
$SKPOLY
 70
     0
  9
$TDCREATE
 40
2454349.434269746
  9
$TDUCREATE
 40
2454349.059269746
  9
$TDUPDATE
 40
2454495.656736829
  9
$TDUUPDATE
 40
2454495.281736829
  9
$TDINDWG
 40
0.1258335185
  9
$TDUSRTIMER
 40
0.1258335185
  9
$USRTIMER
 70
     1
  9
$ANGBASE
 50
0.0
  9
$ANGDIR
 70
     0
  9
$PDMODE
 70
     0
  9
$PDSIZE
 40
0.0
  9
$PLINEWID
 40
0.0
  9
$SPLFRAME
 70
     0
  9
$SPLINETYPE
 70
     6
  9
$SPLINESEGS
 70
     8
  9
$HANDSEED
  5
180
  9
$SURFTAB1
 70
     6
  9
$SURFTAB2
 70
     6
  9
$SURFTYPE
 70
     6
  9
$SURFU
 70
     6
  9
$SURFV
 70
     6
  9
$UCSBASE
  2

  9
$UCSNAME
  2

  9
$UCSORG
 10
0.0
 20
0.0
 30
0.0
  9
$UCSXDIR
 10
1.0
 20
0.0
 30
0.0
  9
$UCSYDIR
 10
0.0
 20
1.0
 30
0.0
  9
$UCSORTHOREF
  2

  9
$UCSORTHOVIEW
 70
     0
  9
$UCSORGTOP
 10
0.0
 20
0.0
 30
0.0
  9
$UCSORGBOTTOM
 10
0.0
 20
0.0
 30
0.0
  9
$UCSORGLEFT
 10
0.0
 20
0.0
 30
0.0
  9
$UCSORGRIGHT
 10
0.0
 20
0.0
 30
0.0
  9
$UCSORGFRONT
 10
0.0
 20
0.0
 30
0.0
  9
$UCSORGBACK
 10
0.0
 20
0.0
 30
0.0
  9
$PUCSBASE
  2

  9
$PUCSNAME
  2

  9
$PUCSORG
 10
0.0
 20
0.0
 30
0.0
  9
$PUCSXDIR
 10
1.0
 20
0.0
 30
0.0
  9
$PUCSYDIR
 10
0.0
 20
1.0
 30
0.0
  9
$PUCSORTHOREF
  2

  9
$PUCSORTHOVIEW
 70
     0
  9
$PUCSORGTOP
 10
0.0
 20
0.0
 30
0.0
  9
$PUCSORGBOTTOM
 10
0.0
 20
0.0
 30
0.0
  9
$PUCSORGLEFT
 10
0.0
 20
0.0
 30
0.0
  9
$PUCSORGRIGHT
 10
0.0
 20
0.0
 30
0.0
  9
$PUCSORGFRONT
 10
0.0
 20
0.0
 30
0.0
  9
$PUCSORGBACK
 10
0.0
 20
0.0
 30
0.0
  9
$USERI1
 70
     0
  9
$USERI2
 70
     0
  9
$USERI3
 70
     0
  9
$USERI4
 70
     0
  9
$USERI5
 70
     0
  9
$USERR1
 40
0.0
  9
$USERR2
 40
0.0
  9
$USERR3
 40
0.0
  9
$USERR4
 40
0.0
  9
$USERR5
 40
0.0
  9
$WORLDVIEW
 70
     1
  9
$SHADEDGE
 70
     3
  9
$SHADEDIF
 70
    70
  9
$TILEMODE
 70
     1
  9
$MAXACTVP
 70
    64
  9
$PINSBASE
 10
0.0
 20
0.0
 30
0.0
  9
$PLIMCHECK
 70
     0
  9
$PEXTMIN
 10
0.0
 20
0.0
 30
0.0
  9
$PEXTMAX
 10
0.0
 20
0.0
 30
0.0
  9
$PLIMMIN
 10
0.0
 20
0.0
  9
$PLIMMAX
 10
12.0
 20
9.0
  9
$UNITMODE
 70
     0
  9
$VISRETAIN
 70
     1
  9
$PLINEGEN
 70
     0
  9
$PSLTSCALE
 70
     1
  9
$TREEDEPTH
 70
  3020
  9
$CMLSTYLE
  2
Standard
  9
$CMLJUST
 70
     0
  9
$CMLSCALE
 40
20.0
  9
$PROXYGRAPHICS
 70
     1
  9
$MEASUREMENT
 70
     1
  9
$CELWEIGHT
370
    -1
  9
$ENDCAPS
280
     0
  9
$JOINSTYLE
280
     0
  9
$LWDISPLAY
290
     0
  9
$INSUNITS
 70
     4
  9
$HYPERLINKBASE
  1

  9
$STYLESHEET
  1

  9
$XEDIT
290
     1
  9
$CEPSNTYPE
380
     0
  9
$PSTYLEMODE
290
     1
  9
$FINGERPRINTGUID
  2
{FDEAD578-A652-11D2-9A35-0060089B3A3F}
  9
$VERSIONGUID
  2
{1D62D354-56F5-4AD5-88DA-D88566986647}
  9
$EXTNAMES
290
     1
  9
$PSVPSCALE
 40
0.0
  9
$OLESTARTUP
290
     0
  0
ENDSEC
  0
SECTION
  2
CLASSES
  0
CLASS
  1
ACDBDICTIONARYWDFLT
  2
AcDbDictionaryWithDefault
  3
ObjectDBX Classes
 90
        0
280
     0
281
     0
  0
CLASS
  1
ACDBPLACEHOLDER
  2
AcDbPlaceHolder
  3
ObjectDBX Classes
 90
        0
280
     0
281
     0
  0
CLASS
  1
LAYOUT
  2
AcDbLayout
  3
ObjectDBX Classes
 90
        0
280
     0
281
     0
  0
CLASS
  1
DICTIONARYVAR
  2
AcDbDictionaryVar
  3
ObjectDBX Classes
 90
        0
280
     0
281
     0
  0
ENDSEC
  0
SECTION
  2
TABLES
  0
TABLE
  2
VPORT
  5
1B
330
0
100
AcDbSymbolTable
 70
     3
  0
VPORT
  5
178
330
1B
100
AcDbSymbolTableRecord
100
AcDbViewportTableRecord
  2
*Active
 70
     0
 10
0.0
 20
0.0
 11
1.0
 21
1.0
 12
-1.134337646810195
 22
-1.844466646602938
 13
0.0
 23
0.0
 14
10.0
 24
10.0
 15
10.0
 25
10.0
 16
0.0
 26
0.0
 36
1.0
 17
0.0
 27
0.0
 37
0.0
 40
113.6440109081329
 41
1.448548812664907
 42
50.0
 43
0.0
 44
0.0
 50
0.0
 51
0.0
 71
     0
 72
  1000
 73
     1
 74
     2
 75
     0
 76
     0
 77
     0
 78
     0
281
     0
 65
     1
110
0.0
120
0.0
130
0.0
111
1.0
121
0.0
131
0.0
112
0.0
122
1.0
132
0.0
 79
     0
146
0.0
  0
ENDTAB
  0
TABLE
  2
LTYPE
  5
16
330
0
100
AcDbSymbolTable
 70
     2
  0
LTYPE
  5
17
330
16
100
AcDbSymbolTableRecord
100
AcDbLinetypeTableRecord
  2
ByBlock
 70
     0
  3

 72
    65
 73
     0
 40
0.0
  0
LTYPE
  5
18
330
16
100
AcDbSymbolTableRecord
100
AcDbLinetypeTableRecord
  2
ByLayer
 70
     0
  3

 72
    65
 73
     0
 40
0.0
  0
LTYPE
  5
8
330
16
100
AcDbSymbolTableRecord
100
AcDbLinetypeTableRecord
  2
Continuous
 70
     0
  3
Solid line
 72
    65
 73
     0
 40
0.0
  0
LTYPE
  5
C6
330
16
100
AcDbSymbolTableRecord
100
AcDbLinetypeTableRecord
  2
PHANTOM
 70
     0
  3
Phantom
 72
    65
 73
     6
 40
2.5
 49
1.25
 74
     0
 49
-0.25
 74
     0
 49
0.25
 74
     0
 49
-0.25
 74
     0
 49
0.25
 74
     0
 49
-0.25
 74
     0
  0
ENDTAB
  0
TABLE
  2
LAYER
  5
10
102
{ACAD_XDICTIONARY
360
11
102
}
330
0
100
AcDbSymbolTable
 70
     7
  0
LAYER
  5
4
330
10
100
AcDbSymbolTableRecord
100
AcDbLayerTableRecord
  2
0
 70
     0
 62
     7
  6
Continuous
370
    -3
390
5
  0
LAYER
  5
11F
330
10
100
AcDbSymbolTableRecord
100
AcDbLayerTableRecord
  2
WAKU
 70
     0
 62
     4
  6
Continuous
370
    -3
390
5
  0
LAYER
  5
30
330
10
100
AcDbSymbolTableRecord
100
AcDbLayerTableRecord
  2
MOJI1
 70
     0
 62
     2
  6
Continuous
370
    -3
390
5
  0
LAYER
  5
118
330
10
100
AcDbSymbolTableRecord
100
AcDbLayerTableRecord
  2
TOUROKU
 70
     0
 62
     1
  6
Continuous
370
    -3
390
5
  0
LAYER
  5
2D
330
10
100
AcDbSymbolTableRecord
100
AcDbLayerTableRecord
  2
GAIKEI
 70
     0
 62
     7
  6
Continuous
370
    -3
390
5
  0
LAYER
  5
3D
330
10
100
AcDbSymbolTableRecord
100
AcDbLayerTableRecord
  2
Defpoints
 70
     0
 62
     7
  6
Continuous
290
     0
370
    -3
390
5
  0
LAYER
  5
33
330
10
100
AcDbSymbolTableRecord
100
AcDbLayerTableRecord
  2
SUNPO
 70
     0
 62
     3
  6
Continuous
370
    -3
390
5
  0
ENDTAB
  0
TABLE
  2
STYLE
  5
13
330
0
100
AcDbSymbolTable
 70
     1
  0
STYLE
  5
14
330
13
100
AcDbSymbolTableRecord
100
AcDbTextStyleTableRecord
  2
Standard
 70
     0
 40
0.0
 41
1.0
 50
0.0
 71
     0
 42
2.5
  3
MONOTXT.shx
  4
BIGFONT.shx
  0
ENDTAB
  0
TABLE
  2
VIEW
  5
19
330
0
100
AcDbSymbolTable
 70
     0
  0
ENDTAB
  0
TABLE
  2
UCS
  5
1A
330
0
100
AcDbSymbolTable
 70
     0
  0
ENDTAB
  0
TABLE
  2
APPID
  5
1D
330
0
100
AcDbSymbolTable
 70
     1
  0
APPID
  5
1E
330
1D
100
AcDbSymbolTableRecord
100
AcDbRegAppTableRecord
  2
ACAD
 70
     0
  0
ENDTAB
  0
TABLE
  2
DIMSTYLE
  5
1F
330
0
100
AcDbSymbolTable
 70
     1
100
AcDbDimStyleTable
 71
     1
340
20
  0
DIMSTYLE
105
20
102
{ACAD_REACTORS
330
4E
330
41
330
32
102
}
330
1F
100
AcDbSymbolTableRecord
100
AcDbDimStyleTableRecord
  2
STANDARD
 70
     0
 40
0.0
 41
2.0
 42
2.0
 43
8.0
 44
2.0
 73
     0
 74
     0
 77
     3
140
3.0
141
0.0
173
     1
279
     2
288
     1
340
14
341
21
343
21
344
21
  0
ENDTAB
  0
TABLE
  2
BLOCK_RECORD
  5
1
330
0
100
AcDbSymbolTable
 70
     7
  0
BLOCK_RECORD
  5
2
330
1
100
AcDbSymbolTableRecord
100
AcDbBlockTableRecord
  2
*Model_Space
340
A
  0
BLOCK_RECORD
  5
C
330
1
100
AcDbSymbolTableRecord
100
AcDbBlockTableRecord
  2
*Paper_Space
340
F
  0
BLOCK_RECORD
  5
21
330
1
100
AcDbSymbolTableRecord
100
AcDbBlockTableRecord
  2
_OPEN30
340
0
102
{BLKREFS
331
39
331
3A
331
47
331
48
331
55
331
56
331
154
331
155
331
160
331
161
331
16C
331
16D
102
}
  0
BLOCK_RECORD
  5
4F
330
1
100
AcDbSymbolTableRecord
100
AcDbBlockTableRecord
  2
*D1
340
0
  0
BLOCK_RECORD
  5
42
330
1
100
AcDbSymbolTableRecord
100
AcDbBlockTableRecord
  2
*D2
340
0
  0
BLOCK_RECORD
  5
34
330
1
100
AcDbSymbolTableRecord
100
AcDbBlockTableRecord
  2
*D3
340
0
  0
BLOCK_RECORD
  5
14F
330
1
100
AcDbSymbolTableRecord
100
AcDbBlockTableRecord
  2
*D4
340
0
  0
BLOCK_RECORD
  5
15C
330
1
100
AcDbSymbolTableRecord
100
AcDbBlockTableRecord
  2
*D5
340
0
  0
BLOCK_RECORD
  5
168
330
1
100
AcDbSymbolTableRecord
100
AcDbBlockTableRecord
  2
*D6
340
0
  0
ENDTAB
  0
ENDSEC
  0
SECTION
  2
BLOCKS
  0
BLOCK
  5
3
330
2
100
AcDbEntity
  8
0
100
AcDbBlockBegin
  2
*Model_Space
 70
     0
 10
0.0
 20
0.0
 30
0.0
  3
*Model_Space
  1

  0
ENDBLK
  5
9
330
2
100
AcDbEntity
  8
0
100
AcDbBlockEnd
  0
BLOCK
  5
D
330
C
100
AcDbEntity
 67
     1
  8
0
100
AcDbBlockBegin
  2
*Paper_Space
 70
     0
 10
0.0
 20
0.0
 30
0.0
  3
*Paper_Space
  1

  0
ENDBLK
  5
E
330
C
100
AcDbEntity
 67
     1
  8
0
100
AcDbBlockEnd
  0
BLOCK
  5
22
330
21
100
AcDbEntity
  8
0
100
AcDbBlockBegin
  2
_OPEN30
 70
     0
 10
0.0
 20
0.0
 30
0.0
  3
_OPEN30
  1

  0
LINE
  5
23
330
21
100
AcDbEntity
  8
0
  6
ByBlock
 62
     0
100
AcDbLine
 10
-1.0
 20
0.26794919
 30
0.0
 11
0.0
 21
0.0
 31
0.0
  0
LINE
  5
24
330
21
100
AcDbEntity
  8
0
  6
ByBlock
 62
     0
100
AcDbLine
 10
0.0
 20
0.0
 30
0.0
 11
-1.0
 21
-0.26794919
 31
0.0
  0
LINE
  5
25
330
21
100
AcDbEntity
  8
0
  6
ByBlock
 62
     0
100
AcDbLine
 10
0.0
 20
0.0
 30
0.0
 11
-1.0
 21
0.0
 31
0.0
  0
ENDBLK
  5
26
330
21
100
AcDbEntity
  8
0
100
AcDbBlockEnd
  0
BLOCK
  5
50
330
4F
100
AcDbEntity
  8
0
100
AcDbBlockBegin
  2
*D1
 70
     1
 10
0.0
 20
0.0
 30
0.0
  3
*D1
  1

  0
LINE
  5
51
330
4F
100
AcDbEntity
  8
SUNPO
 62
     0
370
    -2
100
AcDbLine
 10
35.48405316024034
 20
324.1249967037081
 30
0.0
 11
35.48405316024034
 21
316.1249967037081
 31
0.0
  0
LINE
  5
52
330
4F
100
AcDbEntity
  8
SUNPO
 62
     0
370
    -2
100
AcDbLine
 10
50.93405316024038
 20
324.1249967037081
 30
0.0
 11
50.93405316024038
 21
316.1249967037081
 31
0.0
  0
LINE
  5
53
330
4F
100
AcDbEntity
  8
SUNPO
 62
     0
370
    -2
100
AcDbLine
 10
37.48405316024034
 20
318.1249967037081
 30
0.0
 11
48.93405316024038
 21
318.1249967037081
 31
0.0
  0
LINE
  5
54
330
4F
100
AcDbEntity
  8
SUNPO
 62
     0
370
    -2
100
AcDbLine
 10
50.93405316024038
 20
318.1249967037081
 30
0.0
 11
68.60071982690704
 21
318.1249967037081
 31
0.0
  0
INSERT
  5
55
330
4F
100
AcDbEntity
  8
SUNPO
 62
     0
370
    -2
100
AcDbBlockReference
  2
_OPEN30
 10
35.48405316024034
 20
318.1249967037081
 30
0.0
 41
2.0
 42
2.0
 43
2.0
 50
180.0
  0
INSERT
  5
56
330
4F
100
AcDbEntity
  8
SUNPO
 62
     0
370
    -2
100
AcDbBlockReference
  2
_OPEN30
 10
50.93405316024038
 20
318.1249967037081
 30
0.0
 41
2.0
 42
2.0
 43
2.0
  0
MTEXT
  5
57
330
4F
100
AcDbEntity
  8
SUNPO
 62
     0
100
AcDbMText
 10
60.76738649357371
 20
319.8749967037081
 30
0.0
 40
2.5
 41
0.0
 71
     5
 72
     1
  1
\A1;φ154.5
 73
     1
 44
1.0
1001
ACAD
1000
MTEXTBEGIN
1070
    73
1070
     1
1070
    44
1040
1.0
1070
    74
1070
     0
1000
MTEXTEND
  0
POINT
  5
58
330
4F
100
AcDbEntity
  8
Defpoints
 62
     0
100
AcDbPoint
 10
35.48405316024034
 20
326.1249967037081
 30
0.0
  0
POINT
  5
59
330
4F
100
AcDbEntity
  8
Defpoints
 62
     0
100
AcDbPoint
 10
50.93405316024038
 20
326.1249967037081
 30
0.0
  0
POINT
  5
5A
330
4F
100
AcDbEntity
  8
Defpoints
 62
     0
100
AcDbPoint
 10
50.93405316024038
 20
318.1249967037081
 30
0.0
  0
ENDBLK
  5
5B
330
4F
100
AcDbEntity
  8
0
100
AcDbBlockEnd
  0
BLOCK
  5
43
330
42
100
AcDbEntity
  8
0
100
AcDbBlockBegin
  2
*D2
 70
     1
 10
0.0
 20
0.0
 30
0.0
  3
*D2
  1

  0
LINE
  5
44
330
42
100
AcDbEntity
  8
SUNPO
 62
     0
370
    -2
100
AcDbLine
 10
54.74242652468436
 20
324.2450344727421
 30
0.0
 11
62.74242652468435
 21
324.2450344727421
 31
0.0
  0
LINE
  5
45
330
42
100
AcDbEntity
  8
SUNPO
 62
     0
370
    -2
100
AcDbLine
 10
54.74242652468436
 20
347.544317771766
 30
0.0
 11
62.74242652468436
 21
347.544317771766
 31
0.0
  0
LINE
  5
46
330
42
100
AcDbEntity
  8
SUNPO
 62
     0
370
    -2
100
AcDbLine
 10
60.74242652468435
 20
326.2450344727421
 30
0.0
 11
60.74242652468436
 21
345.544317771766
 31
0.0
  0
INSERT
  5
47
330
42
100
AcDbEntity
  8
SUNPO
 62
     0
370
    -2
100
AcDbBlockReference
  2
_OPEN30
 10
60.74242652468435
 20
324.2450344727421
 30
0.0
 41
2.0
 42
2.0
 43
2.0
 50
270.0
  0
INSERT
  5
48
330
42
100
AcDbEntity
  8
SUNPO
 62
     0
370
    -2
100
AcDbBlockReference
  2
_OPEN30
 10
60.74242652468436
 20
347.544317771766
 30
0.0
 41
2.0
 42
2.0
 43
2.0
 50
90.0
  0
MTEXT
  5
49
330
42
100
AcDbEntity
  8
SUNPO
 62
     0
100
AcDbMText
 10
58.9924265246843
 20
335.894676122254
 30
0.0
 40
2.5
 41
0.0
 71
     5
 72
     1
  1
\A1;233
 11
0.0000000000000001
 21
1.0
 31
0.0
 73
     1
 44
1.0
1001
ACAD
1000
MTEXTBEGIN
1070
    73
1070
     1
1070
    44
1040
1.0
1070
    74
1070
     0
1000
MTEXTEND
  0
POINT
  5
4A
330
42
100
AcDbEntity
  8
Defpoints
 62
     0
100
AcDbPoint
 10
52.74242652468436
 20
324.2450344727421
 30
0.0
  0
POINT
  5
4B
330
42
100
AcDbEntity
  8
Defpoints
 62
     0
100
AcDbPoint
 10
52.74242652468436
 20
347.544317771766
 30
0.0
  0
POINT
  5
4C
330
42
100
AcDbEntity
  8
Defpoints
 62
     0
100
AcDbPoint
 10
60.74242652468436
 20
347.544317771766
 30
0.0
  0
ENDBLK
  5
4D
330
42
100
AcDbEntity
  8
0
100
AcDbBlockEnd
  0
BLOCK
  5
35
330
34
100
AcDbEntity
  8
0
100
AcDbBlockBegin
  2
*D3
 70
     1
 10
0.0
 20
0.0
 30
0.0
  3
*D3
  1

  0
LINE
  5
36
330
34
100
AcDbEntity
  8
SUNPO
 62
     0
370
    -2
100
AcDbLine
 10
33.70922836598831
 20
349.544317771766
 30
0.0
 11
33.70922836598831
 21
357.544317771766
 31
0.0
  0
LINE
  5
37
330
34
100
AcDbEntity
  8
SUNPO
 62
     0
370
    -2
100
AcDbLine
 10
52.70962524964645
 20
349.544317771766
 30
0.0
 11
52.70962524964645
 21
357.544317771766
 31
0.0
  0
LINE
  5
38
330
34
100
AcDbEntity
  8
SUNPO
 62
     0
370
    -2
100
AcDbLine
 10
35.70922836598831
 20
355.544317771766
 30
0.0
 11
50.70962524964645
 21
355.544317771766
 31
0.0
  0
INSERT
  5
39
330
34
100
AcDbEntity
  8
SUNPO
 62
     0
370
    -2
100
AcDbBlockReference
  2
_OPEN30
 10
33.70922836598831
 20
355.544317771766
 30
0.0
 41
2.0
 42
2.0
 43
2.0
 50
180.0
  0
INSERT
  5
3A
330
34
100
AcDbEntity
  8
SUNPO
 62
     0
370
    -2
100
AcDbBlockReference
  2
_OPEN30
 10
52.70962524964645
 20
355.544317771766
 30
0.0
 41
2.0
 42
2.0
 43
2.0
  0
MTEXT
  5
3B
330
34
100
AcDbEntity
  8
SUNPO
 62
     0
100
AcDbMText
 10
43.20942680781738
 20
357.2943177717661
 30
0.0
 40
2.5
 41
0.0
 71
     5
 72
     1
  1
\A1;φ190
 73
     1
 44
1.0
1001
ACAD
1000
MTEXTBEGIN
1070
    73
1070
     1
1070
    44
1040
1.0
1070
    74
1070
     0
1000
MTEXTEND
  0
POINT
  5
3C
330
34
100
AcDbEntity
  8
Defpoints
 62
     0
100
AcDbPoint
 10
33.70922836598831
 20
347.544317771766
 30
0.0
  0
POINT
  5
3E
330
34
100
AcDbEntity
  8
Defpoints
 62
     0
100
AcDbPoint
 10
52.70962524964645
 20
347.544317771766
 30
0.0
  0
POINT
  5
3F
330
34
100
AcDbEntity
  8
Defpoints
 62
     0
100
AcDbPoint
 10
52.70962524964645
 20
355.544317771766
 30
0.0
  0
ENDBLK
  5
40
330
34
100
AcDbEntity
  8
0
100
AcDbBlockEnd
  0
BLOCK
  5
15A
330
14F
100
AcDbEntity
  8
0
100
AcDbBlockBegin
  2
*D4
 70
     1
 10
0.0
 20
0.0
 30
0.0
  3
*D4
  1

  0
LINE
  5
150
330
14F
100
AcDbEntity
  8
SUNPO
 62
     0
370
    -2
100
AcDbLine
 10
-30.65480106910812
 20
8.406498568483925
 30
0.0
 11
-30.65480106910812
 21
0.4064985684839258
 31
0.0
  0
LINE
  5
151
330
14F
100
AcDbEntity
  8
SUNPO
 62
     0
370
    -2
100
AcDbLine
 10
-15.20480106910807
 20
8.406498568483925
 30
0.0
 11
-15.20480106910807
 21
0.4064985684839258
 31
0.0
  0
LINE
  5
152
330
14F
100
AcDbEntity
  8
SUNPO
 62
     0
370
    -2
100
AcDbLine
 10
-28.65480106910812
 20
2.406498568483925
 30
0.0
 11
-17.20480106910807
 21
2.406498568483925
 31
0.0
  0
LINE
  5
153
330
14F
100
AcDbEntity
  8
SUNPO
 62
     0
370
    -2
100
AcDbLine
 10
-15.20480106910807
 20
2.406498568483925
 30
0.0
 11
2.461865597558594
 21
2.406498568483925
 31
0.0
  0
INSERT
  5
154
330
14F
100
AcDbEntity
  8
SUNPO
 62
     0
370
    -2
100
AcDbBlockReference
  2
_OPEN30
 10
-30.65480106910812
 20
2.406498568483925
 30
0.0
 41
2.0
 42
2.0
 43
2.0
 50
180.0
  0
INSERT
  5
155
330
14F
100
AcDbEntity
  8
SUNPO
 62
     0
370
    -2
100
AcDbBlockReference
  2
_OPEN30
 10
-15.20480106910807
 20
2.406498568483925
 30
0.0
 41
2.0
 42
2.0
 43
2.0
  0
MTEXT
  5
156
330
14F
100
AcDbEntity
  8
SUNPO
 62
     0
100
AcDbMText
 10
-5.371467735774739
 20
4.156498568483925
 30
0.0
 40
2.5
 41
0.0
 71
     5
 72
     1
  1
\A1;φ154.5
 73
     1
 44
1.0
1001
ACAD
1000
MTEXTBEGIN
1070
    73
1070
     1
1070
    44
1040
1.0
1070
    74
1070
     0
1000
MTEXTEND
  0
POINT
  5
157
330
14F
100
AcDbEntity
  8
Defpoints
 62
     0
100
AcDbPoint
 10
-30.65480106910812
 20
10.40649856848392
 30
0.0
  0
POINT
  5
158
330
14F
100
AcDbEntity
  8
Defpoints
 62
     0
100
AcDbPoint
 10
-15.20480106910807
 20
10.40649856848392
 30
0.0
  0
POINT
  5
159
330
14F
100
AcDbEntity
  8
Defpoints
 62
     0
100
AcDbPoint
 10
-15.20480106910807
 20
2.406498568483925
 30
0.0
  0
ENDBLK
  5
15B
330
14F
100
AcDbEntity
  8
0
100
AcDbBlockEnd
  0
BLOCK
  5
166
330
15C
100
AcDbEntity
  8
0
100
AcDbBlockBegin
  2
*D5
 70
     1
 10
0.0
 20
0.0
 30
0.0
  3
*D5
  1

  0
LINE
  5
15D
330
15C
100
AcDbEntity
  8
SUNPO
 62
     0
370
    -2
100
AcDbLine
 10
-11.39642770466409
 20
8.52653633751788
 30
0.0
 11
-3.396427704664096
 21
8.526536337517878
 31
0.0
  0
LINE
  5
15E
330
15C
100
AcDbEntity
  8
SUNPO
 62
     0
370
    -2
100
AcDbLine
 10
-11.39642770466409
 20
31.82581963654184
 30
0.0
 11
-3.396427704664091
 21
31.82581963654183
 31
0.0
  0
LINE
  5
15F
330
15C
100
AcDbEntity
  8
SUNPO
 62
     0
370
    -2
100
AcDbLine
 10
-5.396427704664096
 20
10.52653633751788
 30
0.0
 11
-5.396427704664092
 21
29.82581963654184
 31
0.0
  0
INSERT
  5
160
330
15C
100
AcDbEntity
  8
SUNPO
 62
     0
370
    -2
100
AcDbBlockReference
  2
_OPEN30
 10
-5.396427704664096
 20
8.52653633751788
 30
0.0
 41
2.0
 42
2.0
 43
2.0
 50
270.0
  0
INSERT
  5
161
330
15C
100
AcDbEntity
  8
SUNPO
 62
     0
370
    -2
100
AcDbBlockReference
  2
_OPEN30
 10
-5.396427704664091
 20
31.82581963654183
 30
0.0
 41
2.0
 42
2.0
 43
2.0
 50
90.0
  0
MTEXT
  5
162
330
15C
100
AcDbEntity
  8
SUNPO
 62
     0
100
AcDbMText
 10
-7.146427704664097
 20
20.17617798702985
 30
0.0
 40
2.5
 41
0.0
 71
     5
 72
     1
  1
\A1;233
 11
0.0000000000000001
 21
1.0
 31
0.0
 73
     1
 44
1.0
1001
ACAD
1000
MTEXTBEGIN
1070
    73
1070
     1
1070
    44
1040
1.0
1070
    74
1070
     0
1000
MTEXTEND
  0
POINT
  5
163
330
15C
100
AcDbEntity
  8
Defpoints
 62
     0
100
AcDbPoint
 10
-13.39642770466409
 20
8.526536337517882
 30
0.0
  0
POINT
  5
164
330
15C
100
AcDbEntity
  8
Defpoints
 62
     0
100
AcDbPoint
 10
-13.39642770466409
 20
31.82581963654184
 30
0.0
  0
POINT
  5
165
330
15C
100
AcDbEntity
  8
Defpoints
 62
     0
100
AcDbPoint
 10
-5.396427704664091
 20
31.82581963654183
 30
0.0
  0
ENDBLK
  5
167
330
15C
100
AcDbEntity
  8
0
100
AcDbBlockEnd
  0
BLOCK
  5
172
330
168
100
AcDbEntity
  8
0
100
AcDbBlockBegin
  2
*D6
 70
     1
 10
0.0
 20
0.0
 30
0.0
  3
*D6
  1

  0
LINE
  5
169
330
168
100
AcDbEntity
  8
SUNPO
 62
     0
370
    -2
100
AcDbLine
 10
-32.42962586336015
 20
33.82581963654184
 30
0.0
 11
-32.42962586336015
 21
41.82581963654183
 31
0.0
  0
LINE
  5
16A
330
168
100
AcDbEntity
  8
SUNPO
 62
     0
370
    -2
100
AcDbLine
 10
-13.429228979702
 20
33.82581963654184
 30
0.0
 11
-13.429228979702
 21
41.82581963654183
 31
0.0
  0
LINE
  5
16B
330
168
100
AcDbEntity
  8
SUNPO
 62
     0
370
    -2
100
AcDbLine
 10
-30.42962586336015
 20
39.82581963654184
 30
0.0
 11
-15.429228979702
 21
39.82581963654184
 31
0.0
  0
INSERT
  5
16C
330
168
100
AcDbEntity
  8
SUNPO
 62
     0
370
    -2
100
AcDbBlockReference
  2
_OPEN30
 10
-32.42962586336015
 20
39.82581963654184
 30
0.0
 41
2.0
 42
2.0
 43
2.0
 50
180.0
  0
INSERT
  5
16D
330
168
100
AcDbEntity
  8
SUNPO
 62
     0
370
    -2
100
AcDbBlockReference
  2
_OPEN30
 10
-13.429228979702
 20
39.82581963654184
 30
0.0
 41
2.0
 42
2.0
 43
2.0
  0
MTEXT
  5
16E
330
168
100
AcDbEntity
  8
SUNPO
 62
     0
100
AcDbMText
 10
-22.92942742153107
 20
41.57581963654183
 30
0.0
 40
2.5
 41
0.0
 71
     5
 72
     1
  1
\A1;φ190
 73
     1
 44
1.0
1001
ACAD
1000
MTEXTBEGIN
1070
    73
1070
     1
1070
    44
1040
1.0
1070
    74
1070
     0
1000
MTEXTEND
  0
POINT
  5
16F
330
168
100
AcDbEntity
  8
Defpoints
 62
     0
100
AcDbPoint
 10
-32.42962586336015
 20
31.82581963654184
 30
0.0
  0
POINT
  5
170
330
168
100
AcDbEntity
  8
Defpoints
 62
     0
100
AcDbPoint
 10
-13.429228979702
 20
31.82581963654184
 30
0.0
  0
POINT
  5
171
330
168
100
AcDbEntity
  8
Defpoints
 62
     0
100
AcDbPoint
 10
-13.429228979702
 20
39.82581963654184
 30
0.0
  0
ENDBLK
  5
173
330
168
100
AcDbEntity
  8
0
100
AcDbBlockEnd
  0
ENDSEC
  0
SECTION
  2
ENTITIES
  0
TEXT
  5
2F
330
2
100
AcDbEntity
  8
MOJI1
100
AcDbText
 10
-36.6388542853075
 20
50.78233698971018
 30
0.0
 40
4.0
  1
ネットワークカメラ
100
AcDbText
  0
LINE
  5
31
330
2
100
AcDbEntity
  8
GAIKEI
 62
     1
100
AcDbLine
 10
-22.92583004283622
 20
29.31597759247188
 30
0.0
 11
-22.92583004283622
 21
31.82581963654184
 31
0.0
  0
DIMENSION
  5
32
330
2
100
AcDbEntity
  8
SUNPO
100
AcDbDimension
  2
*D6
 10
-13.429228979702
 20
39.82581963654184
 30
0.0
 11
-22.92942742153107
 21
41.57581963654183
 31
0.0
 70
    33
  1
φ190
 71
     5
 42
19.00039688365814
  3
STANDARD
100
AcDbAlignedDimension
 13
-32.42962586336015
 23
31.82581963654184
 33
0.0
 14
-13.429228979702
 24
31.82581963654184
 34
0.0
1001
ACAD
1000
DSTYLE
1002
{
1070
   287
1070
     3
1070
    40
1040
1.0
1070
   140
1040
2.5
1070
   147
1040
0.5
1070
   172
1070
     1
1070
   279
1070
     0
1002
}
  0
DIMENSION
  5
41
330
2
100
AcDbEntity
  8
SUNPO
100
AcDbDimension
  2
*D5
 10
-5.396427704664091
 20
31.82581963654183
 30
0.0
 11
-7.146427704664097
 21
20.17617798702985
 31
0.0
 70
    33
  1
233
 71
     5
 42
23.29928329902395
  3
STANDARD
100
AcDbAlignedDimension
 13
-13.39642770466409
 23
8.526536337517882
 33
0.0
 14
-13.39642770466409
 24
31.82581963654184
 34
0.0
1001
ACAD
1000
DSTYLE
1002
{
1070
   287
1070
     3
1070
    40
1040
1.0
1070
   140
1040
2.5
1070
   147
1040
0.5
1070
   172
1070
     1
1070
   279
1070
     0
1002
}
  0
DIMENSION
  5
4E
330
2
100
AcDbEntity
  8
SUNPO
100
AcDbDimension
  2
*D4
 10
-15.20480106910807
 20
2.406498568483925
 30
0.0
 11
-5.371467735774739
 21
4.156498568483925
 31
0.0
 70
    33
  1
φ154.5
 71
     5
 42
15.45000000000004
  3
STANDARD
100
AcDbAlignedDimension
 13
-30.65480106910812
 23
10.40649856848392
 33
0.0
 14
-15.20480106910807
 24
10.40649856848392
 34
0.0
1001
ACAD
1000
DSTYLE
1002
{
1070
   287
1070
     3
1070
    40
1040
1.0
1070
   140
1040
2.5
1070
   147
1040
0.5
1070
   172
1070
     1
1070
   279
1070
     0
1002
}
  0
LINE
  5
5C
330
2
100
AcDbEntity
  8
GAIKEI
  6
Continuous
100
AcDbLine
 10
7.659131205183214
 20
31.8258196365419
 30
0.0
 11
7.697544306558214
 21
30.72581616054191
 31
0.0
  0
LINE
  5
5D
330
2
100
AcDbEntity
  8
GAIKEI
  6
Continuous
100
AcDbLine
 10
10.67796117616576
 20
30.24984201324833
 30
0.0
 11
10.89975592096495
 21
29.35379814658859
 31
0.0
  0
LINE
  5
5E
330
2
100
AcDbEntity
  8
GAIKEI
  6
Continuous
100
AcDbLine
 10
26.65912545538531
 20
31.8258196365419
 30
0.0
 11
7.659131205183214
 21
31.8258196365419
 31
0.0
  0
LINE
  5
5F
330
2
100
AcDbEntity
  8
GAIKEI
  6
Continuous
 62
     1
100
AcDbLine
 10
7.749290690176295
 20
30.66732017479518
 30
0.0
 11
26.56896597039224
 21
30.66732017479518
 31
0.0
  0
LINE
  5
60
330
2
100
AcDbEntity
  8
GAIKEI
  6
Continuous
100
AcDbLine
 10
17.13412825127926
 20
30.32581489654189
 30
0.0
 11
9.759147176262686
 21
30.32581489654189
 31
0.0
  0
LINE
  5
61
330
2
100
AcDbEntity
  8
GAIKEI
  6
Continuous
100
AcDbLine
 10
24.55910948429582
 20
30.32581489654189
 30
0.0
 11
17.18412840927925
 21
30.32581489654189
 31
0.0
  0
LINE
  5
62
330
2
100
AcDbEntity
  8
GAIKEI
  6
Continuous
100
AcDbLine
 10
23.37824261653829
 20
29.31581170494189
 30
0.0
 11
10.9400140440302
 21
29.31581170494189
 31
0.0
  0
LINE
  5
63
330
2
100
AcDbEntity
  8
GAIKEI
  6
Continuous
100
AcDbLine
 10
23.64029548440274
 20
30.24984201324833
 30
0.0
 11
23.41850073959355
 21
29.35379814658859
 31
0.0
  0
LINE
  5
64
330
2
100
AcDbEntity
  8
GAIKEI
  6
Continuous
100
AcDbLine
 10
26.62071235401027
 20
30.72581616054191
 30
0.0
 11
26.56896597039224
 21
30.66732017479518
 31
0.0
  0
LINE
  5
65
330
2
100
AcDbEntity
  8
GAIKEI
  6
Continuous
100
AcDbLine
 10
7.697544306558214
 20
30.72581616054191
 30
0.0
 11
7.749290690176295
 21
30.66732017479518
 31
0.0
  0
LINE
  5
66
330
2
100
AcDbEntity
  8
GAIKEI
  6
Continuous
100
AcDbLine
 10
26.65912545538531
 20
31.8258196365419
 30
0.0
 11
26.62071235401027
 21
30.72581616054191
 31
0.0
  0
SPLINE
  5
67
330
2
100
AcDbEntity
  8
GAIKEI
  6
Continuous
100
AcDbSpline
210
0.0
220
0.0
230
1.0
 70
    24
 71
     3
 72
     9
 73
     5
 74
     0
 42
0.0000000001
 43
0.0000000001
 40
0.0
 40
0.0
 40
0.0
 40
0.0
 40
0.1650447652640032
 40
0.3300895305284162
 40
0.3300895305284162
 40
0.3300895305284162
 40
0.3300895305284162
 10
23.70481063749004
 20
30.32036700133654
 30
0.0
 10
23.71023670191636
 20
30.32127498387069
 30
0.0
 10
23.72108883076894
 20
30.32309094893913
 30
0.0
 10
23.73194095962155
 20
30.32490691400762
 30
0.0
 10
23.73736702404784
 20
30.32581489654189
 30
0.0
  0
SPLINE
  5
68
330
2
100
AcDbEntity
  8
GAIKEI
  6
Continuous
100
AcDbSpline
210
0.0
220
0.0
230
1.0
 70
    24
 71
     3
 72
     9
 73
     5
 74
     0
 42
0.0000000001
 43
0.0000000001
 40
0.0
 40
0.0
 40
0.0
 40
0.0
 40
0.1647700680406615
 40
0.3295401360812876
 40
0.3295401360812876
 40
0.3295401360812876
 40
0.3295401360812876
 10
23.64029548440276
 20
30.24984201324833
 30
0.0
 10
23.64247559140023
 20
30.25488315146163
 30
0.0
 10
23.64683580539516
 20
30.26496542788817
 30
0.0
 10
23.65119601939006
 20
30.27504770431472
 30
0.0
 10
23.65337612638748
 20
30.28008884252802
 30
0.0
  0
SPLINE
  5
69
330
2
100
AcDbEntity
  8
GAIKEI
  6
Continuous
100
AcDbSpline
210
0.0
220
0.0
230
1.0
 70
    24
 71
     3
 72
     9
 73
     5
 74
     0
 42
0.0000000001
 43
0.0000000001
 40
0.0
 40
0.0
 40
0.0
 40
0.0
 40
0.0716285654436668
 40
0.1432571308873368
 40
0.1432571308873368
 40
0.1432571308873368
 40
0.1432571308873368
 10
23.39204760159194
 20
29.32095230960613
 30
0.0
 10
23.38977648213191
 20
29.32021557614644
 30
0.0
 10
23.38523424321178
 20
29.31874210922695
 30
0.0
 10
23.38069200429169
 20
29.31726864230745
 30
0.0
 10
23.37842088483163
 20
29.31653190884771
 30
0.0
  0
SPLINE
  5
6A
330
2
100
AcDbEntity
  8
GAIKEI
  6
Continuous
100
AcDbSpline
210
0.0
220
0.0
230
1.0
 70
    24
 71
     3
 72
     9
 73
     5
 74
     0
 42
0.0000000001
 43
0.0000000001
 40
0.0
 40
0.0
 40
0.0
 40
0.0
 40
0.072702488194442
 40
0.1454049763887844
 40
0.1454049763887844
 40
0.1454049763887844
 40
0.1454049763887844
 10
23.40402083519726
 20
29.32920270867737
 30
0.0
 10
23.40202529626303
 20
29.32782764216546
 30
0.0
 10
23.39803421839461
 20
29.32507750914175
 30
0.0
 10
23.39404314052621
 20
29.32232737611798
 30
0.0
 10
23.39204760159194
 20
29.32095230960613
 30
0.0
  0
SPLINE
  5
6B
330
2
100
AcDbEntity
  8
GAIKEI
  6
Continuous
100
AcDbSpline
210
0.0
220
0.0
230
1.0
 70
    24
 71
     3
 72
     9
 73
     5
 74
     0
 42
0.0000000001
 43
0.0000000001
 40
0.0
 40
0.0
 40
0.0
 40
0.0
 40
0.0723687746622808
 40
0.1447375493246261
 40
0.1447375493246261
 40
0.1447375493246261
 40
0.1447375493246261
 10
23.41307987309374
 20
29.340490965328
 30
0.0
 10
23.41157003344431
 20
29.33860958921957
 30
0.0
 10
23.40855035414548
 20
29.33484683700271
 30
0.0
 10
23.40553067484666
 20
29.3310840847858
 30
0.0
 10
23.40402083519726
 20
29.32920270867737
 30
0.0
  0
SPLINE
  5
6C
330
2
100
AcDbEntity
  8
GAIKEI
  6
Continuous
100
AcDbSpline
210
0.0
220
0.0
230
1.0
 70
    24
 71
     3
 72
     9
 73
     5
 74
     0
 42
0.0000000001
 43
0.0000000001
 40
0.0
 40
0.0
 40
0.0
 40
0.0
 40
0.0718445477829367
 40
0.143689095565847
 40
0.143689095565847
 40
0.143689095565847
 40
0.143689095565847
 10
23.41850073959357
 20
29.35379814658853
 30
0.0
 10
23.41759726184361
 20
29.35158028304511
 30
0.0
 10
23.41579030634368
 20
29.34714455595827
 30
0.0
 10
23.41398335084369
 20
29.34270882887143
 30
0.0
 10
23.41307987309374
 20
29.340490965328
 30
0.0
  0
SPLINE
  5
6D
330
2
100
AcDbEntity
  8
GAIKEI
  6
Continuous
100
AcDbSpline
210
0.0
220
0.0
230
1.0
 70
     8
 71
     3
 72
     9
 73
     5
 74
     0
 42
0.0000000001
 43
0.0000000001
 40
0.0
 40
0.0
 40
0.0
 40
0.0
 40
0.3312202241026973
 40
0.6624318988797987
 40
0.6624318988797987
 40
0.6624318988797987
 40
0.6624318988797987
 10
23.70481063749004
 20
30.32036700133654
 30
0.0
 10
23.69454715485611
 20
30.31581319689491
 30
0.0
 10
23.67402045450518
 20
30.30670570555265
 30
0.0
 10
23.66025750988535
 20
30.28896105386559
 30
0.0
 10
23.65337612638748
 20
30.28008884252802
 30
0.0
  0
SPLINE
  5
6E
330
2
100
AcDbEntity
  8
GAIKEI
  6
Continuous
100
AcDbSpline
210
0.0
220
0.0
230
1.0
 70
     8
 71
     3
 72
    13
 73
     9
 74
     0
 42
0.0000000001
 43
0.0000000001
 40
0.0
 40
0.0
 40
0.0
 40
0.0
 40
0.2417903715270264
 40
0.4656823122323485
 40
0.6626358765535211
 40
0.8596131070356582
 40
1.083822907673216
 40
1.325965550234858
 40
1.325965550234858
 40
1.325965550234858
 40
1.325965550234858
 10
10.67796117616576
 20
30.24984201324833
 30
0.0
 10
10.67555522907958
 20
30.25757936251319
 30
0.0
 10
10.67092143413093
 20
30.27248130700935
 30
0.0
 10
10.65796005706711
 20
30.29079360235682
 30
0.0
 10
10.64269931749945
 20
30.30473336152738
 30
0.0
 10
10.62550011854954
 20
30.31621502132907
 30
0.0
 10
10.60459164921264
 20
30.32441700570684
 30
0.0
 10
10.58899028266198
 20
30.32533713884447
 30
0.0
 10
10.58088963651067
 20
30.32581489654189
 30
0.0
  0
SPLINE
  5
6F
330
2
100
AcDbEntity
  8
GAIKEI
  6
Continuous
100
AcDbSpline
210
0.0
220
0.0
230
1.0
 70
     8
 71
     3
 72
    11
 73
     7
 74
     0
 42
0.0000000001
 43
0.0000000001
 40
0.0
 40
0.0
 40
0.0
 40
0.0
 40
0.1093056512981868
 40
0.217906875631057
 40
0.3259655563749153
 40
0.4344878781328403
 40
0.4344878781328403
 40
0.4344878781328403
 40
0.4344878781328403
 10
10.92620905896662
 20
29.32095230960613
 30
0.0
 10
10.92303192942154
 20
29.3227700237909
 30
0.0
 10
10.91669814553729
 20
29.32639373779
 30
0.0
 10
10.90906404739087
 20
29.33428236934645
 30
0.0
 10
10.90302218271729
 20
29.34341366809537
 30
0.0
 10
10.90084622759175
 20
29.35033171720369
 30
0.0
 10
10.89975592096497
 20
29.35379814658853
 30
0.0
  0
SPLINE
  5
70
330
2
100
AcDbEntity
  8
GAIKEI
  6
Continuous
100
AcDbSpline
210
0.0
220
0.0
230
1.0
 70
    24
 71
     3
 72
     9
 73
     5
 74
     0
 42
0.0000000001
 43
0.0000000001
 40
0.0
 40
0.0
 40
0.0
 40
0.0
 40
0.0716285654910351
 40
0.1432571309820669
 40
0.1432571309820669
 40
0.1432571309820669
 40
0.1432571309820669
 10
10.93983577573691
 20
29.31653190884771
 30
0.0
 10
10.9375646562752
 20
29.31726864230745
 30
0.0
 10
10.93302241735176
 20
29.31874210922695
 30
0.0
 10
10.92848017842833
 20
29.32021557614644
 30
0.0
 10
10.92620905896662
 20
29.32095230960613
 30
0.0
  0
LINE
  5
71
330
2
100
AcDbEntity
  8
GAIKEI
100
AcDbLine
 10
9.759147176262743
 20
30.32581489654189
 30
0.0
 11
7.749290690176295
 21
30.66732017479518
 31
0.0
  0
LINE
  5
72
330
2
100
AcDbEntity
  8
GAIKEI
100
AcDbLine
 10
24.55910948429582
 20
30.32581489654189
 30
0.0
 11
26.5689659703923
 21
30.66732017479524
 31
0.0
  0
LINE
  5
73
330
2
100
AcDbEntity
  8
GAIKEI
 62
     1
100
AcDbLine
 10
19.33148827499498
 20
25.69580026099913
 30
0.0
 11
22.87652554209527
 21
25.69580026573971
 31
0.0
  0
LINE
  5
74
330
2
100
AcDbEntity
  8
GAIKEI
 62
     1
100
AcDbLine
 10
22.87652554209529
 20
27.34580547974406
 30
0.0
 11
19.33148827499498
 21
27.3458054797419
 31
0.0
  0
LINE
  5
75
330
2
100
AcDbEntity
  8
GAIKEI
 62
     1
100
AcDbLine
 10
22.98447411302374
 20
26.04580137174196
 30
0.0
 11
22.98447411302374
 21
26.99580437374186
 31
0.0
  0
ARC
  5
76
330
2
100
AcDbEntity
  8
GAIKEI
 62
     1
100
AcDbCircle
 10
22.57737937592167
 20
25.97971146921083
 30
0.0
 40
0.4124245387859142
100
AcDbArc
 50
316.4967660715257
 51
9.221248394889423
  0
ARC
  5
77
330
2
100
AcDbEntity
  8
GAIKEI
 62
     1
100
AcDbCircle
 10
22.57737937592167
 20
27.06189427627299
 30
0.0
 40
0.4124245387859142
100
AcDbArc
 50
350.7787516051106
 51
43.50323392846729
  0
ELLIPSE
  5
78
330
2
100
AcDbEntity
  8
GAIKEI
 62
     1
100
AcDbEllipse
 10
22.75728730520041
 20
26.60960599318423
 30
0.0
 11
0.0
 21
0.3133044041439916
 31
0.0
210
0.0
220
0.0
230
1.0
 40
0.381100583251265
 41
0.0
 42
6.283185307179586
  0
ARC
  5
79
330
2
100
AcDbEntity
  8
GAIKEI
 62
     1
100
AcDbCircle
 10
19.32539571306574
 20
26.06400883433042
 30
0.0
 40
0.3682589751594978
100
AcDbArc
 50
182.8339744478558
 51
270.9479579180166
  0
LINE
  5
7A
330
2
100
AcDbEntity
  8
GAIKEI
 62
     1
100
AcDbLine
 10
18.95758712029105
 20
26.99580437374192
 30
0.0
 11
18.95096946153931
 21
26.04580137174191
 31
0.0
  0
ARC
  5
7B
330
2
100
AcDbEntity
  8
GAIKEI
 62
     1
100
AcDbCircle
 10
19.32539571306574
 20
26.97759690641061
 30
0.0
 40
0.3682589751594978
100
AcDbArc
 50
89.05204208198334
 51
177.1660255521441
  0
CIRCLE
  5
7C
330
2
100
AcDbEntity
  8
GAIKEI
 62
     1
100
AcDbCircle
 10
19.57048684100482
 20
26.59284778470078
 30
0.0
 40
0.3197493652335197
  0
ARC
  5
7D
330
2
100
AcDbEntity
  8
GAIKEI
 62
     1
100
AcDbCircle
 10
106.1929774451158
 20
16.33316651462411
 30
0.0
 40
86.55583311522651
100
AcDbArc
 50
182.3370169465537
 51
184.106494212728
  0
ARC
  5
7E
330
2
100
AcDbEntity
  8
GAIKEI
 62
     1
100
AcDbCircle
 10
-71.87472078455728
 20
16.33316651462411
 30
0.0
 40
86.55583311522651
100
AcDbArc
 50
355.893505787272
 51
357.6629830534463
  0
ARC
  5
7F
330
2
100
AcDbEntity
  8
GAIKEI
 62
     1
100
AcDbCircle
 10
17.18092477231411
 20
18.97182764268996
 30
0.0
 40
7.726607106069062
100
AcDbArc
 50
250.9606457289122
 51
288.4859593219277
  0
ARC
  5
80
330
2
100
AcDbEntity
  8
GAIKEI
 62
     1
100
AcDbCircle
 10
66.10402363472847
 20
16.33316651462405
 30
0.0
 40
86.55583311522651
100
AcDbArc
 50
182.3370169465537
 51
184.106494212728
  0
ARC
  5
81
330
2
100
AcDbEntity
  8
GAIKEI
 62
     1
100
AcDbCircle
 10
-111.9636745949446
 20
16.33316651462405
 30
0.0
 40
86.55583311522651
100
AcDbArc
 50
355.893505787272
 51
357.6629830534463
  0
ELLIPSE
  5
82
330
2
100
AcDbEntity
  8
GAIKEI
 62
     1
100
AcDbEllipse
 10
-22.92976835805271
 20
11.44664966606274
 30
0.0
 11
1.66966613035094
 21
0.0
 31
0.0
210
0.0
220
0.0
230
1.0
 40
0.7073540300442244
 41
0.0
 42
6.283185307179586
  0
ELLIPSE
  5
83
330
2
100
AcDbEntity
  8
GAIKEI
 62
     1
100
AcDbEllipse
 10
-22.92976835805271
 20
11.48190707595324
 30
0.0
 11
1.900054192730082
 21
0.0
 31
0.0
210
0.0
220
0.0
230
1.0
 40
0.7044805537448961
 41
0.0
 42
6.283185307179586
  0
LINE
  5
84
330
2
100
AcDbEntity
  8
GAIKEI
100
AcDbLine
 10
-15.52984432609151
 20
30.32581489654189
 30
0.0
 11
-13.51998783999504
 21
30.66732017479524
 31
0.0
  0
LINE
  5
85
330
2
100
AcDbEntity
  8
GAIKEI
100
AcDbLine
 10
-30.32980663412459
 20
30.32581489654189
 30
0.0
 11
-32.33966312021105
 21
30.66732017479518
 31
0.0
  0
SPLINE
  5
86
330
2
100
AcDbEntity
  8
GAIKEI
  6
Continuous
100
AcDbSpline
210
0.0
220
0.0
230
1.0
 70
     8
 71
     3
 72
    73
 73
    69
 74
     0
 42
0.0000000001
 43
0.0000000001
 40
0.0
 40
0.0
 40
0.0
 40
0.0
 40
3.10110928284824
 40
6.093144994953785
 40
8.590328321010648
 40
11.02990704043857
 40
13.3054312673828
 40
15.63559664308765
 40
18.06166365591407
 40
20.49101961530273
 40
22.98938869216635
 40
25.49177815902084
 40
28.02872735846928
 40
30.56250670295642
 40
33.09066485868184
 40
35.61287494294728
 40
38.12830406644774
 40
40.63597259222879
 40
43.19959263472195
 40
45.77086922751623
 40
48.46717427390915
 40
51.17762842778248
 40
53.9635900888439
 40
56.71305977855173
 40
59.59851890165534
 40
62.50099093443238
 40
65.72212852288271
 40
68.97815909325652
 40
72.4694426057648
 40
75.91319121553695
 40
79.56194266847063
 40
83.21516011828643
 40
87.28463112304934
 40
91.39478266775871
 40
95.91980471887394
 40
100.4378030589039
 40
105.1976574787196
 40
109.9413260858165
 40
114.8773506178369
 40
119.8257036449153
 40
124.9437138619846
 40
130.0880197230435
 40
135.1820920899974
 40
140.2472736047699
 40
145.059831431541
 40
149.8653018186792
 40
154.3948186573637
 40
158.9314270840294
 40
163.1439794372666
 40
167.3312986525603
 40
171.2382915521807
 40
175.1659890617588
 40
178.8664165742121
 40
182.5559482755329
 40
186.013333395276
 40
189.462342296396
 40
192.7803849814532
 40
196.1250462204839
 40
199.3466497993195
 40
202.5645654884405
 40
205.5581122520827
 40
208.5393861132216
 40
211.2553821140658
 40
213.9134482131036
 40
216.6022399213651
 40
219.3431434704363
 40
222.4887907651438
 40
225.7401653655908
 40
225.7401653655908
 40
225.7401653655908
 40
225.7401653655908
 10
24.40846139210933
 20
15.67576860462191
 30
0.0
 10
24.40587514082026
 20
15.57241377916557
 30
0.0
 10
24.40079360300263
 20
15.36933936933531
 30
0.0
 10
24.37778415260863
 20
15.08377920064186
 30
0.0
 10
24.34705954542378
 20
14.82124940913718
 30
0.0
 10
24.31179464597523
 20
14.58339187021187
 30
0.0
 10
24.26939964337733
 20
14.35236387518182
 30
0.0
 10
24.21961502418178
 20
14.12327916791667
 30
0.0
 10
24.16128083575094
 20
13.89092542606778
 30
0.0
 10
24.09357537522215
 20
13.65528576370116
 30
0.0
 10
24.0171358987767
 20
13.41965400865894
 30
0.0
 10
23.93139794536943
 20
13.18342482335208
 30
0.0
 10
23.837100169607
 20
12.94920450034965
 30
0.0
 10
23.73424552707017
 20
12.71767324947745
 30
0.0
 10
23.62360856245013
 20
12.49030611221258
 30
0.0
 10
23.50543937523585
 20
12.26745329062498
 30
0.0
 10
23.3799513831429
 20
12.04942561339794
 30
0.0
 10
23.24621361888938
 20
11.83472998934439
 30
0.0
 10
23.10395857764894
 20
11.62333120734058
 30
0.0
 10
22.9507448944303
 20
11.41191849902338
 30
0.0
 10
22.78692182591408
 20
11.20235273654157
 30
0.0
 10
22.61064997468404
 20
10.99368716107614
 30
0.0
 10
22.42557724745394
 20
10.7903775551967
 30
0.0
 10
22.22866184889712
 20
10.59023912640356
 30
0.0
 10
22.02111799487505
 20
10.39542231160953
 30
0.0
 10
21.79446928960451
 20
10.19830341419691
 30
0.0
 10
21.54996165304416
 20
10.00326342713379
 30
0.0
 10
21.28079354535032
 20
9.808242297388801
 30
0.0
 10
20.99689670340664
 20
9.621459148281246
 30
0.0
 10
20.69301570458747
 20
9.441966540839928
 30
0.0
 10
20.37580321457858
 20
9.275279742518705
 30
0.0
 10
20.03194318292533
 20
9.115428535778733
 30
0.0
 10
19.66564017956781
 20
8.968554946418748
 30
0.0
 10
19.26399143845796
 20
8.833622214310253
 30
0.0
 10
18.84063568483796
 20
8.718498362042453
 30
0.0
 10
18.38963781859999
 20
8.625954526668124
 30
0.0
 10
17.92641318003282
 20
8.561255343808511
 30
0.0
 10
17.44603971920173
 20
8.526027922925095
 30
0.0
 10
16.95806623264437
 20
8.523026361496647
 30
0.0
 10
16.45855447257438
 20
8.55383710176585
 30
0.0
 10
15.95544723309999
 20
8.6201313676886
 30
0.0
 10
15.45360516987794
 20
8.723139643125591
 30
0.0
 10
14.96181833882609
 20
8.860233072117068
 30
0.0
 10
14.49146903306839
 20
9.028338493793285
 30
0.0
 10
14.04256927129914
 20
9.224246578249221
 30
0.0
 10
13.62322397782498
 20
9.440727635857456
 30
0.0
 10
13.2266005387859
 20
9.679007087252955
 30
0.0
 10
12.86226272322099
 20
9.930876187616263
 30
0.0
 10
12.52262767821032
 20
10.19694971878493
 30
0.0
 10
12.21460650754882
 20
10.4682508259707
 30
0.0
 10
11.92917246765185
 20
10.7498010287278
 30
0.0
 10
11.67017879509478
 20
11.03424505980803
 30
0.0
 10
11.43092558725158
 20
11.32614304182482
 30
0.0
 10
11.21653788288793
 20
11.61751394110047
 30
0.0
 10
11.02140950933292
 20
11.91206981214344
 30
0.0
 10
10.84651399837281
 20
12.20473645182784
 30
0.0
 10
10.68739445734431
 20
12.50200873811332
 30
0.0
 10
10.54550115400802
 20
12.79949630985419
 30
0.0
 10
10.41834904119417
 20
13.09994438927407
 30
0.0
 10
10.30888352376516
 20
13.39482409016909
 30
0.0
 10
10.2145303238658
 20
13.68645140128376
 30
0.0
 10
10.13682927083251
 20
13.96561649453605
 30
0.0
 10
10.07252910061829
 20
14.23666910113127
 30
0.0
 10
10.02041056297369
 20
14.5003974411004
 30
0.0
 10
9.978381417230849
 20
14.76675841825306
 30
0.0
 10
9.943502546153553
 20
15.05050717284825
 30
0.0
 10
9.918046391760441
 20
15.35420375589359
 30
0.0
 10
9.912575783973068
 20
15.56740575062883
 30
0.0
 10
9.909795272119197
 20
15.67576860475191
 30
0.0
  0
SPLINE
  5
87
330
2
100
AcDbEntity
  8
GAIKEI
  6
Continuous
 62
     1
100
AcDbSpline
210
0.0
220
0.0
230
1.0
 70
     8
 71
     3
 72
     9
 73
     5
 74
     0
 42
0.0000000001
 43
0.0000000001
 40
0.0
 40
0.0
 40
0.0
 40
0.0
 40
0.1319440924166182
 40
0.2638876592699304
 40
0.2638876592699304
 40
0.2638876592699304
 40
0.2638876592699304
 10
14.63209331785387
 20
15.068772220465
 30
0.0
 10
14.62825885673325
 20
15.06661799356823
 30
0.0
 10
14.62058994976556
 20
15.06230954835536
 30
0.0
 10
14.61294139320372
 20
15.05796507868115
 30
0.0
 10
14.60911712253931
 20
15.05579284817031
 30
0.0
  0
SPLINE
  5
88
330
2
100
AcDbEntity
  8
GAIKEI
  6
Continuous
 62
     1
100
AcDbSpline
210
0.0
220
0.0
230
1.0
 70
    24
 71
     3
 72
     9
 73
     5
 74
     0
 42
0.0000000001
 43
0.0000000001
 40
0.0
 40
0.0
 40
0.0
 40
0.0
 40
0.1150712519937914
 40
0.2301425039884941
 40
0.2301425039884941
 40
0.2301425039884941
 40
0.2301425039884941
 10
19.70913502245491
 20
15.05422361379158
 30
0.0
 10
19.70530640916487
 20
15.05399022101568
 30
0.0
 10
19.6976491825848
 20
15.05352343546394
 30
0.0
 10
19.68999195600472
 20
15.05305664991226
 30
0.0
 10
19.68616334271466
 20
15.05282325713642
 30
0.0
  0
SPLINE
  5
89
330
2
100
AcDbEntity
  8
GAIKEI
  6
Continuous
 62
     1
100
AcDbSpline
210
0.0
220
0.0
230
1.0
 70
     8
 71
     3
 72
    17
 73
    13
 74
     0
 42
0.0000000001
 43
0.0000000001
 40
0.0
 40
0.0
 40
0.0
 40
0.0
 40
0.0629046034820484
 40
0.1231539990803899
 40
0.1724858163668224
 40
0.2205259608780721
 40
0.2648436024565153
 40
0.3087889581771849
 40
0.3629271886241765
 40
0.419257833334933
 40
0.4954655609075777
 40
0.5757325956748965
 40
0.5757325956748965
 40
0.5757325956748965
 40
0.5757325956748965
 10
14.63209331785387
 20
15.068772220465
 30
0.0
 10
14.63388892625715
 20
15.0698607217945
 30
0.0
 10
14.63740435030257
 20
15.07199177873338
 30
0.0
 10
14.64179205907406
 20
15.07574403661169
 30
0.0
 10
14.64542055593206
 20
15.07954926775937
 30
0.0
 10
14.64839247174055
 20
15.08322813601455
 30
0.0
 10
14.65093074567372
 20
15.08700317345182
 30
0.0
 10
14.65323053389025
 20
15.09116218213239
 30
0.0
 10
14.65529485992968
 20
15.09588607762043
 30
0.0
 10
14.6573048543201
 20
15.10177942111113
 30
0.0
 10
14.65884107545887
 20
15.10874319435709
 30
0.0
 10
14.65902571534778
 20
15.11396484043695
 30
0.0
 10
14.65912043027927
 20
15.11664339409742
 30
0.0
  0
SPLINE
  5
8A
330
2
100
AcDbEntity
  8
GAIKEI
  6
Continuous
 62
     1
100
AcDbSpline
210
0.0
220
0.0
230
1.0
 70
     8
 71
     3
 72
    17
 73
    13
 74
     0
 42
0.0000000001
 43
0.0000000001
 40
0.0
 40
0.0
 40
0.0
 40
0.0
 40
0.066348055516583
 40
0.1289313602800825
 40
0.1724679504347737
 40
0.2137274148135526
 40
0.2455805332551352
 40
0.2776985145799586
 40
0.3147059005317349
 40
0.3532878852618061
 40
0.4043247568685419
 40
0.4581817482117144
 40
0.4581817482117144
 40
0.4581817482117144
 40
0.4581817482117144
 10
19.65913623027927
 20
15.08135478758572
 30
0.0
 10
19.65917503259943
 20
15.07913927943775
 30
0.0
 10
19.65925043550136
 20
15.07483397648644
 30
0.0
 10
19.66049264299151
 20
15.06917862810257
 30
0.0
 10
19.66224538572667
 20
15.06457798088559
 30
0.0
 10
19.66414934127849
 20
15.06116614871308
 30
0.0
 10
19.6663696896197
 20
15.0584272758341
 30
0.0
 10
19.66896259783641
 20
15.05625167711309
 30
0.0
 10
19.67210165575393
 20
15.05446415052864
 30
0.0
 10
19.67610401546439
 20
15.05307428007506
 30
0.0
 10
19.68087819459006
 20
15.05232269552346
 30
0.0
 10
19.6843703307774
 20
15.05265343920013
 30
0.0
 10
19.68616334271466
 20
15.05282325713642
 30
0.0
  0
SPLINE
  5
8B
330
2
100
AcDbEntity
  8
GAIKEI
  6
Continuous
 62
     1
100
AcDbSpline
210
0.0
220
0.0
230
1.0
 70
     8
 71
     3
 72
    11
 73
     7
 74
     0
 42
0.0000000001
 43
0.0000000001
 40
0.0
 40
0.0
 40
0.0
 40
0.0
 40
1.890317798381647
 40
3.874574183562534
 40
6.328523370605466
 40
8.876411424440856
 40
8.876411424440856
 40
8.876411424440856
 40
8.876411424440856
 10
19.7090739380219
 20
13.61144429503326
 30
0.0
 10
19.70748510891931
 20
13.67443505692415
 30
0.0
 10
19.70422849448752
 20
13.80354688141949
 30
0.0
 10
19.69913075947789
 20
14.01443675205769
 30
0.0
 10
19.69369385707217
 20
14.24724386017493
 30
0.0
 10
19.69003233007893
 20
14.41393210293421
 30
0.0
 10
19.6881671832468
 20
14.49884149961957
 30
0.0
  0
SPLINE
  5
8C
330
2
100
AcDbEntity
  8
GAIKEI
  6
Continuous
 62
     1
100
AcDbSpline
210
0.0
220
0.0
230
1.0
 70
     8
 71
     3
 72
     9
 73
     5
 74
     0
 42
0.0000000001
 43
0.0000000001
 40
0.0
 40
0.0
 40
0.0
 40
0.0
 40
0.1325079096080535
 40
0.2650164912490732
 40
0.2650164912490732
 40
0.2650164912490732
 40
0.2650164912490732
 10
14.60911942421647
 20
14.82468843150252
 30
0.0
 10
14.6129430257495
 20
14.82689966024679
 30
0.0
 10
14.62059024820755
 20
14.83132212894986
 30
0.0
 10
14.62825895482291
 20
14.83570723779701
 30
0.0
 10
14.63209331785387
 20
14.83789979778044
 30
0.0
  0
SPLINE
  5
8D
330
2
100
AcDbEntity
  8
GAIKEI
  6
Continuous
 62
     1
100
AcDbSpline
210
0.0
220
0.0
230
1.0
 70
    24
 71
     3
 72
     9
 73
     5
 74
     0
 42
0.0000000001
 43
0.0000000001
 40
0.0
 40
0.0
 40
0.0
 40
0.0
 40
0.0472245263559561
 40
0.0944490527121964
 40
0.0944490527121964
 40
0.0944490527121964
 40
0.0944490527121964
 10
19.6881671832468
 20
14.49884149961957
 30
0.0
 10
19.68814263490755
 20
14.50041546404998
 30
0.0
 10
19.68809353822907
 20
14.50356339291073
 30
0.0
 10
19.68804444155053
 20
14.50671132177149
 30
0.0
 10
19.68801989321125
 20
14.5082852862019
 30
0.0
  0
SPLINE
  5
8E
330
2
100
AcDbEntity
  8
GAIKEI
  6
Continuous
 62
     1
100
AcDbSpline
210
0.0
220
0.0
230
1.0
 70
     8
 71
     3
 72
     9
 73
     5
 74
     0
 42
0.0000000001
 43
0.0000000001
 40
0.0
 40
0.0
 40
0.0
 40
0.0
 40
0.4189301408518677
 40
0.8378673714011032
 40
0.8378673714011032
 40
0.8378673714011032
 40
0.8378673714011032
 10
19.68801989321125
 20
14.5082852862019
 30
0.0
 10
19.68806933920714
 20
14.52225910181039
 30
0.0
 10
19.68816823203565
 20
14.55020696951101
 30
0.0
 10
19.69103107223044
 20
14.57800799928378
 30
0.0
 10
19.69246250443996
 20
14.59190863179077
 30
0.0
  0
SPLINE
  5
8F
330
2
100
AcDbEntity
  8
GAIKEI
  6
Continuous
 62
     1
100
AcDbSpline
210
0.0
220
0.0
230
1.0
 70
    24
 71
     3
 72
     9
 73
     5
 74
     0
 42
0.0000000001
 43
0.0000000001
 40
0.0
 40
0.0
 40
0.0
 40
0.0
 40
0.018290189138719
 40
0.0365803782785664
 40
0.0365803782785664
 40
0.0365803782785664
 40
0.0365803782785664
 10
19.69246250443996
 20
14.59190863179077
 30
0.0
 10
19.69253979955755
 20
14.59251338706843
 30
0.0
 10
19.69269438979272
 20
14.59372289762382
 30
0.0
 10
19.69284898002789
 20
14.59493240817926
 30
0.0
 10
19.69292627514548
 20
14.59553716345692
 30
0.0
  0
SPLINE
  5
90
330
2
100
AcDbEntity
  8
GAIKEI
  6
Continuous
 62
     1
100
AcDbSpline
210
0.0
220
0.0
230
1.0
 70
     8
 71
     3
 72
     9
 73
     5
 74
     0
 42
0.0000000001
 43
0.0000000001
 40
0.0
 40
0.0
 40
0.0
 40
0.0
 40
0.375160298214346
 40
0.7501545058700766
 40
0.7501545058700766
 40
0.7501545058700766
 40
0.7501545058700766
 10
19.69292627514548
 20
14.59553716345692
 30
0.0
 10
19.69475488876495
 20
14.607924808186
 30
0.0
 10
19.69841130644201
 20
14.63269461339956
 30
0.0
 10
19.70543549407899
 20
14.65672735255742
 30
0.0
 10
19.70894681029017
 20
14.66874106161043
 30
0.0
  0
SPLINE
  5
91
330
2
100
AcDbEntity
  8
GAIKEI
  6
Continuous
 62
     1
100
AcDbSpline
210
0.0
220
0.0
230
1.0
 70
     8
 71
     3
 72
    11
 73
     7
 74
     0
 42
0.0000000001
 43
0.0000000001
 40
0.0
 40
0.0
 40
0.0
 40
0.0
 40
1.66198266104346
 40
3.326164444913814
 40
5.001341955374267
 40
6.678718632989793
 40
6.678718632989793
 40
6.678718632989793
 40
6.678718632989793
 10
14.63209331785387
 20
14.17549243993977
 30
0.0
 10
14.63276452750071
 20
14.23088797141349
 30
0.0
 10
14.63410783493397
 20
14.34175233330722
 30
0.0
 10
14.63605255423111
 20
14.50845291996438
 30
0.0
 10
14.63795364034614
 20
14.67566717850042
 30
0.0
 10
14.63917496232795
 20
14.78741266512111
 30
0.0
 10
14.63978602389272
 20
14.84332205914461
 30
0.0
  0
SPLINE
  5
92
330
2
100
AcDbEntity
  8
GAIKEI
  6
Continuous
 62
     1
100
AcDbSpline
210
0.0
220
0.0
230
1.0
 70
     8
 71
     3
 72
     9
 73
     5
 74
     0
 42
0.0000000001
 43
0.0000000001
 40
0.0
 40
0.0
 40
0.0
 40
0.0
 40
0.0471121132319887
 40
0.0942211789330094
 40
0.0942211789330094
 40
0.0942211789330094
 40
0.0942211789330094
 10
14.63978602389272
 20
14.84332205914461
 30
0.0
 10
14.63856799168269
 20
14.84232734081138
 30
0.0
 10
14.63613200605326
 20
14.84033796848996
 30
0.0
 10
14.63343951822466
 20
14.83871250382537
 30
0.0
 10
14.63209331785387
 20
14.83789979778044
 30
0.0
  0
SPLINE
  5
93
330
2
100
AcDbEntity
  8
GAIKEI
  6
Continuous
100
AcDbSpline
210
0.0
220
0.0
230
1.0
 70
     8
 71
     3
 72
    45
 73
    41
 74
     0
 42
0.0000000001
 43
0.0000000001
 40
0.0
 40
0.0
 40
0.0
 40
0.0
 40
3.101109282847382
 40
6.093144994951134
 40
8.590328321007579
 40
11.02990704043499
 40
13.3054312673786
 40
15.63559664308224
 40
18.06166365591091
 40
20.49101961530331
 40
22.98938869217151
 40
25.49177815903125
 40
28.0287273584806
 40
30.56250670296581
 40
33.09066485868186
 40
35.61287494293972
 40
38.12830406643829
 40
40.63597259221783
 40
43.19959263471111
 40
45.77086922750523
 40
48.46717427389851
 40
51.17762842777178
 40
53.96359008883313
 40
56.71305977854092
 40
59.59851890164494
 40
62.50099093442205
 40
65.72212852287218
 40
68.97815909324529
 40
72.46944260575332
 40
75.91319121552576
 40
79.56194266845944
 40
83.21516011827304
 40
87.28463112303982
 40
91.39478266775389
 40
96.03629405991888
 40
100.9051102701243
 40
105.1074848008203
 40
109.1119620374084
 40
111.204363714991
 40
112.8744037389284
 40
112.8744037389284
 40
112.8744037389284
 40
112.8744037389284
 10
-30.17915854193814
 20
15.67576860462191
 30
0.0
 10
-30.17657229065253
 20
15.57241377916546
 30
0.0
 10
-30.17149075284155
 20
15.36933936933508
 30
0.0
 10
-30.14848130244857
 20
15.08377920064157
 30
0.0
 10
-30.11775669526219
 20
14.82124940913718
 30
0.0
 10
-30.08249179581391
 20
14.58339187021187
 30
0.0
 10
-30.0400967932161
 20
14.35236387518188
 30
0.0
 10
-29.99031217402053
 20
14.12327916791673
 30
0.0
 10
-29.9319779855895
 20
13.89092542606772
 30
0.0
 10
-29.86427252506187
 20
13.65528576370047
 30
0.0
 10
-29.78783304861628
 20
13.41965400865774
 30
0.0
 10
-29.70209509520238
 20
13.18342482335288
 30
0.0
 10
-29.60779731943485
 20
12.94920450035244
 30
0.0
 10
-29.50494267690304
 20
12.71767324947842
 30
0.0
 10
-29.39430571228923
 20
12.49030611221116
 30
0.0
 10
-29.27613652507524
 20
12.26745329062407
 30
0.0
 10
-29.15064853298133
 20
12.04942561339805
 30
0.0
 10
-29.01691076872793
 20
11.83472998934445
 30
0.0
 10
-28.87465572748768
 20
11.62333120734092
 30
0.0
 10
-28.72144204426943
 20
11.41191849902225
 30
0.0
 10
-28.55761897575167
 20
11.20235273654583
 30
0.0
 10
-28.38134712452745
 20
10.99368716105999
 30
0.0
 10
-28.19627439727508
 20
10.7903775552586
 30
0.0
 10
-27.99935899880234
 20
10.59023912617152
 30
0.0
 10
-27.79181514445145
 20
10.39542231252574
 30
0.0
 10
-27.56516644047297
 20
10.19830341060083
 30
0.0
 10
-27.32065879854875
 20
10.00326344226965
 30
0.0
 10
-27.05149071200157
 20
9.808242238676939
 30
0.0
 10
-26.76759378586923
 20
9.621459383570993
 30
0.0
 10
-26.46371310770163
 20
9.441965656358433
 30
0.0
 10
-26.14649935550065
 20
9.27528326583274
 30
0.0
 10
-25.80264427737224
 20
9.115414760518149
 30
0.0
 10
-25.43632066096538
 20
8.968613155528657
 30
0.0
 10
-25.0310719597153
 20
8.8321541676749
 30
0.0
 10
-24.59221573567008
 20
8.714520709085888
 30
0.0
 10
-24.14394081824962
 20
8.623914437796941
 30
0.0
 10
-23.71235122760477
 20
8.560982910971802
 30
0.0
 10
-23.36967707813015
 20
8.536194221282016
 30
0.0
 10
-23.11090327140468
 20
8.527675991902356
 30
0.0
 10
-22.98549196445112
 20
8.526343011206449
 30
0.0
 10
-22.92982548010874
 20
8.52575133928434
 30
0.0
  0
SPLINE
  5
94
330
2
100
AcDbEntity
  8
GAIKEI
  6
Continuous
100
AcDbSpline
210
0.0
220
0.0
230
1.0
 70
     8
 71
     3
 72
    37
 73
    33
 74
     0
 42
0.0000000001
 43
0.0000000001
 40
0.0
 40
0.0
 40
0.0
 40
0.0
 40
3.562584757577607
 40
7.339150606872141
 40
12.12054031739309
 40
17.02543826339361
 40
22.26307475195874
 40
27.37587439225994
 40
32.18843221903396
 40
36.99390260617315
 40
41.52341944485719
 40
46.06002787152259
 40
50.27258022475994
 40
54.45989944005292
 40
58.36689233967529
 40
62.29458984925627
 40
65.99501736171966
 40
69.68454906305305
 40
73.14193418279899
 40
76.59094308391821
 40
79.90898576896845
 40
83.25364700799156
 40
86.47525058682136
 40
89.69316627593938
 40
92.68671303958347
 40
95.66798690072316
 40
98.38398290156712
 40
101.042049000605
 40
103.7308407088664
 40
106.4717442579375
 40
109.6173915526451
 40
112.8687661530921
 40
112.8687661530921
 40
112.8687661530921
 40
112.8687661530921
 10
-22.92982548010874
 20
8.52575133928434
 30
0.0
 10
-22.81106650473452
 20
8.527689353805612
 30
0.0
 10
-22.56641548153139
 20
8.531681786664876
 30
0.0
 10
-22.16333895383424
 20
8.56232626004305
 30
0.0
 10
-21.7180108251658
 20
8.620464986886986
 30
0.0
 10
-21.23059700135017
 20
8.722061624788238
 30
0.0
 10
-20.74020510083315
 20
8.858037543107002
 30
0.0
 10
-20.26358080365804
 20
9.027596064854776
 30
0.0
 10
-19.8132771741821
 20
9.224274545496655
 30
0.0
 10
-19.39391843132972
 20
9.440720623048605
 30
0.0
 10
-18.99729839594781
 20
9.679008926906931
 30
0.0
 10
-18.63295969836041
 20
9.930875733245954
 30
0.0
 10
-18.29332487318626
 20
10.19694983618052
 30
0.0
 10
-17.98530364622014
 20
10.46825079692553
 30
0.0
 10
-17.69986962041766
 20
10.74980103634107
 30
0.0
 10
-17.44087594419831
 20
11.03424505789559
 30
0.0
 10
-17.20162273728249
 20
11.32614304232612
 30
0.0
 10
-16.98723503267354
 20
11.61751394097501
 30
0.0
 10
-16.79210665917423
 20
11.91206981217249
 30
0.0
 10
-16.61721114820302
 20
12.20473645181886
 30
0.0
 10
-16.45809160718421
 20
12.50200873811718
 30
0.0
 10
-16.3161983038473
 20
12.79949630985464
 30
0.0
 10
-16.18904619103281
 20
13.09994438927435
 30
0.0
 10
-16.07958067360381
 20
13.39482409016892
 30
0.0
 10
-15.98522747370457
 20
13.68645140128365
 30
0.0
 10
-15.90752642067129
 20
13.96561649453599
 30
0.0
 10
-15.84322625045716
 20
14.23666910113127
 30
0.0
 10
-15.79110771281246
 20
14.5003974411004
 30
0.0
 10
-15.74907856706967
 20
14.76675841825306
 30
0.0
 10
-15.71419969599236
 20
15.05050717284825
 30
0.0
 10
-15.6887435415993
 20
15.35420375589353
 30
0.0
 10
-15.68327293381183
 20
15.56740575062883
 30
0.0
 10
-15.68049242195798
 20
15.67576860475191
 30
0.0
  0
SPLINE
  5
95
330
2
100
AcDbEntity
  8
GAIKEI
  6
Continuous
100
AcDbSpline
210
0.0
220
0.0
230
1.0
 70
    24
 71
     3
 72
     9
 73
     5
 74
     0
 42
0.0000000001
 43
0.0000000001
 40
0.0
 40
0.0
 40
0.0
 40
0.0
 40
0.0716285654910351
 40
0.1432571309820669
 40
0.1432571309820669
 40
0.1432571309820669
 40
0.1432571309820669
 10
-29.14911803465043
 20
29.31653190884771
 30
0.0
 10
-29.15138915411214
 20
29.31726864230745
 30
0.0
 10
-29.15593139303557
 20
29.31874210922695
 30
0.0
 10
-29.16047363195901
 20
29.32021557614644
 30
0.0
 10
-29.16274475142072
 20
29.32095230960613
 30
0.0
  0
SPLINE
  5
96
330
2
100
AcDbEntity
  8
GAIKEI
  6
Continuous
100
AcDbSpline
210
0.0
220
0.0
230
1.0
 70
     8
 71
     3
 72
    11
 73
     7
 74
     0
 42
0.0000000001
 43
0.0000000001
 40
0.0
 40
0.0
 40
0.0
 40
0.0
 40
0.1093056512981868
 40
0.217906875631057
 40
0.3259655563749153
 40
0.4344878781328403
 40
0.4344878781328403
 40
0.4344878781328403
 40
0.4344878781328403
 10
-29.16274475142072
 20
29.32095230960613
 30
0.0
 10
-29.1659218809658
 20
29.3227700237909
 30
0.0
 10
-29.17225566485004
 20
29.32639373779
 30
0.0
 10
-29.17988976299647
 20
29.33428236934645
 30
0.0
 10
-29.18593162767005
 20
29.34341366809537
 30
0.0
 10
-29.18810758279558
 20
29.35033171720369
 30
0.0
 10
-29.18919788942236
 20
29.35379814658853
 30
0.0
  0
SPLINE
  5
97
330
2
100
AcDbEntity
  8
GAIKEI
  6
Continuous
100
AcDbSpline
210
0.0
220
0.0
230
1.0
 70
     8
 71
     3
 72
    13
 73
     9
 74
     0
 42
0.0000000001
 43
0.0000000001
 40
0.0
 40
0.0
 40
0.0
 40
0.0
 40
0.2417903715270264
 40
0.4656823122323485
 40
0.6626358765535211
 40
0.8596131070356582
 40
1.083822907673216
 40
1.325965550234858
 40
1.325965550234858
 40
1.325965550234858
 40
1.325965550234858
 10
-29.41099263422157
 20
30.24984201324833
 30
0.0
 10
-29.41339858130776
 20
30.25757936251319
 30
0.0
 10
-29.41803237625641
 20
30.27248130700935
 30
0.0
 10
-29.43099375332023
 20
30.29079360235682
 30
0.0
 10
-29.44625449288789
 20
30.30473336152738
 30
0.0
 10
-29.4634536918378
 20
30.31621502132907
 30
0.0
 10
-29.4843621611747
 20
30.32441700570684
 30
0.0
 10
-29.49996352772536
 20
30.32533713884447
 30
0.0
 10
-29.50806417387666
 20
30.32581489654189
 30
0.0
  0
SPLINE
  5
98
330
2
100
AcDbEntity
  8
GAIKEI
  6
Continuous
100
AcDbSpline
210
0.0
220
0.0
230
1.0
 70
     8
 71
     3
 72
     9
 73
     5
 74
     0
 42
0.0000000001
 43
0.0000000001
 40
0.0
 40
0.0
 40
0.0
 40
0.0
 40
0.3312202241026973
 40
0.6624318988797987
 40
0.6624318988797987
 40
0.6624318988797987
 40
0.6624318988797987
 10
-16.38414317289729
 20
30.32036700133654
 30
0.0
 10
-16.39440665553123
 20
30.31581319689491
 30
0.0
 10
-16.41493335588215
 20
30.30670570555265
 30
0.0
 10
-16.42869630050199
 20
30.28896105386559
 30
0.0
 10
-16.43557768399986
 20
30.28008884252802
 30
0.0
  0
SPLINE
  5
99
330
2
100
AcDbEntity
  8
GAIKEI
  6
Continuous
100
AcDbSpline
210
0.0
220
0.0
230
1.0
 70
    24
 71
     3
 72
     9
 73
     5
 74
     0
 42
0.0000000001
 43
0.0000000001
 40
0.0
 40
0.0
 40
0.0
 40
0.0
 40
0.0718445477829367
 40
0.143689095565847
 40
0.143689095565847
 40
0.143689095565847
 40
0.143689095565847
 10
-16.67045307079377
 20
29.35379814658853
 30
0.0
 10
-16.67135654854372
 20
29.35158028304511
 30
0.0
 10
-16.67316350404365
 20
29.34714455595827
 30
0.0
 10
-16.67497045954364
 20
29.34270882887143
 30
0.0
 10
-16.6758739372936
 20
29.340490965328
 30
0.0
  0
SPLINE
  5
9A
330
2
100
AcDbEntity
  8
GAIKEI
  6
Continuous
100
AcDbSpline
210
0.0
220
0.0
230
1.0
 70
    24
 71
     3
 72
     9
 73
     5
 74
     0
 42
0.0000000001
 43
0.0000000001
 40
0.0
 40
0.0
 40
0.0
 40
0.0
 40
0.0723687746622808
 40
0.1447375493246261
 40
0.1447375493246261
 40
0.1447375493246261
 40
0.1447375493246261
 10
-16.6758739372936
 20
29.340490965328
 30
0.0
 10
-16.67738377694303
 20
29.33860958921957
 30
0.0
 10
-16.68040345624186
 20
29.33484683700271
 30
0.0
 10
-16.68342313554068
 20
29.3310840847858
 30
0.0
 10
-16.68493297519007
 20
29.32920270867737
 30
0.0
  0
SPLINE
  5
9B
330
2
100
AcDbEntity
  8
GAIKEI
  6
Continuous
100
AcDbSpline
210
0.0
220
0.0
230
1.0
 70
    24
 71
     3
 72
     9
 73
     5
 74
     0
 42
0.0000000001
 43
0.0000000001
 40
0.0
 40
0.0
 40
0.0
 40
0.0
 40
0.072702488194442
 40
0.1454049763887844
 40
0.1454049763887844
 40
0.1454049763887844
 40
0.1454049763887844
 10
-16.68493297519007
 20
29.32920270867737
 30
0.0
 10
-16.6869285141243
 20
29.32782764216546
 30
0.0
 10
-16.69091959199272
 20
29.32507750914175
 30
0.0
 10
-16.69491066986114
 20
29.32232737611798
 30
0.0
 10
-16.69690620879539
 20
29.32095230960613
 30
0.0
  0
SPLINE
  5
9C
330
2
100
AcDbEntity
  8
GAIKEI
  6
Continuous
100
AcDbSpline
210
0.0
220
0.0
230
1.0
 70
    24
 71
     3
 72
     9
 73
     5
 74
     0
 42
0.0000000001
 43
0.0000000001
 40
0.0
 40
0.0
 40
0.0
 40
0.0
 40
0.0716285654436668
 40
0.1432571308873368
 40
0.1432571308873368
 40
0.1432571308873368
 40
0.1432571308873368
 10
-16.69690620879539
 20
29.32095230960613
 30
0.0
 10
-16.69917732825543
 20
29.32021557614644
 30
0.0
 10
-16.70371956717555
 20
29.31874210922695
 30
0.0
 10
-16.70826180609565
 20
29.31726864230745
 30
0.0
 10
-16.71053292555572
 20
29.31653190884771
 30
0.0
  0
SPLINE
  5
9D
330
2
100
AcDbEntity
  8
GAIKEI
  6
Continuous
100
AcDbSpline
210
0.0
220
0.0
230
1.0
 70
    24
 71
     3
 72
     9
 73
     5
 74
     0
 42
0.0000000001
 43
0.0000000001
 40
0.0
 40
0.0
 40
0.0
 40
0.0
 40
0.1647700680406615
 40
0.3295401360812876
 40
0.3295401360812876
 40
0.3295401360812876
 40
0.3295401360812876
 10
-16.44865832598458
 20
30.24984201324833
 30
0.0
 10
-16.44647821898711
 20
30.25488315146163
 30
0.0
 10
-16.44211800499218
 20
30.26496542788817
 30
0.0
 10
-16.43775779099728
 20
30.27504770431472
 30
0.0
 10
-16.43557768399986
 20
30.28008884252802
 30
0.0
  0
SPLINE
  5
9E
330
2
100
AcDbEntity
  8
GAIKEI
  6
Continuous
100
AcDbSpline
210
0.0
220
0.0
230
1.0
 70
    24
 71
     3
 72
     9
 73
     5
 74
     0
 42
0.0000000001
 43
0.0000000001
 40
0.0
 40
0.0
 40
0.0
 40
0.0
 40
0.1650447652640032
 40
0.3300895305284162
 40
0.3300895305284162
 40
0.3300895305284162
 40
0.3300895305284162
 10
-16.38414317289729
 20
30.32036700133654
 30
0.0
 10
-16.37871710847098
 20
30.32127498387069
 30
0.0
 10
-16.3678649796184
 20
30.32309094893913
 30
0.0
 10
-16.35701285076578
 20
30.32490691400762
 30
0.0
 10
-16.35158678633949
 20
30.32581489654189
 30
0.0
  0
ELLIPSE
  5
9F
330
2
100
AcDbEntity
  8
GAIKEI
  6
Continuous
100
AcDbEllipse
 10
-6.618908925001022
 20
27.37138587162565
 30
0.0
 11
-12.72796228159023
 21
12.72796228159023
 31
0.0
210
0.0
220
0.0
230
1.0
 40
0.9999999999997642
 41
3.58581066537886
 42
3.715867884260042
  0
ELLIPSE
  5
A0
330
2
100
AcDbEntity
  8
GAIKEI
  6
Continuous
100
AcDbEllipse
 10
27.30617425388306
 20
15.32576749654185
 30
0.0
 11
12.72796228159198
 21
12.72796228159198
 31
0.0
210
0.0
220
0.0
230
1.0
 40
0.9999999999999861
 41
2.01501433858385
 42
2.144619530434053
  0
ELLIPSE
  5
A1
330
2
100
AcDbEntity
  8
GAIKEI
  6
Continuous
100
AcDbEllipse
 10
17.52912949947915
 20
17.4257741325419
 30
0.0
 11
5.656872125153435
 21
5.656872125153434
 31
0.0
210
0.0
220
0.0
230
1.0
 40
0.999999999999887
 41
2.144619530434007
 42
2.306173633386499
  0
ELLIPSE
  5
A2
330
2
100
AcDbEntity
  8
GAIKEI
  6
Continuous
100
AcDbEllipse
 10
3.159084090279264
 20
25.27579893854187
 30
0.0
 11
-5.656872125151578
 21
5.65687212515158
 31
0.0
210
0.0
220
0.0
230
1.0
 40
0.9999999999999875
 41
3.71586788425994
 42
3.926990816987265
  0
ELLIPSE
  5
A3
330
2
100
AcDbEntity
  8
GAIKEI
  6
Continuous
100
AcDbEllipse
 10
40.93716558555953
 20
27.37138587162565
 30
0.0
 11
12.72796228159022
 21
12.72796228159022
 31
0.0
210
0.0
220
0.0
230
1.0
 40
0.9999999999997697
 41
2.567317422919579
 42
2.697374641800762
  0
ELLIPSE
  5
A4
330
2
100
AcDbEntity
  8
GAIKEI
  6
Continuous
100
AcDbEllipse
 10
7.01208240666547
 20
15.32576749654185
 30
0.0
 11
12.72796228159094
 21
12.72796228159093
 31
0.0
210
0.0
220
0.0
230
1.0
 40
0.9999999999998866
 41
5.709362103540372
 42
5.838967295390583
  0
ELLIPSE
  5
A5
330
2
100
AcDbEntity
  8
GAIKEI
  6
Continuous
100
AcDbEllipse
 10
16.78912716107923
 20
17.4257741325419
 30
0.0
 11
-5.656872125152195
 21
5.656872125152196
 31
0.0
210
0.0
220
0.0
230
1.0
 40
0.999999999999966
 41
3.977011673793048
 42
4.138565776745542
  0
ELLIPSE
  5
A6
330
2
100
AcDbEntity
  8
GAIKEI
  6
Continuous
100
AcDbEllipse
 10
31.15917257027927
 20
25.27579893854187
 30
0.0
 11
5.656872125151043
 21
5.656872125151043
 31
0.0
210
0.0
220
0.0
230
1.0
 40
0.9999999999999282
 41
2.356194490192326
 42
2.567317422919651
  0
ELLIPSE
  5
A7
330
2
100
AcDbEntity
  8
GAIKEI
  6
Continuous
100
AcDbEllipse
 10
9.627775250308715
 20
16.19498350311568
 30
0.0
 11
-0.0494976310950848
 21
0.0494976310950848
 31
0.0
210
0.0
220
0.0
230
1.0
 40
0.9999999999996404
 41
0.812783798094593
 42
2.001488925675452
  0
ELLIPSE
  5
A8
330
2
100
AcDbEntity
  8
GAIKEI
  6
Continuous
100
AcDbEllipse
 10
24.69048141023975
 20
16.19498350311568
 30
0.0
 11
-0.049497631095023
 21
0.049497631095023
 31
0.0
210
0.0
220
0.0
230
1.0
 40
0.9999999999990025
 41
2.710900054710589
 42
3.899605182290819
  0
ELLIPSE
  5
A9
330
2
100
AcDbEntity
  8
GAIKEI
  6
Continuous
 62
     1
100
AcDbEllipse
 10
17.15912833027926
 20
15.27577266928432
 30
0.0
 11
4.030521389170678
 21
4.030521389170678
 31
0.0
210
0.0
220
0.0
230
1.0
 40
0.999999999999995
 41
3.472954477474718
 42
4.381027156499765
  0
ELLIPSE
  5
AA
330
2
100
AcDbEntity
  8
GAIKEI
  6
Continuous
 62
     1
100
AcDbEllipse
 10
17.15912833027926
 20
16.3757761452843
 30
0.0
 11
4.808341306379119
 21
4.808341306379119
 31
0.0
210
0.0
220
0.0
230
1.0
 40
0.9999999999999847
 41
2.634441312926653
 42
3.518644826391934
  0
ELLIPSE
  5
AB
330
2
100
AcDbEntity
  8
GAIKEI
  6
Continuous
 62
     1
100
AcDbEllipse
 10
17.15912833027926
 20
16.3757761452843
 30
0.0
 11
4.808341306379119
 21
4.808341306379117
 31
0.0
210
0.0
220
0.0
230
1.0
 40
0.9999999999999955
 41
4.335336807582548
 42
5.21954032104782
  0
ELLIPSE
  5
AC
330
2
100
AcDbEntity
  8
GAIKEI
  6
Continuous
100
AcDbEllipse
 10
-23.29982664930806
 20
17.4257741325419
 30
0.0
 11
5.656872125151932
 21
5.65687212515193
 31
0.0
210
0.0
220
0.0
230
1.0
 40
0.9999999999999932
 41
5.547808000587925
 42
5.709362103540421
  0
ELLIPSE
  5
AD
330
2
100
AcDbEntity
  8
GAIKEI
  6
Continuous
100
AcDbEllipse
 10
-22.55982431090807
 20
17.4257741325419
 30
0.0
 11
5.656872125152755
 21
5.656872125152755
 31
0.0
210
0.0
220
0.0
230
1.0
 40
0.9999999999999308
 41
2.144619530434027
 42
2.30617363338652
  0
ELLIPSE
  5
AE
330
2
100
AcDbEntity
  8
GAIKEI
  6
Continuous
100
AcDbEllipse
 10
-15.39847240014753
 20
16.19498350311568
 30
0.0
 11
-0.0494976310950069
 21
0.0494976310950069
 31
0.0
210
0.0
220
0.0
230
1.0
 40
0.9999999999998191
 41
2.710900054707487
 42
3.89960518229037
  0
ELLIPSE
  5
AF
330
2
100
AcDbEntity
  8
GAIKEI
  6
Continuous
100
AcDbEllipse
 10
-30.46117856006862
 20
16.19498350311568
 30
0.0
 11
-0.0494976310950947
 21
0.0494976310950947
 31
0.0
210
0.0
220
0.0
230
1.0
 40
0.9999999999993832
 41
0.8127837980947214
 42
2.001488925675022
  0
ELLIPSE
  5
B0
330
2
100
AcDbEntity
  8
GAIKEI
  6
Continuous
 62
     1
100
AcDbEllipse
 10
-22.92982548010808
 20
15.27577266928432
 30
0.0
 11
4.030521389170719
 21
4.030521389170719
 31
0.0
210
0.0
220
0.0
230
1.0
 40
1.0
 41
3.472954477474724
 42
4.381027156499757
  0
ELLIPSE
  5
B1
330
2
100
AcDbEntity
  8
GAIKEI
  6
Continuous
 62
     1
100
AcDbEllipse
 10
-22.92982548010808
 20
16.3757761452843
 30
0.0
 11
4.808341306379108
 21
4.808341306379108
 31
0.0
210
0.0
220
0.0
230
1.0
 40
0.999999999999995
 41
2.634441312926657
 42
3.518644826391934
  0
ELLIPSE
  5
B2
330
2
100
AcDbEntity
  8
GAIKEI
  6
Continuous
 62
     1
100
AcDbEllipse
 10
-22.92982548010808
 20
16.3757761452843
 30
0.0
 11
-4.808341306379109
 21
4.80834130637911
 31
0.0
210
0.0
220
0.0
230
1.0
 40
0.9999999999999944
 41
2.764540480787651
 42
3.648743994252927
  0
ELLIPSE
  5
B3
330
2
100
AcDbEntity
  8
GAIKEI
  6
Continuous
100
AcDbEllipse
 10
-8.929781240108077
 20
25.27579893854187
 30
0.0
 11
-5.656872125152349
 21
5.656872125152349
 31
0.0
210
0.0
220
0.0
230
1.0
 40
0.9999999999999651
 41
0.785398163397483
 42
0.996521096124804
  0
ELLIPSE
  5
B4
330
2
100
AcDbEntity
  8
GAIKEI
  6
Continuous
100
AcDbEllipse
 10
-36.92986972010809
 20
25.27579893854187
 30
0.0
 11
-5.656872125151578
 21
5.65687212515158
 31
0.0
210
0.0
220
0.0
230
1.0
 40
0.9999999999999875
 41
3.71586788425994
 42
3.926990816987265
  0
ELLIPSE
  5
B5
330
2
100
AcDbEntity
  8
GAIKEI
  6
Continuous
100
AcDbEllipse
 10
0.8482117751721887
 20
27.37138587162565
 30
0.0
 11
-12.72796228159273
 21
12.72796228159273
 31
0.0
210
0.0
220
0.0
230
1.0
 40
0.9999999999999426
 41
0.9965210961248143
 42
1.126578315005977
  0
ELLIPSE
  5
B6
330
2
100
AcDbEntity
  8
GAIKEI
  6
Continuous
100
AcDbEllipse
 10
-33.07687140372187
 20
15.32576749654185
 30
0.0
 11
12.72796228159085
 21
12.72796228159085
 31
0.0
210
0.0
220
0.0
230
1.0
 40
0.9999999999998882
 41
5.709362103540373
 42
5.838967295390584
  0
ELLIPSE
  5
B7
330
2
100
AcDbEntity
  8
GAIKEI
  6
Continuous
100
AcDbEllipse
 10
-46.70786273538837
 20
27.37138587162565
 30
0.0
 11
-12.72796228159116
 21
12.72796228159116
 31
0.0
210
0.0
220
0.0
230
1.0
 40
0.9999999999999468
 41
3.585810665378789
 42
3.715867884259959
  0
ELLIPSE
  5
B8
330
2
100
AcDbEntity
  8
GAIKEI
  6
Continuous
100
AcDbEllipse
 10
-12.78277955650429
 20
15.32576749654185
 30
0.0
 11
-12.7279622815909
 21
12.7279622815909
 31
0.0
210
0.0
220
0.0
230
0.9999999999999998
 40
0.9999999999998912
 41
0.4442180117890007
 42
0.5738232036392122
  0
LINE
  5
B9
330
2
100
AcDbEntity
  8
GAIKEI
  6
Continuous
 62
     1
100
AcDbLine
 10
9.60127783603437
 20
16.15998339251581
 30
0.0
 11
24.71697882452415
 21
16.15998339251581
 31
0.0
  0
LINE
  5
BA
330
2
100
AcDbEntity
  8
GAIKEI
  6
Continuous
100
AcDbLine
 10
24.88415274127927
 20
17.57577460654187
 30
0.0
 11
24.83415258327926
 21
17.4257741325419
 31
0.0
  0
LINE
  5
BB
330
2
100
AcDbEntity
  8
GAIKEI
  6
Continuous
100
AcDbLine
 10
24.78915244107924
 20
17.4257741325419
 30
0.0
 11
24.76045538393683
 21
16.19306674223884
 31
0.0
  0
LINE
  5
BC
330
2
100
AcDbEntity
  8
GAIKEI
  6
Continuous
100
AcDbLine
 10
24.42707198161862
 20
16.0457697717419
 30
0.0
 11
24.41415125607924
 21
15.67576860254189
 31
0.0
  0
LINE
  5
BD
330
2
100
AcDbEntity
  8
GAIKEI
  6
Continuous
100
AcDbLine
 10
24.783525444358
 20
17.72577508054189
 30
0.0
 11
24.77914615162948
 21
17.82577539654187
 31
0.0
  0
LINE
  5
BE
330
2
100
AcDbEntity
  8
GAIKEI
  6
Continuous
100
AcDbLine
 10
24.83415258327926
 20
17.72577508054189
 30
0.0
 11
24.88415274127927
 21
17.57577460654187
 31
0.0
  0
LINE
  5
BF
330
2
100
AcDbEntity
  8
GAIKEI
  6
Continuous
100
AcDbLine
 10
24.71479348622568
 20
16.12934088031579
 30
0.0
 11
24.50091693424793
 21
16.05012734254177
 31
0.0
  0
LINE
  5
C0
330
2
100
AcDbEntity
  8
GAIKEI
  6
Continuous
100
AcDbLine
 10
23.19287222906452
 20
29.31581170494189
 30
0.0
 11
23.15897950451416
 21
25.27579893854193
 31
0.0
  0
LINE
  5
C1
330
2
100
AcDbEntity
  8
GAIKEI
  6
Continuous
100
AcDbLine
 10
23.15914664764723
 20
25.27579893854193
 30
0.0
 11
11.15911001290128
 21
25.27579893854193
 31
0.0
  0
LINE
  5
C2
330
2
100
AcDbEntity
  8
GAIKEI
  6
Continuous
 62
     1
100
AcDbLine
 10
24.83415185429695
 20
17.72577508054189
 30
0.0
 11
9.484104806251565
 21
17.72577508054189
 31
0.0
  0
LINE
  5
C3
330
2
100
AcDbEntity
  8
GAIKEI
  6
Continuous
 62
     1
100
AcDbLine
 10
9.434103919279266
 20
17.57577460654187
 30
0.0
 11
24.88415274127927
 21
17.57577460654187
 31
0.0
  0
LINE
  5
C4
330
2
100
AcDbEntity
  8
GAIKEI
  6
Continuous
 62
     1
100
AcDbLine
 10
24.83415185429695
 20
17.4257741325419
 30
0.0
 11
9.484104806251565
 21
17.4257741325419
 31
0.0
  0
LINE
  5
C5
330
2
100
AcDbEntity
  8
GAIKEI
  6
PHANTOM
 62
     1
100
AcDbLine
 10
9.904107997687347
 20
15.67576860254189
 30
0.0
 11
24.41414866286104
 21
15.67576860254189
 31
0.0
  0
LINE
  5
C7
330
2
100
AcDbEntity
  8
GAIKEI
  6
Continuous
100
AcDbLine
 10
9.817339726300588
 20
16.05012734254177
 30
0.0
 11
9.841651727806265
 21
16.0457697717419
 31
0.0
  0
LINE
  5
C8
330
2
100
AcDbEntity
  8
GAIKEI
  6
Continuous
100
AcDbLine
 10
24.50091693424793
 20
16.05012734254177
 30
0.0
 11
24.47660493274226
 21
16.0457697717419
 31
0.0
  0
LINE
  5
C9
330
2
100
AcDbEntity
  8
GAIKEI
  6
Continuous
100
AcDbLine
 10
11.1253844314941
 20
29.31581170494189
 30
0.0
 11
11.15927715604435
 21
25.27579893854193
 31
0.0
  0
LINE
  5
CA
330
2
100
AcDbEntity
  8
GAIKEI
  6
Continuous
100
AcDbLine
 10
9.603463174322712
 20
16.12934088031579
 30
0.0
 11
9.817339726300588
 21
16.05012734254177
 31
0.0
  0
LINE
  5
CB
330
2
100
AcDbEntity
  8
GAIKEI
  6
Continuous
100
AcDbLine
 10
9.484104077279255
 20
17.72577508054189
 30
0.0
 11
9.434103919279266
 21
17.57577460654187
 31
0.0
  0
LINE
  5
CC
330
2
100
AcDbEntity
  8
GAIKEI
  6
Continuous
100
AcDbLine
 10
9.434103919279266
 20
17.57577460654187
 30
0.0
 11
9.484104077279255
 21
17.4257741325419
 31
0.0
  0
LINE
  5
CD
330
2
100
AcDbEntity
  8
GAIKEI
  6
Continuous
100
AcDbLine
 10
9.534731216190508
 20
17.72577508054189
 30
0.0
 11
9.539110508919009
 21
17.82577539654187
 31
0.0
  0
LINE
  5
CE
330
2
100
AcDbEntity
  8
GAIKEI
  6
Continuous
100
AcDbLine
 10
9.529104219479151
 20
17.4257741325419
 30
0.0
 11
9.557801276611684
 21
16.19306674223884
 31
0.0
  0
LINE
  5
CF
330
2
100
AcDbEntity
  8
GAIKEI
  6
Continuous
100
AcDbLine
 10
9.891181639900281
 20
16.04585679835691
 30
0.0
 11
9.904105404479153
 21
15.67576860254189
 31
0.0
  0
LINE
  5
D0
330
2
100
AcDbEntity
  8
GAIKEI
  6
Continuous
 62
     1
100
AcDbLine
 10
23.70914902827926
 20
14.5904133964259
 30
0.0
 11
23.6976105302777
 21
14.50801203878831
 31
0.0
  0
LINE
  5
D1
330
2
100
AcDbEntity
  8
GAIKEI
  6
Continuous
 62
     1
100
AcDbLine
 10
23.70914902827926
 20
16.0457697717419
 30
0.0
 11
23.70914902827926
 21
14.5904133964259
 31
0.0
  0
LINE
  5
D2
330
2
100
AcDbEntity
  8
GAIKEI
  6
Continuous
 62
     1
100
AcDbLine
 10
19.70913638827926
 20
15.87577456528436
 30
0.0
 11
19.70913638827926
 21
15.57577361728431
 31
0.0
  0
LINE
  5
D3
330
2
100
AcDbEntity
  8
GAIKEI
  6
Continuous
 62
     1
100
AcDbLine
 10
19.65913623027926
 20
10.15325709223998
 30
0.0
 11
19.65913623027926
 21
15.57577361728431
 31
0.0
  0
LINE
  5
D4
330
2
100
AcDbEntity
  8
GAIKEI
  6
Continuous
 62
     1
100
AcDbLine
 10
15.65912359027926
 20
15.77577424928432
 30
0.0
 11
15.65912359027926
 21
15.87577456528436
 31
0.0
  0
LINE
  5
D5
330
2
100
AcDbEntity
  8
GAIKEI
  6
Continuous
 62
     1
100
AcDbLine
 10
14.60912027227925
 20
15.87577456528436
 30
0.0
 11
15.65912359027926
 21
15.87577456528436
 31
0.0
  0
LINE
  5
D6
330
2
100
AcDbEntity
  8
GAIKEI
  6
Continuous
 62
     1
100
AcDbLine
 10
18.65913307027927
 20
15.87577456528436
 30
0.0
 11
19.70913638827926
 21
15.87577456528436
 31
0.0
  0
LINE
  5
D7
330
2
100
AcDbEntity
  8
GAIKEI
  6
Continuous
 62
     1
100
AcDbLine
 10
18.65913307027927
 20
15.77577424928432
 30
0.0
 11
15.65912359027926
 21
15.77577424928432
 31
0.0
  0
LINE
  5
D8
330
2
100
AcDbEntity
  8
GAIKEI
  6
Continuous
 62
     1
100
AcDbLine
 10
14.60912027227925
 20
15.57577361728431
 30
0.0
 11
19.70913638827926
 21
15.57577361728431
 31
0.0
  0
LINE
  5
D9
330
2
100
AcDbEntity
  8
GAIKEI
  6
Continuous
 62
     1
100
AcDbLine
 10
14.65912043027926
 20
15.57577361728431
 30
0.0
 11
14.65912043027926
 21
10.15325709223992
 31
0.0
  0
LINE
  5
DA
330
2
100
AcDbEntity
  8
GAIKEI
  6
Continuous
 62
     1
100
AcDbLine
 10
14.60912027227925
 20
15.87577456528436
 30
0.0
 11
14.60912027227925
 21
15.57577361728431
 31
0.0
  0
LINE
  5
DB
330
2
100
AcDbEntity
  8
GAIKEI
  6
Continuous
 62
     1
100
AcDbLine
 10
14.63978602389272
 20
14.84332205914461
 30
0.0
 11
14.61840500569882
 21
13.76059795153736
 31
0.0
  0
LINE
  5
DC
330
2
100
AcDbEntity
  8
GAIKEI
  6
Continuous
 62
     1
100
AcDbLine
 10
10.60910763227926
 20
16.0457697717419
 30
0.0
 11
10.60910763227926
 21
14.5904133964259
 31
0.0
  0
LINE
  5
DD
330
2
100
AcDbEntity
  8
GAIKEI
  6
Continuous
 62
     1
100
AcDbLine
 10
10.60910763227926
 20
14.5904133964259
 30
0.0
 11
10.62064613028077
 21
14.50801203878831
 31
0.0
  0
LINE
  5
DE
330
2
100
AcDbEntity
  8
GAIKEI
  6
Continuous
 62
     1
100
AcDbLine
 10
18.65913307027927
 20
16.0457697717419
 30
0.0
 11
18.65913307027927
 21
15.87577456528436
 31
0.0
  0
LINE
  5
DF
330
2
100
AcDbEntity
  8
GAIKEI
  6
Continuous
 62
     1
100
AcDbLine
 10
9.84167004310413
 20
16.0457697717419
 30
0.0
 11
24.47658661744438
 21
16.0457697717419
 31
0.0
  0
LINE
  5
E0
330
2
100
AcDbEntity
  8
GAIKEI
  6
Continuous
 62
     1
100
AcDbLine
 10
15.65912359027926
 20
15.87577456528436
 30
0.0
 11
15.65912359027926
 21
16.0457697717419
 31
0.0
  0
LINE
  5
E1
330
2
100
AcDbEntity
  8
GAIKEI
  6
Continuous
 62
     1
100
AcDbLine
 10
14.60912027227925
 20
15.57577361728431
 30
0.0
 11
14.60912027227925
 21
12.80365063751338
 31
0.0
  0
LINE
  5
E2
330
2
100
AcDbEntity
  8
GAIKEI
  6
Continuous
 62
     1
100
AcDbLine
 10
19.70913638827926
 20
15.57577361728431
 30
0.0
 11
19.70913638827926
 21
12.80365063751338
 31
0.0
  0
LINE
  5
E3
330
2
100
AcDbEntity
  8
GAIKEI
  6
Continuous
 62
     1
100
AcDbLine
 10
18.65913307027927
 20
15.87577456528436
 30
0.0
 11
18.65913307027927
 21
15.77577424928432
 31
0.0
  0
LINE
  5
E4
330
2
100
AcDbEntity
  8
GAIKEI
  6
Continuous
 62
     1
100
AcDbLine
 10
-30.5218005298984
 20
16.15998339251581
 30
0.0
 11
-15.33785043031785
 21
16.15998339251581
 31
0.0
  0
LINE
  5
E5
330
2
100
AcDbEntity
  8
GAIKEI
  6
Continuous
100
AcDbLine
 10
-15.20480106910808
 20
17.57577460654187
 30
0.0
 11
-15.25480122710808
 21
17.4257741325419
 31
0.0
  0
LINE
  5
E6
330
2
100
AcDbEntity
  8
GAIKEI
  6
Continuous
100
AcDbLine
 10
-15.29980136930808
 20
17.4257741325419
 30
0.0
 11
-15.32849842645059
 21
16.19306674223884
 31
0.0
  0
LINE
  5
E7
330
2
100
AcDbEntity
  8
GAIKEI
  6
Continuous
100
AcDbLine
 10
-15.66188182876872
 20
16.0457697717419
 30
0.0
 11
-15.67480255430808
 21
15.67576860254189
 31
0.0
  0
LINE
  5
E8
330
2
100
AcDbEntity
  8
GAIKEI
  6
Continuous
100
AcDbLine
 10
-15.30542836601933
 20
17.72577508054189
 30
0.0
 11
-15.30980765875787
 21
17.82577539654187
 31
0.0
  0
LINE
  5
E9
330
2
100
AcDbEntity
  8
GAIKEI
  6
Continuous
100
AcDbLine
 10
-15.25480122710808
 20
17.72577508054189
 30
0.0
 11
-15.20480106910808
 21
17.57577460654187
 31
0.0
  0
LINE
  5
EA
330
2
100
AcDbEntity
  8
GAIKEI
  6
Continuous
100
AcDbLine
 10
-15.37416032416162
 20
16.12934088031579
 30
0.0
 11
-15.58803687613942
 21
16.05012734254177
 31
0.0
  0
LINE
  5
EB
330
2
100
AcDbEntity
  8
GAIKEI
  6
Continuous
 62
     1
100
AcDbLine
 10
-15.25480195609049
 20
17.72577508054189
 30
0.0
 11
-30.60484900413577
 21
17.72577508054189
 31
0.0
  0
LINE
  5
EC
330
2
100
AcDbEntity
  8
GAIKEI
  6
Continuous
 62
     1
100
AcDbLine
 10
-30.65484989110809
 20
17.57577460654187
 30
0.0
 11
-15.20480106910808
 21
17.57577460654187
 31
0.0
  0
LINE
  5
ED
330
2
100
AcDbEntity
  8
GAIKEI
  6
Continuous
 62
     1
100
AcDbLine
 10
-15.25480195609049
 20
17.4257741325419
 30
0.0
 11
-30.60484900413577
 21
17.4257741325419
 31
0.0
  0
LINE
  5
EE
330
2
100
AcDbEntity
  8
GAIKEI
  6
PHANTOM
 62
     1
100
AcDbLine
 10
-30.18484581269988
 20
15.67576860254189
 30
0.0
 11
-15.67480514752626
 21
15.67576860254189
 31
0.0
  0
LINE
  5
EF
330
2
100
AcDbEntity
  8
GAIKEI
  6
Continuous
100
AcDbLine
 10
-30.27161408407676
 20
16.05012734254177
 30
0.0
 11
-30.24730208258109
 21
16.0457697717419
 31
0.0
  0
LINE
  5
F0
330
2
100
AcDbEntity
  8
GAIKEI
  6
Continuous
100
AcDbLine
 10
-15.58803687613942
 20
16.05012734254177
 30
0.0
 11
-15.61234887764508
 21
16.0457697717419
 31
0.0
  0
LINE
  5
F1
330
2
100
AcDbEntity
  8
GAIKEI
  6
Continuous
100
AcDbLine
 10
-30.48549063606453
 20
16.12934088031579
 30
0.0
 11
-30.27161408407676
 21
16.05012734254177
 31
0.0
  0
LINE
  5
F2
330
2
100
AcDbEntity
  8
GAIKEI
  6
Continuous
100
AcDbLine
 10
-30.60484973310809
 20
17.72577508054189
 30
0.0
 11
-30.65484989110809
 21
17.57577460654187
 31
0.0
  0
LINE
  5
F3
330
2
100
AcDbEntity
  8
GAIKEI
  6
Continuous
100
AcDbLine
 10
-30.65484989110809
 20
17.57577460654187
 30
0.0
 11
-30.60484973310809
 21
17.4257741325419
 31
0.0
  0
LINE
  5
F4
330
2
100
AcDbEntity
  8
GAIKEI
  6
Continuous
100
AcDbLine
 10
-30.55422259419683
 20
17.72577508054189
 30
0.0
 11
-30.54984330146829
 21
17.82577539654187
 31
0.0
  0
LINE
  5
F5
330
2
100
AcDbEntity
  8
GAIKEI
  6
Continuous
100
AcDbLine
 10
-30.55984959090807
 20
17.4257741325419
 30
0.0
 11
-30.53115253377567
 21
16.19306674223884
 31
0.0
  0
LINE
  5
F6
330
2
100
AcDbEntity
  8
GAIKEI
  6
Continuous
100
AcDbLine
 10
-30.19777217048704
 20
16.04585679835691
 30
0.0
 11
-30.18484840590807
 21
15.67576860254189
 31
0.0
  0
LINE
  5
F7
330
2
100
AcDbEntity
  8
GAIKEI
  6
Continuous
 62
     1
100
AcDbLine
 10
-16.37980478210808
 20
16.0457697717419
 30
0.0
 11
-16.37980478210808
 21
14.5904133964259
 31
0.0
  0
LINE
  5
F8
330
2
100
AcDbEntity
  8
GAIKEI
  6
Continuous
 62
     1
100
AcDbLine
 10
-16.37980478210808
 20
14.5904133964259
 30
0.0
 11
-16.39134328010973
 21
14.50801203878831
 31
0.0
  0
LINE
  5
F9
330
2
100
AcDbEntity
  8
GAIKEI
  6
Continuous
 62
     1
100
AcDbLine
 10
-20.37981742210808
 20
15.87577456528436
 30
0.0
 11
-20.37981742210808
 21
15.57577361728431
 31
0.0
  0
LINE
  5
FA
330
2
100
AcDbEntity
  8
GAIKEI
  6
Continuous
 62
     1
100
AcDbLine
 10
-20.42981758010808
 20
10.15325709223987
 30
0.0
 11
-20.42981758010808
 21
15.57577361728431
 31
0.0
  0
LINE
  5
FB
330
2
100
AcDbEntity
  8
GAIKEI
  6
Continuous
 62
     1
100
AcDbLine
 10
-21.42982074010808
 20
16.0457697717419
 30
0.0
 11
-21.42982074010808
 21
15.87577456528436
 31
0.0
  0
LINE
  5
FC
330
2
100
AcDbEntity
  8
GAIKEI
  6
Continuous
 62
     1
100
AcDbLine
 10
-24.42983022010808
 20
15.77577424928432
 30
0.0
 11
-24.42983022010808
 21
15.87577456528436
 31
0.0
  0
LINE
  5
FD
330
2
100
AcDbEntity
  8
GAIKEI
  6
Continuous
 62
     1
100
AcDbLine
 10
-25.42983338010808
 20
15.57577361728431
 30
0.0
 11
-25.42983338010808
 21
10.15325709223987
 31
0.0
  0
LINE
  5
FE
330
2
100
AcDbEntity
  8
GAIKEI
  6
Continuous
 62
     1
100
AcDbLine
 10
-25.47983353810808
 20
15.87577456528436
 30
0.0
 11
-25.47983353810808
 21
15.57577361728431
 31
0.0
  0
LINE
  5
FF
330
2
100
AcDbEntity
  8
GAIKEI
  6
Continuous
 62
     1
100
AcDbLine
 10
-25.47983353810808
 20
15.87577456528436
 30
0.0
 11
-24.42983022010808
 21
15.87577456528436
 31
0.0
  0
LINE
  5
100
330
2
100
AcDbEntity
  8
GAIKEI
  6
Continuous
 62
     1
100
AcDbLine
 10
-21.42982074010808
 20
15.87577456528436
 30
0.0
 11
-20.37981742210808
 21
15.87577456528436
 31
0.0
  0
LINE
  5
101
330
2
100
AcDbEntity
  8
GAIKEI
  6
Continuous
 62
     1
100
AcDbLine
 10
-21.42982074010808
 20
15.77577424928432
 30
0.0
 11
-24.42983022010808
 21
15.77577424928432
 31
0.0
  0
LINE
  5
102
330
2
100
AcDbEntity
  8
GAIKEI
  6
Continuous
 62
     1
100
AcDbLine
 10
-25.47983353810808
 20
15.57577361728431
 30
0.0
 11
-20.37981742210808
 21
15.57577361728431
 31
0.0
  0
LINE
  5
103
330
2
100
AcDbEntity
  8
GAIKEI
  6
Continuous
 62
     1
100
AcDbLine
 10
-29.47984617810808
 20
16.0457697717419
 30
0.0
 11
-29.47984617810808
 21
14.5904133964259
 31
0.0
  0
LINE
  5
104
330
2
100
AcDbEntity
  8
GAIKEI
  6
Continuous
 62
     1
100
AcDbLine
 10
-29.47984617810808
 20
14.5904133964259
 30
0.0
 11
-29.46830768011653
 21
14.50801203878831
 31
0.0
  0
LINE
  5
105
330
2
100
AcDbEntity
  8
GAIKEI
  6
Continuous
 62
     1
100
AcDbLine
 10
-24.42983022010808
 20
15.87577456528436
 30
0.0
 11
-24.42983022010808
 21
16.0457697717419
 31
0.0
  0
LINE
  5
106
330
2
100
AcDbEntity
  8
GAIKEI
  6
Continuous
 62
     1
100
AcDbLine
 10
-30.24728376728321
 20
16.0457697717419
 30
0.0
 11
-15.61236719294296
 21
16.0457697717419
 31
0.0
  0
LINE
  5
107
330
2
100
AcDbEntity
  8
GAIKEI
  6
Continuous
 62
     1
100
AcDbLine
 10
-21.42982074010808
 20
15.87577456528436
 30
0.0
 11
-21.42982074010808
 21
15.77577424928432
 31
0.0
  0
LINE
  5
108
330
2
100
AcDbEntity
  8
GAIKEI
  6
Continuous
 62
     1
100
AcDbLine
 10
-20.37981742210808
 20
15.57577361728431
 30
0.0
 11
-20.37981742210808
 21
12.80365063751338
 31
0.0
  0
LINE
  5
109
330
2
100
AcDbEntity
  8
GAIKEI
  6
Continuous
 62
     1
100
AcDbLine
 10
-25.47983353810808
 20
15.57577361728431
 30
0.0
 11
-25.47983353810808
 21
12.80365063751338
 31
0.0
  0
LINE
  5
10A
330
2
100
AcDbEntity
  8
GAIKEI
  6
Continuous
100
AcDbLine
 10
-13.42982835500203
 20
31.8258196365419
 30
0.0
 11
-13.46824145637706
 21
30.72581616054191
 31
0.0
  0
LINE
  5
10B
330
2
100
AcDbEntity
  8
GAIKEI
  6
Continuous
100
AcDbLine
 10
-32.39140950382913
 20
30.72581616054191
 30
0.0
 11
-32.33966312021105
 21
30.66732017479518
 31
0.0
  0
LINE
  5
10C
330
2
100
AcDbEntity
  8
GAIKEI
  6
Continuous
100
AcDbLine
 10
-13.46824145637706
 20
30.72581616054191
 30
0.0
 11
-13.51998783999509
 21
30.66732017479518
 31
0.0
  0
LINE
  5
10D
330
2
100
AcDbEntity
  8
GAIKEI
  6
Continuous
100
AcDbLine
 10
-16.44865832598459
 20
30.24984201324833
 30
0.0
 11
-16.67045307079377
 21
29.35379814658859
 31
0.0
  0
LINE
  5
10E
330
2
100
AcDbEntity
  8
GAIKEI
  6
Continuous
100
AcDbLine
 10
-16.71071119384905
 20
29.31581170494189
 30
0.0
 11
-29.14893976635713
 21
29.31581170494189
 31
0.0
  0
LINE
  5
10F
330
2
100
AcDbEntity
  8
GAIKEI
  6
Continuous
100
AcDbLine
 10
-30.32980663412465
 20
30.32581489654189
 30
0.0
 11
-15.52984432609151
 21
30.32581489654189
 31
0.0
  0
LINE
  5
110
330
2
100
AcDbEntity
  8
GAIKEI
  6
Continuous
 62
     1
100
AcDbLine
 10
-13.51998783999509
 20
30.66732017479518
 30
0.0
 11
-32.33966312021105
 21
30.66732017479518
 31
0.0
  0
LINE
  5
111
330
2
100
AcDbEntity
  8
GAIKEI
  6
Continuous
100
AcDbLine
 10
-13.42982835500203
 20
31.8258196365419
 30
0.0
 11
-32.42982260520412
 21
31.8258196365419
 31
0.0
  0
LINE
  5
112
330
2
100
AcDbEntity
  8
GAIKEI
  6
Continuous
100
AcDbLine
 10
-29.41099263422157
 20
30.24984201324833
 30
0.0
 11
-29.18919788942239
 21
29.35379814658859
 31
0.0
  0
LINE
  5
113
330
2
100
AcDbEntity
  8
GAIKEI
  6
Continuous
100
AcDbLine
 10
-32.42982260520412
 20
31.8258196365419
 30
0.0
 11
-32.39140950382913
 21
30.72581616054191
 31
0.0
  0
LINE
  5
114
330
2
100
AcDbEntity
  8
GAIKEI
  6
Continuous
100
AcDbLine
 10
-16.89608158132282
 20
29.31581170494189
 30
0.0
 11
-16.92997430587317
 21
25.27579893854193
 31
0.0
  0
LINE
  5
115
330
2
100
AcDbEntity
  8
GAIKEI
  6
Continuous
100
AcDbLine
 10
-16.9298071627401
 20
25.27579893854193
 30
0.0
 11
-28.92984379748606
 21
25.27579893854193
 31
0.0
  0
LINE
  5
116
330
2
100
AcDbEntity
  8
GAIKEI
  6
Continuous
100
AcDbLine
 10
-28.96356937889335
 20
29.31581170494189
 30
0.0
 11
-28.92967665434298
 21
25.27579893854193
 31
0.0
  0
TEXT
  5
117
330
2
100
AcDbEntity
  8
TOUROKU
100
AcDbText
 10
45.49442908095314
 20
44.78233698971019
 30
0.0
 40
2.0
  1
ＤＧＮＳ９５０
 72
     2
 11
61.3610957476198
 21
44.78233698971019
 31
0.0
100
AcDbText
  0
TEXT
  5
119
330
2
100
AcDbEntity
  8
MOJI1
100
AcDbText
 10
-21.1388542853075
 20
-32.21766301028959
 30
0.0
 40
3.0
  1
最大３２倍
100
AcDbText
  0
TEXT
  5
11A
330
2
100
AcDbEntity
  8
MOJI1
100
AcDbText
 10
-61.1388542853075
 20
-32.21766301028959
 30
0.0
 40
3.0
  1
電子感度アップ
100
AcDbText
  0
TEXT
  5
11B
330
2
100
AcDbEntity
  8
MOJI1
100
AcDbText
 10
-21.1388542853075
 20
-57.21766301028958
 30
0.0
 40
3.0
  1
ＭＰＥＧ－４／ＪＰＥＧ   デュアルエンコーディング
 41
0.9
100
AcDbText
  0
TEXT
  5
11C
330
2
100
AcDbEntity
  8
MOJI1
100
AcDbText
 10
-61.1388542853075
 20
-57.21766301028958
 30
0.0
 40
3.0
  1
画像圧縮方式
100
AcDbText
  0
TEXT
  5
11D
330
2
100
AcDbEntity
  8
MOJI1
100
AcDbText
 10
-21.1388542853075
 20
-52.21766301028958
 30
0.0
 40
3.0
  1
ＶＧＡ（６４０×４８０)／ＱＶＧＡ（３２０×２４０）
 41
0.85
100
AcDbText
  0
LINE
  5
11E
330
2
100
AcDbEntity
  8
WAKU
 62
     1
100
AcDbLine
 10
-63.6388542853075
 20
-53.21766301028958
 30
0.0
 11
61.36114571469255
 21
-53.21766301028958
 31
0.0
  0
TEXT
  5
120
330
2
100
AcDbEntity
  8
MOJI1
100
AcDbText
 10
-61.1388542853075
 20
-52.21766301028958
 30
0.0
 40
3.0
  1
画像解像度
100
AcDbText
  0
TEXT
  5
121
330
2
100
AcDbEntity
  8
MOJI1
100
AcDbText
 10
-61.1388542853075
 20
-47.21766301028958
 30
0.0
 40
3.0
  1
ネットワーク
100
AcDbText
  0
LINE
  5
122
330
2
100
AcDbEntity
  8
WAKU
 62
     1
100
AcDbLine
 10
-63.6388542853075
 20
-48.21766301028958
 30
0.0
 11
61.36114571469255
 21
-48.21766301028958
 31
0.0
  0
TEXT
  5
123
330
2
100
AcDbEntity
  8
MOJI1
100
AcDbText
 10
-21.1388542853075
 20
-47.21766301028958
 30
0.0
 40
3.0
  1
１０ＢＡＳＥ－Ｔ／１００ＢＡＳＥ－ＴＸ、ＲＪ４５コネクター
 41
0.75
100
AcDbText
  0
TEXT
  5
124
330
2
100
AcDbEntity
  8
MOJI1
100
AcDbText
 10
-21.1388542853075
 20
-42.21766301028958
 30
0.0
 40
3.0
  1
水平：１．９° ～５２°垂直：１．４° ～４０°
100
AcDbText
  0
LINE
  5
125
330
2
100
AcDbEntity
  8
WAKU
 62
     1
100
AcDbLine
 10
-63.6388542853075
 20
-43.21766301028958
 30
0.0
 11
61.36114571469255
 21
-43.21766301028958
 31
0.0
  0
TEXT
  5
126
330
2
100
AcDbEntity
  8
MOJI1
100
AcDbText
 10
-61.1388542853075
 20
-42.21766301028958
 30
0.0
 40
3.0
  1
画　角
100
AcDbText
  0
LINE
  5
127
330
2
100
AcDbEntity
  8
WAKU
 62
     4
100
AcDbLine
 10
61.36114571469255
 20
-58.21766301028958
 30
0.0
 11
61.36114571469255
 21
-8.217663010289584
 31
0.0
  0
TEXT
  5
128
330
2
100
AcDbEntity
  8
MOJI1
100
AcDbText
 10
-61.1388542853075
 20
-17.21766301028958
 30
0.0
 40
3.0
  1
撮像素子
100
AcDbText
  0
TEXT
  5
129
330
2
100
AcDbEntity
  8
MOJI1
100
AcDbText
 10
-61.1388542853075
 20
-12.21766301028958
 30
0.0
 40
3.0
  1
電　源
100
AcDbText
  0
TEXT
  5
12A
330
2
100
AcDbEntity
  8
MOJI1
100
AcDbText
 10
-61.1388542853075
 20
-37.21766301028959
 30
0.0
 40
3.0
  1
ズーム比
100
AcDbText
  0
TEXT
  5
12B
330
2
100
AcDbEntity
  8
MOJI1
100
AcDbText
 10
-61.1388542853075
 20
-22.21766301028958
 30
0.0
 40
3.0
  1
最低照度
100
AcDbText
  0
TEXT
  5
12C
330
2
100
AcDbEntity
  8
MOJI1
100
AcDbText
 10
-61.1388542853075
 20
-27.21766301028959
 30
0.0
 40
3.0
  1
ダイナミックレンジ
100
AcDbText
  0
TEXT
  5
12D
330
2
100
AcDbEntity
  8
MOJI1
100
AcDbText
 10
-21.1388542853075
 20
-27.21766301028959
 30
0.0
 40
3.0
  1
５２ｄＢ／ｔｙｐ
100
AcDbText
  0
TEXT
  5
12E
330
2
100
AcDbEntity
  8
MOJI1
100
AcDbText
 10
-21.1388542853075
 20
-22.21766301028958
 30
0.0
 40
3.0
  1
０．５ルクス（カラー)　０．０４ルクス（白黒)
100
AcDbText
  0
TEXT
  5
12F
330
2
100
AcDbEntity
  8
MOJI1
100
AcDbText
 10
-21.1388542853075
 20
-12.21766301028958
 30
0.0
 40
3.0
  1
ＡＣ１００Ｖ　５０／６０Ｈｚ　１５Ｗ
100
AcDbText
  0
LINE
  5
130
330
2
100
AcDbEntity
  8
WAKU
 62
     4
100
AcDbLine
 10
-23.6388542853075
 20
-58.21766301028958
 30
0.0
 11
-23.6388542853075
 21
-8.217663010289584
 31
0.0
  0
LINE
  5
131
330
2
100
AcDbEntity
  8
WAKU
 62
     4
100
AcDbLine
 10
-63.6388542853075
 20
-8.217663010289584
 30
0.0
 11
-63.6388542853075
 21
-58.21766301028958
 31
0.0
  0
TEXT
  5
132
330
2
100
AcDbEntity
  8
MOJI1
100
AcDbText
 10
-21.1388542853075
 20
-37.21766301028959
 30
0.0
 40
3.0
  1
３０倍
100
AcDbText
  0
TEXT
  5
133
330
2
100
AcDbEntity
  8
MOJI1
100
AcDbText
 10
-21.1388542853075
 20
-17.21766301028958
 30
0.0
 40
3.0
  1
１／４型インターライン転送方式ＣＣＤ
100
AcDbText
  0
LINE
  5
134
330
2
100
AcDbEntity
  8
WAKU
 62
     1
100
AcDbLine
 10
-63.6388542853075
 20
-23.21766301028958
 30
0.0
 11
61.36114571469255
 21
-23.21766301028958
 31
0.0
  0
LINE
  5
135
330
2
100
AcDbEntity
  8
WAKU
 62
     4
100
AcDbLine
 10
-63.6388542853075
 20
-58.21766301028958
 30
0.0
 11
61.36114571469255
 21
-58.21766301028958
 31
0.0
  0
LINE
  5
136
330
2
100
AcDbEntity
  8
WAKU
 62
     4
100
AcDbLine
 10
61.36114571469255
 20
-8.217663010289584
 30
0.0
 11
-63.6388542853075
 21
-8.217663010289584
 31
0.0
  0
LINE
  5
137
330
2
100
AcDbEntity
  8
WAKU
 62
     1
100
AcDbLine
 10
-63.6388542853075
 20
-38.21766301028958
 30
0.0
 11
61.36114571469255
 21
-38.21766301028958
 31
0.0
  0
LINE
  5
138
330
2
100
AcDbEntity
  8
WAKU
 62
     1
100
AcDbLine
 10
-63.6388542853075
 20
-33.21766301028958
 30
0.0
 11
61.36114571469255
 21
-33.21766301028958
 31
0.0
  0
LINE
  5
139
330
2
100
AcDbEntity
  8
WAKU
 62
     1
100
AcDbLine
 10
-63.6388542853075
 20
-28.21766301028958
 30
0.0
 11
61.36114571469255
 21
-28.21766301028958
 31
0.0
  0
LINE
  5
13A
330
2
100
AcDbEntity
  8
WAKU
 62
     1
100
AcDbLine
 10
-63.6388542853075
 20
-18.21766301028958
 30
0.0
 11
61.36114571469255
 21
-18.21766301028958
 31
0.0
  0
LINE
  5
13B
330
2
100
AcDbEntity
  8
WAKU
 62
     1
100
AcDbLine
 10
-63.6388542853075
 20
-13.21766301028958
 30
0.0
 11
61.36114571469255
 21
-13.21766301028958
 31
0.0
  0
ENDSEC
  0
SECTION
  2
OBJECTS
  0
DICTIONARY
  5
7
330
0
100
AcDbDictionary
281
     1
  3
ACAD_COLOR
350
2C
  3
ACAD_GROUP
350
28
  3
ACAD_LAYOUT
350
B
  3
ACAD_MATERIAL
350
2B
  3
ACAD_MLINESTYLE
350
29
  3
ACAD_PLOTSETTINGS
350
2A
  3
ACAD_PLOTSTYLENAME
350
6
  3
ACDBHEADERROUNDTRIPXREC
350
179
  3
AcDbVariableDictionary
350
174
  0
DICTIONARY
  5
11
330
10
100
AcDbDictionary
280
     1
281
     1
  3
ACAD_LAYERSTATES
360
12
  0
DICTIONARY
  5
2C
102
{ACAD_REACTORS
330
7
102
}
330
7
100
AcDbDictionary
281
     1
  0
DICTIONARY
  5
28
102
{ACAD_REACTORS
330
7
102
}
330
7
100
AcDbDictionary
281
     1
  0
DICTIONARY
  5
B
102
{ACAD_REACTORS
330
7
102
}
330
7
100
AcDbDictionary
281
     1
  3
Model
350
A
  3
レイアウト1
350
F
  0
DICTIONARY
  5
2B
102
{ACAD_REACTORS
330
7
102
}
330
7
100
AcDbDictionary
281
     1
  0
DICTIONARY
  5
29
102
{ACAD_REACTORS
330
7
102
}
330
7
100
AcDbDictionary
281
     1
  3
Standard
350
2E
  0
DICTIONARY
  5
2A
102
{ACAD_REACTORS
330
7
102
}
330
7
100
AcDbDictionary
281
     1
  0
ACDBDICTIONARYWDFLT
  5
6
102
{ACAD_REACTORS
330
7
102
}
330
7
100
AcDbDictionary
281
     1
  3
Normal
350
5
100
AcDbDictionaryWithDefault
340
5
  0
DICTIONARY
  5
179
102
{ACAD_REACTORS
330
7
102
}
330
7
100
AcDbDictionary
281
     1
  3
COLORDICT
350
17B
  3
MATERIALDICT
350
17A
  0
DICTIONARY
  5
174
102
{ACAD_REACTORS
330
7
102
}
330
7
100
AcDbDictionary
281
     1
  3
DIMASSOC
350
176
  3
HIDETEXT
350
175
  3
PROJECTNAME
350
177
  0
DICTIONARY
  5
12
102
{ACAD_REACTORS
330
11
102
}
330
11
100
AcDbDictionary
281
     1
  0
LAYOUT
  5
A
102
{ACAD_XDICTIONARY
360
17C
102
}
102
{ACAD_REACTORS
330
B
102
}
330
B
100
AcDbPlotSettings
  1

  2
FX78BC34-A4縦.pc3
  4
A4
  6

 40
4.900083065032958
 41
4.900057315826416
 42
4.90008544921875
 43
4.90008544921875
 44
210.0156707763672
 45
297.0106506347656
 46
5.75
 47
0.0
 48
0.0
 49
0.0
140
0.0
141
0.0
142
1.0
143
1.372753945080246
 70
 11956
 72
     1
 73
     0
 74
     1
  7
tmsacad.ctb
 75
     0
147
0.7284626670233634
148
0.0341619841356078
149
0.0233810791561382
100
AcDbLayout
  1
Model
 70
     1
 71
     0
 10
0.0
 20
0.0
 11
12.0
 21
9.0
 12
0.0
 22
0.0
 32
0.0
 14
0.0
 24
0.0
 34
0.0
 15
0.0
 25
0.0
 35
0.0
146
0.0
 13
0.0
 23
0.0
 33
0.0
 16
1.0
 26
0.0
 36
0.0
 17
0.0
 27
1.0
 37
0.0
 76
     0
330
2
  0
LAYOUT
  5
F
102
{ACAD_XDICTIONARY
360
17E
102
}
102
{ACAD_REACTORS
330
B
102
}
330
B
100
AcDbPlotSettings
  1

  2
None
  4

  6

 40
0.0
 41
0.0
 42
0.0
 43
0.0
 44
0.0
 45
0.0
 46
0.0
 47
0.0
 48
0.0
 49
0.0
140
0.0
141
0.0
142
1.0
143
1.0
 70
   688
 72
     0
 73
     0
 74
     5
  7
tmsacad.ctb
 75
    16
147
1.0
148
0.0
149
0.0
100
AcDbLayout
  1
レイアウト1
 70
     1
 71
     1
 10
0.0
 20
0.0
 11
12.0
 21
9.0
 12
0.0
 22
0.0
 32
0.0
 14
0.0
 24
0.0
 34
0.0
 15
0.0
 25
0.0
 35
0.0
146
0.0
 13
0.0
 23
0.0
 33
0.0
 16
1.0
 26
0.0
 36
0.0
 17
0.0
 27
1.0
 37
0.0
 76
     0
330
C
  0
MLINESTYLE
  5
2E
102
{ACAD_REACTORS
330
29
102
}
330
29
100
AcDbMlineStyle
  2
STANDARD
 70
     0
  3

 62
   256
 51
90.0
 52
90.0
 71
     2
 49
0.5
 62
   256
  6
BYLAYER
 49
-0.5
 62
   256
  6
BYLAYER
  0
ACDBPLACEHOLDER
  5
5
102
{ACAD_REACTORS
330
6
102
}
330
6
  0
XRECORD
  5
17B
102
{ACAD_REACTORS
330
179
102
}
330
179
100
AcDbXrecord
280
     1
340
2C
  0
XRECORD
  5
17A
102
{ACAD_REACTORS
330
179
102
}
330
179
100
AcDbXrecord
280
     1
340
2B
  0
DICTIONARYVAR
  5
176
102
{ACAD_REACTORS
330
174
102
}
330
174
100
DictionaryVariables
280
     0
  1
1
  0
DICTIONARYVAR
  5
175
102
{ACAD_REACTORS
330
174
102
}
330
174
100
DictionaryVariables
280
     0
  1
1
  0
DICTIONARYVAR
  5
177
102
{ACAD_REACTORS
330
174
102
}
330
174
100
DictionaryVariables
280
     0
  1

  0
DICTIONARY
  5
17C
330
A
100
AcDbDictionary
280
     1
281
     1
  3
ACAD_XREC_ROUNDTRIP
360
17D
  0
DICTIONARY
  5
17E
330
F
100
AcDbDictionary
280
     1
281
     1
  3
ACAD_XREC_ROUNDTRIP
360
17F
  0
XRECORD
  5
17D
102
{ACAD_REACTORS
330
17C
102
}
330
17C
100
AcDbXrecord
280
     1
102
SHADEPLOT
 70
     0
102
SHADEPLOTRESLEVEL
 70
     2
102
SHADEPLOTCUSTOMDPI
 70
   300
  0
XRECORD
  5
17F
102
{ACAD_REACTORS
330
17E
102
}
330
17E
100
AcDbXrecord
280
     1
102
SHADEPLOT
 70
     0
102
SHADEPLOTRESLEVEL
 70
     2
102
SHADEPLOTCUSTOMDPI
 70
   300
  0
ENDSEC
  0
EOF
