  0
SECTION
  2
HEADER
  9
$ACADVER
  1
AC1015
  9
$ACADMAINTVER
 70
    20
  9
$DWGCODEPAGE
  3
ANSI_932
  9
$INSBASE
 10
129.499999944041
 20
372.5008351249344
 30
0.0
  9
$EXTMIN
 10
-59.7418203807224
 20
-60.62269530191861
 30
-0.0015258207003583
  9
$EXTMAX
 10
65.29174861182901
 20
52.12999003046423
 30
0.0000000349246037
  9
$LIMMIN
 10
0.0
 20
0.0
  9
$LIMMAX
 10
420.0
 20
297.0
  9
$ORTHOMODE
 70
     1
  9
$REGENMODE
 70
     0
  9
$FILLMODE
 70
     1
  9
$QTEXTMODE
 70
     0
  9
$MIRRTEXT
 70
     0
  9
$LTSCALE
 40
1.0
  9
$ATTMODE
 70
     1
  9
$TEXTSIZE
 40
2.5
  9
$TRACEWID
 40
1.0
  9
$TEXTSTYLE
  7
Standard
  9
$CLAYER
  8
GAIKEI
  9
$CELTYPE
  6
ByLayer
  9
$CECOLOR
 62
   256
  9
$CELTSCALE
 40
1.0
  9
$DISPSILH
 70
     0
  9
$DIMSCALE
 40
1.0
  9
$DIMASZ
 40
2.5
  9
$DIMEXO
 40
0.625
  9
$DIMDLI
 40
3.75
  9
$DIMRND
 40
0.0
  9
$DIMDLE
 40
0.0
  9
$DIMEXE
 40
1.25
  9
$DIMTP
 40
0.0
  9
$DIMTM
 40
0.0
  9
$DIMTXT
 40
2.5
  9
$DIMCEN
 40
2.5
  9
$DIMTSZ
 40
0.0
  9
$DIMTOL
 70
     0
  9
$DIMLIM
 70
     0
  9
$DIMTIH
 70
     0
  9
$DIMTOH
 70
     0
  9
$DIMSE1
 70
     0
  9
$DIMSE2
 70
     0
  9
$DIMTAD
 70
     1
  9
$DIMZIN
 70
     8
  9
$DIMBLK
  1

  9
$DIMASO
 70
     1
  9
$DIMSHO
 70
     1
  9
$DIMPOST
  1

  9
$DIMAPOST
  1

  9
$DIMALT
 70
     0
  9
$DIMALTD
 70
     3
  9
$DIMALTF
 40
0.03937007874016
  9
$DIMLFAC
 40
1.0
  9
$DIMTOFL
 70
     1
  9
$DIMTVP
 40
0.0
  9
$DIMTIX
 70
     0
  9
$DIMSOXD
 70
     0
  9
$DIMSAH
 70
     0
  9
$DIMBLK1
  1

  9
$DIMBLK2
  1

  9
$DIMSTYLE
  2
ISO-25
  9
$DIMCLRD
 70
     0
  9
$DIMCLRE
 70
     0
  9
$DIMCLRT
 70
     0
  9
$DIMTFAC
 40
1.0
  9
$DIMGAP
 40
0.625
  9
$DIMJUST
 70
     0
  9
$DIMSD1
 70
     0
  9
$DIMSD2
 70
     0
  9
$DIMTOLJ
 70
     0
  9
$DIMTZIN
 70
     8
  9
$DIMALTZ
 70
     0
  9
$DIMALTTZ
 70
     0
  9
$DIMUPT
 70
     0
  9
$DIMDEC
 70
     2
  9
$DIMTDEC
 70
     2
  9
$DIMALTU
 70
     2
  9
$DIMALTTD
 70
     3
  9
$DIMTXSTY
  7
Standard
  9
$DIMAUNIT
 70
     0
  9
$DIMADEC
 70
     0
  9
$DIMALTRND
 40
0.0
  9
$DIMAZIN
 70
     0
  9
$DIMDSEP
 70
    44
  9
$DIMATFIT
 70
     3
  9
$DIMFRAC
 70
     0
  9
$DIMLDRBLK
  1

  9
$DIMLUNIT
 70
     2
  9
$DIMLWD
 70
    -2
  9
$DIMLWE
 70
    -2
  9
$DIMTMOVE
 70
     0
  9
$LUNITS
 70
     2
  9
$LUPREC
 70
     4
  9
$SKETCHINC
 40
1.0
  9
$FILLETRAD
 40
0.0
  9
$AUNITS
 70
     0
  9
$AUPREC
 70
     0
  9
$MENU
  1
.
  9
$ELEVATION
 40
0.0
  9
$PELEVATION
 40
0.0
  9
$THICKNESS
 40
0.0
  9
$LIMCHECK
 70
     0
  9
$CHAMFERA
 40
0.0
  9
$CHAMFERB
 40
0.0
  9
$CHAMFERC
 40
0.0
  9
$CHAMFERD
 40
0.0
  9
$SKPOLY
 70
     0
  9
$TDCREATE
 40
2454349.434269746
  9
$TDUCREATE
 40
2454349.059269746
  9
$TDUPDATE
 40
2455264.550927928
  9
$TDUUPDATE
 40
2455264.175927928
  9
$TDINDWG
 40
0.0221505093
  9
$TDUSRTIMER
 40
0.0221505093
  9
$USRTIMER
 70
     1
  9
$ANGBASE
 50
0.0
  9
$ANGDIR
 70
     0
  9
$PDMODE
 70
     0
  9
$PDSIZE
 40
0.0
  9
$PLINEWID
 40
0.0
  9
$SPLFRAME
 70
     0
  9
$SPLINETYPE
 70
     6
  9
$SPLINESEGS
 70
     8
  9
$HANDSEED
  5
1E3
  9
$SURFTAB1
 70
     6
  9
$SURFTAB2
 70
     6
  9
$SURFTYPE
 70
     6
  9
$SURFU
 70
     6
  9
$SURFV
 70
     6
  9
$UCSBASE
  2

  9
$UCSNAME
  2

  9
$UCSORG
 10
0.0
 20
0.0
 30
0.0
  9
$UCSXDIR
 10
1.0
 20
0.0
 30
0.0
  9
$UCSYDIR
 10
0.0
 20
1.0
 30
0.0
  9
$UCSORTHOREF
  2

  9
$UCSORTHOVIEW
 70
     0
  9
$UCSORGTOP
 10
0.0
 20
0.0
 30
0.0
  9
$UCSORGBOTTOM
 10
0.0
 20
0.0
 30
0.0
  9
$UCSORGLEFT
 10
0.0
 20
0.0
 30
0.0
  9
$UCSORGRIGHT
 10
0.0
 20
0.0
 30
0.0
  9
$UCSORGFRONT
 10
0.0
 20
0.0
 30
0.0
  9
$UCSORGBACK
 10
0.0
 20
0.0
 30
0.0
  9
$PUCSBASE
  2

  9
$PUCSNAME
  2

  9
$PUCSORG
 10
0.0
 20
0.0
 30
0.0
  9
$PUCSXDIR
 10
1.0
 20
0.0
 30
0.0
  9
$PUCSYDIR
 10
0.0
 20
1.0
 30
0.0
  9
$PUCSORTHOREF
  2

  9
$PUCSORTHOVIEW
 70
     0
  9
$PUCSORGTOP
 10
0.0
 20
0.0
 30
0.0
  9
$PUCSORGBOTTOM
 10
0.0
 20
0.0
 30
0.0
  9
$PUCSORGLEFT
 10
0.0
 20
0.0
 30
0.0
  9
$PUCSORGRIGHT
 10
0.0
 20
0.0
 30
0.0
  9
$PUCSORGFRONT
 10
0.0
 20
0.0
 30
0.0
  9
$PUCSORGBACK
 10
0.0
 20
0.0
 30
0.0
  9
$USERI1
 70
     0
  9
$USERI2
 70
     0
  9
$USERI3
 70
     0
  9
$USERI4
 70
     0
  9
$USERI5
 70
     0
  9
$USERR1
 40
0.0
  9
$USERR2
 40
0.0
  9
$USERR3
 40
0.0
  9
$USERR4
 40
0.0
  9
$USERR5
 40
0.0
  9
$WORLDVIEW
 70
     1
  9
$SHADEDGE
 70
     3
  9
$SHADEDIF
 70
    70
  9
$TILEMODE
 70
     1
  9
$MAXACTVP
 70
    64
  9
$PINSBASE
 10
0.0
 20
0.0
 30
0.0
  9
$PLIMCHECK
 70
     0
  9
$PEXTMIN
 10
0.0
 20
0.0
 30
0.0
  9
$PEXTMAX
 10
0.0
 20
0.0
 30
0.0
  9
$PLIMMIN
 10
0.0
 20
0.0
  9
$PLIMMAX
 10
12.0
 20
9.0
  9
$UNITMODE
 70
     0
  9
$VISRETAIN
 70
     1
  9
$PLINEGEN
 70
     0
  9
$PSLTSCALE
 70
     1
  9
$TREEDEPTH
 70
  3020
  9
$CMLSTYLE
  2
Standard
  9
$CMLJUST
 70
     0
  9
$CMLSCALE
 40
20.0
  9
$PROXYGRAPHICS
 70
     1
  9
$MEASUREMENT
 70
     1
  9
$CELWEIGHT
370
    -1
  9
$ENDCAPS
280
     0
  9
$JOINSTYLE
280
     0
  9
$LWDISPLAY
290
     0
  9
$INSUNITS
 70
     4
  9
$HYPERLINKBASE
  1

  9
$STYLESHEET
  1

  9
$XEDIT
290
     1
  9
$CEPSNTYPE
380
     0
  9
$PSTYLEMODE
290
     1
  9
$FINGERPRINTGUID
  2
{FDEAD578-A652-11D2-9A35-0060089B3A3F}
  9
$VERSIONGUID
  2
{E04CFE27-E436-4F93-A413-57E41CFC1EED}
  9
$EXTNAMES
290
     1
  9
$PSVPSCALE
 40
0.0
  9
$OLESTARTUP
290
     0
  0
ENDSEC
  0
SECTION
  2
CLASSES
  0
CLASS
  1
ACDBDICTIONARYWDFLT
  2
AcDbDictionaryWithDefault
  3
ObjectDBX Classes
 90
        0
280
     0
281
     0
  0
CLASS
  1
ACDBPLACEHOLDER
  2
AcDbPlaceHolder
  3
ObjectDBX Classes
 90
        0
280
     0
281
     0
  0
CLASS
  1
LAYOUT
  2
AcDbLayout
  3
ObjectDBX Classes
 90
        0
280
     0
281
     0
  0
CLASS
  1
DICTIONARYVAR
  2
AcDbDictionaryVar
  3
ObjectDBX Classes
 90
        0
280
     0
281
     0
  0
ENDSEC
  0
SECTION
  2
TABLES
  0
TABLE
  2
VPORT
  5
1B
330
0
100
AcDbSymbolTable
 70
     3
  0
VPORT
  5
1DB
330
1B
100
AcDbSymbolTableRecord
100
AcDbViewportTableRecord
  2
*Active
 70
     0
 10
0.0
 20
0.0
 11
1.0
 21
1.0
 12
2.774964115553306
 22
-4.246352635727191
 13
0.0
 23
0.0
 14
10.0
 24
10.0
 15
10.0
 25
10.0
 16
0.0
 26
0.0
 36
1.0
 17
0.0
 27
0.0
 37
0.0
 40
113.6144892967068
 41
1.382653061224489
 42
50.0
 43
0.0
 44
0.0
 50
0.0
 51
0.0
 71
     0
 72
  1000
 73
     1
 74
     2
 75
     0
 76
     0
 77
     0
 78
     0
281
     0
 65
     1
110
0.0
120
0.0
130
0.0
111
1.0
121
0.0
131
0.0
112
0.0
122
1.0
132
0.0
 79
     0
146
0.0
  0
ENDTAB
  0
TABLE
  2
LTYPE
  5
16
330
0
100
AcDbSymbolTable
 70
     2
  0
LTYPE
  5
17
330
16
100
AcDbSymbolTableRecord
100
AcDbLinetypeTableRecord
  2
ByBlock
 70
     0
  3

 72
    65
 73
     0
 40
0.0
  0
LTYPE
  5
18
330
16
100
AcDbSymbolTableRecord
100
AcDbLinetypeTableRecord
  2
ByLayer
 70
     0
  3

 72
    65
 73
     0
 40
0.0
  0
LTYPE
  5
8
330
16
100
AcDbSymbolTableRecord
100
AcDbLinetypeTableRecord
  2
Continuous
 70
     0
  3
Solid line
 72
    65
 73
     0
 40
0.0
  0
LTYPE
  5
5B
330
16
100
AcDbSymbolTableRecord
100
AcDbLinetypeTableRecord
  2
HIDDEN2
 70
     0
  3
Hidden (.5x) _ _ _ _ _ _ _ _ _ _ _ _ _ _ _ _ _
 72
    65
 73
     2
 40
1.399999999999999
 49
0.7
 74
     0
 49
-0.7
 74
     0
  0
ENDTAB
  0
TABLE
  2
LAYER
  5
10
102
{ACAD_XDICTIONARY
360
11
102
}
330
0
100
AcDbSymbolTable
 70
     7
  0
LAYER
  5
4
330
10
100
AcDbSymbolTableRecord
100
AcDbLayerTableRecord
  2
0
 70
     0
 62
     7
  6
Continuous
370
    -3
390
5
  0
LAYER
  5
186
330
10
100
AcDbSymbolTableRecord
100
AcDbLayerTableRecord
  2
WAKU
 70
     0
 62
     4
  6
Continuous
370
    -3
390
5
  0
LAYER
  5
2A
330
10
100
AcDbSymbolTableRecord
100
AcDbLayerTableRecord
  2
MOJI1
 70
     0
 62
     2
  6
Continuous
370
    -3
390
5
  0
LAYER
  5
177
330
10
100
AcDbSymbolTableRecord
100
AcDbLayerTableRecord
  2
TOUROKU
 70
     0
 62
     1
  6
Continuous
370
    -3
390
5
  0
LAYER
  5
26
330
10
100
AcDbSymbolTableRecord
100
AcDbLayerTableRecord
  2
GAIKEI
 70
     0
 62
     7
  6
Continuous
370
    -3
390
5
  0
LAYER
  5
AE
330
10
100
AcDbSymbolTableRecord
100
AcDbLayerTableRecord
  2
SUNPO
 70
     0
 62
     3
  6
Continuous
370
    -3
390
5
  0
LAYER
  5
BF
330
10
100
AcDbSymbolTableRecord
100
AcDbLayerTableRecord
  2
Defpoints
 70
     0
 62
     7
  6
Continuous
290
     0
370
    -3
390
5
  0
ENDTAB
  0
TABLE
  2
STYLE
  5
13
330
0
100
AcDbSymbolTable
 70
     2
  0
STYLE
  5
14
330
13
100
AcDbSymbolTableRecord
100
AcDbTextStyleTableRecord
  2
Standard
 70
     0
 40
0.0
 41
1.0
 50
0.0
 71
     0
 42
2.5
  3
MONOTXT.shx
  4
BIGFONT.shx
  0
STYLE
  5
179
330
13
100
AcDbSymbolTableRecord
100
AcDbTextStyleTableRecord
  2
KANJI
 70
     0
 40
0.0
 41
1.0
 50
0.0
 71
     0
 42
3.5
  3
MONOTXT
  4
BIGFONT
  0
ENDTAB
  0
TABLE
  2
VIEW
  5
19
330
0
100
AcDbSymbolTable
 70
     0
  0
ENDTAB
  0
TABLE
  2
UCS
  5
1A
330
0
100
AcDbSymbolTable
 70
     0
  0
ENDTAB
  0
TABLE
  2
APPID
  5
1D
330
0
100
AcDbSymbolTable
 70
     1
  0
APPID
  5
1E
330
1D
100
AcDbSymbolTableRecord
100
AcDbRegAppTableRecord
  2
ACAD
 70
     0
  0
ENDTAB
  0
TABLE
  2
DIMSTYLE
  5
1F
330
0
100
AcDbSymbolTable
 70
     2
100
AcDbDimStyleTable
 71
     0
  0
DIMSTYLE
105
28
330
1F
100
AcDbSymbolTableRecord
100
AcDbDimStyleTableRecord
  2
ISO-25
 70
     0
 41
2.5
 42
0.625
 43
3.75
 44
1.25
 73
     0
 74
     0
 77
     1
 78
     8
140
2.5
141
2.5
143
0.03937007874016
147
0.625
171
     3
172
     1
271
     2
272
     2
274
     3
278
    44
283
     0
284
     8
340
14
  0
DIMSTYLE
105
B5
102
{ACAD_REACTORS
330
D0
330
C3
330
AD
102
}
330
1F
100
AcDbSymbolTableRecord
100
AcDbDimStyleTableRecord
  2
STANDARD
 70
     0
 40
0.0
 41
2.0
 42
2.0
 43
8.0
 44
2.0
 73
     0
 74
     0
 77
     3
140
3.0
141
0.0
173
     1
279
     2
288
     1
340
14
341
AF
343
AF
344
AF
  0
ENDTAB
  0
TABLE
  2
BLOCK_RECORD
  5
1
330
0
100
AcDbSymbolTable
 70
     7
  0
BLOCK_RECORD
  5
2
330
1
100
AcDbSymbolTableRecord
100
AcDbBlockTableRecord
  2
*Model_Space
340
A
  0
BLOCK_RECORD
  5
C
330
1
100
AcDbSymbolTableRecord
100
AcDbBlockTableRecord
  2
*Paper_Space
340
F
  0
BLOCK_RECORD
  5
AF
330
1
100
AcDbSymbolTableRecord
100
AcDbBlockTableRecord
  2
_OPEN30
340
0
102
{BLKREFS
331
BB
331
BC
331
C9
331
CA
331
D6
331
D7
331
1B7
331
1B8
331
1C3
331
1C4
331
1CF
331
1D0
102
}
  0
BLOCK_RECORD
  5
D1
330
1
100
AcDbSymbolTableRecord
100
AcDbBlockTableRecord
  2
*D1
340
0
  0
BLOCK_RECORD
  5
C4
330
1
100
AcDbSymbolTableRecord
100
AcDbBlockTableRecord
  2
*D2
340
0
  0
BLOCK_RECORD
  5
B6
330
1
100
AcDbSymbolTableRecord
100
AcDbBlockTableRecord
  2
*D3
340
0
  0
BLOCK_RECORD
  5
1B3
330
1
100
AcDbSymbolTableRecord
100
AcDbBlockTableRecord
  2
*D4
340
0
  0
BLOCK_RECORD
  5
1BF
330
1
100
AcDbSymbolTableRecord
100
AcDbBlockTableRecord
  2
*D5
340
0
  0
BLOCK_RECORD
  5
1CB
330
1
100
AcDbSymbolTableRecord
100
AcDbBlockTableRecord
  2
*D6
340
0
  0
ENDTAB
  0
ENDSEC
  0
SECTION
  2
BLOCKS
  0
BLOCK
  5
3
330
2
100
AcDbEntity
  8
0
100
AcDbBlockBegin
  2
*Model_Space
 70
     0
 10
0.0
 20
0.0
 30
0.0
  3
*Model_Space
  1

  0
ENDBLK
  5
9
330
2
100
AcDbEntity
  8
0
100
AcDbBlockEnd
  0
BLOCK
  5
D
330
C
100
AcDbEntity
 67
     1
  8
0
100
AcDbBlockBegin
  2
*Paper_Space
 70
     0
 10
0.0
 20
0.0
 30
0.0
  3
*Paper_Space
  1

  0
ENDBLK
  5
E
330
C
100
AcDbEntity
 67
     1
  8
0
100
AcDbBlockEnd
  0
BLOCK
  5
B0
330
AF
100
AcDbEntity
  8
0
100
AcDbBlockBegin
  2
_OPEN30
 70
     0
 10
0.0
 20
0.0
 30
0.0
  3
_OPEN30
  1

  0
LINE
  5
B1
330
AF
100
AcDbEntity
  8
0
  6
ByBlock
 62
     0
100
AcDbLine
 10
-1.0
 20
0.26794919
 30
0.0
 11
0.0
 21
0.0
 31
0.0
  0
LINE
  5
B2
330
AF
100
AcDbEntity
  8
0
  6
ByBlock
 62
     0
100
AcDbLine
 10
0.0
 20
0.0
 30
0.0
 11
-1.0
 21
-0.26794919
 31
0.0
  0
LINE
  5
B3
330
AF
100
AcDbEntity
  8
0
  6
ByBlock
 62
     0
100
AcDbLine
 10
0.0
 20
0.0
 30
0.0
 11
-1.0
 21
0.0
 31
0.0
  0
ENDBLK
  5
B4
330
AF
100
AcDbEntity
  8
0
100
AcDbBlockEnd
  0
BLOCK
  5
D2
330
D1
100
AcDbEntity
  8
0
100
AcDbBlockBegin
  2
*D1
 70
     1
 10
0.0
 20
0.0
 30
0.0
  3
*D1
  1

  0
LINE
  5
D3
330
D1
100
AcDbEntity
  8
SUNPO
 62
     0
370
    -2
100
AcDbLine
 10
211.9336931891489
 20
346.6170961305472
 30
0.0
 11
211.9336931891489
 21
354.6170961305472
 31
0.0
  0
LINE
  5
D4
330
D1
100
AcDbEntity
  8
SUNPO
 62
     0
370
    -2
100
AcDbLine
 10
238.4336931891426
 20
346.6170961305472
 30
0.0
 11
238.4336931891426
 21
354.6170961305472
 31
0.0
  0
LINE
  5
D5
330
D1
100
AcDbEntity
  8
SUNPO
 62
     0
370
    -2
100
AcDbLine
 10
213.9336931891489
 20
352.6170961305472
 30
0.0
 11
236.4336931891426
 21
352.6170961305472
 31
0.0
  0
INSERT
  5
D6
330
D1
100
AcDbEntity
  8
SUNPO
 62
     0
370
    -2
100
AcDbBlockReference
  2
_OPEN30
 10
211.9336931891489
 20
352.6170961305472
 30
0.0
 41
2.0
 42
2.0
 43
2.0
 50
180.0
  0
INSERT
  5
D7
330
D1
100
AcDbEntity
  8
SUNPO
 62
     0
370
    -2
100
AcDbBlockReference
  2
_OPEN30
 10
238.4336931891426
 20
352.6170961305472
 30
0.0
 41
2.0
 42
2.0
 43
2.0
  0
MTEXT
  5
D8
330
D1
100
AcDbEntity
  8
SUNPO
 62
     0
100
AcDbMText
 10
225.1836931891457
 20
354.3670961305472
 30
0.0
 40
2.5
 41
0.0
 71
     5
 72
     1
  1
\A1;132.5
 73
     1
 44
1.0
1001
ACAD
1000
MTEXTBEGIN
1070
    73
1070
     1
1070
    44
1040
1.0
1070
    74
1070
     0
1000
MTEXTEND
  0
POINT
  5
D9
330
D1
100
AcDbEntity
  8
Defpoints
 62
     0
100
AcDbPoint
 10
211.9336931891489
 20
344.6170961305472
 30
0.0
  0
POINT
  5
DA
330
D1
100
AcDbEntity
  8
Defpoints
 62
     0
100
AcDbPoint
 10
238.4336931891426
 20
344.6170961305472
 30
0.0
  0
POINT
  5
DB
330
D1
100
AcDbEntity
  8
Defpoints
 62
     0
100
AcDbPoint
 10
238.4336931891426
 20
352.6170961305472
 30
0.0
  0
ENDBLK
  5
DC
330
D1
100
AcDbEntity
  8
0
100
AcDbBlockEnd
  0
BLOCK
  5
C5
330
C4
100
AcDbEntity
  8
0
100
AcDbBlockBegin
  2
*D2
 70
     1
 10
0.0
 20
0.0
 30
0.0
  3
*D2
  1

  0
LINE
  5
C6
330
C4
100
AcDbEntity
  8
SUNPO
 62
     0
370
    -2
100
AcDbLine
 10
176.9523007544028
 20
331.6122327730263
 30
0.0
 11
184.9523007544028
 21
331.6122327730263
 31
0.0
  0
LINE
  5
C7
330
C4
100
AcDbEntity
  8
SUNPO
 62
     0
370
    -2
100
AcDbLine
 10
176.9523007544028
 20
344.6122327730263
 30
0.0
 11
184.9523007544028
 21
344.6122327730263
 31
0.0
  0
LINE
  5
C8
330
C4
100
AcDbEntity
  8
SUNPO
 62
     0
370
    -2
100
AcDbLine
 10
182.9523007544028
 20
333.6122327730263
 30
0.0
 11
182.9523007544028
 21
342.6122327730263
 31
0.0
  0
INSERT
  5
C9
330
C4
100
AcDbEntity
  8
SUNPO
 62
     0
370
    -2
100
AcDbBlockReference
  2
_OPEN30
 10
182.9523007544028
 20
331.6122327730263
 30
0.0
 41
2.0
 42
2.0
 43
2.0
 50
270.0
  0
INSERT
  5
CA
330
C4
100
AcDbEntity
  8
SUNPO
 62
     0
370
    -2
100
AcDbBlockReference
  2
_OPEN30
 10
182.9523007544028
 20
344.6122327730263
 30
0.0
 41
2.0
 42
2.0
 43
2.0
 50
90.0
  0
MTEXT
  5
CB
330
C4
100
AcDbEntity
  8
SUNPO
 62
     0
100
AcDbMText
 10
181.2023007544027
 20
338.1122327730264
 30
0.0
 40
2.5
 41
0.0
 71
     5
 72
     1
  1
\A1;65
 11
0.0000000000000001
 21
1.0
 31
0.0
 73
     1
 44
1.0
1001
ACAD
1000
MTEXTBEGIN
1070
    73
1070
     1
1070
    44
1040
1.0
1070
    74
1070
     0
1000
MTEXTEND
  0
POINT
  5
CC
330
C4
100
AcDbEntity
  8
Defpoints
 62
     0
100
AcDbPoint
 10
174.9523007544028
 20
331.6122327730263
 30
0.0
  0
POINT
  5
CD
330
C4
100
AcDbEntity
  8
Defpoints
 62
     0
100
AcDbPoint
 10
174.9523007544028
 20
344.6122327730263
 30
0.0
  0
POINT
  5
CE
330
C4
100
AcDbEntity
  8
Defpoints
 62
     0
100
AcDbPoint
 10
182.9523007544028
 20
344.6122327730263
 30
0.0
  0
ENDBLK
  5
CF
330
C4
100
AcDbEntity
  8
0
100
AcDbBlockEnd
  0
BLOCK
  5
B7
330
B6
100
AcDbEntity
  8
0
100
AcDbBlockBegin
  2
*D3
 70
     1
 10
0.0
 20
0.0
 30
0.0
  3
*D3
  1

  0
LINE
  5
B8
330
B6
100
AcDbEntity
  8
SUNPO
 62
     0
370
    -2
100
AcDbLine
 10
159.9656224609168
 20
346.6170961305472
 30
0.0
 11
159.9656224609168
 21
354.6170961305472
 31
0.0
  0
LINE
  5
B9
330
B6
100
AcDbEntity
  8
SUNPO
 62
     0
370
    -2
100
AcDbLine
 10
174.9656224609168
 20
346.6170961305472
 30
0.0
 11
174.9656224609168
 21
354.6170961305472
 31
0.0
  0
LINE
  5
BA
330
B6
100
AcDbEntity
  8
SUNPO
 62
     0
370
    -2
100
AcDbLine
 10
161.9656224609168
 20
352.6170961305472
 30
0.0
 11
172.9656224609168
 21
352.6170961305472
 31
0.0
  0
INSERT
  5
BB
330
B6
100
AcDbEntity
  8
SUNPO
 62
     0
370
    -2
100
AcDbBlockReference
  2
_OPEN30
 10
159.9656224609168
 20
352.6170961305472
 30
0.0
 41
2.0
 42
2.0
 43
2.0
 50
180.0
  0
INSERT
  5
BC
330
B6
100
AcDbEntity
  8
SUNPO
 62
     0
370
    -2
100
AcDbBlockReference
  2
_OPEN30
 10
174.9656224609168
 20
352.6170961305472
 30
0.0
 41
2.0
 42
2.0
 43
2.0
  0
MTEXT
  5
BD
330
B6
100
AcDbEntity
  8
SUNPO
 62
     0
100
AcDbMText
 10
167.4656224609168
 20
354.3670961305472
 30
0.0
 40
2.5
 41
0.0
 71
     5
 72
     1
  1
\A1;75
 73
     1
 44
1.0
1001
ACAD
1000
MTEXTBEGIN
1070
    73
1070
     1
1070
    44
1040
1.0
1070
    74
1070
     0
1000
MTEXTEND
  0
POINT
  5
BE
330
B6
100
AcDbEntity
  8
Defpoints
 62
     0
100
AcDbPoint
 10
159.9656224609168
 20
344.6170961305472
 30
0.0
  0
POINT
  5
C0
330
B6
100
AcDbEntity
  8
Defpoints
 62
     0
100
AcDbPoint
 10
174.9656224609168
 20
344.6170961305472
 30
0.0
  0
POINT
  5
C1
330
B6
100
AcDbEntity
  8
Defpoints
 62
     0
100
AcDbPoint
 10
174.9656224609168
 20
352.6170961305472
 30
0.0
  0
ENDBLK
  5
C2
330
B6
100
AcDbEntity
  8
0
100
AcDbBlockEnd
  0
BLOCK
  5
1BD
330
1B3
100
AcDbEntity
  8
0
100
AcDbBlockBegin
  2
*D4
 70
     1
 10
0.0
 20
0.0
 30
0.0
  3
*D4
  1

  0
LINE
  5
1B4
330
1B3
100
AcDbEntity
  8
SUNPO
 62
     0
370
    -2
100
AcDbLine
 10
20.71019340584076
 20
28.49412196024969
 30
0.0
 11
20.71019340584076
 21
36.49412196024969
 31
0.0
  0
LINE
  5
1B5
330
1B3
100
AcDbEntity
  8
SUNPO
 62
     0
370
    -2
100
AcDbLine
 10
47.21019340583438
 20
28.49412196024969
 30
0.0
 11
47.21019340583438
 21
36.49412196024969
 31
0.0
  0
LINE
  5
1B6
330
1B3
100
AcDbEntity
  8
SUNPO
 62
     0
370
    -2
100
AcDbLine
 10
22.71019340584075
 20
34.49412196024969
 30
0.0
 11
45.21019340583438
 21
34.49412196024969
 31
0.0
  0
INSERT
  5
1B7
330
1B3
100
AcDbEntity
  8
SUNPO
 62
     0
370
    -2
100
AcDbBlockReference
  2
_OPEN30
 10
20.71019340584076
 20
34.49412196024969
 30
0.0
 41
2.0
 42
2.0
 43
2.0
 50
180.0
  0
INSERT
  5
1B8
330
1B3
100
AcDbEntity
  8
SUNPO
 62
     0
370
    -2
100
AcDbBlockReference
  2
_OPEN30
 10
47.21019340583438
 20
34.49412196024969
 30
0.0
 41
2.0
 42
2.0
 43
2.0
  0
MTEXT
  5
1B9
330
1B3
100
AcDbEntity
  8
SUNPO
 62
     0
100
AcDbMText
 10
33.96019340583757
 20
36.24412196024969
 30
0.0
 40
2.5
 41
0.0
 71
     5
 72
     1
  1
\A1;132.5
 73
     1
 44
1.0
1001
ACAD
1000
MTEXTBEGIN
1070
    73
1070
     1
1070
    44
1040
1.0
1070
    74
1070
     0
1000
MTEXTEND
  0
POINT
  5
1BA
330
1B3
100
AcDbEntity
  8
Defpoints
 62
     0
100
AcDbPoint
 10
20.71019340584076
 20
26.49412196024969
 30
0.0
  0
POINT
  5
1BB
330
1B3
100
AcDbEntity
  8
Defpoints
 62
     0
100
AcDbPoint
 10
47.21019340583438
 20
26.49412196024969
 30
0.0
  0
POINT
  5
1BC
330
1B3
100
AcDbEntity
  8
Defpoints
 62
     0
100
AcDbPoint
 10
47.21019340583438
 20
34.49412196024969
 30
0.0
  0
ENDBLK
  5
1BE
330
1B3
100
AcDbEntity
  8
0
100
AcDbBlockEnd
  0
BLOCK
  5
1C9
330
1BF
100
AcDbEntity
  8
0
100
AcDbBlockBegin
  2
*D5
 70
     1
 10
0.0
 20
0.0
 30
0.0
  3
*D5
  1

  0
LINE
  5
1C0
330
1BF
100
AcDbEntity
  8
SUNPO
 62
     0
370
    -2
100
AcDbLine
 10
-14.27119902890536
 20
13.48925860272879
 30
0.0
 11
-6.27119902890536
 21
13.48925860272879
 31
0.0
  0
LINE
  5
1C1
330
1BF
100
AcDbEntity
  8
SUNPO
 62
     0
370
    -2
100
AcDbLine
 10
-14.27119902890536
 20
26.4892586027288
 30
0.0
 11
-6.271199028905356
 21
26.48925860272879
 31
0.0
  0
LINE
  5
1C2
330
1BF
100
AcDbEntity
  8
SUNPO
 62
     0
370
    -2
100
AcDbLine
 10
-8.271199028905359
 20
15.48925860272879
 30
0.0
 11
-8.271199028905357
 21
24.4892586027288
 31
0.0
  0
INSERT
  5
1C3
330
1BF
100
AcDbEntity
  8
SUNPO
 62
     0
370
    -2
100
AcDbBlockReference
  2
_OPEN30
 10
-8.271199028905359
 20
13.48925860272879
 30
0.0
 41
2.0
 42
2.0
 43
2.0
 50
270.0
  0
INSERT
  5
1C4
330
1BF
100
AcDbEntity
  8
SUNPO
 62
     0
370
    -2
100
AcDbBlockReference
  2
_OPEN30
 10
-8.271199028905357
 20
26.4892586027288
 30
0.0
 41
2.0
 42
2.0
 43
2.0
 50
90.0
  0
MTEXT
  5
1C5
330
1BF
100
AcDbEntity
  8
SUNPO
 62
     0
100
AcDbMText
 10
-10.02119902890536
 20
19.98925860272879
 30
0.0
 40
2.5
 41
0.0
 71
     5
 72
     1
  1
\A1;65
 11
0.0000000000000001
 21
1.0
 31
0.0
 73
     1
 44
1.0
1001
ACAD
1000
MTEXTBEGIN
1070
    73
1070
     1
1070
    44
1040
1.0
1070
    74
1070
     0
1000
MTEXTEND
  0
POINT
  5
1C6
330
1BF
100
AcDbEntity
  8
Defpoints
 62
     0
100
AcDbPoint
 10
-16.27119902890536
 20
13.48925860272879
 30
0.0
  0
POINT
  5
1C7
330
1BF
100
AcDbEntity
  8
Defpoints
 62
     0
100
AcDbPoint
 10
-16.27119902890536
 20
26.4892586027288
 30
0.0
  0
POINT
  5
1C8
330
1BF
100
AcDbEntity
  8
Defpoints
 62
     0
100
AcDbPoint
 10
-8.271199028905357
 20
26.4892586027288
 30
0.0
  0
ENDBLK
  5
1CA
330
1BF
100
AcDbEntity
  8
0
100
AcDbBlockEnd
  0
BLOCK
  5
1D5
330
1CB
100
AcDbEntity
  8
0
100
AcDbBlockBegin
  2
*D6
 70
     1
 10
0.0
 20
0.0
 30
0.0
  3
*D6
  1

  0
LINE
  5
1CC
330
1CB
100
AcDbEntity
  8
SUNPO
 62
     0
370
    -2
100
AcDbLine
 10
-31.25787732239138
 20
28.49412196024969
 30
0.0
 11
-31.25787732239138
 21
36.49412196024969
 31
0.0
  0
LINE
  5
1CD
330
1CB
100
AcDbEntity
  8
SUNPO
 62
     0
370
    -2
100
AcDbLine
 10
-16.25787732239132
 20
28.49412196024969
 30
0.0
 11
-16.25787732239132
 21
36.49412196024969
 31
0.0
  0
LINE
  5
1CE
330
1CB
100
AcDbEntity
  8
SUNPO
 62
     0
370
    -2
100
AcDbLine
 10
-29.25787732239138
 20
34.49412196024969
 30
0.0
 11
-18.25787732239132
 21
34.49412196024969
 31
0.0
  0
INSERT
  5
1CF
330
1CB
100
AcDbEntity
  8
SUNPO
 62
     0
370
    -2
100
AcDbBlockReference
  2
_OPEN30
 10
-31.25787732239138
 20
34.49412196024969
 30
0.0
 41
2.0
 42
2.0
 43
2.0
 50
180.0
  0
INSERT
  5
1D0
330
1CB
100
AcDbEntity
  8
SUNPO
 62
     0
370
    -2
100
AcDbBlockReference
  2
_OPEN30
 10
-16.25787732239132
 20
34.49412196024969
 30
0.0
 41
2.0
 42
2.0
 43
2.0
  0
MTEXT
  5
1D1
330
1CB
100
AcDbEntity
  8
SUNPO
 62
     0
100
AcDbMText
 10
-23.75787732239135
 20
36.24412196024969
 30
0.0
 40
2.5
 41
0.0
 71
     5
 72
     1
  1
\A1;75
 73
     1
 44
1.0
1001
ACAD
1000
MTEXTBEGIN
1070
    73
1070
     1
1070
    44
1040
1.0
1070
    74
1070
     0
1000
MTEXTEND
  0
POINT
  5
1D2
330
1CB
100
AcDbEntity
  8
Defpoints
 62
     0
100
AcDbPoint
 10
-31.25787732239138
 20
26.49412196024969
 30
0.0
  0
POINT
  5
1D3
330
1CB
100
AcDbEntity
  8
Defpoints
 62
     0
100
AcDbPoint
 10
-16.25787732239132
 20
26.49412196024969
 30
0.0
  0
POINT
  5
1D4
330
1CB
100
AcDbEntity
  8
Defpoints
 62
     0
100
AcDbPoint
 10
-16.25787732239132
 20
34.49412196024969
 30
0.0
  0
ENDBLK
  5
1D6
330
1CB
100
AcDbEntity
  8
0
100
AcDbBlockEnd
  0
ENDSEC
  0
SECTION
  2
ENTITIES
  0
TEXT
  5
29
330
2
100
AcDbEntity
  8
MOJI1
100
AcDbText
 10
-32.72349983926654
 20
48.3778609546365
 30
0.0
 40
4.0
  1
ネットワークカメラ
100
AcDbText
  0
LINE
  5
2B
330
2
100
AcDbEntity
  8
GAIKEI
 62
     1
 48
0.7
100
AcDbLine
 10
-28.00299387647135
 20
13.68751329562877
 30
0.0
 11
-19.11276076831132
 21
13.68751329562877
 31
0.0
  0
LINE
  5
2C
330
2
100
AcDbEntity
  8
GAIKEI
 48
0.7
100
AcDbLine
 10
-28.00299387647135
 20
13.48925860272879
 30
0.0
 11
-19.11276076831132
 21
13.48925860272879
 31
0.0
  0
ARC
  5
2D
330
2
100
AcDbEntity
  8
GAIKEI
 62
     1
 48
0.7
100
AcDbCircle
 10
-19.11276962971015
 20
15.48752895008323
 30
0.0
 40
1.800015654476261
100
AcDbArc
 50
270.000282064633
 51
329.0249275135763
  0
ARC
  5
2E
330
2
100
AcDbEntity
  8
GAIKEI
 48
0.7
100
AcDbCircle
 10
-19.11276076831137
 20
15.48925860272874
 30
0.0
 40
1.999999999999971
100
AcDbArc
 50
270.0
 51
329.0264616399988
  0
ARC
  5
2F
330
2
100
AcDbEntity
  8
GAIKEI
 62
     1
 48
0.7
100
AcDbCircle
 10
-21.73885913213917
 20
17.05257105465722
 30
0.0
 40
4.857084180346727
100
AcDbArc
 50
329.1393890614298
 51
348.1613743266673
  0
ARC
  5
30
330
2
100
AcDbEntity
  8
GAIKEI
 62
     1
 48
0.7
100
AcDbCircle
 10
-32.45670853687659
 20
19.26689326233082
 30
0.0
 40
15.80127038135564
100
AcDbArc
 50
348.2759859236665
 51
358.993238362981
  0
ARC
  5
31
330
2
100
AcDbEntity
  8
GAIKEI
 48
0.7
100
AcDbCircle
 10
-21.68494224876031
 20
17.03324124052301
 30
0.0
 40
4.999999992075891
100
AcDbArc
 50
329.0257103760901
 51
348.2758998318904
  0
ARC
  5
32
330
2
100
AcDbEntity
  8
GAIKEI
 62
     1
 48
0.7
100
AcDbCircle
 10
-32.45544044489276
 20
19.26849710570894
 30
0.0
 40
16.00000000000141
100
AcDbArc
 50
348.2756619400024
 51
358.9999999997995
  0
ARC
  5
33
330
2
100
AcDbEntity
  8
GAIKEI
 48
0.7
100
AcDbCircle
 10
-25.72905285224971
 20
19.01212488258102
 30
0.0
 40
9.471203132878358
100
AcDbArc
 50
339.1209539748519
 51
20.57937286483328
  0
LINE
  5
34
330
2
100
AcDbEntity
  8
GAIKEI
 62
     1
 48
0.7
100
AcDbLine
 10
-16.45787732239006
 20
18.98925860265626
 30
0.0
 11
-16.75787732239132
 21
18.98925860273743
 31
0.0
  0
LINE
  5
35
330
2
100
AcDbEntity
  8
GAIKEI
 62
     1
 48
0.7
100
AcDbLine
 10
-16.45717911979136
 20
19.04925860272874
 30
0.0
 11
-16.75814203166129
 21
19.04925860272874
 31
0.0
  0
ARC
  5
36
330
2
100
AcDbEntity
  8
GAIKEI
 62
     1
 48
0.7
100
AcDbCircle
 10
-32.45655760619758
 20
18.8116473872048
 30
0.0
 40
15.80111905119954
100
AcDbArc
 50
1.000357183016327
 51
11.06063382774087
  0
ARC
  5
37
330
2
100
AcDbEntity
  8
GAIKEI
 62
     1
 48
0.7
100
AcDbCircle
 10
-21.71372548038272
 20
20.90113044837437
 30
0.0
 40
4.856986594043163
100
AcDbArc
 50
11.18234367131228
 51
31.40890823690747
  0
ARC
  5
38
330
2
100
AcDbEntity
  8
GAIKEI
 62
     1
 48
0.7
100
AcDbCircle
 10
-32.45544043436087
 20
18.81002010037571
 30
0.0
 40
15.99999998945984
100
AcDbArc
 50
0.9999745834415051
 51
11.06086344795897
  0
ARC
  5
39
330
2
100
AcDbEntity
  8
GAIKEI
 48
0.7
100
AcDbCircle
 10
-21.65978181186478
 20
20.92041215452963
 30
0.0
 40
5.000000002550511
100
AcDbArc
 50
11.06058280227012
 51
31.52998600878234
  0
ARC
  5
3A
330
2
100
AcDbEntity
  8
GAIKEI
 62
     1
 48
0.7
100
AcDbCircle
 10
-19.10269818192489
 20
22.49098848631229
 30
0.0
 40
1.800015423537247
100
AcDbArc
 50
31.53053566747227
 51
89.99972522982719
  0
ARC
  5
3B
330
2
100
AcDbEntity
  8
GAIKEI
 48
0.7
100
AcDbCircle
 10
-19.10268954978124
 20
22.4892586023841
 30
0.0
 40
2.000000000344705
100
AcDbArc
 50
31.52957368874991
 51
90.00061992792559
  0
LINE
  5
3C
330
2
100
AcDbEntity
  8
GAIKEI
 62
     1
 48
0.7
100
AcDbLine
 10
-28.01306509509135
 20
24.29100390982882
 30
0.0
 11
-19.10268954969138
 21
24.29100390982882
 31
0.0
  0
LINE
  5
3D
330
2
100
AcDbEntity
  8
GAIKEI
 48
0.7
100
AcDbLine
 10
-28.01304631999136
 20
24.4892586027288
 30
0.0
 11
-19.10271118935134
 21
24.4892586027288
 31
0.0
  0
LINE
  5
3E
330
2
100
AcDbEntity
  8
GAIKEI
 62
     1
 48
0.7
100
AcDbLine
 10
-27.45787732238961
 20
24.68925860272873
 30
0.0
 11
-19.65787732239283
 21
24.68925860272873
 31
0.0
  0
LINE
  5
3F
330
2
100
AcDbEntity
  8
GAIKEI
 48
0.7
100
AcDbLine
 10
-26.79688336903132
 20
26.4892586027288
 30
0.0
 11
-20.31887127721132
 21
26.4892586027288
 31
0.0
  0
LINE
  5
40
330
2
100
AcDbEntity
  8
GAIKEI
 62
     1
 48
0.7
100
AcDbLine
 10
-26.85787732239135
 20
24.68925860272873
 30
0.0
 11
-26.85787732239135
 21
24.4892586027288
 31
0.0
  0
LINE
  5
41
330
2
100
AcDbEntity
  8
GAIKEI
 48
0.7
100
AcDbLine
 10
-27.45787732238961
 20
24.68925860272873
 30
0.0
 11
-27.45787732239137
 21
24.4892586027288
 31
0.0
  0
ARC
  5
42
330
2
100
AcDbEntity
  8
GAIKEI
 62
     1
 48
0.7
100
AcDbCircle
 10
-21.5361076438586
 20
23.93281529795865
 30
0.0
 40
5.401316450926262
100
AcDbArc
 50
151.7512764529613
 51
171.9337225862421
  0
ARC
  5
43
330
2
100
AcDbEntity
  8
GAIKEI
 48
0.7
100
AcDbCircle
 10
-21.53737912383116
 20
23.71575920320868
 30
0.0
 40
6.0
100
AcDbArc
 50
153.0549565624005
 51
170.6625544789989
  0
ARC
  5
44
330
2
100
AcDbEntity
  8
GAIKEI
 48
0.7
100
AcDbCircle
 10
-26.7968749964229
 20
26.38924246590022
 30
0.0
 40
0.1000161371061326
100
AcDbArc
 50
90.00479637901488
 51
153.0486400922843
  0
LINE
  5
45
330
2
100
AcDbEntity
  8
GAIKEI
 62
     1
 48
0.7
100
AcDbLine
 10
-20.25787732239132
 20
24.68925860272873
 30
0.0
 11
-20.25787732239132
 21
24.4892586027288
 31
0.0
  0
LINE
  5
46
330
2
100
AcDbEntity
  8
GAIKEI
 48
0.7
100
AcDbLine
 10
-19.65787732239283
 20
24.68925860272873
 30
0.0
 11
-19.65787732239135
 21
24.4892586027288
 31
0.0
  0
ARC
  5
47
330
2
100
AcDbEntity
  8
GAIKEI
 62
     1
 48
0.7
100
AcDbCircle
 10
-25.57964689729278
 20
23.93281531594778
 30
0.0
 40
5.401316346217469
100
AcDbArc
 50
8.066277378866789
 51
28.24872392719478
  0
ARC
  5
48
330
2
100
AcDbEntity
  8
GAIKEI
 48
0.7
100
AcDbCircle
 10
-25.5783755209514
 20
23.71575920320879
 30
0.0
 40
6.000000000000074
100
AcDbArc
 50
9.337441822598329
 51
26.94503251860146
  0
ARC
  5
49
330
2
100
AcDbEntity
  8
GAIKEI
 48
0.7
100
AcDbCircle
 10
-20.31887764297534
 20
26.38925860224509
 30
0.0
 40
0.100000000686284
100
AcDbArc
 50
26.94380885703419
 51
89.9963526859163
  0
ARC
  5
4A
330
2
100
AcDbEntity
  8
GAIKEI
 62
     1
 48
0.7
100
AcDbCircle
 10
-24.00983890638452
 20
25.42526784577274
 30
0.0
 40
0.1997647508427243
100
AcDbArc
 50
180.9336564256583
 51
270.0663435746624
  0
LINE
  5
4B
330
2
100
AcDbEntity
  8
GAIKEI
 62
     1
 48
0.7
100
AcDbLine
 10
-24.20957713511132
 20
25.42201274756877
 30
0.0
 11
-24.22709312661135
 21
26.4892586027288
 31
0.0
  0
LINE
  5
4C
330
2
100
AcDbEntity
  8
GAIKEI
 62
     1
 48
0.7
100
AcDbLine
 10
-24.00960759607142
 20
25.22550322884877
 30
0.0
 11
-23.10614704869136
 21
25.22550322884877
 31
0.0
  0
ARC
  5
4D
330
2
100
AcDbEntity
  8
GAIKEI
 62
     1
 48
0.7
100
AcDbCircle
 10
-23.10591423185696
 20
25.42526631270528
 30
0.0
 40
0.1997632195263606
100
AcDbArc
 50
269.9332238183651
 51
359.0667761870483
  0
LINE
  5
4E
330
2
100
AcDbEntity
  8
GAIKEI
 62
     1
 48
0.7
100
AcDbLine
 10
-22.90617750967135
 20
25.42201274756883
 30
0.0
 11
-22.88866151815136
 21
26.4892586027288
 31
0.0
  0
ARC
  5
4F
330
2
100
AcDbEntity
  8
GAIKEI
 62
     1
 48
0.7
100
AcDbCircle
 10
-28.00288629952604
 20
15.48775912470023
 30
0.0
 40
1.800245832285718
100
AcDbArc
 50
223.2456417765828
 51
269.9965761870771
  0
ARC
  5
50
330
2
100
AcDbEntity
  8
GAIKEI
 62
     1
 48
0.7
100
AcDbCircle
 10
-16.87198742523202
 20
19.12432884431223
 30
0.0
 40
13.58656121380509
100
AcDbArc
 50
180.5696130272599
 51
196.2731411348483
  0
ARC
  5
51
330
2
100
AcDbEntity
  8
GAIKEI
 62
     1
 48
0.7
100
AcDbCircle
 10
-28.01305646286994
 20
22.49098848636993
 30
0.0
 40
1.800015423479614
100
AcDbArc
 50
90.00027476978686
 51
148.4694643335555
  0
ARC
  5
52
330
2
100
AcDbEntity
  8
GAIKEI
 62
     1
 48
0.7
100
AcDbCircle
 10
-25.45594644025141
 20
20.92214717408001
 30
0.0
 40
4.800027878558529
100
AcDbArc
 50
148.4697991849165
 51
168.9389489056102
  0
ARC
  5
53
330
2
100
AcDbEntity
  8
GAIKEI
  6
Continuous
 62
     1
 48
0.7
100
AcDbCircle
 10
-14.65919703458382
 20
18.81164738689671
 30
0.0
 40
15.80111905518557
100
AcDbArc
 50
168.9393661739447
 51
178.9996428161205
  0
ARC
  5
54
330
2
100
AcDbEntity
  8
GAIKEI
 48
0.7
100
AcDbCircle
 10
-28.01306509484374
 20
22.48925860247107
 30
0.0
 40
2.000000000345863
100
AcDbArc
 50
89.99946214009886
 51
148.4709823499112
  0
ARC
  5
55
330
2
100
AcDbEntity
  8
GAIKEI
  6
Continuous
 48
0.7
100
AcDbCircle
 10
-25.45597284328028
 20
20.92041215801544
 30
0.0
 40
4.999999991611146
100
AcDbArc
 50
148.4702363768394
 51
168.9390459861083
  0
ARC
  5
56
330
2
100
AcDbEntity
  8
GAIKEI
  6
Continuous
 48
0.7
100
AcDbCircle
 10
-14.75600284765147
 20
18.82439894640799
 30
0.0
 40
15.90333084058999
100
AcDbArc
 50
168.92372154501
 51
179.1900153407603
  0
ARC
  5
57
330
2
100
AcDbEntity
  8
GAIKEI
 48
0.7
100
AcDbCircle
 10
-14.66031419988991
 20
19.26849710570894
 30
0.0
 40
16.00000000000141
100
AcDbArc
 50
181.0000000002004
 51
191.7243380599976
  0
LINE
  5
58
330
2
100
AcDbEntity
  8
GAIKEI
 62
     1
 48
0.7
100
AcDbLine
 10
-30.65787731929134
 20
18.98925860272879
 30
0.0
 11
-28.85787732239135
 21
18.98925860272896
 31
0.0
  0
LINE
  5
59
330
2
100
AcDbEntity
  8
GAIKEI
 62
     1
 48
0.7
100
AcDbLine
 10
-30.65857552499136
 20
19.04925860272874
 30
0.0
 11
-28.857537691132
 21
19.04925860272874
 31
0.0
  0
LINE
  5
5A
330
2
100
AcDbEntity
  8
GAIKEI
  6
HIDDEN2
 62
     1
 48
0.7
100
AcDbLine
 10
-31.55987732239157
 20
15.69871545313322
 30
0.0
 11
-31.55987732239157
 21
21.57976738452618
 31
0.0
  0
LINE
  5
5C
330
2
100
AcDbEntity
  8
GAIKEI
  6
HIDDEN2
 62
     1
 48
0.7
100
AcDbLine
 10
-30.95987732239155
 20
15.69871545313322
 30
0.0
 11
-30.95987732239155
 21
21.57976738452618
 31
0.0
  0
LINE
  5
5D
330
2
100
AcDbEntity
  8
GAIKEI
 62
     1
 48
0.7
100
AcDbLine
 10
-30.95784616096057
 20
15.88782330326876
 30
0.0
 11
-30.29784616095134
 21
15.88782330326876
 31
0.0
  0
ARC
  5
5E
330
2
100
AcDbEntity
  8
GAIKEI
 48
0.7
100
AcDbCircle
 10
-30.22088571885405
 20
14.99612873536506
 30
0.0
 40
0.3409725306642061
100
AcDbArc
 50
205.823422869432
 51
268.8102842444601
  0
LINE
  5
5F
330
2
100
AcDbEntity
  8
GAIKEI
 48
0.7
100
AcDbLine
 10
-30.22796531955487
 20
14.65522970937428
 30
0.0
 11
-29.82530717159654
 21
14.64820128525804
 31
0.0
  0
ARC
  5
60
330
2
100
AcDbEntity
  8
GAIKEI
 48
0.7
100
AcDbCircle
 10
-26.03081238919987
 20
17.0332412421294
 30
0.0
 40
4.999999999012686
100
AcDbArc
 50
193.2431190091756
 51
205.9207772924575
  0
ARC
  5
61
330
2
100
AcDbEntity
  8
GAIKEI
 48
0.7
100
AcDbCircle
 10
-17.71943343437112
 20
18.98925860272879
 30
0.0
 40
13.53844388802023
100
AcDbArc
 50
180.0
 51
193.2431226273009
  0
ARC
  5
62
330
2
100
AcDbEntity
  8
GAIKEI
  6
Continuous
 48
0.7
100
AcDbCircle
 10
-13.19653954327714
 20
18.46421736209618
 30
0.0
 40
18.06896761510249
100
AcDbArc
 50
168.4219992712911
 51
178.3348864879082
  0
ARC
  5
63
330
2
100
AcDbEntity
  8
GAIKEI
  6
Continuous
 48
0.7
100
AcDbCircle
 10
-26.03081238894799
 20
20.94527596325901
 30
0.0
 40
4.999999999273716
100
AcDbArc
 50
156.0286224850965
 51
166.7569036988331
  0
ARC
  5
64
330
2
100
AcDbEntity
  8
GAIKEI
  6
Continuous
 48
0.7
100
AcDbCircle
 10
-30.28777738190783
 20
22.83864227037913
 30
0.0
 40
0.3409676267390214
100
AcDbArc
 50
91.18484124998969
 51
156.1193616379397
  0
LINE
  5
65
330
2
100
AcDbEntity
  8
GAIKEI
  6
Continuous
 48
0.7
100
AcDbLine
 10
-30.29482787882799
 20
23.17953699456422
 30
0.0
 11
-29.91162230309135
 21
23.18622587280879
 31
0.0
  0
ARC
  5
66
330
2
100
AcDbEntity
  8
GAIKEI
  6
Continuous
 62
     1
 48
0.7
100
AcDbCircle
 10
-30.50822010278228
 20
22.73832891316749
 30
0.0
 40
0.1512733095910914
100
AcDbArc
 50
338.5557638351965
 51
97.27849752154053
  0
LINE
  5
67
330
2
100
AcDbEntity
  8
GAIKEI
  6
Continuous
 62
     1
 48
0.7
100
AcDbLine
 10
-30.52738527425123
 20
22.88838327130884
 30
0.0
 11
-30.67062951079129
 21
22.88814699486881
 31
0.0
  0
ARC
  5
68
330
2
100
AcDbEntity
  8
GAIKEI
  6
Continuous
 62
     1
 48
0.7
100
AcDbCircle
 10
-12.6677288690322
 20
17.99827746336484
 30
0.0
 40
18.30917465991739
100
AcDbArc
 50
165.1749280925788
 51
169.7960380769808
  0
ARC
  5
69
330
2
100
AcDbEntity
  8
GAIKEI
  6
Continuous
 62
     1
 48
0.7
100
AcDbCircle
 10
-44.00373593875815
 20
22.60866127604322
 30
0.0
 40
13.3863889161199
100
AcDbArc
 50
349.1197651118501
 51
354.1394072986231
  0
ARC
  5
6A
330
2
100
AcDbEntity
  8
GAIKEI
 62
     1
 48
0.7
100
AcDbCircle
 10
-31.62655416879272
 20
20.29141597830761
 30
0.0
 40
0.7966200729918626
100
AcDbArc
 50
294.8541640304597
 51
344.7508045390643
  0
ARC
  5
6B
330
2
100
AcDbEntity
  8
GAIKEI
  6
HIDDEN2
 62
     1
 48
0.7
100
AcDbCircle
 10
-31.25987732239156
 20
21.58193733943506
 30
0.0
 40
0.3000078477378658
100
AcDbArc
 50
359.5855763672641
 51
180.4144236327359
  0
LINE
  5
6C
330
2
100
AcDbEntity
  8
GAIKEI
  6
HIDDEN2
 62
     1
 48
0.7
100
AcDbLine
 10
-31.55987732239157
 20
20.70905868651459
 30
0.0
 11
-31.85787732239135
 21
20.67925868651457
 31
0.0
  0
LINE
  5
6D
330
2
100
AcDbEntity
  8
GAIKEI
  6
HIDDEN2
 62
     1
 48
0.7
100
AcDbLine
 10
-31.85787732239135
 20
20.67925868651457
 30
0.0
 11
-32.05787732239134
 21
20.87925868651456
 31
0.0
  0
LINE
  5
6E
330
2
100
AcDbEntity
  8
GAIKEI
  6
HIDDEN2
 62
     1
 48
0.7
100
AcDbLine
 10
-32.05787732239134
 20
20.87925868651456
 30
0.0
 11
-32.05787732239134
 21
22.2792586865146
 31
0.0
  0
LINE
  5
6F
330
2
100
AcDbEntity
  8
GAIKEI
  6
HIDDEN2
 62
     1
 48
0.7
100
AcDbLine
 10
-32.05787732239134
 20
22.2792586865146
 30
0.0
 11
-31.85787732239135
 21
22.47925868651453
 31
0.0
  0
LINE
  5
70
330
2
100
AcDbEntity
  8
GAIKEI
  6
HIDDEN2
 62
     1
 48
0.7
100
AcDbLine
 10
-31.85787732239135
 20
22.47925868651453
 30
0.0
 11
-30.85787732239135
 21
22.37925868651456
 31
0.0
  0
LINE
  5
71
330
2
100
AcDbEntity
  8
GAIKEI
  6
HIDDEN2
 62
     1
 48
0.7
100
AcDbLine
 10
-31.55987732239157
 20
21.07976738452618
 30
0.0
 11
-31.59787732239136
 21
21.07976738452618
 31
0.0
  0
LINE
  5
72
330
2
100
AcDbEntity
  8
GAIKEI
  6
HIDDEN2
 62
     1
 48
0.7
100
AcDbLine
 10
-31.59787732239136
 20
21.07976738452618
 30
0.0
 11
-31.75787732239133
 21
21.2397673845262
 31
0.0
  0
LINE
  5
73
330
2
100
AcDbEntity
  8
GAIKEI
  6
HIDDEN2
 62
     1
 48
0.7
100
AcDbLine
 10
-31.75787732239133
 20
21.2397673845262
 30
0.0
 11
-31.75787732239133
 21
21.91976738452615
 31
0.0
  0
LINE
  5
74
330
2
100
AcDbEntity
  8
GAIKEI
  6
HIDDEN2
 62
     1
 48
0.7
100
AcDbLine
 10
-31.75787732239133
 20
21.91976738452615
 30
0.0
 11
-31.59787732239136
 21
22.07976738452618
 31
0.0
  0
LINE
  5
75
330
2
100
AcDbEntity
  8
GAIKEI
  6
HIDDEN2
 62
     1
 48
0.7
100
AcDbLine
 10
-31.59787732239136
 20
22.07976738452618
 30
0.0
 11
-30.91787732239135
 21
22.07976738452618
 31
0.0
  0
LINE
  5
76
330
2
100
AcDbEntity
  8
GAIKEI
  6
HIDDEN2
 62
     1
 48
0.7
100
AcDbLine
 10
-30.91787732239135
 20
22.07976738452618
 30
0.0
 11
-30.75787732239132
 21
21.91976738452615
 31
0.0
  0
LINE
  5
77
330
2
100
AcDbEntity
  8
GAIKEI
  6
HIDDEN2
 62
     1
 48
0.7
100
AcDbLine
 10
-30.75787732239132
 20
21.91976738452615
 30
0.0
 11
-30.75787732239132
 21
21.2397673845262
 31
0.0
  0
LINE
  5
78
330
2
100
AcDbEntity
  8
GAIKEI
  6
HIDDEN2
 62
     1
 48
0.7
100
AcDbLine
 10
-30.75787732239132
 20
21.2397673845262
 30
0.0
 11
-30.91787732239135
 21
21.07976738452618
 31
0.0
  0
LINE
  5
79
330
2
100
AcDbEntity
  8
GAIKEI
  6
HIDDEN2
 62
     1
 48
0.7
100
AcDbLine
 10
-30.91787732239135
 20
21.07976738452618
 30
0.0
 11
-30.95987732239155
 21
21.07976738452618
 31
0.0
  0
LINE
  5
7A
330
2
100
AcDbEntity
  8
GAIKEI
100
AcDbLine
 10
20.95558834942796
 20
24.25894262281736
 30
0.0
 11
20.91019340584074
 21
19.08925860272876
 31
0.0
  0
LINE
  5
7B
330
2
100
AcDbEntity
  8
GAIKEI
 62
     1
100
AcDbLine
 10
21.15558074218075
 20
24.4892586027288
 30
0.0
 11
21.11017056056079
 21
19.08925860278873
 31
0.0
  0
LINE
  5
7C
330
2
100
AcDbEntity
  8
GAIKEI
 62
     1
100
AcDbLine
 10
20.94067201496074
 20
22.58176127896877
 30
0.0
 11
20.81019340584072
 21
22.57948376636875
 31
0.0
  0
LINE
  5
7D
330
2
100
AcDbEntity
  8
GAIKEI
 62
     1
100
AcDbLine
 10
20.81019340584072
 20
22.57948376636875
 30
0.0
 11
20.81019340584072
 21
15.39903343908878
 31
0.0
  0
LINE
  5
7E
330
2
100
AcDbEntity
  8
GAIKEI
 62
     1
100
AcDbLine
 10
20.81019340584072
 20
15.39903343908878
 30
0.0
 11
20.94154483470072
 21
15.39674069136879
 31
0.0
  0
LINE
  5
7F
330
2
100
AcDbEntity
  8
GAIKEI
 62
     1
100
AcDbLine
 10
20.91019340584074
 20
19.08925860272876
 30
0.0
 11
24.27019340584076
 21
19.08925860272876
 31
0.0
  0
LINE
  5
80
330
2
100
AcDbEntity
  8
GAIKEI
 62
     1
100
AcDbLine
 10
24.27019340584076
 20
19.08925860272876
 30
0.0
 11
24.27019340584076
 21
22.4892586027288
 31
0.0
  0
LINE
  5
81
330
2
100
AcDbEntity
  8
GAIKEI
 62
     1
100
AcDbLine
 10
20.93454473761551
 20
21.87964483942358
 30
0.0
 11
24.27019340584076
 21
21.87968127202873
 31
0.0
  0
LINE
  5
82
330
2
100
AcDbEntity
  8
GAIKEI
 62
     1
100
AcDbLine
 10
20.91019340584074
 20
18.98925860272879
 30
0.0
 11
24.27019340584076
 21
18.98925860272879
 31
0.0
  0
LINE
  5
83
330
2
100
AcDbEntity
  8
GAIKEI
 62
     1
100
AcDbLine
 10
24.27019340584076
 20
18.98925860272879
 30
0.0
 11
24.27019340584076
 21
15.48925860272879
 31
0.0
  0
LINE
  5
84
330
2
100
AcDbEntity
  8
GAIKEI
 62
     1
100
AcDbLine
 10
20.93612975556141
 20
16.01724729925684
 30
0.0
 11
24.27019340584076
 21
16.01721585000877
 31
0.0
  0
LINE
  5
85
330
2
100
AcDbEntity
  8
GAIKEI
 62
     1
100
AcDbLine
 10
21.11017056056079
 20
18.98925860268878
 30
0.0
 11
21.15645342956071
 21
13.48925860272879
 31
0.0
  0
LINE
  5
86
330
2
100
AcDbEntity
  8
GAIKEI
100
AcDbLine
 10
20.91019340584074
 20
18.98925860272879
 30
0.0
 11
20.95646103620072
 21
13.68751329562877
 31
0.0
  0
LINE
  5
87
330
2
100
AcDbEntity
  8
GAIKEI
 62
     1
100
AcDbLine
 10
24.47019340584075
 20
22.38019716366876
 30
0.0
 11
24.47019340584075
 21
15.58925860272876
 31
0.0
  0
ARC
  5
88
330
2
100
AcDbEntity
  8
GAIKEI
100
AcDbCircle
 10
21.1564534190149
 20
13.6892588071945
 30
0.0
 40
0.1999999999857468
100
AcDbArc
 50
180.5000585774766
 51
270.0000005128524
  0
ARC
  5
89
330
2
100
AcDbEntity
  8
GAIKEI
 62
     1
100
AcDbCircle
 10
21.11830206736545
 20
14.6479025283179
 30
0.0
 40
0.1903914913764246
100
AcDbArc
 50
207.1158699513358
 51
279.2265637899892
  0
LINE
  5
8A
330
2
100
AcDbEntity
  8
GAIKEI
100
AcDbLine
 10
23.71019340584076
 20
24.4892586027288
 30
0.0
 11
23.71019340584076
 21
24.68925518929507
 31
0.0
  0
LINE
  5
8B
330
2
100
AcDbEntity
  8
GAIKEI
100
AcDbLine
 10
23.71019340584076
 20
24.68925518929507
 30
0.0
 11
24.38539964934074
 21
26.42550322884876
 31
0.0
  0
LINE
  5
8C
330
2
100
AcDbEntity
  8
GAIKEI
100
AcDbLine
 10
24.47860011648072
 20
26.4892586027288
 30
0.0
 11
33.63403656020074
 21
26.4892586027288
 31
0.0
  0
LINE
  5
8D
330
2
100
AcDbEntity
  8
GAIKEI
 62
     1
100
AcDbLine
 10
24.31019340584072
 20
24.4892586027288
 30
0.0
 11
24.31019340584072
 21
24.68908824290878
 31
0.0
  0
LINE
  5
8E
330
2
100
AcDbEntity
  8
GAIKEI
 62
     1
100
AcDbLine
 10
24.31019340584072
 20
24.68908824290878
 30
0.0
 11
24.92693511354065
 21
26.43457215390879
 31
0.0
  0
LINE
  5
8F
330
2
100
AcDbEntity
  8
GAIKEI
 62
     1
100
AcDbLine
 10
23.71019340584076
 20
24.68925518929507
 30
0.0
 11
34.21019340584076
 21
24.68925092410825
 31
0.0
  0
LINE
  5
90
330
2
100
AcDbEntity
  8
GAIKEI
 62
     1
100
AcDbLine
 10
32.3851185548807
 20
24.4892586027288
 30
0.0
 11
32.3851185548807
 21
24.68925166546876
 31
0.0
  0
LINE
  5
91
330
2
100
AcDbEntity
  8
GAIKEI
 62
     1
100
AcDbLine
 10
33.02741473164076
 20
24.4892586027288
 30
0.0
 11
33.02741473164076
 21
24.68925860272873
 31
0.0
  0
LINE
  5
92
330
2
100
AcDbEntity
  8
GAIKEI
100
AcDbLine
 10
34.21019340584076
 20
24.4892586027288
 30
0.0
 11
34.21019340584076
 21
24.68925860272873
 31
0.0
  0
LINE
  5
93
330
2
100
AcDbEntity
  8
GAIKEI
100
AcDbLine
 10
33.73053638398074
 20
26.41602388148874
 30
0.0
 11
34.21019340584076
 21
24.68925860272873
 31
0.0
  0
ARC
  5
94
330
2
100
AcDbEntity
  8
GAIKEI
100
AcDbCircle
 10
24.47860011647049
 20
26.38925860276186
 30
0.0
 40
0.0999999999669258
100
AcDbArc
 50
89.99999999413759
 51
158.7494945030703
  0
ARC
  5
95
330
2
100
AcDbEntity
  8
GAIKEI
100
AcDbCircle
 10
33.57929018263798
 20
26.31692523730715
 30
0.0
 40
0.1808202275570692
100
AcDbArc
 50
33.23338229204765
 51
72.37613513843429
  0
ARC
  5
96
330
2
100
AcDbEntity
  8
GAIKEI
 62
     1
100
AcDbCircle
 10
40.34608452032864
 20
26.33234704132144
 30
0.0
 40
8.129444480154594
100
AcDbArc
 50
178.894029158734
 51
191.6607572224725
  0
ARC
  5
97
330
2
100
AcDbEntity
  8
GAIKEI
 62
     1
100
AcDbCircle
 10
38.76942083386712
 20
26.06560280144583
 30
0.0
 40
5.909935508246274
100
AcDbArc
 50
176.6007427871812
 51
193.4668528188354
  0
ARC
  5
98
330
2
100
AcDbEntity
  8
GAIKEI
 62
     1
100
AcDbCircle
 10
32.78208634607847
 20
26.40029974693914
 30
0.0
 40
0.089193768853666
100
AcDbArc
 50
10.15337533739722
 51
85.84070885406079
  0
ARC
  5
99
330
2
100
AcDbEntity
  8
GAIKEI
 62
     1
100
AcDbCircle
 10
21.11774307601746
 20
23.34821624372086
 30
0.0
 40
0.1893479470898371
100
AcDbArc
 50
80.77839017802318
 51
153.6321647254021
  0
ARC
  5
9A
330
2
100
AcDbEntity
  8
GAIKEI
100
AcDbCircle
 10
21.15558107503108
 20
24.28925825874967
 30
0.0
 40
0.2000003439793724
100
AcDbArc
 50
90.00009768638035
 51
179.4999023138893
  0
LINE
  5
9B
330
2
100
AcDbEntity
  8
GAIKEI
100
AcDbLine
 10
21.15558073404071
 20
24.4892586027288
 30
0.0
 11
45.82275530198074
 21
24.4892586027288
 31
0.0
  0
LINE
  5
9C
330
2
100
AcDbEntity
  8
GAIKEI
 62
     1
100
AcDbLine
 10
21.14808674482071
 20
23.53511703780873
 30
0.0
 11
46.17019018620072
 21
23.53513578764875
 31
0.0
  0
LINE
  5
9D
330
2
100
AcDbEntity
  8
GAIKEI
 62
     1
100
AcDbLine
 10
24.37193877940075
 20
22.58925860272876
 30
0.0
 11
46.67183931687833
 21
22.58925648368308
 31
0.0
  0
LINE
  5
9E
330
2
100
AcDbEntity
  8
GAIKEI
 62
     1
100
AcDbLine
 10
24.27019340584076
 20
22.38019716366876
 30
0.0
 11
46.73100368329904
 21
22.38019716366876
 31
0.0
  0
LINE
  5
9F
330
2
100
AcDbEntity
  8
GAIKEI
 62
     1
100
AcDbLine
 10
24.27019340584076
 20
15.58925860272876
 30
0.0
 11
46.7172915880551
 21
15.58925860272876
 31
0.0
  0
LINE
  5
A0
330
2
100
AcDbEntity
  8
GAIKEI
 62
     1
100
AcDbLine
 10
24.37193877940075
 20
15.38925860272877
 30
0.0
 11
46.66095722319266
 21
15.38925953806915
 31
0.0
  0
LINE
  5
A1
330
2
100
AcDbEntity
  8
GAIKEI
 62
     1
100
AcDbLine
 10
21.14882921674075
 20
14.45997431558874
 30
0.0
 11
46.16819855654074
 21
14.45995761242875
 31
0.0
  0
LINE
  5
A2
330
2
100
AcDbEntity
  8
GAIKEI
100
AcDbLine
 10
21.15645342082075
 20
13.48925860272879
 30
0.0
 11
45.82163869784074
 21
13.48925860272879
 31
0.0
  0
ARC
  5
A3
330
2
100
AcDbEntity
  8
GAIKEI
 62
     1
100
AcDbCircle
 10
24.37022497734313
 20
15.48927549362747
 30
0.0
 40
0.1000315729284437
100
AcDbArc
 50
180.0096747175304
 51
270.9816743485895
  0
ARC
  5
A4
330
2
100
AcDbEntity
  8
GAIKEI
 62
     1
100
AcDbCircle
 10
24.37022449254812
 20
22.4892422050865
 30
0.0
 40
0.1000310880513971
100
AcDbArc
 50
89.01804317096786
 51
179.9906077628466
  0
ARC
  5
A5
330
2
100
AcDbEntity
  8
GAIKEI
 62
     1
100
AcDbCircle
 10
25.44027388596822
 20
16.52682788929405
 30
0.0
 40
21.88254619868169
100
AcDbArc
 50
16.08386198244167
 51
21.33813759893151
  0
ARC
  5
A6
330
2
100
AcDbEntity
  8
GAIKEI
100
AcDbCircle
 10
34.28363241804362
 20
18.97045813029905
 30
0.0
 40
12.9059432700904
100
AcDbArc
 50
15.31937063975598
 51
24.74612579029756
  0
ARC
  5
A7
330
2
100
AcDbEntity
  8
GAIKEI
100
AcDbCircle
 10
45.82275479948139
 20
24.28925777478275
 30
0.0
 40
0.2000008279466105
100
AcDbArc
 50
24.71037643881842
 51
89.99985604513705
  0
ARC
  5
A8
330
2
100
AcDbEntity
  8
GAIKEI
 62
     1
100
AcDbCircle
 10
34.11580713175465
 20
18.98818442288137
 30
0.0
 40
12.86468174881127
100
AcDbArc
 50
344.6802227852663
 51
15.10832441649535
  0
ARC
  5
A9
330
2
100
AcDbEntity
  8
GAIKEI
 62
     1
100
AcDbCircle
 10
24.30243007655509
 20
21.71927871637945
 30
0.0
 40
23.03930455285543
100
AcDbArc
 50
339.0706491431915
 51
344.0529605494672
  0
ARC
  5
AA
330
2
100
AcDbEntity
  8
GAIKEI
100
AcDbCircle
 10
45.82163869784074
 20
13.68925860272873
 30
0.0
 40
0.1999999999999773
100
AcDbArc
 50
269.9999999999935
 51
335.735913939018
  0
ARC
  5
AB
330
2
100
AcDbEntity
  8
GAIKEI
100
AcDbCircle
 10
33.78106011268989
 20
19.12511409193621
 30
0.0
 40
13.41075534132167
100
AcDbArc
 50
335.7031608434095
 51
344.7127624897338
  0
ARC
  5
AC
330
2
100
AcDbEntity
  8
GAIKEI
100
AcDbCircle
 10
35.07927970898652
 20
19.00687628156697
 30
0.0
 40
12.12944479751849
100
AcDbArc
 50
343.6346002527416
 51
16.02818164396762
  0
DIMENSION
  5
AD
330
2
100
AcDbEntity
  8
SUNPO
100
AcDbDimension
  2
*D6
 10
-16.25787732239132
 20
34.49412196024969
 30
0.0
 11
-23.75787732239135
 21
36.24412196024969
 31
0.0
 70
    33
  1
75
 71
     5
 42
15.00000000000006
  3
STANDARD
100
AcDbAlignedDimension
 13
-31.25787732239138
 23
26.49412196024969
 33
0.0
 14
-16.25787732239132
 24
26.49412196024969
 34
0.0
1001
ACAD
1000
DSTYLE
1002
{
1070
   287
1070
     3
1070
    40
1040
1.0
1070
   140
1040
2.5
1070
   147
1040
0.5
1070
   172
1070
     1
1070
   279
1070
     0
1070
   288
1070
     0
1002
}
  0
DIMENSION
  5
C3
330
2
100
AcDbEntity
  8
SUNPO
100
AcDbDimension
  2
*D5
 10
-8.271199028905357
 20
26.4892586027288
 30
0.0
 11
-10.02119902890536
 21
19.98925860272879
 31
0.0
 70
    33
  1
65
 71
     5
 42
13.0
  3
STANDARD
100
AcDbAlignedDimension
 13
-16.27119902890536
 23
13.48925860272879
 33
0.0
 14
-16.27119902890536
 24
26.4892586027288
 34
0.0
1001
ACAD
1000
DSTYLE
1002
{
1070
   287
1070
     3
1070
    40
1040
1.0
1070
   140
1040
2.5
1070
   147
1040
0.5
1070
   172
1070
     1
1070
   279
1070
     0
1070
   288
1070
     0
1002
}
  0
DIMENSION
  5
D0
330
2
100
AcDbEntity
  8
SUNPO
100
AcDbDimension
  2
*D4
 10
47.21019340583438
 20
34.49412196024969
 30
0.0
 11
33.96019340583757
 21
36.24412196024969
 31
0.0
 70
    33
  1
132.5
 71
     5
 42
26.49999999999363
  3
STANDARD
100
AcDbAlignedDimension
 13
20.71019340584076
 23
26.49412196024969
 33
0.0
 14
47.21019340583438
 24
26.49412196024969
 34
0.0
1001
ACAD
1000
DSTYLE
1002
{
1070
   287
1070
     3
1070
    40
1040
1.0
1070
   140
1040
2.5
1070
   147
1040
0.5
1070
   172
1070
     1
1070
   279
1070
     0
1070
   288
1070
     0
1002
}
  0
LINE
  5
DD
330
2
100
AcDbEntity
  8
GAIKEI
  6
Continuous
 62
     1
100
AcDbLine
 10
46.86903855825437
 20
16.15425860272881
 30
0.0
 11
47.11019340583436
 21
16.15425860272881
 31
0.0
  0
LINE
  5
DE
330
2
100
AcDbEntity
  8
GAIKEI
  6
Continuous
 62
     1
100
AcDbLine
 10
47.1417390437544
 20
17.79271296480885
 30
0.0
 11
47.21019340583438
 21
17.72425860272881
 31
0.0
  0
LINE
  5
DF
330
2
100
AcDbEntity
  8
GAIKEI
  6
Continuous
 62
     1
100
AcDbLine
 10
47.11019340583436
 20
16.15425860272881
 30
0.0
 11
47.21019340583438
 21
16.25425860272884
 31
0.0
  0
LINE
  5
E0
330
2
100
AcDbEntity
  8
GAIKEI
  6
Continuous
 62
     1
100
AcDbLine
 10
47.11019340583436
 20
17.53229079660883
 30
0.0
 11
47.11019340583436
 21
16.15425860272881
 31
0.0
  0
LINE
  5
E1
330
2
100
AcDbEntity
  8
GAIKEI
  6
Continuous
 62
     1
100
AcDbLine
 10
47.21019340583438
 20
17.72423856878879
 30
0.0
 11
47.21019340583438
 21
16.2542786366688
 31
0.0
  0
LINE
  5
E2
330
2
100
AcDbEntity
  8
GAIKEI
  6
HIDDEN2
 62
     1
 48
0.7
100
AcDbLine
 10
20.3999672475494
 20
15.92608496841342
 30
0.0
 11
20.3999672475494
 21
16.00343358160671
 31
0.0
  0
LINE
  5
E3
330
2
100
AcDbEntity
  8
GAIKEI
  6
HIDDEN2
 62
     1
 48
0.7
100
AcDbLine
 10
20.26855777567266
 20
15.92608496841342
 30
0.0
 11
20.3999672475494
 21
15.92608496841342
 31
0.0
  0
LINE
  5
E4
330
2
100
AcDbEntity
  8
GAIKEI
  6
HIDDEN2
 62
     1
 48
0.7
100
AcDbLine
 10
20.26855777567266
 20
15.81817117742599
 30
0.0
 11
20.26855777567266
 21
15.92608496841342
 31
0.0
  0
LINE
  5
E5
330
2
100
AcDbEntity
  8
GAIKEI
  6
HIDDEN2
 62
     1
 48
0.7
100
AcDbLine
 10
20.15253485588269
 20
15.81817117742599
 30
0.0
 11
20.26855777567266
 21
15.81817117742599
 31
0.0
  0
LINE
  5
E6
330
2
100
AcDbEntity
  8
GAIKEI
  6
HIDDEN2
 62
     1
 48
0.7
100
AcDbLine
 10
20.15253485588269
 20
15.92587704203384
 30
0.0
 11
20.15253485588269
 21
15.81817117742599
 31
0.0
  0
LINE
  5
E7
330
2
100
AcDbEntity
  8
GAIKEI
  6
HIDDEN2
 62
     1
 48
0.7
100
AcDbLine
 10
20.02154123676502
 20
15.92608496841342
 30
0.0
 11
20.15253485588269
 21
15.92587704203384
 31
0.0
  0
LINE
  5
E8
330
2
100
AcDbEntity
  8
GAIKEI
  6
HIDDEN2
 62
     1
 48
0.7
100
AcDbLine
 10
20.02154123676502
 20
16.00343358160671
 30
0.0
 11
20.02154123676502
 21
15.92608496841342
 31
0.0
  0
LINE
  5
E9
330
2
100
AcDbEntity
  8
GAIKEI
  6
HIDDEN2
 62
     1
 48
0.7
100
AcDbLine
 10
20.15253485588269
 20
16.00343358160671
 30
0.0
 11
20.02154123676502
 21
16.00343358160671
 31
0.0
  0
LINE
  5
EA
330
2
100
AcDbEntity
  8
GAIKEI
  6
HIDDEN2
 62
     1
 48
0.7
100
AcDbLine
 10
20.15253485588269
 20
16.11093151983499
 30
0.0
 11
20.15253485588269
 21
16.00343358160671
 31
0.0
  0
LINE
  5
EB
330
2
100
AcDbEntity
  8
GAIKEI
  6
HIDDEN2
 62
     1
 48
0.7
100
AcDbLine
 10
20.26855777567266
 20
16.11093151983499
 30
0.0
 11
20.15253485588269
 21
16.11093151983499
 31
0.0
  0
LINE
  5
EC
330
2
100
AcDbEntity
  8
GAIKEI
  6
HIDDEN2
 62
     1
 48
0.7
100
AcDbLine
 10
20.26855777567266
 20
16.00343358160671
 30
0.0
 11
20.26855777567266
 21
16.11093151983499
 31
0.0
  0
LINE
  5
ED
330
2
100
AcDbEntity
  8
GAIKEI
  6
HIDDEN2
 62
     1
 48
0.7
100
AcDbLine
 10
20.3999672475494
 20
16.00343358160671
 30
0.0
 11
20.26855777567266
 21
16.00343358160671
 31
0.0
  0
LINE
  5
EE
330
2
100
AcDbEntity
  8
GAIKEI
  6
HIDDEN2
 62
     1
 48
0.7
100
AcDbLine
 10
19.62668904199603
 20
25.73591219678582
 30
0.0
 11
18.6612868617367
 21
25.73591219678582
 31
0.0
  0
LINE
  5
EF
330
2
100
AcDbEntity
  8
GAIKEI
  6
HIDDEN2
 62
     1
 48
0.7
100
AcDbLine
 10
19.54289471103661
 20
25.73404085936983
 30
0.0
 11
19.54289471103661
 21
24.9701271650527
 31
0.0
  0
LINE
  5
F0
330
2
100
AcDbEntity
  8
GAIKEI
  6
HIDDEN2
 62
     1
 48
0.7
100
AcDbLine
 10
19.46450646594556
 20
25.73404085936983
 30
0.0
 11
19.46450646594556
 21
24.95494853934542
 31
0.0
  0
LINE
  5
F1
330
2
100
AcDbEntity
  8
GAIKEI
  6
HIDDEN2
 62
     1
 48
0.7
100
AcDbLine
 10
19.34682013511923
 20
25.73404085936983
 30
0.0
 11
19.34702806149875
 21
24.94309673571098
 31
0.0
  0
LINE
  5
F2
330
2
100
AcDbEntity
  8
GAIKEI
  6
HIDDEN2
 62
     1
 48
0.7
100
AcDbLine
 10
19.22227223376768
 20
25.73383293299026
 30
0.0
 11
19.22227223376768
 21
24.93706687070397
 31
0.0
  0
LINE
  5
F3
330
2
100
AcDbEntity
  8
GAIKEI
  6
HIDDEN2
 62
     1
 48
0.7
100
AcDbLine
 10
18.74487326631654
 20
25.73404085936983
 30
0.0
 11
18.74487326631654
 21
24.97324606074602
 31
0.0
  0
LINE
  5
F4
330
2
100
AcDbEntity
  8
GAIKEI
  6
HIDDEN2
 62
     1
 48
0.7
100
AcDbLine
 10
18.82305358502805
 20
25.73383293299026
 30
0.0
 11
18.82305358502805
 21
24.95536439210451
 31
0.0
  0
LINE
  5
F5
330
2
100
AcDbEntity
  8
GAIKEI
  6
HIDDEN2
 62
     1
 48
0.7
100
AcDbLine
 10
18.94094784223398
 20
25.73404085936983
 30
0.0
 11
18.94094784223398
 21
24.94642355778382
 31
0.0
  0
LINE
  5
F6
330
2
100
AcDbEntity
  8
GAIKEI
  6
HIDDEN2
 62
     1
 48
0.7
100
AcDbLine
 10
19.06570366996507
 20
25.73404085936983
 30
0.0
 11
19.06570366996507
 21
24.93706687070397
 31
0.0
  0
ELLIPSE
  5
F7
330
2
100
AcDbEntity
  8
GAIKEI
  6
HIDDEN2
 62
     1
 48
0.7
100
AcDbEllipse
 10
20.21096216853675
 20
15.96455134863049
 30
0.0
 11
0.2545018885714843
 21
0.0
 31
0.0
210
0.0
220
0.0
230
1.0
 40
0.8790849673202615
 41
0.0
 42
6.283185307179586
  0
LINE
  5
F8
330
2
100
AcDbEntity
  8
GAIKEI
  6
HIDDEN2
 62
     1
 48
0.7
100
AcDbLine
 10
15.16625234784936
 20
24.84183658886923
 30
0.0
 11
15.16646027422894
 21
13.13397315213956
 31
0.0
  0
LINE
  5
F9
330
2
100
AcDbEntity
  8
GAIKEI
  6
HIDDEN2
 62
     1
 48
0.7
100
AcDbLine
 10
15.04440748943199
 20
24.84183658886923
 30
0.0
 11
15.04440748943199
 21
13.13397315213956
 31
0.0
  0
LINE
  5
FA
330
2
100
AcDbEntity
  8
GAIKEI
  6
HIDDEN2
 62
     1
 48
0.7
100
AcDbLine
 10
20.58959610570071
 20
24.98426615886223
 30
0.0
 11
20.58959610570071
 21
12.98468201162132
 31
0.0
  0
LINE
  5
FB
330
2
100
AcDbEntity
  8
GAIKEI
  6
HIDDEN2
 62
     1
 48
0.7
100
AcDbLine
 10
15.2529576481225
 20
24.98426615886223
 30
0.0
 11
15.2529576481225
 21
12.9934149195625
 31
0.0
  0
LINE
  5
FC
330
2
100
AcDbEntity
  8
GAIKEI
  6
HIDDEN2
 62
     1
 48
0.7
100
AcDbLine
 10
14.94356319534932
 20
24.98426615886223
 30
0.0
 11
14.94356319534932
 21
12.9934149195625
 31
0.0
  0
LINE
  5
FD
330
2
100
AcDbEntity
  8
GAIKEI
  6
HIDDEN2
 62
     1
 48
0.7
100
AcDbLine
 10
9.346496947382433
 20
24.98426615886223
 30
0.0
 11
9.346496947382433
 21
12.99008809748966
 31
0.0
  0
LINE
  5
FE
330
2
100
AcDbEntity
  8
GAIKEI
  6
HIDDEN2
 62
     1
 48
0.7
100
AcDbLine
 10
9.061325917827048
 20
22.18903544689516
 30
0.0
 11
9.061533844206564
 21
15.83147846571734
 31
0.0
  0
LINE
  5
FF
330
2
100
AcDbEntity
  8
GAIKEI
  6
HIDDEN2
 62
     1
 48
0.7
100
AcDbLine
 10
9.183586629003542
 20
24.72498196356105
 30
0.0
 11
9.183586629003542
 21
13.30239351957658
 31
0.0
  0
LINE
  5
100
330
2
100
AcDbEntity
  8
GAIKEI
  6
HIDDEN2
 62
     1
 48
0.7
100
AcDbLine
 10
20.71019340584076
 20
13.10569516452051
 30
0.0
 11
20.58647721000745
 21
12.98946431835105
 31
0.0
  0
LINE
  5
101
330
2
100
AcDbEntity
  8
GAIKEI
  6
HIDDEN2
 62
     1
 48
0.7
100
AcDbLine
 10
20.58647721000745
 20
12.98946431835105
 30
0.0
 11
15.25129423708608
 21
12.98946431835105
 31
0.0
  0
LINE
  5
102
330
2
100
AcDbEntity
  8
GAIKEI
  6
HIDDEN2
 62
     1
 48
0.7
100
AcDbLine
 10
19.24452035637967
 20
12.98946431835105
 30
0.0
 11
19.24452035637967
 21
11.81322478922618
 31
0.0
  0
LINE
  5
103
330
2
100
AcDbEntity
  8
GAIKEI
  6
HIDDEN2
 62
     1
 48
0.7
100
AcDbLine
 10
20.05855213232522
 20
12.98946431835105
 30
0.0
 11
20.05855213232525
 21
11.81322478922624
 31
0.0
  0
ARC
  5
104
330
2
100
AcDbEntity
  8
GAIKEI
  6
HIDDEN2
 62
     1
 48
0.7
100
AcDbCircle
 10
19.65153624435245
 20
11.98621162606434
 30
0.0
 40
0.4422514881620546
100
AcDbArc
 50
203.0260982439371
 51
336.9739017560593
  0
LINE
  5
105
330
2
100
AcDbEntity
  8
GAIKEI
  6
HIDDEN2
 62
     1
 48
0.7
100
AcDbLine
 10
15.2529576481225
 20
12.9934149195625
 30
0.0
 11
15.16625234784936
 21
13.13667619507373
 31
0.0
  0
LINE
  5
106
330
2
100
AcDbEntity
  8
GAIKEI
  6
HIDDEN2
 62
     1
 48
0.7
100
AcDbLine
 10
15.16625234784936
 20
13.13667619507373
 30
0.0
 11
15.04191237287736
 21
13.13646826869421
 31
0.0
  0
LINE
  5
107
330
2
100
AcDbEntity
  8
GAIKEI
  6
HIDDEN2
 62
     1
 48
0.7
100
AcDbLine
 10
15.04191237287736
 20
13.13646826869421
 30
0.0
 11
14.94709794380168
 21
12.98946431835105
 31
0.0
  0
LINE
  5
108
330
2
100
AcDbEntity
  8
GAIKEI
  6
HIDDEN2
 62
     1
 48
0.7
100
AcDbLine
 10
14.94356319534932
 20
12.9934149195625
 30
0.0
 11
9.343274088499356
 21
12.98946431835105
 31
0.0
  0
LINE
  5
109
330
2
100
AcDbEntity
  8
GAIKEI
  6
HIDDEN2
 62
     1
 48
0.7
100
AcDbLine
 10
9.346496947382433
 20
12.99008809748966
 30
0.0
 11
9.180571696500038
 21
13.12877499265079
 31
0.0
  0
LINE
  5
10A
330
2
100
AcDbEntity
  8
GAIKEI
  6
HIDDEN2
 62
     1
 48
0.7
100
AcDbLine
 10
9.180571696500038
 20
13.12877499265079
 30
0.0
 11
9.180571696500038
 21
13.3223544520136
 31
0.0
  0
LINE
  5
10B
330
2
100
AcDbEntity
  8
GAIKEI
  6
HIDDEN2
 62
     1
 48
0.7
100
AcDbLine
 10
9.180571696500038
 20
13.3223544520136
 30
0.0
 11
9.056647574287126
 21
13.44627857422654
 31
0.0
  0
LINE
  5
10C
330
2
100
AcDbEntity
  8
GAIKEI
  6
HIDDEN2
 62
     1
 48
0.7
100
AcDbLine
 10
9.056647574287126
 20
13.44627857422654
 30
0.0
 11
9.056855500666642
 21
15.85830096867949
 31
0.0
  0
ARC
  5
10D
330
2
100
AcDbEntity
  8
GAIKEI
  6
HIDDEN2
 62
     1
 48
0.7
100
AcDbCircle
 10
25.4034362270524
 20
18.99414266189097
 30
0.0
 40
16.64464492168964
100
AcDbArc
 50
169.1406082475499
 51
190.8593917524501
  0
LINE
  5
10E
330
2
100
AcDbEntity
  8
GAIKEI
  6
HIDDEN2
 62
     1
 48
0.7
100
AcDbLine
 10
20.71019340584076
 20
24.86865909183132
 30
0.0
 11
20.71019340584076
 21
13.10569516452051
 31
0.0
  0
LINE
  5
10F
330
2
100
AcDbEntity
  8
GAIKEI
  6
HIDDEN2
 62
     1
 48
0.7
100
AcDbLine
 10
20.71019340584076
 20
24.86865909183132
 30
0.0
 11
20.58647721000745
 21
24.98488993800078
 31
0.0
  0
LINE
  5
110
330
2
100
AcDbEntity
  8
GAIKEI
  6
HIDDEN2
 62
     1
 48
0.7
100
AcDbLine
 10
20.58647721000745
 20
24.98488993800078
 30
0.0
 11
15.25129423708608
 21
24.98488993800078
 31
0.0
  0
LINE
  5
111
330
2
100
AcDbEntity
  8
GAIKEI
  6
HIDDEN2
 62
     1
 48
0.7
100
AcDbLine
 10
15.2529576481225
 20
24.98093933678934
 30
0.0
 11
15.16625234784936
 21
24.8376780612781
 31
0.0
  0
LINE
  5
112
330
2
100
AcDbEntity
  8
GAIKEI
  6
HIDDEN2
 62
     1
 48
0.7
100
AcDbLine
 10
15.16625234784936
 20
24.8376780612781
 30
0.0
 11
15.04191237287736
 21
24.83788598765761
 31
0.0
  0
LINE
  5
113
330
2
100
AcDbEntity
  8
GAIKEI
  6
HIDDEN2
 62
     1
 48
0.7
100
AcDbLine
 10
15.04191237287736
 20
24.83788598765761
 30
0.0
 11
14.94709794380168
 21
24.98488993800078
 31
0.0
  0
LINE
  5
114
330
2
100
AcDbEntity
  8
GAIKEI
  6
HIDDEN2
 62
     1
 48
0.7
100
AcDbLine
 10
14.94356319534932
 20
24.98093933678934
 30
0.0
 11
9.343274088499356
 21
24.98488993800078
 31
0.0
  0
LINE
  5
115
330
2
100
AcDbEntity
  8
GAIKEI
  6
HIDDEN2
 62
     1
 48
0.7
100
AcDbLine
 10
9.346496947382433
 20
24.98426615886217
 30
0.0
 11
9.180571696500038
 21
24.84557926370104
 31
0.0
  0
LINE
  5
116
330
2
100
AcDbEntity
  8
GAIKEI
  6
HIDDEN2
 62
     1
 48
0.7
100
AcDbLine
 10
9.180571696500038
 20
24.84557926370104
 30
0.0
 11
9.180571696500038
 21
24.65199980433823
 31
0.0
  0
LINE
  5
117
330
2
100
AcDbEntity
  8
GAIKEI
  6
HIDDEN2
 62
     1
 48
0.7
100
AcDbLine
 10
9.180571696500038
 20
24.65199980433823
 30
0.0
 11
9.056647574287126
 21
24.52807568212529
 31
0.0
  0
LINE
  5
118
330
2
100
AcDbEntity
  8
GAIKEI
  6
HIDDEN2
 62
     1
 48
0.7
100
AcDbLine
 10
9.056647574287126
 20
24.52807568212529
 30
0.0
 11
9.056855500666642
 21
22.11605328767234
 31
0.0
  0
ARC
  5
119
330
2
100
AcDbEntity
  8
GAIKEI
  6
HIDDEN2
 62
     1
 48
0.7
100
AcDbCircle
 10
19.14398795186633
 20
27.06976004819507
 30
0.0
 40
2.133740447536287
100
AcDbArc
 50
256.9251966905383
 51
283.0748033094634
  0
LINE
  5
11A
330
2
100
AcDbEntity
  8
GAIKEI
  6
HIDDEN2
 62
     1
 48
0.7
100
AcDbLine
 10
19.62668904199603
 20
24.99133565576699
 30
0.0
 11
19.62668904199603
 21
25.73591219678576
 31
0.0
  0
LINE
  5
11B
330
2
100
AcDbEntity
  8
GAIKEI
  6
HIDDEN2
 62
     1
 48
0.7
100
AcDbLine
 10
19.62668904199603
 20
25.73591219678576
 30
0.0
 11
19.5108740485856
 21
25.85172719019619
 31
0.0
  0
LINE
  5
11C
330
2
100
AcDbEntity
  8
GAIKEI
  6
HIDDEN2
 62
     1
 48
0.7
100
AcDbLine
 10
19.5108740485856
 20
25.85172719019619
 30
0.0
 11
18.77689392876755
 21
25.85172719019619
 31
0.0
  0
LINE
  5
11D
330
2
100
AcDbEntity
  8
GAIKEI
  6
HIDDEN2
 62
     1
 48
0.7
100
AcDbLine
 10
18.77689392876755
 20
25.85172719019619
 30
0.0
 11
18.6612868617367
 21
25.73591219678576
 31
0.0
  0
LINE
  5
11E
330
2
100
AcDbEntity
  8
GAIKEI
  6
HIDDEN2
 62
     1
 48
0.7
100
AcDbLine
 10
18.6612868617367
 20
25.73591219678576
 30
0.0
 11
18.6612868617367
 21
24.99133565576699
 31
0.0
  0
ARC
  5
11F
330
2
100
AcDbEntity
  8
GAIKEI
  6
HIDDEN2
 62
     1
 48
0.7
100
AcDbCircle
 10
-28.95987732239155
 20
15.69871545313322
 30
0.0
 40
2.0
100
AcDbArc
 50
180.0
 51
231.4466073156103
  0
ARC
  5
120
330
2
100
AcDbEntity
  8
GAIKEI
  6
HIDDEN2
 62
     1
 48
0.7
100
AcDbCircle
 10
-28.95987732239155
 20
15.69871545313322
 30
0.0
 40
2.6
100
AcDbArc
 50
180.0
 51
231.4466073156103
  0
ARC
  5
121
330
2
100
AcDbEntity
  8
GAIKEI
 48
0.7
100
AcDbCircle
 10
-28.00299387647129
 20
15.48925860272874
 30
0.0
 40
1.999999999999971
100
AcDbArc
 50
210.9735383600012
 51
270.0
  0
ARC
  5
122
330
2
100
AcDbEntity
  8
GAIKEI
 48
0.7
100
AcDbCircle
 10
-25.43081239602236
 20
17.03324124052301
 30
0.0
 40
4.999999992075891
100
AcDbArc
 50
191.7241001681097
 51
210.97428962391
  0
LINE
  5
123
330
2
100
AcDbEntity
  8
GAIKEI
  6
HIDDEN2
 62
     1
 48
0.7
100
AcDbLine
 10
-18.97417325560462
 20
19.23570591822289
 30
0.0
 11
-19.20169473384874
 21
19.27376330834511
 31
0.0
  0
LINE
  5
124
330
2
100
AcDbEntity
  8
GAIKEI
  6
HIDDEN2
 62
     1
 48
0.7
100
AcDbLine
 10
-18.97417325560462
 20
18.74980561839231
 30
0.0
 11
-18.97417325560462
 21
19.23570591822289
 31
0.0
  0
LINE
  5
125
330
2
100
AcDbEntity
  8
GAIKEI
  6
HIDDEN2
 62
     1
 48
0.7
100
AcDbLine
 10
-19.20169473384874
 20
18.71215965951467
 30
0.0
 11
-18.97417325560462
 21
18.74980561839231
 31
0.0
  0
LINE
  5
126
330
2
100
AcDbEntity
  8
GAIKEI
  6
HIDDEN2
 62
     1
 48
0.7
100
AcDbLine
 10
-26.06333931507197
 20
22.83531787691709
 30
0.0
 11
-25.98218450208165
 21
22.61952218914303
 31
0.0
  0
LINE
  5
127
330
2
100
AcDbEntity
  8
GAIKEI
  6
HIDDEN2
 62
     1
 48
0.7
100
AcDbLine
 10
-25.64244515188256
 20
23.07847374245466
 30
0.0
 11
-26.06333931507197
 21
22.83531787691709
 31
0.0
  0
LINE
  5
128
330
2
100
AcDbEntity
  8
GAIKEI
  6
HIDDEN2
 62
     1
 48
0.7
100
AcDbLine
 10
-25.49597562881763
 20
22.90011829793599
 30
0.0
 11
-25.64244515188256
 21
23.07847374245466
 31
0.0
  0
LINE
  5
129
330
2
100
AcDbEntity
  8
GAIKEI
  6
HIDDEN2
 62
     1
 48
0.7
100
AcDbLine
 10
-25.63606796759183
 20
14.89634058180189
 30
0.0
 11
-25.48970130233801
 21
15.07449031069831
 31
0.0
  0
LINE
  5
12A
330
2
100
AcDbEntity
  8
GAIKEI
  6
HIDDEN2
 62
     1
 48
0.7
100
AcDbLine
 10
-26.05696213078124
 20
15.13929073171721
 30
0.0
 11
-25.63606796759183
 21
14.89634058180189
 31
0.0
  0
LINE
  5
12B
330
2
100
AcDbEntity
  8
GAIKEI
  6
HIDDEN2
 62
     1
 48
0.7
100
AcDbLine
 10
-25.97570445997974
 20
15.35508641949121
 30
0.0
 11
-26.05696213078124
 21
15.13929073171721
 31
0.0
  0
CIRCLE
  5
12C
330
2
100
AcDbEntity
  8
GAIKEI
  6
HIDDEN2
 62
     1
 48
0.7
100
AcDbCircle
 10
-23.55787732239134
 20
18.98905288710654
 30
0.0
 40
5.635939474760233
  0
CIRCLE
  5
12D
330
2
100
AcDbEntity
  8
GAIKEI
  6
HIDDEN2
 62
     1
 48
0.7
100
AcDbCircle
 10
-23.55787732239134
 20
18.98915574491764
 30
0.0
 40
4.85987729078906
  0
CIRCLE
  5
12E
330
2
100
AcDbEntity
  8
GAIKEI
  6
HIDDEN2
 62
     1
 48
0.7
100
AcDbCircle
 10
-23.55777446458021
 20
18.98925860272879
 30
0.0
 40
4.369759819613209
  0
CIRCLE
  5
12F
330
2
100
AcDbEntity
  8
GAIKEI
  6
HIDDEN2
 62
     1
 48
0.7
100
AcDbCircle
 10
-23.55787732239134
 20
18.98925860272879
 30
0.0
 40
4.022717564823114
  0
LINE
  5
130
330
2
100
AcDbEntity
  8
GAIKEI
  6
HIDDEN2
 62
     1
 48
0.7
100
AcDbLine
 10
-26.02641336087231
 20
15.192365362266
 30
0.0
 11
-25.60551919768292
 21
14.94900378110611
 31
0.0
  0
LINE
  5
131
330
2
100
AcDbEntity
  8
GAIKEI
  6
HIDDEN2
 62
     1
 48
0.7
100
AcDbLine
 10
-25.61189638197368
 20
23.02560482752813
 30
0.0
 11
-26.0327905451631
 21
22.78265467761281
 31
0.0
  0
LINE
  5
132
330
2
100
AcDbEntity
  8
GAIKEI
  6
HIDDEN2
 62
     1
 48
0.7
100
AcDbLine
 10
-19.03527079542243
 20
18.74980561839231
 30
0.0
 11
-19.03506507980015
 21
19.2359116338452
 31
0.0
  0
LINE
  5
133
330
2
100
AcDbEntity
  8
GAIKEI
  6
HIDDEN2
 62
     1
 48
0.7
100
AcDbLine
 10
-24.03868616057042
 20
25.73676954382438
 30
0.0
 11
-24.03889187619271
 21
24.9751717798967
 31
0.0
  0
LINE
  5
134
330
2
100
AcDbEntity
  8
GAIKEI
  6
HIDDEN2
 62
     1
 48
0.7
100
AcDbLine
 10
-23.9243082745815
 20
25.85135314543555
 30
0.0
 11
-24.03868616057042
 21
25.73676954382438
 31
0.0
  0
LINE
  5
135
330
2
100
AcDbEntity
  8
GAIKEI
  6
HIDDEN2
 62
     1
 48
0.7
100
AcDbLine
 10
-23.19823498573644
 20
25.85155886105781
 30
0.0
 11
-23.9243082745815
 21
25.85135314543555
 31
0.0
  0
LINE
  5
136
330
2
100
AcDbEntity
  8
GAIKEI
  6
HIDDEN2
 62
     1
 48
0.7
100
AcDbLine
 10
-23.08365138412523
 20
25.73697525944664
 30
0.0
 11
-23.19823498573644
 21
25.85155886105781
 31
0.0
  0
LINE
  5
137
330
2
100
AcDbEntity
  8
GAIKEI
  6
HIDDEN2
 62
     1
 48
0.7
100
AcDbLine
 10
-23.08365138412523
 20
24.97496606427438
 30
0.0
 11
-23.08365138412523
 21
25.73697525944664
 31
0.0
  0
LINE
  5
138
330
2
100
AcDbEntity
  8
GAIKEI
  6
HIDDEN2
 62
     1
 48
0.7
100
AcDbLine
 10
-23.16655477990497
 20
25.73532953446835
 30
0.0
 11
-23.16655477990497
 21
24.98216611105426
 31
0.0
  0
LINE
  5
139
330
2
100
AcDbEntity
  8
GAIKEI
  6
HIDDEN2
 62
     1
 48
0.7
100
AcDbLine
 10
-23.24410956950538
 20
25.73532953446835
 30
0.0
 11
-23.24410956950538
 21
24.98216611105426
 31
0.0
  0
LINE
  5
13A
330
2
100
AcDbEntity
  8
GAIKEI
  6
HIDDEN2
 62
     1
 48
0.7
100
AcDbLine
 10
-23.34624737596852
 20
25.73532953446835
 30
0.0
 11
-23.34624737596852
 21
24.98916044221181
 31
0.0
  0
LINE
  5
13B
330
2
100
AcDbEntity
  8
GAIKEI
  6
HIDDEN2
 62
     1
 48
0.7
100
AcDbLine
 10
-23.46947103371554
 20
25.73532953446835
 30
0.0
 11
-23.46947103371554
 21
24.99636048899174
 31
0.0
  0
LINE
  5
13C
330
2
100
AcDbEntity
  8
GAIKEI
  6
HIDDEN2
 62
     1
 48
0.7
100
AcDbLine
 10
-23.95588562260184
 20
25.73532953446835
 30
0.0
 11
-23.95588562260184
 21
24.98216611105426
 31
0.0
  0
LINE
  5
13D
330
2
100
AcDbEntity
  8
GAIKEI
  6
HIDDEN2
 62
     1
 48
0.7
100
AcDbLine
 10
-23.87843369081259
 20
25.73532953446835
 30
0.0
 11
-23.87843369081259
 21
24.98216611105426
 31
0.0
  0
LINE
  5
13E
330
2
100
AcDbEntity
  8
GAIKEI
  6
HIDDEN2
 62
     1
 48
0.7
100
AcDbLine
 10
-23.7761930265383
 20
25.73532953446835
 30
0.0
 11
-23.7761930265383
 21
24.98916044221181
 31
0.0
  0
LINE
  5
13F
330
2
100
AcDbEntity
  8
GAIKEI
  6
HIDDEN2
 62
     1
 48
0.7
100
AcDbLine
 10
-23.65276365316899
 20
25.73532953446835
 30
0.0
 11
-23.65276365316899
 21
24.99636048899174
 31
0.0
  0
LINE
  5
140
330
2
100
AcDbEntity
  8
GAIKEI
  6
HIDDEN2
 62
     1
 48
0.7
100
AcDbLine
 10
-23.08190280133584
 20
25.73862098442487
 30
0.0
 11
-24.03704043559216
 21
25.73862098442487
 31
0.0
  0
LINE
  5
141
330
2
100
AcDbEntity
  8
GAIKEI
  6
HIDDEN2
 62
     1
 48
0.7
100
AcDbLine
 10
-28.87598686503975
 20
14.2096083014909
 30
0.0
 11
-28.19280457912632
 21
14.89284341622311
 31
0.0
  0
LINE
  5
142
330
2
100
AcDbEntity
  8
GAIKEI
  6
HIDDEN2
 62
     1
 48
0.7
100
AcDbLine
 10
-28.19805032749452
 20
14.89880916926927
 30
0.0
 11
-27.6678183110621
 21
14.36744571691429
 31
0.0
  0
ARC
  5
143
330
2
100
AcDbEntity
  8
GAIKEI
  6
HIDDEN2
 62
     1
 48
0.7
100
AcDbCircle
 10
-27.37627652862207
 20
14.65941962740595
 30
0.0
 40
0.4126080165436619
100
AcDbArc
 50
225.0424309223244
 51
286.27445610564
  0
ARC
  5
144
330
2
100
AcDbEntity
  8
GAIKEI
  6
HIDDEN2
 62
     1
 48
0.7
100
AcDbCircle
 10
-27.90145056766153
 20
15.18424221706925
 30
0.0
 40
0.4120684665576738
100
AcDbArc
 50
163.3453249206681
 51
225.0044036553058
  0
CIRCLE
  5
145
330
2
100
AcDbEntity
  8
GAIKEI
  6
HIDDEN2
 62
     1
 48
0.7
100
AcDbCircle
 10
-23.55787732239134
 20
18.98925860272879
 30
0.0
 40
6.003640271420865
  0
ARC
  5
146
330
2
100
AcDbEntity
  8
GAIKEI
  6
HIDDEN2
 62
     1
 48
0.7
100
AcDbCircle
 10
-29.19236797970086
 20
17.79300677012617
 30
0.0
 40
1.127282741056014
100
AcDbArc
 50
208.9656685839091
 51
241.5431435435135
  0
ARC
  5
147
330
2
100
AcDbEntity
  8
GAIKEI
  6
HIDDEN2
 62
     1
 48
0.7
100
AcDbCircle
 10
-34.80306750581622
 20
8.635153213643548
 30
0.0
 40
9.614422845909393
100
AcDbArc
 50
54.71769435141201
 51
58.14966206427168
  0
ARC
  5
148
330
2
100
AcDbEntity
  8
GAIKEI
  6
HIDDEN2
 62
     1
 48
0.7
100
AcDbCircle
 10
-31.3447816973964
 20
14.02068675347118
 30
0.0
 40
3.233421714381144
100
AcDbArc
 50
31.61992175083169
 51
49.61365121692617
  0
ARC
  5
149
330
2
100
AcDbEntity
  8
GAIKEI
  6
HIDDEN2
 62
     1
 48
0.7
100
AcDbCircle
 10
-23.50574816058202
 20
18.98905162729068
 30
0.0
 40
6.913208712789402
100
AcDbArc
 50
165.9137753949436
 51
193.9807593393769
  0
ARC
  5
14A
330
2
100
AcDbEntity
  8
GAIKEI
  6
HIDDEN2
 62
     1
 48
0.7
100
AcDbCircle
 10
-29.4780141738047
 20
17.6385895887214
 30
0.0
 40
0.8025925319984626
100
AcDbArc
 50
203.4773346311858
 51
209.1964790045073
  0
ARC
  5
14B
330
2
100
AcDbEntity
  8
GAIKEI
  6
HIDDEN2
 62
     1
 48
0.7
100
AcDbCircle
 10
-29.19236797970086
 20
20.21513348494005
 30
0.0
 40
1.127282741056014
100
AcDbArc
 50
118.456856456485
 51
151.0343314160908
  0
ARC
  5
14C
330
2
100
AcDbEntity
  8
GAIKEI
  6
HIDDEN2
 62
     1
 48
0.7
100
AcDbCircle
 10
-34.80306750581622
 20
29.37298704142273
 30
0.0
 40
9.614422845909393
100
AcDbArc
 50
301.8503379357284
 51
305.282305648588
  0
ARC
  5
14D
330
2
100
AcDbEntity
  8
GAIKEI
  6
HIDDEN2
 62
     1
 48
0.7
100
AcDbCircle
 10
-31.35841928684357
 20
24.07179848981196
 30
0.0
 40
3.306799244599487
100
AcDbArc
 50
309.6194010834051
 51
327.4119644971176
  0
ARC
  5
14E
330
2
100
AcDbEntity
  8
GAIKEI
  6
HIDDEN2
 62
     1
 48
0.7
100
AcDbCircle
 10
-29.4780141738047
 20
20.36955066634488
 30
0.0
 40
0.8025925319984626
100
AcDbArc
 50
150.8035209954927
 51
156.5226653688142
  0
ARC
  5
14F
330
2
100
AcDbEntity
  8
GAIKEI
  6
HIDDEN2
 62
     1
 48
0.7
100
AcDbCircle
 10
-23.55604389621763
 20
18.9920754287499
 30
0.0
 40
4.136878906803874
100
AcDbArc
 50
255.7702994433205
 51
284.2875400223043
  0
ARC
  5
150
330
2
100
AcDbEntity
  8
GAIKEI
  6
HIDDEN2
 62
     1
 48
0.7
100
AcDbCircle
 10
-23.55513205585879
 20
18.99458516226406
 30
0.0
 40
4.258008947906747
100
AcDbArc
 50
255.7640336812683
 51
284.2696961722589
  0
ARC
  5
151
330
2
100
AcDbEntity
  8
GAIKEI
  6
HIDDEN2
 62
     1
 48
0.7
100
AcDbCircle
 10
-24.58792084095012
 20
14.92460128615465
 30
0.0
 40
0.0590306722114208
100
AcDbArc
 50
165.7524527450628
 51
255.9575275638497
  0
ARC
  5
152
330
2
100
AcDbEntity
  8
GAIKEI
  6
HIDDEN2
 62
     1
 48
0.7
100
AcDbCircle
 10
-24.5877070006477
 20
14.92481174406288
 30
0.0
 40
0.0591866952162475
100
AcDbArc
 50
75.54178789767842
 51
166.000868312775
  0
ARC
  5
153
330
2
100
AcDbEntity
  8
GAIKEI
  6
HIDDEN2
 62
     1
 48
0.7
100
AcDbCircle
 10
-22.51999081744532
 20
14.92460128615465
 30
0.0
 40
0.0590306722114208
100
AcDbArc
 50
284.0424724361503
 51
14.24754725493713
  0
ARC
  5
154
330
2
100
AcDbEntity
  8
GAIKEI
  6
HIDDEN2
 62
     1
 48
0.7
100
AcDbCircle
 10
-22.52020465774774
 20
14.92481174406288
 30
0.0
 40
0.0591866952162475
100
AcDbArc
 50
13.99913168722493
 51
104.4582121023216
  0
ARC
  5
155
330
2
100
AcDbEntity
  8
GAIKEI
  6
HIDDEN2
 62
     1
 48
0.7
100
AcDbCircle
 10
-23.55940005219677
 20
18.99225480938173
 30
0.0
 40
4.136878906803874
100
AcDbArc
 50
315.7702994433186
 51
344.2875400223036
  0
ARC
  5
156
330
2
100
AcDbEntity
  8
GAIKEI
  6
HIDDEN2
 62
     1
 48
0.7
100
AcDbCircle
 10
-23.56111762499731
 20
18.99429935305375
 30
0.0
 40
4.258008947906747
100
AcDbArc
 50
315.7640336812699
 51
344.2696961722604
  0
ARC
  5
157
330
2
100
AcDbEntity
  8
GAIKEI
  6
HIDDEN2
 62
     1
 48
0.7
100
AcDbCircle
 10
-20.55280258783918
 20
16.06488609036631
 30
0.0
 40
0.0590306722114208
100
AcDbArc
 50
225.752452745064
 51
315.957527563851
  0
ARC
  5
158
330
2
100
AcDbEntity
  8
GAIKEI
  6
HIDDEN2
 62
     1
 48
0.7
100
AcDbCircle
 10
-20.55287792958294
 20
16.0651765104547
 30
0.0
 40
0.0591866952162475
100
AcDbArc
 50
135.541787897679
 51
226.0008683127777
  0
ARC
  5
159
330
2
100
AcDbEntity
  8
GAIKEI
  6
HIDDEN2
 62
     1
 48
0.7
100
AcDbCircle
 10
-19.51883757608678
 20
17.85576602397003
 30
0.0
 40
0.0590306722114208
100
AcDbArc
 50
344.0424724361504
 51
74.24754725493812
  0
ARC
  5
15A
330
2
100
AcDbEntity
  8
GAIKEI
  6
HIDDEN2
 62
     1
 48
0.7
100
AcDbCircle
 10
-19.51912675813295
 20
17.85568606178987
 30
0.0
 40
0.0591866952162475
100
AcDbArc
 50
73.99913168722398
 51
164.4582121023198
  0
ARC
  5
15B
330
2
100
AcDbEntity
  8
GAIKEI
  6
HIDDEN2
 62
     1
 48
0.7
100
AcDbCircle
 10
-23.56123347837044
 20
18.98943798336063
 30
0.0
 40
4.136878906803874
100
AcDbArc
 50
15.77029944332201
 51
44.28754002230333
  0
ARC
  5
15C
330
2
100
AcDbEntity
  8
GAIKEI
  6
HIDDEN2
 62
     1
 48
0.7
100
AcDbCircle
 10
-23.56386289152985
 20
18.98897279351854
 30
0.0
 40
4.258008947906747
100
AcDbArc
 50
15.76403368126878
 51
44.26969617225835
  0
ARC
  5
15D
330
2
100
AcDbEntity
  8
GAIKEI
  6
HIDDEN2
 62
     1
 48
0.7
100
AcDbCircle
 10
-19.52275906928037
 20
20.12954340694051
 30
0.0
 40
0.0590306722114208
100
AcDbArc
 50
285.7524527450619
 51
15.95752756384955
  0
ARC
  5
15E
330
2
100
AcDbEntity
  8
GAIKEI
  6
HIDDEN2
 62
     1
 48
0.7
100
AcDbCircle
 10
-19.52304825132654
 20
20.12962336912062
 30
0.0
 40
0.0591866952162475
100
AcDbArc
 50
195.5417878976801
 51
286.0008683127761
  0
ARC
  5
15F
330
2
100
AcDbEntity
  8
GAIKEI
  6
HIDDEN2
 62
     1
 48
0.7
100
AcDbCircle
 10
-20.55672408103277
 20
21.92042334054418
 30
0.0
 40
0.0590306722114208
100
AcDbArc
 50
44.04247243614899
 51
134.2475472549359
  0
ARC
  5
160
330
2
100
AcDbEntity
  8
GAIKEI
  6
HIDDEN2
 62
     1
 48
0.7
100
AcDbCircle
 10
-20.55679942277655
 20
21.92013292045584
 30
0.0
 40
0.0591866952162475
100
AcDbArc
 50
133.9991316872223
 51
224.4582121023209
  0
ARC
  5
161
330
2
100
AcDbEntity
  8
GAIKEI
  6
HIDDEN2
 62
     1
 48
0.7
100
AcDbCircle
 10
-23.55971074856504
 20
18.98644177670775
 30
0.0
 40
4.136878906803874
100
AcDbArc
 50
75.77029944332051
 51
104.2875400223043
  0
ARC
  5
162
330
2
100
AcDbEntity
  8
GAIKEI
  6
HIDDEN2
 62
     1
 48
0.7
100
AcDbCircle
 10
-23.56062258892388
 20
18.98393204319359
 30
0.0
 40
4.258008947906747
100
AcDbArc
 50
75.76403368126825
 51
104.2696961722589
  0
ARC
  5
163
330
2
100
AcDbEntity
  8
GAIKEI
  6
HIDDEN2
 62
     1
 48
0.7
100
AcDbCircle
 10
-22.52783380383255
 20
23.053915919303
 30
0.0
 40
0.0590306722114208
100
AcDbArc
 50
345.7524527450629
 51
75.95752756384971
  0
ARC
  5
164
330
2
100
AcDbEntity
  8
GAIKEI
  6
HIDDEN2
 62
     1
 48
0.7
100
AcDbCircle
 10
-22.52804764413497
 20
23.05370546139477
 30
0.0
 40
0.0591866952162475
100
AcDbArc
 50
255.5417878976784
 51
346.0008683127751
  0
ARC
  5
165
330
2
100
AcDbEntity
  8
GAIKEI
  6
HIDDEN2
 62
     1
 48
0.7
100
AcDbCircle
 10
-24.59576382733732
 20
23.053915919303
 30
0.0
 40
0.0590306722114208
100
AcDbArc
 50
104.0424724361503
 51
194.2475472549371
  0
ARC
  5
166
330
2
100
AcDbEntity
  8
GAIKEI
  6
HIDDEN2
 62
     1
 48
0.7
100
AcDbCircle
 10
-24.59554998703493
 20
23.05370546139477
 30
0.0
 40
0.0591866952162475
100
AcDbArc
 50
193.9991316872249
 51
284.4582121023216
  0
ARC
  5
167
330
2
100
AcDbEntity
  8
GAIKEI
  6
HIDDEN2
 62
     1
 48
0.7
100
AcDbCircle
 10
-23.55635459258587
 20
18.98626239607591
 30
0.0
 40
4.136878906803874
100
AcDbArc
 50
135.7702994433186
 51
164.2875400223036
  0
ARC
  5
168
330
2
100
AcDbEntity
  8
GAIKEI
  6
HIDDEN2
 62
     1
 48
0.7
100
AcDbCircle
 10
-23.55463701978533
 20
18.9842178524039
 30
0.0
 40
4.258008947906747
100
AcDbArc
 50
135.7640336812699
 51
164.2696961722604
  0
ARC
  5
169
330
2
100
AcDbEntity
  8
GAIKEI
  6
HIDDEN2
 62
     1
 48
0.7
100
AcDbCircle
 10
-26.56295205694346
 20
21.91363111509133
 30
0.0
 40
0.0590306722114208
100
AcDbArc
 50
45.75245274506401
 51
135.957527563851
  0
ARC
  5
16A
330
2
100
AcDbEntity
  8
GAIKEI
  6
HIDDEN2
 62
     1
 48
0.7
100
AcDbCircle
 10
-26.56287671519971
 20
21.91334069500294
 30
0.0
 40
0.0591866952162475
100
AcDbArc
 50
315.541787897679
 51
46.0008683127777
  0
ARC
  5
16B
330
2
100
AcDbEntity
  8
GAIKEI
  6
HIDDEN2
 62
     1
 48
0.7
100
AcDbCircle
 10
-27.59691706869586
 20
20.12275118148762
 30
0.0
 40
0.0590306722114208
100
AcDbArc
 50
164.0424724361504
 51
254.2475472549381
  0
ARC
  5
16C
330
2
100
AcDbEntity
  8
GAIKEI
  6
HIDDEN2
 62
     1
 48
0.7
100
AcDbCircle
 10
-27.59662788664968
 20
20.12283114366778
 30
0.0
 40
0.0591866952162475
100
AcDbArc
 50
253.999131687224
 51
344.4582121023199
  0
ARC
  5
16D
330
2
100
AcDbEntity
  8
GAIKEI
  6
HIDDEN2
 62
     1
 48
0.7
100
AcDbCircle
 10
-23.5545211664122
 20
18.98907922209696
 30
0.0
 40
4.136878906803874
100
AcDbArc
 50
195.770299443322
 51
224.2875400223033
  0
ARC
  5
16E
330
2
100
AcDbEntity
  8
GAIKEI
  6
HIDDEN2
 62
     1
 48
0.7
100
AcDbCircle
 10
-23.55189175325282
 20
18.98954441193911
 30
0.0
 40
4.258008947906747
100
AcDbArc
 50
195.7640336812687
 51
224.2696961722583
  0
ARC
  5
16F
330
2
100
AcDbEntity
  8
GAIKEI
  6
HIDDEN2
 62
     1
 48
0.7
100
AcDbCircle
 10
-27.59299557550227
 20
17.84897379851713
 30
0.0
 40
0.0590306722114208
100
AcDbArc
 50
105.7524527450619
 51
195.9575275638495
  0
ARC
  5
170
330
2
100
AcDbEntity
  8
GAIKEI
  6
HIDDEN2
 62
     1
 48
0.7
100
AcDbCircle
 10
-27.5927063934561
 20
17.84889383633703
 30
0.0
 40
0.0591866952162475
100
AcDbArc
 50
15.54178789767654
 51
106.000868312776
  0
ARC
  5
171
330
2
100
AcDbEntity
  8
GAIKEI
  6
HIDDEN2
 62
     1
 48
0.7
100
AcDbCircle
 10
-26.55903056374987
 20
16.05809386491342
 30
0.0
 40
0.0590306722114208
100
AcDbArc
 50
224.042472436149
 51
314.247547254936
  0
ARC
  5
172
330
2
100
AcDbEntity
  8
GAIKEI
  6
HIDDEN2
 62
     1
 48
0.7
100
AcDbCircle
 10
-26.55895522200612
 20
16.0583842850018
 30
0.0
 40
0.0591866952162475
100
AcDbArc
 50
313.9991316872223
 51
44.45821210232095
  0
ARC
  5
173
330
2
100
AcDbEntity
  8
GAIKEI
  6
HIDDEN2
 62
     1
 48
0.7
100
AcDbCircle
 10
-29.58312098406159
 20
14.91668774378519
 30
0.0
 40
1.0
100
AcDbArc
 50
231.4466073156103
 51
315.0022151857476
  0
ARC
  5
174
330
2
100
AcDbEntity
  8
GAIKEI
  6
HIDDEN2
 62
     1
 48
0.7
100
AcDbCircle
 10
-29.58312098406159
 20
14.91668774378519
 30
0.0
 40
1.6
100
AcDbArc
 50
231.4466073156103
 51
315.0022151857476
  0
LINE
  5
175
330
2
100
AcDbEntity
  8
GAIKEI
  6
HIDDEN2
 62
     1
 48
0.7
100
AcDbLine
 10
-28.45170639362664
 20
13.78536063611432
 30
0.0
 11
-27.76852410771321
 21
14.46859575084653
 31
0.0
  0
TEXT
  5
176
330
2
100
AcDbEntity
  8
TOUROKU
100
AcDbText
 10
49.27645019366071
 20
42.37786095463684
 30
0.0
 40
2.0
  1
ＤＧＮＰ５０２
 72
     2
 11
65.27645019366071
 21
42.37786095463684
 31
0.0
100
AcDbText
  0
TEXT
  5
178
330
2
100
AcDbEntity
  8
MOJI1
100
AcDbText
 10
-17.08730423177624
 20
-59.55901565340332
 30
0.0
 40
3.0
  1
オートバックフォーカス
  7
KANJI
100
AcDbText
  0
TEXT
  5
17A
330
2
100
AcDbEntity
  8
MOJI1
100
AcDbText
 10
-17.08730423177624
 20
-54.55901565340332
 30
0.0
 40
3.0
  1
ＳＤメモリーカードスロット、カラー・白黒自動切換
 41
0.95
  7
KANJI
100
AcDbText
  0
TEXT
  5
17B
330
2
100
AcDbEntity
  8
MOJI1
100
AcDbText
 10
-57.01791860874894
 20
-54.49018260790376
 30
0.0
 40
3.0
  1
機　能
  7
KANJI
100
AcDbText
  0
TEXT
  5
17C
330
2
100
AcDbEntity
  8
MOJI1
100
AcDbText
 10
-17.08730423177624
 20
-44.55901565340354
 30
0.0
 40
3.0
  1
ＴＣＰ／ＩＰ、ＵＤＰ／ＩＰ、ＨＴＴＰ、ＲＴＰ
  7
KANJI
100
AcDbText
  0
TEXT
  5
17D
330
2
100
AcDbEntity
  8
MOJI1
100
AcDbText
 10
-57.01791860874894
 20
-44.49018260790398
 30
0.0
 40
3.0
  1
対応プロトコル
  7
KANJI
100
AcDbText
  0
TEXT
  5
17E
330
2
100
AcDbEntity
  8
MOJI1
100
AcDbText
 10
-17.08730423177624
 20
-29.55901565340355
 30
0.0
 40
3.0
  1
１０ＢＡＳＥ－Ｔ／１００ＢＡＳＥ－ＴＸ　ＲＪ－４５コネクタ
 41
0.7700000000000001
  7
KANJI
100
AcDbText
  0
TEXT
  5
17F
330
2
100
AcDbEntity
  8
MOJI1
100
AcDbText
 10
-57.01791860874894
 20
-29.49018260790399
 30
0.0
 40
3.0
  1
ネットワーク
  7
KANJI
100
AcDbText
  0
TEXT
  5
180
330
2
100
AcDbEntity
  8
MOJI1
100
AcDbText
 10
-57.01791860874894
 20
-24.49018260790399
 30
0.0
 40
3.0
  1
最低照度
  7
KANJI
100
AcDbText
  0
TEXT
  5
181
330
2
100
AcDbEntity
  8
MOJI1
100
AcDbText
 10
-17.22349983926736
 20
-19.62213904536224
 30
0.0
 40
3.0
  1
プログレッシブ
 41
0.9
100
AcDbText
  0
TEXT
  5
182
330
2
100
AcDbEntity
  8
MOJI1
100
AcDbText
 10
-57.22349983926736
 20
-19.62213904536224
 30
0.0
 40
3.0
  1
走査方式
100
AcDbText
  0
TEXT
  5
183
330
2
100
AcDbEntity
  8
MOJI1
100
AcDbText
 10
-57.22349983926736
 20
-14.62213904536224
 30
0.0
 40
3.0
  1
有効画素数
100
AcDbText
  0
TEXT
  5
184
330
2
100
AcDbEntity
  8
MOJI1
100
AcDbText
 10
-17.22349983926736
 20
-14.62213904536224
 30
0.0
 40
3.0
  1
１２９６（Ｈ）×９７６（Ｖ）
 41
0.9
100
AcDbText
  0
LINE
  5
185
330
2
100
AcDbEntity
  8
WAKU
 62
     4
100
AcDbLine
 10
-59.72349983926736
 20
-60.62213904536202
 30
0.0
 11
65.27650016073266
 21
-60.62213904536202
 31
0.0
  0
LINE
  5
187
330
2
100
AcDbEntity
  8
WAKU
 62
     1
100
AcDbLine
 10
-59.72349983926736
 20
-55.62213904536202
 30
0.0
 11
65.27650016073266
 21
-55.62213904536202
 31
0.0
  0
LINE
  5
188
330
2
100
AcDbEntity
  8
WAKU
 62
     1
100
AcDbLine
 10
-59.72349983926736
 20
-50.62213904536202
 30
0.0
 11
65.27650016073266
 21
-50.62213904536202
 31
0.0
  0
LINE
  5
189
330
2
100
AcDbEntity
  8
WAKU
 62
     1
100
AcDbLine
 10
65.27650016073266
 20
-20.62213904536225
 30
0.0
 11
-59.72349983926736
 21
-20.62213904536225
 31
0.0
  0
LINE
  5
18A
330
2
100
AcDbEntity
  8
WAKU
 62
     1
100
AcDbLine
 10
65.27650016073266
 20
-40.62213904536224
 30
0.0
 11
-59.72349983926736
 21
-40.62213904536224
 31
0.0
  0
LINE
  5
18B
330
2
100
AcDbEntity
  8
WAKU
 62
     4
100
AcDbLine
 10
65.27650016073266
 20
-60.62213904536202
 30
0.0
 11
65.27650016073266
 21
-0.6221390453622462
 31
0.0
  0
TEXT
  5
18C
330
2
100
AcDbEntity
  8
MOJI1
100
AcDbText
 10
-17.08730423177624
 20
-4.565853139746195
 30
0.0
 40
3.0
  1
ＤＣ１２Ｖ、ＰｏＥ（ＩＥＥＥ８０２．３ａｆ準拠)
 41
0.95
  7
KANJI
100
AcDbText
  0
TEXT
  5
18D
330
2
100
AcDbEntity
  8
MOJI1
100
AcDbText
 10
-17.01791860874894
 20
-34.46628665047956
 30
0.0
 40
3.0
  1
１２８０×９６０／ＶＧＡ（６４０×４８０）／ＱＶＧＡ（３２０×２４０）
 41
0.65
  7
KANJI
100
AcDbText
  0
LINE
  5
18E
330
2
100
AcDbEntity
  8
WAKU
 62
     4
100
AcDbLine
 10
-19.51791860874894
 20
-60.62213904536202
 30
0.0
 11
-19.51791860874894
 21
-0.6221390453622462
 31
0.0
  0
TEXT
  5
18F
330
2
100
AcDbEntity
  8
MOJI1
100
AcDbText
 10
-17.01791860874894
 20
-9.46628665047956
 30
0.0
 40
3.0
  1
１／３型　インターライン転送方式ＣＣＤ
  7
KANJI
100
AcDbText
  0
TEXT
  5
190
330
2
100
AcDbEntity
  8
MOJI1
100
AcDbText
 10
-57.01791860874894
 20
-4.497020094246636
 30
0.0
 40
3.0
  1
電　源
  7
KANJI
100
AcDbText
  0
TEXT
  5
191
330
2
100
AcDbEntity
  8
MOJI1
100
AcDbText
 10
-57.01791860874894
 20
-9.493601351075312
 30
0.0
 40
3.0
  1
撮像素子
  7
KANJI
100
AcDbText
  0
TEXT
  5
192
330
2
100
AcDbEntity
  8
MOJI1
100
AcDbText
 10
-57.01791860874894
 20
-39.62213904536202
 30
0.0
 40
3.0
  1
画像圧縮方式
100
AcDbText
  0
LINE
  5
193
330
2
100
AcDbEntity
  8
WAKU
 62
     4
100
AcDbLine
 10
-59.72349983926736
 20
-0.6221390453622462
 30
0.0
 11
-59.72349983926736
 21
-60.62213904536202
 31
0.0
  0
LINE
  5
194
330
2
100
AcDbEntity
  8
WAKU
 62
     1
100
AcDbLine
 10
65.27650016073266
 20
-35.62213904536225
 30
0.0
 11
-59.72349983926736
 21
-35.62213904536225
 31
0.0
  0
LINE
  5
195
330
2
100
AcDbEntity
  8
WAKU
 62
     1
100
AcDbLine
 10
65.27650016073266
 20
-30.62213904536225
 30
0.0
 11
-59.72349983926736
 21
-30.62213904536225
 31
0.0
  0
LINE
  5
196
330
2
100
AcDbEntity
  8
WAKU
 62
     1
100
AcDbLine
 10
65.27650016073266
 20
-25.62213904536225
 30
0.0
 11
-59.72349983926736
 21
-25.62213904536225
 31
0.0
  0
LINE
  5
197
330
2
100
AcDbEntity
  8
WAKU
 62
     1
100
AcDbLine
 10
65.27650016073266
 20
-15.62213904536224
 30
0.0
 11
-59.72349983926736
 21
-15.62213904536224
 31
0.0
  0
LINE
  5
198
330
2
100
AcDbEntity
  8
WAKU
 62
     1
100
AcDbLine
 10
65.27650016073266
 20
-10.62213904536224
 30
0.0
 11
-59.72349983926736
 21
-10.62213904536224
 31
0.0
  0
LINE
  5
199
330
2
100
AcDbEntity
  8
WAKU
 62
     1
100
AcDbLine
 10
65.27650016073266
 20
-5.622139045362246
 30
0.0
 11
-59.72349983926736
 21
-5.622139045362246
 31
0.0
  0
LINE
  5
19A
330
2
100
AcDbEntity
  8
WAKU
 62
     4
100
AcDbLine
 10
65.27650016073266
 20
-0.6221390453622462
 30
0.0
 11
-59.72349983926736
 21
-0.6221390453622462
 31
0.0
  0
TEXT
  5
19B
330
2
100
AcDbEntity
  8
MOJI1
100
AcDbText
 10
-57.01791860874894
 20
-34.49360135107531
 30
0.0
 40
3.0
  1
画像解像度
  7
KANJI
100
AcDbText
  0
TEXT
  5
19C
330
2
100
AcDbEntity
  8
MOJI1
100
AcDbText
 10
-17.08730423177624
 20
-39.55901565340355
 30
0.0
 40
3.0
  1
Ｈ．２６４／ＭＰＥＧ－４／ＪＰＥＧ
 41
0.9
  7
KANJI
100
AcDbText
  0
TEXT
  5
19D
330
2
100
AcDbEntity
  8
MOJI1
100
AcDbText
 10
-17.22349983926736
 20
-24.62213904536225
 30
0.0
 40
3.0
  1
カラー：１．０ルクス、簡易白黒：０．０８ルクス（Ｆ１．２)
 41
0.8
100
AcDbText
  0
TEXT
  5
19E
330
2
100
AcDbEntity
  8
MOJI1
100
AcDbText
 10
-17.08730423177624
 20
-49.55901565340354
 30
0.0
 40
3.0
  1
ＦＴＰ、ＮＴＰ、ＳＮＭＰ、ＤＨＣＰ、ＤＮＳ、ＤＤＮＳ
 41
0.85
  7
KANJI
100
AcDbText
  0
LINE
  5
19F
330
2
100
AcDbEntity
  8
WAKU
 62
     1
100
AcDbLine
 10
65.27650016073266
 20
-45.62213904536224
 30
0.0
 11
-59.72349983926736
 21
-45.62213904536224
 31
0.0
  0
ENDSEC
  0
SECTION
  2
OBJECTS
  0
DICTIONARY
  5
7
330
0
100
AcDbDictionary
281
     1
  3
ACAD_COLOR
350
25
  3
ACAD_GROUP
350
21
  3
ACAD_LAYOUT
350
B
  3
ACAD_MATERIAL
350
24
  3
ACAD_MLINESTYLE
350
22
  3
ACAD_PLOTSETTINGS
350
23
  3
ACAD_PLOTSTYLENAME
350
6
  3
ACDBHEADERROUNDTRIPXREC
350
1DC
  3
AcDbVariableDictionary
350
1D7
  0
DICTIONARY
  5
11
330
10
100
AcDbDictionary
280
     1
281
     1
  3
ACAD_LAYERSTATES
360
12
  0
DICTIONARY
  5
25
102
{ACAD_REACTORS
330
7
102
}
330
7
100
AcDbDictionary
281
     1
  0
DICTIONARY
  5
21
102
{ACAD_REACTORS
330
7
102
}
330
7
100
AcDbDictionary
281
     1
  0
DICTIONARY
  5
B
102
{ACAD_REACTORS
330
7
102
}
330
7
100
AcDbDictionary
281
     1
  3
Model
350
A
  3
レイアウト1
350
F
  0
DICTIONARY
  5
24
102
{ACAD_REACTORS
330
7
102
}
330
7
100
AcDbDictionary
281
     1
  0
DICTIONARY
  5
22
102
{ACAD_REACTORS
330
7
102
}
330
7
100
AcDbDictionary
281
     1
  3
Standard
350
27
  0
DICTIONARY
  5
23
102
{ACAD_REACTORS
330
7
102
}
330
7
100
AcDbDictionary
281
     1
  0
ACDBDICTIONARYWDFLT
  5
6
102
{ACAD_REACTORS
330
7
102
}
330
7
100
AcDbDictionary
281
     1
  3
Normal
350
5
100
AcDbDictionaryWithDefault
340
5
  0
DICTIONARY
  5
1DC
102
{ACAD_REACTORS
330
7
102
}
330
7
100
AcDbDictionary
281
     1
  3
COLORDICT
350
1DE
  3
MATERIALDICT
350
1DD
  0
DICTIONARY
  5
1D7
102
{ACAD_REACTORS
330
7
102
}
330
7
100
AcDbDictionary
281
     1
  3
DIMASSOC
350
1D9
  3
HIDETEXT
350
1D8
  3
PROJECTNAME
350
1DA
  0
DICTIONARY
  5
12
102
{ACAD_REACTORS
330
11
102
}
330
11
100
AcDbDictionary
281
     1
  0
LAYOUT
  5
A
102
{ACAD_XDICTIONARY
360
1DF
102
}
102
{ACAD_REACTORS
330
B
102
}
330
B
100
AcDbPlotSettings
  1

  2
10F06M_RICOH_SP-8100
  4
A4
  6

 40
5.873749732971191
 41
5.873747825622558
 42
5.873748779296875
 43
5.873748779296875
 44
209.9733276367187
 45
296.9259948730469
 46
5.429999999999999
 47
0.0
 48
0.0
 49
0.0
140
0.0
141
0.0
142
1.0
143
1.382515366965649
 70
 11956
 72
     1
 73
     0
 74
     1
  7
tmsacad.ctb
 75
     0
147
0.7233192656619828
148
0.0256332569354072
149
0.0240599051811614
100
AcDbLayout
  1
Model
 70
     1
 71
     0
 10
0.0
 20
0.0
 11
12.0
 21
9.0
 12
0.0
 22
0.0
 32
0.0
 14
0.0
 24
0.0
 34
0.0
 15
0.0
 25
0.0
 35
0.0
146
0.0
 13
0.0
 23
0.0
 33
0.0
 16
1.0
 26
0.0
 36
0.0
 17
0.0
 27
1.0
 37
0.0
 76
     0
330
2
  0
LAYOUT
  5
F
102
{ACAD_XDICTIONARY
360
1E1
102
}
102
{ACAD_REACTORS
330
B
102
}
330
B
100
AcDbPlotSettings
  1

  2
None
  4

  6

 40
0.0
 41
0.0
 42
0.0
 43
0.0
 44
0.0
 45
0.0
 46
0.0
 47
0.0
 48
0.0
 49
0.0
140
0.0
141
0.0
142
1.0
143
1.0
 70
   688
 72
     0
 73
     0
 74
     5
  7
tmsacad.ctb
 75
    16
147
1.0
148
0.0
149
0.0
100
AcDbLayout
  1
レイアウト1
 70
     1
 71
     1
 10
0.0
 20
0.0
 11
12.0
 21
9.0
 12
0.0
 22
0.0
 32
0.0
 14
0.0
 24
0.0
 34
0.0
 15
0.0
 25
0.0
 35
0.0
146
0.0
 13
0.0
 23
0.0
 33
0.0
 16
1.0
 26
0.0
 36
0.0
 17
0.0
 27
1.0
 37
0.0
 76
     0
330
C
  0
MLINESTYLE
  5
27
102
{ACAD_REACTORS
330
22
102
}
330
22
100
AcDbMlineStyle
  2
STANDARD
 70
     0
  3

 62
   256
 51
90.0
 52
90.0
 71
     2
 49
0.5
 62
   256
  6
BYLAYER
 49
-0.5
 62
   256
  6
BYLAYER
  0
ACDBPLACEHOLDER
  5
5
102
{ACAD_REACTORS
330
6
102
}
330
6
  0
XRECORD
  5
1DE
102
{ACAD_REACTORS
330
1DC
102
}
330
1DC
100
AcDbXrecord
280
     1
340
25
  0
XRECORD
  5
1DD
102
{ACAD_REACTORS
330
1DC
102
}
330
1DC
100
AcDbXrecord
280
     1
340
24
  0
DICTIONARYVAR
  5
1D9
102
{ACAD_REACTORS
330
1D7
102
}
330
1D7
100
DictionaryVariables
280
     0
  1
2
  0
DICTIONARYVAR
  5
1D8
102
{ACAD_REACTORS
330
1D7
102
}
330
1D7
100
DictionaryVariables
280
     0
  1
1
  0
DICTIONARYVAR
  5
1DA
102
{ACAD_REACTORS
330
1D7
102
}
330
1D7
100
DictionaryVariables
280
     0
  1

  0
DICTIONARY
  5
1DF
330
A
100
AcDbDictionary
280
     1
281
     1
  3
ACAD_XREC_ROUNDTRIP
360
1E0
  0
DICTIONARY
  5
1E1
330
F
100
AcDbDictionary
280
     1
281
     1
  3
ACAD_XREC_ROUNDTRIP
360
1E2
  0
XRECORD
  5
1E0
102
{ACAD_REACTORS
330
1DF
102
}
330
1DF
100
AcDbXrecord
280
     1
102
SHADEPLOT
 70
     0
102
SHADEPLOTRESLEVEL
 70
     2
102
SHADEPLOTCUSTOMDPI
 70
   300
  0
XRECORD
  5
1E2
102
{ACAD_REACTORS
330
1E1
102
}
330
1E1
100
AcDbXrecord
280
     1
102
SHADEPLOT
 70
     0
102
SHADEPLOTRESLEVEL
 70
     2
102
SHADEPLOTCUSTOMDPI
 70
   300
  0
ENDSEC
  0
EOF
