  0
SECTION
  2
HEADER
  9
$ACADVER
  1
AC1015
  9
$ACADMAINTVER
 70
    20
  9
$DWGCODEPAGE
  3
ANSI_932
  9
$INSBASE
 10
129.499999944041
 20
372.5008351249344
 30
0.0
  9
$EXTMIN
 10
-57.27447418644374
 20
-47.84284909563473
 30
-0.0015258207003583
  9
$EXTMAX
 10
68.14361629093025
 20
65.63493389384234
 30
0.0000000349246037
  9
$LIMMIN
 10
0.0
 20
0.0
  9
$LIMMAX
 10
420.0
 20
297.0
  9
$ORTHOMODE
 70
     1
  9
$REGENMODE
 70
     0
  9
$FILLMODE
 70
     1
  9
$QTEXTMODE
 70
     0
  9
$MIRRTEXT
 70
     0
  9
$LTSCALE
 40
1.0
  9
$ATTMODE
 70
     1
  9
$TEXTSIZE
 40
2.5
  9
$TRACEWID
 40
1.0
  9
$TEXTSTYLE
  7
Standard
  9
$CLAYER
  8
GAIKEI
  9
$CELTYPE
  6
ByLayer
  9
$CECOLOR
 62
   256
  9
$CELTSCALE
 40
1.0
  9
$DISPSILH
 70
     0
  9
$DIMSCALE
 40
1.0
  9
$DIMASZ
 40
2.5
  9
$DIMEXO
 40
0.625
  9
$DIMDLI
 40
3.75
  9
$DIMRND
 40
0.0
  9
$DIMDLE
 40
0.0
  9
$DIMEXE
 40
1.25
  9
$DIMTP
 40
0.0
  9
$DIMTM
 40
0.0
  9
$DIMTXT
 40
2.5
  9
$DIMCEN
 40
2.5
  9
$DIMTSZ
 40
0.0
  9
$DIMTOL
 70
     0
  9
$DIMLIM
 70
     0
  9
$DIMTIH
 70
     0
  9
$DIMTOH
 70
     0
  9
$DIMSE1
 70
     0
  9
$DIMSE2
 70
     0
  9
$DIMTAD
 70
     1
  9
$DIMZIN
 70
     8
  9
$DIMBLK
  1

  9
$DIMASO
 70
     1
  9
$DIMSHO
 70
     1
  9
$DIMPOST
  1

  9
$DIMAPOST
  1

  9
$DIMALT
 70
     0
  9
$DIMALTD
 70
     3
  9
$DIMALTF
 40
0.03937007874016
  9
$DIMLFAC
 40
1.0
  9
$DIMTOFL
 70
     1
  9
$DIMTVP
 40
0.0
  9
$DIMTIX
 70
     0
  9
$DIMSOXD
 70
     0
  9
$DIMSAH
 70
     0
  9
$DIMBLK1
  1

  9
$DIMBLK2
  1

  9
$DIMSTYLE
  2
ISO-25
  9
$DIMCLRD
 70
     0
  9
$DIMCLRE
 70
     0
  9
$DIMCLRT
 70
     0
  9
$DIMTFAC
 40
1.0
  9
$DIMGAP
 40
0.625
  9
$DIMJUST
 70
     0
  9
$DIMSD1
 70
     0
  9
$DIMSD2
 70
     0
  9
$DIMTOLJ
 70
     0
  9
$DIMTZIN
 70
     8
  9
$DIMALTZ
 70
     0
  9
$DIMALTTZ
 70
     0
  9
$DIMUPT
 70
     0
  9
$DIMDEC
 70
     2
  9
$DIMTDEC
 70
     2
  9
$DIMALTU
 70
     2
  9
$DIMALTTD
 70
     3
  9
$DIMTXSTY
  7
Standard
  9
$DIMAUNIT
 70
     0
  9
$DIMADEC
 70
     0
  9
$DIMALTRND
 40
0.0
  9
$DIMAZIN
 70
     0
  9
$DIMDSEP
 70
    44
  9
$DIMATFIT
 70
     3
  9
$DIMFRAC
 70
     0
  9
$DIMLDRBLK
  1

  9
$DIMLUNIT
 70
     2
  9
$DIMLWD
 70
    -2
  9
$DIMLWE
 70
    -2
  9
$DIMTMOVE
 70
     0
  9
$LUNITS
 70
     2
  9
$LUPREC
 70
     4
  9
$SKETCHINC
 40
1.0
  9
$FILLETRAD
 40
0.0
  9
$AUNITS
 70
     0
  9
$AUPREC
 70
     0
  9
$MENU
  1
.
  9
$ELEVATION
 40
0.0
  9
$PELEVATION
 40
0.0
  9
$THICKNESS
 40
0.0
  9
$LIMCHECK
 70
     0
  9
$CHAMFERA
 40
0.0
  9
$CHAMFERB
 40
0.0
  9
$CHAMFERC
 40
0.0
  9
$CHAMFERD
 40
0.0
  9
$SKPOLY
 70
     0
  9
$TDCREATE
 40
2454349.434269746
  9
$TDUCREATE
 40
2454349.059269746
  9
$TDUPDATE
 40
2454714.626470058
  9
$TDUUPDATE
 40
2454714.251470058
  9
$TDINDWG
 40
0.1709612847
  9
$TDUSRTIMER
 40
0.1709612847
  9
$USRTIMER
 70
     1
  9
$ANGBASE
 50
0.0
  9
$ANGDIR
 70
     0
  9
$PDMODE
 70
     0
  9
$PDSIZE
 40
0.0
  9
$PLINEWID
 40
0.0
  9
$SPLFRAME
 70
     0
  9
$SPLINETYPE
 70
     6
  9
$SPLINESEGS
 70
     8
  9
$HANDSEED
  5
1C5
  9
$SURFTAB1
 70
     6
  9
$SURFTAB2
 70
     6
  9
$SURFTYPE
 70
     6
  9
$SURFU
 70
     6
  9
$SURFV
 70
     6
  9
$UCSBASE
  2

  9
$UCSNAME
  2

  9
$UCSORG
 10
0.0
 20
0.0
 30
0.0
  9
$UCSXDIR
 10
1.0
 20
0.0
 30
0.0
  9
$UCSYDIR
 10
0.0
 20
1.0
 30
0.0
  9
$UCSORTHOREF
  2

  9
$UCSORTHOVIEW
 70
     0
  9
$UCSORGTOP
 10
0.0
 20
0.0
 30
0.0
  9
$UCSORGBOTTOM
 10
0.0
 20
0.0
 30
0.0
  9
$UCSORGLEFT
 10
0.0
 20
0.0
 30
0.0
  9
$UCSORGRIGHT
 10
0.0
 20
0.0
 30
0.0
  9
$UCSORGFRONT
 10
0.0
 20
0.0
 30
0.0
  9
$UCSORGBACK
 10
0.0
 20
0.0
 30
0.0
  9
$PUCSBASE
  2

  9
$PUCSNAME
  2

  9
$PUCSORG
 10
0.0
 20
0.0
 30
0.0
  9
$PUCSXDIR
 10
1.0
 20
0.0
 30
0.0
  9
$PUCSYDIR
 10
0.0
 20
1.0
 30
0.0
  9
$PUCSORTHOREF
  2

  9
$PUCSORTHOVIEW
 70
     0
  9
$PUCSORGTOP
 10
0.0
 20
0.0
 30
0.0
  9
$PUCSORGBOTTOM
 10
0.0
 20
0.0
 30
0.0
  9
$PUCSORGLEFT
 10
0.0
 20
0.0
 30
0.0
  9
$PUCSORGRIGHT
 10
0.0
 20
0.0
 30
0.0
  9
$PUCSORGFRONT
 10
0.0
 20
0.0
 30
0.0
  9
$PUCSORGBACK
 10
0.0
 20
0.0
 30
0.0
  9
$USERI1
 70
     0
  9
$USERI2
 70
     0
  9
$USERI3
 70
     0
  9
$USERI4
 70
     0
  9
$USERI5
 70
     0
  9
$USERR1
 40
0.0
  9
$USERR2
 40
0.0
  9
$USERR3
 40
0.0
  9
$USERR4
 40
0.0
  9
$USERR5
 40
0.0
  9
$WORLDVIEW
 70
     1
  9
$SHADEDGE
 70
     3
  9
$SHADEDIF
 70
    70
  9
$TILEMODE
 70
     1
  9
$MAXACTVP
 70
    64
  9
$PINSBASE
 10
0.0
 20
0.0
 30
0.0
  9
$PLIMCHECK
 70
     0
  9
$PEXTMIN
 10
0.0
 20
0.0
 30
0.0
  9
$PEXTMAX
 10
0.0
 20
0.0
 30
0.0
  9
$PLIMMIN
 10
0.0
 20
0.0
  9
$PLIMMAX
 10
12.0
 20
9.0
  9
$UNITMODE
 70
     0
  9
$VISRETAIN
 70
     1
  9
$PLINEGEN
 70
     0
  9
$PSLTSCALE
 70
     1
  9
$TREEDEPTH
 70
  3020
  9
$CMLSTYLE
  2
Standard
  9
$CMLJUST
 70
     0
  9
$CMLSCALE
 40
20.0
  9
$PROXYGRAPHICS
 70
     1
  9
$MEASUREMENT
 70
     1
  9
$CELWEIGHT
370
    -1
  9
$ENDCAPS
280
     0
  9
$JOINSTYLE
280
     0
  9
$LWDISPLAY
290
     0
  9
$INSUNITS
 70
     4
  9
$HYPERLINKBASE
  1

  9
$STYLESHEET
  1

  9
$XEDIT
290
     1
  9
$CEPSNTYPE
380
     0
  9
$PSTYLEMODE
290
     1
  9
$FINGERPRINTGUID
  2
{FDEAD578-A652-11D2-9A35-0060089B3A3F}
  9
$VERSIONGUID
  2
{61661744-C2BF-43E0-8135-66614E9F2397}
  9
$EXTNAMES
290
     1
  9
$PSVPSCALE
 40
0.0
  9
$OLESTARTUP
290
     0
  0
ENDSEC
  0
SECTION
  2
CLASSES
  0
CLASS
  1
ACDBDICTIONARYWDFLT
  2
AcDbDictionaryWithDefault
  3
ObjectDBX Classes
 90
        0
280
     0
281
     0
  0
CLASS
  1
ACDBPLACEHOLDER
  2
AcDbPlaceHolder
  3
ObjectDBX Classes
 90
        0
280
     0
281
     0
  0
CLASS
  1
LAYOUT
  2
AcDbLayout
  3
ObjectDBX Classes
 90
        0
280
     0
281
     0
  0
CLASS
  1
DICTIONARYVAR
  2
AcDbDictionaryVar
  3
ObjectDBX Classes
 90
        0
280
     0
281
     0
  0
CLASS
  1
DIMASSOC
  2
AcDbDimAssoc
  3
"AcDbDimAssoc|Product Desc:     AcDim ARX App For Dimension|Company:          Autodesk, Inc.|WEB Address:      www.autodesk.com"
 90
    32768
280
     0
281
     0
  0
CLASS
  1
SORTENTSTABLE
  2
AcDbSortentsTable
  3
ObjectDBX Classes
 90
    32768
280
     0
281
     0
  0
ENDSEC
  0
SECTION
  2
TABLES
  0
TABLE
  2
VPORT
  5
1B
330
0
100
AcDbSymbolTable
 70
     3
  0
VPORT
  5
1BD
330
1B
100
AcDbSymbolTableRecord
100
AcDbViewportTableRecord
  2
*Active
 70
     0
 10
0.0
 20
0.0
 11
1.0
 21
1.0
 12
5.43457105224326
 22
8.896042399103805
 13
0.0
 23
0.0
 14
10.0
 24
10.0
 15
10.0
 25
10.0
 16
0.0
 26
0.0
 36
1.0
 17
0.0
 27
0.0
 37
0.0
 40
114.3748405625164
 41
1.481530343007915
 42
50.0
 43
0.0
 44
0.0
 50
0.0
 51
0.0
 71
     0
 72
  1000
 73
     1
 74
     2
 75
     0
 76
     0
 77
     0
 78
     0
281
     0
 65
     1
110
0.0
120
0.0
130
0.0
111
1.0
121
0.0
131
0.0
112
0.0
122
1.0
132
0.0
 79
     0
146
0.0
  0
ENDTAB
  0
TABLE
  2
LTYPE
  5
16
330
0
100
AcDbSymbolTable
 70
     1
  0
LTYPE
  5
17
330
16
100
AcDbSymbolTableRecord
100
AcDbLinetypeTableRecord
  2
ByBlock
 70
     0
  3

 72
    65
 73
     0
 40
0.0
  0
LTYPE
  5
18
330
16
100
AcDbSymbolTableRecord
100
AcDbLinetypeTableRecord
  2
ByLayer
 70
     0
  3

 72
    65
 73
     0
 40
0.0
  0
LTYPE
  5
8
330
16
100
AcDbSymbolTableRecord
100
AcDbLinetypeTableRecord
  2
Continuous
 70
     0
  3
Solid line
 72
    65
 73
     0
 40
0.0
  0
ENDTAB
  0
TABLE
  2
LAYER
  5
10
102
{ACAD_XDICTIONARY
360
11
102
}
330
0
100
AcDbSymbolTable
 70
     7
  0
LAYER
  5
4
330
10
100
AcDbSymbolTableRecord
100
AcDbLayerTableRecord
  2
0
 70
     0
 62
     7
  6
Continuous
370
    -3
390
5
  0
LAYER
  5
15B
330
10
100
AcDbSymbolTableRecord
100
AcDbLayerTableRecord
  2
WAKU
 70
     0
 62
     4
  6
Continuous
370
    -3
390
5
  0
LAYER
  5
2A
330
10
100
AcDbSymbolTableRecord
100
AcDbLayerTableRecord
  2
MOJI1
 70
     0
 62
     2
  6
Continuous
370
    -3
390
5
  0
LAYER
  5
153
330
10
100
AcDbSymbolTableRecord
100
AcDbLayerTableRecord
  2
TOUROKU
 70
     0
 62
     1
  6
Continuous
370
    -3
390
5
  0
LAYER
  5
27
330
10
100
AcDbSymbolTableRecord
100
AcDbLayerTableRecord
  2
GAIKEI
 70
     0
 62
     7
  6
Continuous
370
    -3
390
5
  0
LAYER
  5
2C
330
10
100
AcDbSymbolTableRecord
100
AcDbLayerTableRecord
  2
SUNPO
 70
     0
 62
     3
  6
Continuous
370
    -3
390
5
  0
LAYER
  5
3D
330
10
100
AcDbSymbolTableRecord
100
AcDbLayerTableRecord
  2
Defpoints
 70
     0
 62
     7
  6
Continuous
290
     0
370
    -3
390
5
  0
ENDTAB
  0
TABLE
  2
STYLE
  5
13
330
0
100
AcDbSymbolTable
 70
     1
  0
STYLE
  5
14
330
13
100
AcDbSymbolTableRecord
100
AcDbTextStyleTableRecord
  2
Standard
 70
     0
 40
0.0
 41
1.0
 50
0.0
 71
     0
 42
2.5
  3
MONOTXT.shx
  4
BIGFONT.shx
  0
ENDTAB
  0
TABLE
  2
VIEW
  5
19
330
0
100
AcDbSymbolTable
 70
     0
  0
ENDTAB
  0
TABLE
  2
UCS
  5
1A
330
0
100
AcDbSymbolTable
 70
     0
  0
ENDTAB
  0
TABLE
  2
APPID
  5
1D
330
0
100
AcDbSymbolTable
 70
     2
  0
APPID
  5
1E
330
1D
100
AcDbSymbolTableRecord
100
AcDbRegAppTableRecord
  2
ACAD
 70
     0
  0
APPID
  5
187
330
1D
100
AcDbSymbolTableRecord
100
AcDbRegAppTableRecord
  2
DCO15
 70
     0
  0
ENDTAB
  0
TABLE
  2
DIMSTYLE
  5
1F
330
0
100
AcDbSymbolTable
 70
     2
100
AcDbDimStyleTable
 71
     1
340
20
  0
DIMSTYLE
105
20
330
1F
100
AcDbSymbolTableRecord
100
AcDbDimStyleTableRecord
  2
ISO-25
 70
     0
 41
2.5
 42
0.625
 43
3.75
 44
1.25
 73
     0
 74
     0
 77
     1
 78
     8
140
2.5
141
2.5
143
0.03937007874016
147
0.625
171
     3
172
     1
271
     2
272
     2
274
     3
278
    44
283
     0
284
     8
340
14
  0
DIMSTYLE
105
33
102
{ACAD_REACTORS
330
4E
330
41
330
2B
102
}
330
1F
100
AcDbSymbolTableRecord
100
AcDbDimStyleTableRecord
  2
STANDARD
 70
     0
 40
0.0
 41
2.0
 42
2.0
 43
8.0
 44
2.0
 73
     0
 74
     0
 77
     3
140
3.0
141
0.0
173
     1
279
     2
288
     1
340
14
341
2D
343
2D
344
2D
  0
ENDTAB
  0
TABLE
  2
BLOCK_RECORD
  5
1
330
0
100
AcDbSymbolTable
 70
     7
  0
BLOCK_RECORD
  5
2
330
1
100
AcDbSymbolTableRecord
100
AcDbBlockTableRecord
  2
*Model_Space
340
A
  0
BLOCK_RECORD
  5
C
330
1
100
AcDbSymbolTableRecord
100
AcDbBlockTableRecord
  2
*Paper_Space
340
F
  0
BLOCK_RECORD
  5
2D
330
1
100
AcDbSymbolTableRecord
100
AcDbBlockTableRecord
  2
_OPEN30
340
0
102
{BLKREFS
331
39
331
3A
331
47
331
48
331
54
331
55
331
199
331
19A
331
1A5
331
1A6
331
1B1
331
1B2
102
}
  0
BLOCK_RECORD
  5
4F
330
1
100
AcDbSymbolTableRecord
100
AcDbBlockTableRecord
  2
*D1
340
0
  0
BLOCK_RECORD
  5
42
330
1
100
AcDbSymbolTableRecord
100
AcDbBlockTableRecord
  2
*D2
340
0
  0
BLOCK_RECORD
  5
34
330
1
100
AcDbSymbolTableRecord
100
AcDbBlockTableRecord
  2
*D3
340
0
  0
BLOCK_RECORD
  5
195
330
1
100
AcDbSymbolTableRecord
100
AcDbBlockTableRecord
  2
*D4
340
0
  0
BLOCK_RECORD
  5
1A1
330
1
100
AcDbSymbolTableRecord
100
AcDbBlockTableRecord
  2
*D5
340
0
  0
BLOCK_RECORD
  5
1AD
330
1
100
AcDbSymbolTableRecord
100
AcDbBlockTableRecord
  2
*D6
340
0
  0
ENDTAB
  0
ENDSEC
  0
SECTION
  2
BLOCKS
  0
BLOCK
  5
3
330
2
100
AcDbEntity
  8
0
100
AcDbBlockBegin
  2
*Model_Space
 70
     0
 10
0.0
 20
0.0
 30
0.0
  3
*Model_Space
  1

  0
ENDBLK
  5
9
330
2
100
AcDbEntity
  8
0
100
AcDbBlockEnd
  0
BLOCK
  5
D
330
C
100
AcDbEntity
 67
     1
  8
0
100
AcDbBlockBegin
  2
*Paper_Space
 70
     0
 10
0.0
 20
0.0
 30
0.0
  3
*Paper_Space
  1

  0
ENDBLK
  5
E
330
C
100
AcDbEntity
 67
     1
  8
0
100
AcDbBlockEnd
  0
BLOCK
  5
2E
330
2D
100
AcDbEntity
  8
0
100
AcDbBlockBegin
  2
_OPEN30
 70
     0
 10
0.0
 20
0.0
 30
0.0
  3
_OPEN30
  1

  0
LINE
  5
2F
330
2D
100
AcDbEntity
  8
0
  6
ByBlock
 62
     0
100
AcDbLine
 10
-1.0
 20
0.26794919
 30
0.0
 11
0.0
 21
0.0
 31
0.0
  0
LINE
  5
30
330
2D
100
AcDbEntity
  8
0
  6
ByBlock
 62
     0
100
AcDbLine
 10
0.0
 20
0.0
 30
0.0
 11
-1.0
 21
-0.26794919
 31
0.0
  0
LINE
  5
31
330
2D
100
AcDbEntity
  8
0
  6
ByBlock
 62
     0
100
AcDbLine
 10
0.0
 20
0.0
 30
0.0
 11
-1.0
 21
0.0
 31
0.0
  0
ENDBLK
  5
32
330
2D
100
AcDbEntity
  8
0
100
AcDbBlockEnd
  0
BLOCK
  5
50
330
4F
100
AcDbEntity
  8
0
100
AcDbBlockBegin
  2
*D1
 70
     1
 10
0.0
 20
0.0
 30
0.0
  3
*D1
  1

  0
LINE
  5
51
330
4F
100
AcDbEntity
  8
SUNPO
 62
     0
370
    -2
100
AcDbLine
 10
179.6132271670949
 20
333.210460782222
 30
0.0
 11
187.6132271670949
 21
333.210460782222
 31
0.0
  0
LINE
  5
52
330
4F
100
AcDbEntity
  8
SUNPO
 62
     0
370
    -2
100
AcDbLine
 10
179.6132271670949
 20
342.0104595628427
 30
0.0
 11
187.6132271670949
 21
342.0104595628427
 31
0.0
  0
LINE
  5
53
330
4F
100
AcDbEntity
  8
SUNPO
 62
     0
370
    -2
100
AcDbLine
 10
185.6132271670949
 20
335.210460782222
 30
0.0
 11
185.6132271670949
 21
340.0104595628427
 31
0.0
  0
INSERT
  5
54
330
4F
100
AcDbEntity
  8
SUNPO
 62
     0
370
    -2
100
AcDbBlockReference
  2
_OPEN30
 10
185.6132271670949
 20
333.210460782222
 30
0.0
 41
2.0
 42
2.0
 43
2.0
 50
270.0
  0
INSERT
  5
55
330
4F
100
AcDbEntity
  8
SUNPO
 62
     0
370
    -2
100
AcDbBlockReference
  2
_OPEN30
 10
185.6132271670949
 20
342.0104595628427
 30
0.0
 41
2.0
 42
2.0
 43
2.0
 50
90.0
  0
MTEXT
  5
56
330
4F
100
AcDbEntity
  8
SUNPO
 62
     0
100
AcDbMText
 10
183.8632271670948
 20
337.6104601725324
 30
0.0
 40
2.5
 41
0.0
 71
     5
 72
     1
  1
\A1;44
 11
0.0000000000000001
 21
1.0
 31
0.0
 73
     1
 44
1.0
1001
ACAD
1000
MTEXTBEGIN
1070
    73
1070
     1
1070
    44
1040
1.0
1070
    74
1070
     0
1000
MTEXTEND
  0
POINT
  5
57
330
4F
100
AcDbEntity
  8
Defpoints
 62
     0
100
AcDbPoint
 10
177.6132271670949
 20
333.210460782222
 30
0.0
  0
POINT
  5
58
330
4F
100
AcDbEntity
  8
Defpoints
 62
     0
100
AcDbPoint
 10
177.6132271670949
 20
342.0104595628427
 30
0.0
  0
POINT
  5
59
330
4F
100
AcDbEntity
  8
Defpoints
 62
     0
100
AcDbPoint
 10
185.6132271670949
 20
342.0104595628427
 30
0.0
  0
ENDBLK
  5
5A
330
4F
100
AcDbEntity
  8
0
100
AcDbBlockEnd
  0
BLOCK
  5
43
330
42
100
AcDbEntity
  8
0
100
AcDbBlockBegin
  2
*D2
 70
     1
 10
0.0
 20
0.0
 30
0.0
  3
*D2
  1

  0
LINE
  5
44
330
42
100
AcDbEntity
  8
SUNPO
 62
     0
370
    -2
100
AcDbLine
 10
135.6132339282717
 20
344.0104595628427
 30
0.0
 11
135.6132339282717
 21
352.0104595628427
 31
0.0
  0
LINE
  5
45
330
42
100
AcDbEntity
  8
SUNPO
 62
     0
370
    -2
100
AcDbLine
 10
177.6132271670949
 20
344.0104595628427
 30
0.0
 11
177.6132271670949
 21
352.0104595628427
 31
0.0
  0
LINE
  5
46
330
42
100
AcDbEntity
  8
SUNPO
 62
     0
370
    -2
100
AcDbLine
 10
137.6132339282717
 20
350.0104595628427
 30
0.0
 11
175.6132271670949
 21
350.0104595628427
 31
0.0
  0
INSERT
  5
47
330
42
100
AcDbEntity
  8
SUNPO
 62
     0
370
    -2
100
AcDbBlockReference
  2
_OPEN30
 10
135.6132339282717
 20
350.0104595628427
 30
0.0
 41
2.0
 42
2.0
 43
2.0
 50
180.0
  0
INSERT
  5
48
330
42
100
AcDbEntity
  8
SUNPO
 62
     0
370
    -2
100
AcDbBlockReference
  2
_OPEN30
 10
177.6132271670949
 20
350.0104595628427
 30
0.0
 41
2.0
 42
2.0
 43
2.0
  0
MTEXT
  5
49
330
42
100
AcDbEntity
  8
SUNPO
 62
     0
100
AcDbMText
 10
156.6132305476833
 20
351.7604595628427
 30
0.0
 40
2.5
 41
0.0
 71
     5
 72
     1
  1
\A1;210
 73
     1
 44
1.0
1001
ACAD
1000
MTEXTBEGIN
1070
    73
1070
     1
1070
    44
1040
1.0
1070
    74
1070
     0
1000
MTEXTEND
  0
POINT
  5
4A
330
42
100
AcDbEntity
  8
Defpoints
 62
     0
100
AcDbPoint
 10
135.6132339282717
 20
342.0104595628427
 30
0.0
  0
POINT
  5
4B
330
42
100
AcDbEntity
  8
Defpoints
 62
     0
100
AcDbPoint
 10
177.6132271670949
 20
342.0104595628427
 30
0.0
  0
POINT
  5
4C
330
42
100
AcDbEntity
  8
Defpoints
 62
     0
100
AcDbPoint
 10
177.6132271670949
 20
350.0104595628427
 30
0.0
  0
ENDBLK
  5
4D
330
42
100
AcDbEntity
  8
0
100
AcDbBlockEnd
  0
BLOCK
  5
35
330
34
100
AcDbEntity
  8
0
100
AcDbBlockBegin
  2
*D3
 70
     1
 10
0.0
 20
0.0
 30
0.0
  3
*D3
  1

  0
LINE
  5
36
330
34
100
AcDbEntity
  8
SUNPO
 62
     0
370
    -2
100
AcDbLine
 10
192.6590075468705
 20
344.0104595628427
 30
0.0
 11
192.6590075468705
 21
352.0104595628427
 31
0.0
  0
LINE
  5
37
330
34
100
AcDbEntity
  8
SUNPO
 62
     0
370
    -2
100
AcDbLine
 10
254.0590030693927
 20
344.0104595628427
 30
0.0
 11
254.0590030693927
 21
352.0104595628427
 31
0.0
  0
LINE
  5
38
330
34
100
AcDbEntity
  8
SUNPO
 62
     0
370
    -2
100
AcDbLine
 10
194.6590075468705
 20
350.0104595628427
 30
0.0
 11
252.0590030693927
 21
350.0104595628427
 31
0.0
  0
INSERT
  5
39
330
34
100
AcDbEntity
  8
SUNPO
 62
     0
370
    -2
100
AcDbBlockReference
  2
_OPEN30
 10
192.6590075468705
 20
350.0104595628427
 30
0.0
 41
2.0
 42
2.0
 43
2.0
 50
180.0
  0
INSERT
  5
3A
330
34
100
AcDbEntity
  8
SUNPO
 62
     0
370
    -2
100
AcDbBlockReference
  2
_OPEN30
 10
254.0590030693927
 20
350.0104595628427
 30
0.0
 41
2.0
 42
2.0
 43
2.0
  0
MTEXT
  5
3B
330
34
100
AcDbEntity
  8
SUNPO
 62
     0
100
AcDbMText
 10
223.3590053081316
 20
351.7604595628427
 30
0.0
 40
2.5
 41
0.0
 71
     5
 72
     1
  1
\A1;307
 73
     1
 44
1.0
1001
ACAD
1000
MTEXTBEGIN
1070
    73
1070
     1
1070
    44
1040
1.0
1070
    74
1070
     0
1000
MTEXTEND
  0
POINT
  5
3C
330
34
100
AcDbEntity
  8
Defpoints
 62
     0
100
AcDbPoint
 10
192.6590075468705
 20
342.0104595628427
 30
0.0
  0
POINT
  5
3E
330
34
100
AcDbEntity
  8
Defpoints
 62
     0
100
AcDbPoint
 10
254.0590030693927
 20
342.0104595628427
 30
0.0
  0
POINT
  5
3F
330
34
100
AcDbEntity
  8
Defpoints
 62
     0
100
AcDbPoint
 10
254.0590030693927
 20
350.0104595628427
 30
0.0
  0
ENDBLK
  5
40
330
34
100
AcDbEntity
  8
0
100
AcDbBlockEnd
  0
BLOCK
  5
19F
330
195
100
AcDbEntity
  8
0
100
AcDbBlockBegin
  2
*D4
 70
     1
 10
0.0
 20
0.0
 30
0.0
  3
*D4
  1

  0
LINE
  5
196
330
195
100
AcDbEntity
  8
SUNPO
 62
     0
370
    -2
100
AcDbLine
 10
-9.152101805129404
 20
28.59738574980702
 30
0.0
 11
-1.152101805129407
 21
28.59738574980701
 31
0.0
  0
LINE
  5
197
330
195
100
AcDbEntity
  8
SUNPO
 62
     0
370
    -2
100
AcDbLine
 10
-9.152101805129404
 20
37.39738453042776
 30
0.0
 11
-1.152101805129405
 21
37.39738453042776
 31
0.0
  0
LINE
  5
198
330
195
100
AcDbEntity
  8
SUNPO
 62
     0
370
    -2
100
AcDbLine
 10
-3.152101805129406
 20
30.59738574980702
 30
0.0
 11
-3.152101805129405
 21
35.39738453042776
 31
0.0
  0
INSERT
  5
199
330
195
100
AcDbEntity
  8
SUNPO
 62
     0
370
    -2
100
AcDbBlockReference
  2
_OPEN30
 10
-3.152101805129407
 20
28.59738574980701
 30
0.0
 41
2.0
 42
2.0
 43
2.0
 50
270.0
  0
INSERT
  5
19A
330
195
100
AcDbEntity
  8
SUNPO
 62
     0
370
    -2
100
AcDbBlockReference
  2
_OPEN30
 10
-3.152101805129404
 20
37.39738453042776
 30
0.0
 41
2.0
 42
2.0
 43
2.0
 50
90.0
  0
MTEXT
  5
19B
330
195
100
AcDbEntity
  8
SUNPO
 62
     0
100
AcDbMText
 10
-4.902101805129412
 20
32.99738514011739
 30
0.0
 40
2.5
 41
0.0
 71
     5
 72
     1
  1
\A1;44
 11
0.0000000000000001
 21
1.0
 31
0.0
 73
     1
 44
1.0
1001
ACAD
1000
MTEXTBEGIN
1070
    73
1070
     1
1070
    44
1040
1.0
1070
    74
1070
     0
1000
MTEXTEND
  0
POINT
  5
19C
330
195
100
AcDbEntity
  8
Defpoints
 62
     0
100
AcDbPoint
 10
-11.1521018051294
 20
28.59738574980702
 30
0.0
  0
POINT
  5
19D
330
195
100
AcDbEntity
  8
Defpoints
 62
     0
100
AcDbPoint
 10
-11.1521018051294
 20
37.39738453042776
 30
0.0
  0
POINT
  5
19E
330
195
100
AcDbEntity
  8
Defpoints
 62
     0
100
AcDbPoint
 10
-3.152101805129404
 20
37.39738453042776
 30
0.0
  0
ENDBLK
  5
1A0
330
195
100
AcDbEntity
  8
0
100
AcDbBlockEnd
  0
BLOCK
  5
1AB
330
1A1
100
AcDbEntity
  8
0
100
AcDbBlockBegin
  2
*D5
 70
     1
 10
0.0
 20
0.0
 30
0.0
  3
*D5
  1

  0
LINE
  5
1A2
330
1A1
100
AcDbEntity
  8
SUNPO
 62
     0
370
    -2
100
AcDbLine
 10
-53.15209504395261
 20
39.39738453042776
 30
0.0
 11
-53.15209504395261
 21
47.39738453042775
 31
0.0
  0
LINE
  5
1A3
330
1A1
100
AcDbEntity
  8
SUNPO
 62
     0
370
    -2
100
AcDbLine
 10
-11.1521018051294
 20
39.39738453042776
 30
0.0
 11
-11.1521018051294
 21
47.39738453042775
 31
0.0
  0
LINE
  5
1A4
330
1A1
100
AcDbEntity
  8
SUNPO
 62
     0
370
    -2
100
AcDbLine
 10
-51.15209504395261
 20
45.39738453042775
 30
0.0
 11
-13.1521018051294
 21
45.39738453042775
 31
0.0
  0
INSERT
  5
1A5
330
1A1
100
AcDbEntity
  8
SUNPO
 62
     0
370
    -2
100
AcDbBlockReference
  2
_OPEN30
 10
-53.15209504395261
 20
45.39738453042775
 30
0.0
 41
2.0
 42
2.0
 43
2.0
 50
180.0
  0
INSERT
  5
1A6
330
1A1
100
AcDbEntity
  8
SUNPO
 62
     0
370
    -2
100
AcDbBlockReference
  2
_OPEN30
 10
-11.1521018051294
 20
45.39738453042775
 30
0.0
 41
2.0
 42
2.0
 43
2.0
  0
MTEXT
  5
1A7
330
1A1
100
AcDbEntity
  8
SUNPO
 62
     0
100
AcDbMText
 10
-32.15209842454101
 20
47.14738453042776
 30
0.0
 40
2.5
 41
0.0
 71
     5
 72
     1
  1
\A1;210
 73
     1
 44
1.0
1001
ACAD
1000
MTEXTBEGIN
1070
    73
1070
     1
1070
    44
1040
1.0
1070
    74
1070
     0
1000
MTEXTEND
  0
POINT
  5
1A8
330
1A1
100
AcDbEntity
  8
Defpoints
 62
     0
100
AcDbPoint
 10
-53.15209504395261
 20
37.39738453042776
 30
0.0
  0
POINT
  5
1A9
330
1A1
100
AcDbEntity
  8
Defpoints
 62
     0
100
AcDbPoint
 10
-11.1521018051294
 20
37.39738453042776
 30
0.0
  0
POINT
  5
1AA
330
1A1
100
AcDbEntity
  8
Defpoints
 62
     0
100
AcDbPoint
 10
-11.1521018051294
 20
45.39738453042775
 30
0.0
  0
ENDBLK
  5
1AC
330
1A1
100
AcDbEntity
  8
0
100
AcDbBlockEnd
  0
BLOCK
  5
1B7
330
1AD
100
AcDbEntity
  8
0
100
AcDbBlockBegin
  2
*D6
 70
     1
 10
0.0
 20
0.0
 30
0.0
  3
*D6
  1

  0
LINE
  5
1AE
330
1AD
100
AcDbEntity
  8
SUNPO
 62
     0
370
    -2
100
AcDbLine
 10
3.893678574646173
 20
39.39738453042776
 30
0.0
 11
3.893678574646174
 21
47.39738453042775
 31
0.0
  0
LINE
  5
1AF
330
1AD
100
AcDbEntity
  8
SUNPO
 62
     0
370
    -2
100
AcDbLine
 10
65.29367409716837
 20
39.39738453042776
 30
0.0
 11
65.29367409716837
 21
47.39738453042775
 31
0.0
  0
LINE
  5
1B0
330
1AD
100
AcDbEntity
  8
SUNPO
 62
     0
370
    -2
100
AcDbLine
 10
5.893678574646173
 20
45.39738453042775
 30
0.0
 11
63.29367409716837
 21
45.39738453042775
 31
0.0
  0
INSERT
  5
1B1
330
1AD
100
AcDbEntity
  8
SUNPO
 62
     0
370
    -2
100
AcDbBlockReference
  2
_OPEN30
 10
3.893678574646174
 20
45.39738453042775
 30
0.0
 41
2.0
 42
2.0
 43
2.0
 50
180.0
  0
INSERT
  5
1B2
330
1AD
100
AcDbEntity
  8
SUNPO
 62
     0
370
    -2
100
AcDbBlockReference
  2
_OPEN30
 10
65.29367409716837
 20
45.39738453042775
 30
0.0
 41
2.0
 42
2.0
 43
2.0
  0
MTEXT
  5
1B3
330
1AD
100
AcDbEntity
  8
SUNPO
 62
     0
100
AcDbMText
 10
34.59367633590728
 20
47.14738453042776
 30
0.0
 40
2.5
 41
0.0
 71
     5
 72
     1
  1
\A1;307
 73
     1
 44
1.0
1001
ACAD
1000
MTEXTBEGIN
1070
    73
1070
     1
1070
    44
1040
1.0
1070
    74
1070
     0
1000
MTEXTEND
  0
POINT
  5
1B4
330
1AD
100
AcDbEntity
  8
Defpoints
 62
     0
100
AcDbPoint
 10
3.893678574646173
 20
37.39738453042776
 30
0.0
  0
POINT
  5
1B5
330
1AD
100
AcDbEntity
  8
Defpoints
 62
     0
100
AcDbPoint
 10
65.29367409716837
 20
37.39738453042776
 30
0.0
  0
POINT
  5
1B6
330
1AD
100
AcDbEntity
  8
Defpoints
 62
     0
100
AcDbPoint
 10
65.29367409716837
 20
45.39738453042775
 30
0.0
  0
ENDBLK
  5
1B8
330
1AD
100
AcDbEntity
  8
0
100
AcDbBlockEnd
  0
ENDSEC
  0
SECTION
  2
ENTITIES
  0
TEXT
  5
29
330
2
100
AcDbEntity
  8
MOJI1
100
AcDbText
 10
-30.26532902818281
 20
61.88776009251916
 30
0.0
 40
4.0
  1
ＨＤインテクレーテッドカメラ
100
AcDbText
  0
DIMENSION
  5
2B
330
2
100
AcDbEntity
  8
SUNPO
100
AcDbDimension
  2
*D6
 10
65.29367409716837
 20
45.39738453042775
 30
0.0
 11
34.59367633590728
 21
47.14738453042776
 31
0.0
 70
    33
  1
307
 71
     5
 42
61.3999955225222
  3
STANDARD
100
AcDbAlignedDimension
 13
3.893678574646173
 23
37.39738453042776
 33
0.0
 14
65.29367409716837
 24
37.39738453042776
 34
0.0
1001
ACAD
1000
DSTYLE
1002
{
1070
   287
1070
     3
1070
    40
1040
1.0
1070
   140
1040
2.5
1070
   147
1040
0.5
1070
   172
1070
     1
1070
   279
1070
     0
1070
   288
1070
     0
1002
}
  0
DIMENSION
  5
41
330
2
100
AcDbEntity
  8
SUNPO
100
AcDbDimension
  2
*D5
 10
-11.1521018051294
 20
45.39738453042775
 30
0.0
 11
-32.15209842454101
 21
47.14738453042776
 31
0.0
 70
    33
  1
210
 71
     5
 42
41.99999323882321
  3
STANDARD
100
AcDbAlignedDimension
 13
-53.15209504395261
 23
37.39738453042776
 33
0.0
 14
-11.1521018051294
 24
37.39738453042776
 34
0.0
1001
ACAD
1000
DSTYLE
1002
{
1070
   287
1070
     3
1070
    40
1040
1.0
1070
   140
1040
2.5
1070
   147
1040
0.5
1070
   172
1070
     1
1070
   279
1070
     0
1070
   288
1070
     0
1002
}
  0
DIMENSION
  5
4E
330
2
100
AcDbEntity
  8
SUNPO
100
AcDbDimension
  2
*D4
 10
-3.152101805129404
 20
37.39738453042776
 30
0.0
 11
-4.902101805129412
 21
32.99738514011739
 31
0.0
 70
    33
  1
44
 71
     5
 42
8.799998780620743
  3
STANDARD
100
AcDbAlignedDimension
 13
-11.1521018051294
 23
28.59738574980702
 33
0.0
 14
-11.1521018051294
 24
37.39738453042776
 34
0.0
1001
ACAD
1000
DSTYLE
1002
{
1070
   287
1070
     3
1070
    40
1040
1.0
1070
   140
1040
2.5
1070
   147
1040
0.5
1070
   172
1070
     1
1070
   279
1070
     0
1070
   288
1070
     0
1002
}
  0
ARC
  5
5B
330
2
100
AcDbEntity
  8
GAIKEI
100
AcDbCircle
 10
57.29367857464627
 20
28.90422159107965
 30
0.0
 40
1.026835841272647
100
AcDbArc
 50
189.2311624778275
 51
350.7688375221724
  0
ARC
  5
5C
330
2
100
AcDbEntity
  8
GAIKEI
100
AcDbCircle
 10
13.29367857464626
 20
28.90422159107965
 30
0.0
 40
1.026835841272647
100
AcDbArc
 50
189.2311624778275
 51
350.7688375221724
  0
ARC
  5
5D
330
2
100
AcDbEntity
  8
GAIKEI
100
AcDbCircle
 10
-16.18568757308912
 20
28.90422159107965
 30
0.0
 40
1.026835841272647
100
AcDbArc
 50
197.3865536512786
 51
342.6134463487214
  0
ARC
  5
5E
330
2
100
AcDbEntity
  8
GAIKEI
 62
     1
100
AcDbCircle
 10
64.6507056324258
 20
34.22051582095429
 30
0.0
 40
0.8670642435237558
100
AcDbArc
 50
338.6867459239212
 51
1.634195676735715
  0
ARC
  5
5F
330
2
100
AcDbEntity
  8
GAIKEI
 62
     1
100
AcDbCircle
 10
64.88712865577145
 20
35.38383743528181
 30
0.0
 40
1.106676725723384
100
AcDbArc
 50
338.6638013048507
 51
21.33619869513707
  0
LINE
  5
60
330
2
100
AcDbEntity
  8
GAIKEI
 62
     1
100
AcDbLine
 10
65.91795546793628
 20
35.88729470154459
 30
0.0
 11
65.91795546793628
 21
35.78649046032984
 31
0.0
  0
LINE
  5
61
330
2
100
AcDbEntity
  8
GAIKEI
 62
     1
100
AcDbLine
 10
65.91795546793628
 20
34.88038016901879
 30
0.0
 11
65.91795546793605
 21
34.9811844102336
 31
0.0
  0
ARC
  5
62
330
2
100
AcDbEntity
  8
GAIKEI
 62
     1
100
AcDbCircle
 10
65.6738358448656
 20
35.83180311514662
 30
0.0
 40
0.2566841395380561
100
AcDbArc
 50
14.13445805870544
 51
90.42391603792585
  0
LINE
  5
63
330
2
100
AcDbEntity
  8
GAIKEI
 62
     1
100
AcDbLine
 10
65.67193672539111
 20
36.08848022911593
 30
0.0
 11
65.29367409716837
 21
36.08848022911593
 31
0.0
  0
ARC
  5
64
330
2
100
AcDbEntity
  8
GAIKEI
 62
     1
100
AcDbCircle
 10
65.68160817409761
 20
34.92935648700586
 30
0.0
 40
0.2503487285632601
100
AcDbArc
 50
267.7860038589756
 51
348.7183320772383
  0
LINE
  5
65
330
2
100
AcDbEntity
  8
GAIKEI
 62
     1
100
AcDbLine
 10
65.71662895541203
 20
34.88038016901885
 30
0.0
 11
65.6918156037284
 21
34.88038016901885
 31
0.0
  0
LINE
  5
66
330
2
100
AcDbEntity
  8
GAIKEI
 62
     1
100
AcDbLine
 10
65.71662895541203
 20
34.9811844102336
 30
0.0
 11
65.71662895541203
 21
34.88038016901885
 31
0.0
  0
ARC
  5
67
330
2
100
AcDbEntity
  8
GAIKEI
 62
     1
100
AcDbCircle
 10
67.92707929680773
 20
35.38383743528175
 30
0.0
 40
2.246824463627904
100
AcDbArc
 50
169.6762621028098
 51
190.3237378971918
  0
LINE
  5
68
330
2
100
AcDbEntity
  8
GAIKEI
 62
     1
100
AcDbLine
 10
65.71662895541203
 20
35.88729470154459
 30
0.0
 11
65.29367409716837
 21
35.88729470154459
 31
0.0
  0
LINE
  5
69
330
2
100
AcDbEntity
  8
GAIKEI
 62
     1
100
AcDbLine
 10
65.71662895541203
 20
35.7864904603299
 30
0.0
 11
65.71662895541203
 21
35.88729470154459
 31
0.0
  0
LINE
  5
6A
330
2
100
AcDbEntity
  8
GAIKEI
 62
     1
100
AcDbLine
 10
67.48824587164268
 20
36.0584504341806
 30
0.0
 11
65.79374772456526
 21
36.0584504341806
 31
0.0
  0
LINE
  5
6B
330
2
100
AcDbEntity
  8
GAIKEI
 62
     1
100
AcDbLine
 10
67.48824587164268
 20
35.88729470154459
 30
0.0
 11
67.48824587164268
 21
36.0584504341806
 31
0.0
  0
LINE
  5
6C
330
2
100
AcDbEntity
  8
GAIKEI
 62
     1
100
AcDbLine
 10
68.13282907560619
 20
35.88729470154459
 30
0.0
 11
65.91795546793628
 21
35.88729470154459
 31
0.0
  0
LINE
  5
6D
330
2
100
AcDbEntity
  8
GAIKEI
 62
     1
100
AcDbLine
 10
68.13282907560619
 20
34.88038016901885
 30
0.0
 11
68.13282907560619
 21
35.88729470154459
 31
0.0
  0
LINE
  5
6E
330
2
100
AcDbEntity
  8
GAIKEI
 62
     1
100
AcDbLine
 10
65.91795546793628
 20
34.88038016901879
 30
0.0
 11
68.13282907560619
 21
34.88038016901885
 31
0.0
  0
LINE
  5
6F
330
2
100
AcDbEntity
  8
GAIKEI
 62
     1
100
AcDbLine
 10
67.48824587164268
 20
34.14584856520207
 30
0.0
 11
67.48824587164268
 21
34.88038016901885
 31
0.0
  0
LINE
  5
70
330
2
100
AcDbEntity
  8
GAIKEI
 62
     1
100
AcDbLine
 10
66.52193500550834
 20
34.14584856520207
 30
0.0
 11
67.48824587164268
 21
34.14584856520207
 31
0.0
  0
LINE
  5
71
330
2
100
AcDbEntity
  8
GAIKEI
 62
     1
100
AcDbLine
 10
66.52193500550834
 20
33.9645419159682
 30
0.0
 11
66.52193500550834
 21
34.88038016901885
 31
0.0
  0
LINE
  5
72
330
2
100
AcDbEntity
  8
GAIKEI
 62
     1
100
AcDbLine
 10
65.48079538764728
 20
33.9645419159682
 30
0.0
 11
66.52193500550834
 21
33.9645419159682
 31
0.0
  0
ARC
  5
73
330
2
100
AcDbEntity
  8
GAIKEI
 62
     1
100
AcDbCircle
 10
64.6507056324258
 20
34.3738760029998
 30
0.0
 40
0.8670642435237558
100
AcDbArc
 50
358.3658043232643
 51
4.89769055161657
  0
LINE
  5
74
330
2
100
AcDbEntity
  8
GAIKEI
 62
     1
100
AcDbLine
 10
65.5174172171794
 20
34.24524295688946
 30
0.0
 11
65.47469877649655
 21
34.24524295688946
 31
0.0
  0
LINE
  5
75
330
2
100
AcDbEntity
  8
GAIKEI
 62
     1
100
AcDbLine
 10
65.47469877649655
 20
34.24524295688946
 30
0.0
 11
65.47469877649655
 21
34.34914886706463
 31
0.0
  0
LINE
  5
76
330
2
100
AcDbEntity
  8
GAIKEI
 62
     1
100
AcDbLine
 10
65.47469877649655
 20
34.34914886706463
 30
0.0
 11
65.5174172171794
 21
34.34914886706463
 31
0.0
  0
ARC
  5
77
330
2
100
AcDbEntity
  8
GAIKEI
 62
     1
100
AcDbCircle
 10
65.21254649718594
 20
33.99597736376313
 30
0.0
 40
0.2620841518554704
100
AcDbArc
 50
288.8767987338965
 51
339.7735873925901
  0
ARC
  5
78
330
2
100
AcDbEntity
  8
GAIKEI
 62
     1
100
AcDbCircle
 10
64.76729054386874
 20
33.48321064277059
 30
0.0
 40
0.7511058015160924
100
AcDbArc
 50
357.074136627919
 51
28.59757098324232
  0
LINE
  5
79
330
2
100
AcDbEntity
  8
GAIKEI
 62
     1
100
AcDbLine
 10
65.47469877649655
 20
33.44487138013932
 30
0.0
 11
65.51741721717917
 21
33.44487138013932
 31
0.0
  0
LINE
  5
7A
330
2
100
AcDbEntity
  8
GAIKEI
 62
     1
100
AcDbLine
 10
65.47469877649655
 20
33.34082448501135
 30
0.0
 11
65.47469877649655
 21
33.44487138013932
 31
0.0
  0
LINE
  5
7B
330
2
100
AcDbEntity
  8
GAIKEI
 62
     1
100
AcDbLine
 10
65.51741721717917
 20
33.34082448501135
 30
0.0
 11
65.47469877649655
 21
33.34082448501135
 31
0.0
  0
ARC
  5
7C
330
2
100
AcDbEntity
  8
GAIKEI
 62
     1
100
AcDbCircle
 10
64.34610501266092
 20
33.33503482441205
 30
0.0
 40
1.17132651324192
100
AcDbArc
 50
352.2390716860107
 51
0.2832040973772553
  0
ARC
  5
7D
330
2
100
AcDbEntity
  8
GAIKEI
 62
     1
100
AcDbCircle
 10
65.21254649718594
 20
32.6743844167039
 30
0.0
 40
0.2620841518554704
100
AcDbArc
 50
288.8767987338965
 51
339.7735873925901
  0
ARC
  5
7E
330
2
100
AcDbEntity
  8
GAIKEI
 62
     1
100
AcDbCircle
 10
64.6507056324258
 20
32.89892287389506
 30
0.0
 40
0.8670642435237558
100
AcDbArc
 50
338.6867459239212
 51
1.634195676735715
  0
ARC
  5
7F
330
2
100
AcDbEntity
  8
GAIKEI
 62
     1
100
AcDbCircle
 10
65.21254649718594
 20
33.27682151313172
 30
0.0
 40
0.2620841518554704
100
AcDbArc
 50
20.22641260740988
 51
71.12320126610296
  0
ARC
  5
80
330
2
100
AcDbEntity
  8
GAIKEI
 62
     1
100
AcDbCircle
 10
64.6507056324258
 20
33.05228305594056
 30
0.0
 40
0.8670642435237558
100
AcDbArc
 50
358.3658043232643
 51
21.31325407607713
  0
LINE
  5
81
330
2
100
AcDbEntity
  8
GAIKEI
 62
     1
100
AcDbLine
 10
65.47469877649655
 20
33.02755592000546
 30
0.0
 11
65.5174172171794
 21
33.02755592000546
 31
0.0
  0
LINE
  5
82
330
2
100
AcDbEntity
  8
GAIKEI
 62
     1
100
AcDbLine
 10
65.47469877649655
 20
32.92365000983023
 30
0.0
 11
65.47469877649655
 21
33.02755592000546
 31
0.0
  0
LINE
  5
83
330
2
100
AcDbEntity
  8
GAIKEI
 62
     1
100
AcDbLine
 10
65.5174172171794
 20
32.92365000983023
 30
0.0
 11
65.47469877649655
 21
32.92365000983023
 31
0.0
  0
LINE
  5
84
330
2
100
AcDbEntity
  8
GAIKEI
 62
     1
100
AcDbLine
 10
65.43945253830975
 20
34.42626763621774
 30
0.0
 11
65.29367409716837
 21
34.42626763621774
 31
0.0
  0
ARC
  5
85
330
2
100
AcDbEntity
  8
GAIKEI
 62
     1
100
AcDbCircle
 10
65.41723498927308
 20
34.64477881281175
 30
0.0
 40
0.2196377785848121
100
AcDbArc
 50
275.8057078626552
 51
331.9971276609792
  0
LINE
  5
86
330
2
100
AcDbEntity
  8
GAIKEI
 62
     1
100
AcDbLine
 10
65.69435333287788
 20
35.03137505341192
 30
0.0
 11
65.65163489219526
 21
35.03137505341192
 31
0.0
  0
LINE
  5
87
330
2
100
AcDbEntity
  8
GAIKEI
 62
     1
100
AcDbLine
 10
65.65163489219526
 20
35.03137505341192
 30
0.0
 11
65.65163489219526
 21
34.9274691432367
 31
0.0
  0
LINE
  5
88
330
2
100
AcDbEntity
  8
GAIKEI
 62
     1
100
AcDbLine
 10
65.65163489219526
 20
34.9274691432367
 30
0.0
 11
65.69435333287788
 21
34.9274691432367
 31
0.0
  0
ARC
  5
89
330
2
100
AcDbEntity
  8
GAIKEI
 62
     1
100
AcDbCircle
 10
64.92179001420481
 20
34.89218394623373
 30
0.0
 40
0.773368687294031
100
AcDbArc
 50
333.0476748466623
 51
2.61504632260239
  0
ARC
  5
8A
330
2
100
AcDbEntity
  8
GAIKEI
 62
     1
100
AcDbCircle
 10
64.92179001420481
 20
35.06666025041488
 30
0.0
 40
0.773368687294031
100
AcDbArc
 50
357.3849536773976
 51
26.95232515333772
  0
LINE
  5
8B
330
2
100
AcDbEntity
  8
GAIKEI
 62
     1
100
AcDbLine
 10
65.43945253830975
 20
35.53299951528908
 30
0.0
 11
65.29367409716837
 21
35.53299951528908
 31
0.0
  0
ARC
  5
8C
330
2
100
AcDbEntity
  8
GAIKEI
 62
     1
100
AcDbCircle
 10
65.41723498927308
 20
35.31406538383687
 30
0.0
 40
0.2196377785848121
100
AcDbArc
 50
28.00287233902081
 51
84.19429213734485
  0
ARC
  5
8D
330
2
100
AcDbEntity
  8
GAIKEI
 62
     1
100
AcDbCircle
 10
65.41723498927308
 20
31.28852202802494
 30
0.0
 40
0.2196377785848121
100
AcDbArc
 50
28.00287233902081
 51
84.19429213734485
  0
ARC
  5
8E
330
2
100
AcDbEntity
  8
GAIKEI
 62
     1
100
AcDbCircle
 10
64.92179001420481
 20
31.04111689460296
 30
0.0
 40
0.773368687294031
100
AcDbArc
 50
357.3849536773976
 51
26.95232515333772
  0
ARC
  5
8F
330
2
100
AcDbEntity
  8
GAIKEI
 62
     1
100
AcDbCircle
 10
64.92179001420481
 20
30.86664059042181
 30
0.0
 40
0.773368687294031
100
AcDbArc
 50
333.0476748466623
 51
2.61504632260239
  0
ARC
  5
90
330
2
100
AcDbEntity
  8
GAIKEI
 62
     1
100
AcDbCircle
 10
65.41723498927308
 20
30.61923545699983
 30
0.0
 40
0.2196377785848121
100
AcDbArc
 50
275.8057078626552
 51
331.9971276609792
  0
LINE
  5
91
330
2
100
AcDbEntity
  8
GAIKEI
 62
     1
100
AcDbLine
 10
65.65163489219526
 20
30.90192578742477
 30
0.0
 11
65.69435333287788
 21
30.90192578742477
 31
0.0
  0
LINE
  5
92
330
2
100
AcDbEntity
  8
GAIKEI
 62
     1
100
AcDbLine
 10
65.65163489219526
 20
31.0058316976
 30
0.0
 11
65.65163489219526
 21
30.90192578742477
 31
0.0
  0
LINE
  5
93
330
2
100
AcDbEntity
  8
GAIKEI
 62
     1
100
AcDbLine
 10
65.69435333287788
 20
31.0058316976
 30
0.0
 11
65.65163489219526
 21
31.0058316976
 31
0.0
  0
LINE
  5
94
330
2
100
AcDbEntity
  8
GAIKEI
 62
     1
100
AcDbLine
 10
65.43945253830975
 20
30.40072428040583
 30
0.0
 11
65.29367409716837
 21
30.40072428040583
 31
0.0
  0
LINE
  5
95
330
2
100
AcDbEntity
  8
GAIKEI
 62
     1
100
AcDbLine
 10
65.43945253830975
 20
31.50745615947716
 30
0.0
 11
65.29367409716837
 21
31.50745615947716
 31
0.0
  0
ARC
  5
96
330
2
100
AcDbEntity
  8
GAIKEI
 62
     1
100
AcDbCircle
 10
66.70314199507493
 20
31.67914559544511
 30
0.0
 40
0.1993216009665379
100
AcDbArc
 50
204.6161584731514
 51
155.3838415268485
  0
LINE
  5
97
330
2
100
AcDbEntity
  8
GAIKEI
 62
     1
100
AcDbLine
 10
67.48824587164268
 20
30.72287489743491
 30
0.0
 11
65.675320364257
 21
30.72287489743491
 31
0.0
  0
LINE
  5
98
330
2
100
AcDbEntity
  8
GAIKEI
 62
     1
100
AcDbLine
 10
67.48824587164268
 20
32.63575873631891
 30
0.0
 11
67.48824587164268
 21
30.72287489743491
 31
0.0
  0
LINE
  5
99
330
2
100
AcDbEntity
  8
GAIKEI
 62
     1
100
AcDbLine
 10
66.52193500550834
 20
32.63575873631891
 30
0.0
 11
67.48824587164268
 21
32.63575873631891
 31
0.0
  0
LINE
  5
9A
330
2
100
AcDbEntity
  8
GAIKEI
 62
     1
100
AcDbLine
 10
66.52193500550834
 20
31.14582975567868
 30
0.0
 11
65.68166468713048
 21
31.14582975567868
 31
0.0
  0
LINE
  5
9B
330
2
100
AcDbEntity
  8
GAIKEI
 62
     1
100
AcDbLine
 10
66.52193500550834
 20
32.81678341564725
 30
0.0
 11
66.52193500550834
 21
31.14582975567868
 31
0.0
  0
LINE
  5
9C
330
2
100
AcDbEntity
  8
GAIKEI
 62
     1
100
AcDbLine
 10
65.50585645105389
 20
32.81678341564725
 30
0.0
 11
66.52193500550834
 21
32.81678341564725
 31
0.0
  0
ARC
  5
9D
330
2
100
AcDbEntity
  8
GAIKEI
100
AcDbCircle
 10
65.12260051691237
 20
37.22626684934449
 30
0.0
 40
0.1713767339330314
100
AcDbArc
 50
356.5915481752757
 51
93.15072579205956
  0
LINE
  5
9E
330
2
100
AcDbEntity
  8
GAIKEI
 62
     1
100
AcDbLine
 10
65.2133126741021
 20
28.73949858217691
 30
0.0
 11
65.11264941783998
 21
28.73949858217691
 31
0.0
  0
LINE
  5
9F
330
2
100
AcDbEntity
  8
GAIKEI
 62
     1
100
AcDbLine
 10
65.2133126741021
 20
28.94082509470093
 30
0.0
 11
65.2133126741021
 21
28.73949858217691
 31
0.0
  0
LINE
  5
A0
330
2
100
AcDbEntity
  8
GAIKEI
 62
     1
100
AcDbLine
 10
65.11264941783998
 20
28.94082509470093
 30
0.0
 11
65.2133126741021
 21
28.94082509470093
 31
0.0
  0
ARC
  5
A1
330
2
100
AcDbEntity
  8
GAIKEI
 62
     1
100
AcDbCircle
 10
64.91141382700016
 20
28.73954863112903
 30
0.0
 40
0.2012355970634457
100
AcDbArc
 50
269.9741127860284
 51
359.9857500670936
  0
LINE
  5
A2
330
2
100
AcDbEntity
  8
GAIKEI
 62
     1
100
AcDbLine
 10
61.8911432475495
 20
28.53831305460557
 30
0.0
 11
61.8911432475495
 21
28.73949858217691
 31
0.0
  0
LINE
  5
A3
330
2
100
AcDbEntity
  8
GAIKEI
 62
     1
100
AcDbLine
 10
64.91132290531573
 20
28.53831305460557
 30
0.0
 11
61.8911432475495
 21
28.53831305460557
 31
0.0
  0
LINE
  5
A4
330
2
100
AcDbEntity
  8
GAIKEI
100
AcDbLine
 10
65.11264941783998
 20
29.14229259217774
 30
0.0
 11
65.11264941783998
 21
28.73949858217691
 31
0.0
  0
LINE
  5
A5
330
2
100
AcDbEntity
  8
GAIKEI
100
AcDbLine
 10
65.29367409716837
 20
29.14229259217774
 30
0.0
 11
65.11264941783998
 21
29.14229259217774
 31
0.0
  0
LINE
  5
A6
330
2
100
AcDbEntity
  8
GAIKEI
100
AcDbLine
 10
65.29367409716837
 20
37.21607788119394
 30
0.0
 11
65.29367409716837
 21
29.14229259217774
 31
0.0
  0
LINE
  5
A7
330
2
100
AcDbEntity
  8
GAIKEI
 62
     1
100
AcDbLine
 10
47.99820403386206
 20
28.5986546143817
 30
0.0
 11
47.99820403386206
 21
28.73949858217691
 31
0.0
  0
LINE
  5
A8
330
2
100
AcDbEntity
  8
GAIKEI
 62
     1
100
AcDbLine
 10
47.09251669740933
 20
28.5986546143817
 30
0.0
 11
47.99820403386206
 21
28.5986546143817
 31
0.0
  0
LINE
  5
A9
330
2
100
AcDbEntity
  8
GAIKEI
 62
     1
100
AcDbLine
 10
47.09251669740933
 20
28.73949858217691
 30
0.0
 11
47.09251669740933
 21
28.5986546143817
 31
0.0
  0
ARC
  5
AA
330
2
100
AcDbEntity
  8
GAIKEI
 62
     1
100
AcDbCircle
 10
62.29358478390736
 20
31.35709570737134
 30
0.0
 40
0.2013970173411334
100
AcDbArc
 50
270.0200577292868
 51
89.97994227071314
  0
ARC
  5
AB
330
2
100
AcDbEntity
  8
GAIKEI
 62
     1
100
AcDbCircle
 10
62.29400764440516
 20
31.35709570737146
 30
0.0
 40
0.6039091478888511
100
AcDbArc
 50
269.966570209625
 51
90.03342979037176
  0
LINE
  5
AC
330
2
100
AcDbEntity
  8
GAIKEI
 62
     1
100
AcDbLine
 10
62.2936552876472
 20
31.55849271237196
 30
0.0
 11
53.11120204796861
 21
31.55849271237196
 31
0.0
  0
LINE
  5
AD
330
2
100
AcDbEntity
  8
GAIKEI
 62
     1
100
AcDbLine
 10
62.2936552876472
 20
31.15569870237107
 30
0.0
 11
53.11116991446465
 21
31.15569870237107
 31
0.0
  0
LINE
  5
AE
330
2
100
AcDbEntity
  8
GAIKEI
 62
     1
100
AcDbLine
 10
62.29365528764787
 20
31.96100475246726
 30
0.0
 11
53.38914230573232
 21
31.96100475246726
 31
0.0
  0
LINE
  5
AF
330
2
100
AcDbEntity
  8
GAIKEI
 62
     1
100
AcDbLine
 10
62.29365528764787
 20
30.75318666227571
 30
0.0
 11
53.38906900494908
 21
30.75318666227571
 31
0.0
  0
CIRCLE
  5
B0
330
2
100
AcDbEntity
  8
GAIKEI
 62
     1
100
AcDbCircle
 10
52.22756161048209
 20
31.35716619984788
 30
0.0
 40
0.5536479094411528
  0
ARC
  5
B1
330
2
100
AcDbEntity
  8
GAIKEI
 62
     1
100
AcDbCircle
 10
52.22756161048209
 20
31.35716619984788
 30
0.0
 40
0.9062851578872145
100
AcDbArc
 50
12.83503725375149
 51
167.1649627462485
  0
ARC
  5
B2
330
2
100
AcDbEntity
  8
GAIKEI
 62
     1
100
AcDbCircle
 10
52.22756161048209
 20
31.35716619984788
 30
0.0
 40
1.309156487669617
100
AcDbArc
 50
207.4742643666103
 51
332.525735633397
  0
ARC
  5
B3
330
2
100
AcDbEntity
  8
GAIKEI
 62
     1
100
AcDbCircle
 10
52.22756161048209
 20
31.35716619984788
 30
0.0
 40
1.309156487669617
100
AcDbArc
 50
27.46730996587146
 51
152.5326900341212
  0
ARC
  5
B4
330
2
100
AcDbEntity
  8
GAIKEI
 62
     1
100
AcDbCircle
 10
52.22756161048209
 20
31.35716619984788
 30
0.0
 40
0.9062851578872145
100
AcDbArc
 50
192.844178969412
 51
347.155821030588
  0
LINE
  5
B5
330
2
100
AcDbEntity
  8
GAIKEI
 62
     1
100
AcDbLine
 10
52.56846322622664
 20
31.40721585807336
 30
0.0
 11
52.28028998281001
 21
31.40721585807336
 31
0.0
  0
LINE
  5
B6
330
2
100
AcDbEntity
  8
GAIKEI
 62
     1
100
AcDbLine
 10
52.28028998281001
 20
31.40721585807336
 30
0.0
 11
52.28028998281001
 21
31.69736289082863
 31
0.0
  0
LINE
  5
B7
330
2
100
AcDbEntity
  8
GAIKEI
 62
     1
100
AcDbLine
 10
52.28028998281001
 20
31.69736289082863
 30
0.0
 11
52.17567914787082
 21
31.69736289082863
 31
0.0
  0
LINE
  5
B8
330
2
100
AcDbEntity
  8
GAIKEI
 62
     1
100
AcDbLine
 10
52.17567914787082
 20
31.69736289082863
 30
0.0
 11
52.17567914787082
 21
31.40721585807336
 31
0.0
  0
LINE
  5
B9
330
2
100
AcDbEntity
  8
GAIKEI
 62
     1
100
AcDbLine
 10
52.17567914787082
 20
31.40721585807336
 30
0.0
 11
51.88778787435968
 21
31.40721585807336
 31
0.0
  0
LINE
  5
BA
330
2
100
AcDbEntity
  8
GAIKEI
 62
     1
100
AcDbLine
 10
51.88778787435968
 20
31.40721585807336
 30
0.0
 11
51.88778787435968
 21
31.30669358676409
 31
0.0
  0
LINE
  5
BB
330
2
100
AcDbEntity
  8
GAIKEI
 62
     1
100
AcDbLine
 10
51.88778787435968
 20
31.30669358676409
 30
0.0
 11
52.17567914787082
 21
31.30669358676409
 31
0.0
  0
LINE
  5
BC
330
2
100
AcDbEntity
  8
GAIKEI
 62
     1
100
AcDbLine
 10
52.17567914787082
 20
31.30669358676409
 30
0.0
 11
52.17567914787082
 21
31.01682852391434
 31
0.0
  0
LINE
  5
BD
330
2
100
AcDbEntity
  8
GAIKEI
 62
     1
100
AcDbLine
 10
52.17567914787082
 20
31.01682852391434
 30
0.0
 11
52.28028998281001
 21
31.01682852391434
 31
0.0
  0
LINE
  5
BE
330
2
100
AcDbEntity
  8
GAIKEI
 62
     1
100
AcDbLine
 10
52.28028998281001
 20
31.01682852391434
 30
0.0
 11
52.28028998281001
 21
31.30669358676409
 31
0.0
  0
LINE
  5
BF
330
2
100
AcDbEntity
  8
GAIKEI
 62
     1
100
AcDbLine
 10
52.28028998281001
 20
31.30669358676409
 30
0.0
 11
52.56846322622664
 21
31.30669358676409
 31
0.0
  0
LINE
  5
C0
330
2
100
AcDbEntity
  8
GAIKEI
 62
     1
100
AcDbLine
 10
52.56846322622664
 20
31.30669358676409
 30
0.0
 11
52.56846322622664
 21
31.40721585807336
 31
0.0
  0
LINE
  5
C1
330
2
100
AcDbEntity
  8
GAIKEI
 62
     1
100
AcDbLine
 10
16.53031032159947
 20
30.75318666227571
 30
0.0
 11
51.06605421601511
 21
30.75318666227571
 31
0.0
  0
LINE
  5
C2
330
2
100
AcDbEntity
  8
GAIKEI
 62
     1
100
AcDbLine
 10
16.25256996468602
 20
31.15569870237107
 30
0.0
 11
51.34395330649955
 21
31.15569870237107
 31
0.0
  0
LINE
  5
C3
330
2
100
AcDbEntity
  8
GAIKEI
 62
     1
100
AcDbLine
 10
16.25256996468602
 20
31.55849271237196
 30
0.0
 11
51.34392117299558
 21
31.55849271237196
 31
0.0
  0
LINE
  5
C4
330
2
100
AcDbEntity
  8
GAIKEI
 62
     1
100
AcDbLine
 10
16.53031032159947
 20
31.96100475246726
 30
0.0
 11
51.06598091523188
 21
31.96100475246726
 31
0.0
  0
CIRCLE
  5
C5
330
2
100
AcDbEntity
  8
GAIKEI
 62
     1
100
AcDbCircle
 10
35.31378783513015
 20
35.48457118402013
 30
0.0
 40
0.6341503174602199
  0
LINE
  5
C6
330
2
100
AcDbEntity
  8
GAIKEI
 62
     1
100
AcDbLine
 10
35.21312457886825
 20
35.83703356589001
 30
0.0
 11
35.41473306129774
 21
35.83703356589001
 31
0.0
  0
LINE
  5
C7
330
2
100
AcDbEntity
  8
GAIKEI
 62
     1
100
AcDbLine
 10
35.41473306129774
 20
35.83703356589001
 30
0.0
 11
35.41473306129774
 21
35.58523444028214
 31
0.0
  0
LINE
  5
C8
330
2
100
AcDbEntity
  8
GAIKEI
 62
     1
100
AcDbLine
 10
35.41473306129774
 20
35.58523444028214
 30
0.0
 11
35.66625021699997
 21
35.58523444028214
 31
0.0
  0
LINE
  5
C9
330
2
100
AcDbEntity
  8
GAIKEI
 62
     1
100
AcDbLine
 10
35.66625021699997
 20
35.58523444028214
 30
0.0
 11
35.66625021699997
 21
35.38390792775812
 31
0.0
  0
LINE
  5
CA
330
2
100
AcDbEntity
  8
GAIKEI
 62
     1
100
AcDbLine
 10
35.66625021699997
 20
35.38390792775812
 30
0.0
 11
35.41473306129774
 21
35.38390792775812
 31
0.0
  0
LINE
  5
CB
330
2
100
AcDbEntity
  8
GAIKEI
 62
     1
100
AcDbLine
 10
35.41473306129774
 20
35.38390792775812
 30
0.0
 11
35.41473306129774
 21
35.13210880215024
 31
0.0
  0
LINE
  5
CC
330
2
100
AcDbEntity
  8
GAIKEI
 62
     1
100
AcDbLine
 10
35.41473306129774
 20
35.13210880215024
 30
0.0
 11
35.21312457886825
 21
35.13210880215024
 31
0.0
  0
LINE
  5
CD
330
2
100
AcDbEntity
  8
GAIKEI
 62
     1
100
AcDbLine
 10
35.21312457886825
 20
35.13210880215024
 30
0.0
 11
35.21312457886825
 21
35.38390792775812
 31
0.0
  0
LINE
  5
CE
330
2
100
AcDbEntity
  8
GAIKEI
 62
     1
100
AcDbLine
 10
35.21312457886825
 20
35.38390792775812
 30
0.0
 11
34.96132545326032
 21
35.38390792775812
 31
0.0
  0
LINE
  5
CF
330
2
100
AcDbEntity
  8
GAIKEI
 62
     1
100
AcDbLine
 10
34.96132545326032
 20
35.38390792775812
 30
0.0
 11
34.96132545326032
 21
35.58523444028214
 31
0.0
  0
LINE
  5
D0
330
2
100
AcDbEntity
  8
GAIKEI
 62
     1
100
AcDbLine
 10
34.96132545326032
 20
35.58523444028214
 30
0.0
 11
35.21312457886825
 21
35.58523444028214
 31
0.0
  0
LINE
  5
D1
330
2
100
AcDbEntity
  8
GAIKEI
 62
     1
100
AcDbLine
 10
35.21312457886825
 20
35.58523444028214
 30
0.0
 11
35.21312457886825
 21
35.83703356589001
 31
0.0
  0
LINE
  5
D2
330
2
100
AcDbEntity
  8
GAIKEI
 62
     1
100
AcDbLine
 10
15.0285386049286
 20
31.30669358676409
 30
0.0
 11
15.0285386049286
 21
31.40721585807336
 31
0.0
  0
LINE
  5
D3
330
2
100
AcDbEntity
  8
GAIKEI
 62
     1
100
AcDbLine
 10
15.31671184834522
 20
31.30669358676409
 30
0.0
 11
15.0285386049286
 21
31.30669358676409
 31
0.0
  0
LINE
  5
D4
330
2
100
AcDbEntity
  8
GAIKEI
 62
     1
100
AcDbLine
 10
15.31671184834522
 20
31.01682852391434
 30
0.0
 11
15.31671184834522
 21
31.30669358676409
 31
0.0
  0
LINE
  5
D5
330
2
100
AcDbEntity
  8
GAIKEI
 62
     1
100
AcDbLine
 10
15.42132268328419
 20
31.01682852391434
 30
0.0
 11
15.31671184834522
 21
31.01682852391434
 31
0.0
  0
LINE
  5
D6
330
2
100
AcDbEntity
  8
GAIKEI
 62
     1
100
AcDbLine
 10
15.42132268328419
 20
31.30669358676409
 30
0.0
 11
15.42132268328419
 21
31.01682852391434
 31
0.0
  0
LINE
  5
D7
330
2
100
AcDbEntity
  8
GAIKEI
 62
     1
100
AcDbLine
 10
15.70921395679556
 20
31.30669358676409
 30
0.0
 11
15.42132268328419
 21
31.30669358676409
 31
0.0
  0
LINE
  5
D8
330
2
100
AcDbEntity
  8
GAIKEI
 62
     1
100
AcDbLine
 10
15.70921395679556
 20
31.40721585807336
 30
0.0
 11
15.70921395679556
 21
31.30669358676409
 31
0.0
  0
LINE
  5
D9
330
2
100
AcDbEntity
  8
GAIKEI
 62
     1
100
AcDbLine
 10
15.42132268328419
 20
31.40721585807336
 30
0.0
 11
15.70921395679556
 21
31.40721585807336
 31
0.0
  0
LINE
  5
DA
330
2
100
AcDbEntity
  8
GAIKEI
 62
     1
100
AcDbLine
 10
15.42132268328419
 20
31.69736289082863
 30
0.0
 11
15.42132268328419
 21
31.40721585807336
 31
0.0
  0
LINE
  5
DB
330
2
100
AcDbEntity
  8
GAIKEI
 62
     1
100
AcDbLine
 10
15.31671184834522
 20
31.69736289082863
 30
0.0
 11
15.42132268328419
 21
31.69736289082863
 31
0.0
  0
LINE
  5
DC
330
2
100
AcDbEntity
  8
GAIKEI
 62
     1
100
AcDbLine
 10
15.31671184834522
 20
31.40721585807336
 30
0.0
 11
15.31671184834522
 21
31.69736289082863
 31
0.0
  0
LINE
  5
DD
330
2
100
AcDbEntity
  8
GAIKEI
 62
     1
100
AcDbLine
 10
15.0285386049286
 20
31.40721585807336
 30
0.0
 11
15.31671184834522
 21
31.40721585807336
 31
0.0
  0
ARC
  5
DE
330
2
100
AcDbEntity
  8
GAIKEI
 62
     1
100
AcDbCircle
 10
15.36944022067314
 20
31.35716619984788
 30
0.0
 40
0.9062851578872145
100
AcDbArc
 50
192.844178969412
 51
347.155821030588
  0
ARC
  5
DF
330
2
100
AcDbEntity
  8
GAIKEI
 62
     1
100
AcDbCircle
 10
15.36944022067314
 20
31.35716619984788
 30
0.0
 40
1.309156487669617
100
AcDbArc
 50
27.46730996587879
 51
152.5326900341285
  0
ARC
  5
E0
330
2
100
AcDbEntity
  8
GAIKEI
 62
     1
100
AcDbCircle
 10
15.36944022067314
 20
31.35716619984788
 30
0.0
 40
1.309156487669617
100
AcDbArc
 50
207.474264366603
 51
332.5257356333897
  0
ARC
  5
E1
330
2
100
AcDbEntity
  8
GAIKEI
 62
     1
100
AcDbCircle
 10
15.36944022067314
 20
31.35716619984788
 30
0.0
 40
0.9062851578872145
100
AcDbArc
 50
12.83503725375149
 51
167.1649627462485
  0
CIRCLE
  5
E2
330
2
100
AcDbEntity
  8
GAIKEI
 62
     1
100
AcDbCircle
 10
15.36944022067314
 20
31.35716619984788
 30
0.0
 40
0.5536479094411528
  0
ARC
  5
E3
330
2
100
AcDbEntity
  8
GAIKEI
 62
     1
100
AcDbCircle
 10
12.34933106664721
 20
31.35709570737146
 30
0.0
 40
0.2013970173411334
100
AcDbArc
 50
90.02005772928685
 51
269.9799422707132
  0
ARC
  5
E4
330
2
100
AcDbEntity
  8
GAIKEI
 62
     1
100
AcDbCircle
 10
12.34890820614942
 20
31.35709570737157
 30
0.0
 40
0.6039091478888511
100
AcDbArc
 50
89.96657020962826
 51
270.033429790375
  0
LINE
  5
E5
330
2
100
AcDbEntity
  8
GAIKEI
 62
     1
100
AcDbLine
 10
14.20800617993541
 20
30.75318666227571
 30
0.0
 11
12.34926056290669
 21
30.75318666227577
 31
0.0
  0
LINE
  5
E6
330
2
100
AcDbEntity
  8
GAIKEI
 62
     1
100
AcDbLine
 10
14.48602850675456
 20
31.15569870237107
 30
0.0
 11
12.34926056290669
 21
31.15569870237107
 31
0.0
  0
LINE
  5
E7
330
2
100
AcDbEntity
  8
GAIKEI
 62
     1
100
AcDbLine
 10
14.48602850675456
 20
31.55849271237196
 30
0.0
 11
12.34926056290669
 21
31.55849271237196
 31
0.0
  0
LINE
  5
E8
330
2
100
AcDbEntity
  8
GAIKEI
 62
     1
100
AcDbLine
 10
14.20800617993541
 20
31.96100475246726
 30
0.0
 11
12.34926056290669
 21
31.96100475246726
 31
0.0
  0
CIRCLE
  5
E9
330
2
100
AcDbEntity
  8
GAIKEI
 62
     1
100
AcDbCircle
 10
9.932778472807058
 20
35.48541709373666
 30
0.0
 40
0.6341503174602199
  0
LINE
  5
EA
330
2
100
AcDbEntity
  8
GAIKEI
 62
     1
100
AcDbLine
 10
9.832115216544934
 20
35.83787947560649
 30
0.0
 11
10.03372369897465
 21
35.83787947560649
 31
0.0
  0
LINE
  5
EB
330
2
100
AcDbEntity
  8
GAIKEI
 62
     1
100
AcDbLine
 10
10.03372369897465
 20
35.83787947560649
 30
0.0
 11
10.03372369897465
 21
35.58608034999867
 31
0.0
  0
LINE
  5
EC
330
2
100
AcDbEntity
  8
GAIKEI
 62
     1
100
AcDbLine
 10
10.03372369897465
 20
35.58608034999867
 30
0.0
 11
10.28524085467688
 21
35.58608034999867
 31
0.0
  0
LINE
  5
ED
330
2
100
AcDbEntity
  8
GAIKEI
 62
     1
100
AcDbLine
 10
10.28524085467688
 20
35.58608034999867
 30
0.0
 11
10.28524085467688
 21
35.38475383747459
 31
0.0
  0
LINE
  5
EE
330
2
100
AcDbEntity
  8
GAIKEI
 62
     1
100
AcDbLine
 10
10.28524085467688
 20
35.38475383747459
 30
0.0
 11
10.03372369897465
 21
35.38475383747459
 31
0.0
  0
LINE
  5
EF
330
2
100
AcDbEntity
  8
GAIKEI
 62
     1
100
AcDbLine
 10
10.03372369897465
 20
35.38475383747459
 30
0.0
 11
10.03372369897465
 21
35.13295471186677
 31
0.0
  0
LINE
  5
F0
330
2
100
AcDbEntity
  8
GAIKEI
 62
     1
100
AcDbLine
 10
10.03372369897465
 20
35.13295471186677
 30
0.0
 11
9.832115216544934
 21
35.13295471186677
 31
0.0
  0
LINE
  5
F1
330
2
100
AcDbEntity
  8
GAIKEI
 62
     1
100
AcDbLine
 10
9.832115216544934
 20
35.13295471186677
 30
0.0
 11
9.832115216544934
 21
35.38475383747459
 31
0.0
  0
LINE
  5
F2
330
2
100
AcDbEntity
  8
GAIKEI
 62
     1
100
AcDbLine
 10
9.832115216544934
 20
35.38475383747459
 30
0.0
 11
9.58031609093723
 21
35.38475383747459
 31
0.0
  0
LINE
  5
F3
330
2
100
AcDbEntity
  8
GAIKEI
 62
     1
100
AcDbLine
 10
9.58031609093723
 20
35.38475383747459
 30
0.0
 11
9.58031609093723
 21
35.58608034999867
 31
0.0
  0
LINE
  5
F4
330
2
100
AcDbEntity
  8
GAIKEI
 62
     1
100
AcDbLine
 10
9.58031609093723
 20
35.58608034999867
 30
0.0
 11
9.832115216544934
 21
35.58608034999867
 31
0.0
  0
LINE
  5
F5
330
2
100
AcDbEntity
  8
GAIKEI
 62
     1
100
AcDbLine
 10
9.832115216544934
 20
35.58608034999867
 30
0.0
 11
9.832115216544934
 21
35.83787947560649
 31
0.0
  0
LINE
  5
F6
330
2
100
AcDbEntity
  8
GAIKEI
 62
     1
100
AcDbLine
 10
9.832115216544934
 20
30.5517191647989
 30
0.0
 11
9.832115216544934
 21
30.80351829040671
 31
0.0
  0
LINE
  5
F7
330
2
100
AcDbEntity
  8
GAIKEI
 62
     1
100
AcDbLine
 10
9.58031609093723
 20
30.5517191647989
 30
0.0
 11
9.832115216544934
 21
30.5517191647989
 31
0.0
  0
LINE
  5
F8
330
2
100
AcDbEntity
  8
GAIKEI
 62
     1
100
AcDbLine
 10
9.58031609093723
 20
30.35039265227482
 30
0.0
 11
9.58031609093723
 21
30.5517191647989
 31
0.0
  0
LINE
  5
F9
330
2
100
AcDbEntity
  8
GAIKEI
 62
     1
100
AcDbLine
 10
9.832115216544934
 20
30.35039265227482
 30
0.0
 11
9.58031609093723
 21
30.35039265227482
 31
0.0
  0
LINE
  5
FA
330
2
100
AcDbEntity
  8
GAIKEI
 62
     1
100
AcDbLine
 10
9.832115216544934
 20
30.098593526667
 30
0.0
 11
9.832115216544934
 21
30.35039265227482
 31
0.0
  0
LINE
  5
FB
330
2
100
AcDbEntity
  8
GAIKEI
 62
     1
100
AcDbLine
 10
10.03372369897465
 20
30.098593526667
 30
0.0
 11
9.832115216544934
 21
30.098593526667
 31
0.0
  0
LINE
  5
FC
330
2
100
AcDbEntity
  8
GAIKEI
 62
     1
100
AcDbLine
 10
10.03372369897465
 20
30.35039265227482
 30
0.0
 11
10.03372369897465
 21
30.098593526667
 31
0.0
  0
LINE
  5
FD
330
2
100
AcDbEntity
  8
GAIKEI
 62
     1
100
AcDbLine
 10
10.28524085467688
 20
30.35039265227482
 30
0.0
 11
10.03372369897465
 21
30.35039265227482
 31
0.0
  0
LINE
  5
FE
330
2
100
AcDbEntity
  8
GAIKEI
 62
     1
100
AcDbLine
 10
10.28524085467688
 20
30.5517191647989
 30
0.0
 11
10.28524085467688
 21
30.35039265227482
 31
0.0
  0
LINE
  5
FF
330
2
100
AcDbEntity
  8
GAIKEI
 62
     1
100
AcDbLine
 10
10.03372369897465
 20
30.5517191647989
 30
0.0
 11
10.28524085467688
 21
30.5517191647989
 31
0.0
  0
LINE
  5
100
330
2
100
AcDbEntity
  8
GAIKEI
 62
     1
100
AcDbLine
 10
10.03372369897465
 20
30.80351829040671
 30
0.0
 11
10.03372369897465
 21
30.5517191647989
 31
0.0
  0
LINE
  5
101
330
2
100
AcDbEntity
  8
GAIKEI
 62
     1
100
AcDbLine
 10
9.832115216544934
 20
30.80351829040671
 30
0.0
 11
10.03372369897465
 21
30.80351829040671
 31
0.0
  0
CIRCLE
  5
102
330
2
100
AcDbEntity
  8
GAIKEI
 62
     1
100
AcDbCircle
 10
9.932778472807058
 20
30.45105590853689
 30
0.0
 40
0.6341503174602199
  0
LINE
  5
103
330
2
100
AcDbEntity
  8
GAIKEI
 62
     1
100
AcDbLine
 10
10.73808452290313
 20
29.04162933591573
 30
0.0
 11
10.73808452290313
 21
28.73949858217691
 31
0.0
  0
LINE
  5
104
330
2
100
AcDbEntity
  8
GAIKEI
 62
     1
100
AcDbLine
 10
10.3354314978551
 20
29.04162933591573
 30
0.0
 11
10.73808452290313
 21
29.04162933591573
 31
0.0
  0
LINE
  5
105
330
2
100
AcDbEntity
  8
GAIKEI
 62
     1
100
AcDbLine
 10
10.3354314978551
 20
28.73949858217691
 30
0.0
 11
10.3354314978551
 21
29.04162933591573
 31
0.0
  0
LINE
  5
106
330
2
100
AcDbEntity
  8
GAIKEI
 62
     1
100
AcDbLine
 10
4.093745669798408
 20
36.13669708295572
 30
0.0
 11
4.093745669798408
 21
35.54354833472257
 31
0.0
  0
LINE
  5
107
330
2
100
AcDbEntity
  8
GAIKEI
 62
     1
100
AcDbLine
 10
4.175516942392277
 20
36.13669708295572
 30
0.0
 11
4.093745669798408
 21
36.13669708295572
 31
0.0
  0
ARC
  5
108
330
2
100
AcDbEntity
  8
GAIKEI
 62
     1
100
AcDbCircle
 10
4.364025757679428
 20
34.11797965698082
 30
0.0
 40
0.7688067618532458
100
AcDbArc
 50
180.1820556435284
 51
232.639719823239
  0
LINE
  5
109
330
2
100
AcDbEntity
  8
GAIKEI
 62
     1
100
AcDbLine
 10
3.917232508958022
 20
34.11553680036127
 30
0.0
 11
3.595222876881734
 21
34.11553680036127
 31
0.0
  0
ARC
  5
10A
330
2
100
AcDbEntity
  8
GAIKEI
100
AcDbCircle
 10
21.08358325982635
 20
32.93549274586104
 30
0.0
 40
17.19093585624751
100
AcDbArc
 50
166.096658331451
 51
193.9033416685489
  0
LINE
  5
10B
330
2
100
AcDbEntity
  8
GAIKEI
100
AcDbLine
 10
4.597343921014044
 20
37.26711443408869
 30
0.0
 11
4.396299378395497
 21
37.06621087642287
 31
0.0
  0
LINE
  5
10C
330
2
100
AcDbEntity
  8
GAIKEI
100
AcDbLine
 10
5.301986714848226
 20
37.29192778577238
 30
0.0
 11
4.597343921014044
 21
37.26711443408869
 31
0.0
  0
LINE
  5
10D
330
2
100
AcDbEntity
  8
GAIKEI
100
AcDbLine
 10
4.597343921014044
 20
28.60330711782239
 30
0.0
 11
4.396299378395497
 21
28.80477461529915
 31
0.0
  0
LINE
  5
10E
330
2
100
AcDbEntity
  8
GAIKEI
100
AcDbLine
 10
5.301986714848226
 20
28.53831305460557
 30
0.0
 11
4.597343921014044
 21
28.60330711782239
 31
0.0
  0
LINE
  5
10F
330
2
100
AcDbEntity
  8
GAIKEI
100
AcDbLine
 10
6.006629508682408
 20
28.73949858217691
 30
0.0
 11
65.11264941783998
 21
28.73949858217691
 31
0.0
  0
ARC
  5
110
330
2
100
AcDbEntity
  8
GAIKEI
100
AcDbCircle
 10
6.006839621090875
 20
28.94103520710928
 30
0.0
 40
0.2015367344589423
100
AcDbArc
 50
180.0597338070129
 51
269.940266192961
  0
LINE
  5
111
330
2
100
AcDbEntity
  8
GAIKEI
100
AcDbLine
 10
8.322166372614674
 20
28.53831305460557
 30
0.0
 11
5.301986714848226
 21
28.53831305460557
 31
0.0
  0
LINE
  5
112
330
2
100
AcDbEntity
  8
GAIKEI
100
AcDbLine
 10
8.322166372614674
 20
28.73949858217691
 30
0.0
 11
8.322166372614674
 21
28.53831305460557
 31
0.0
  0
LINE
  5
113
330
2
100
AcDbEntity
  8
GAIKEI
100
AcDbLine
 10
5.301986714848453
 20
37.39738453042781
 30
0.0
 11
65.11318116692269
 21
37.39738453042781
 31
0.0
  0
LINE
  5
114
330
2
100
AcDbEntity
  8
GAIKEI
100
AcDbLine
 10
5.301986714848453
 20
37.39738453042781
 30
0.0
 11
5.301986714848226
 21
28.53831305460557
 31
0.0
  0
ARC
  5
115
330
2
100
AcDbEntity
  8
GAIKEI
 62
     1
100
AcDbCircle
 10
6.006628805468608
 20
36.75308395067714
 30
0.0
 40
0.2013258582178773
100
AcDbArc
 50
89.99979987080843
 51
179.9600629822895
  0
LINE
  5
116
330
2
100
AcDbEntity
  8
GAIKEI
 62
     1
100
AcDbLine
 10
8.322166372614674
 20
36.95440980889379
 30
0.0
 11
6.006629508682408
 21
36.95440980889379
 31
0.0
  0
LINE
  5
117
330
2
100
AcDbEntity
  8
GAIKEI
 62
     1
100
AcDbLine
 10
8.322166372614674
 20
37.39738453042781
 30
0.0
 11
8.322166372614674
 21
36.95440980889379
 31
0.0
  0
LINE
  5
118
330
2
100
AcDbEntity
  8
GAIKEI
 62
     1
100
AcDbLine
 10
5.802765267008908
 20
36.99459052042693
 30
0.0
 11
5.301986714848226
 21
36.99459052042693
 31
0.0
  0
LINE
  5
119
330
2
100
AcDbEntity
  8
GAIKEI
 62
     1
100
AcDbLine
 10
5.808686635024287
 20
28.94082509470093
 30
0.0
 11
5.301986714848226
 21
28.94082509470093
 31
0.0
  0
LINE
  5
11A
330
2
100
AcDbEntity
  8
GAIKEI
 62
     1
100
AcDbLine
 10
5.805302996158388
 20
37.39766650033329
 30
0.0
 11
5.805302996158388
 21
28.54578525710122
 31
0.0
  0
ARC
  5
11B
330
2
100
AcDbEntity
  8
GAIKEI
100
AcDbCircle
 10
-11.38127273480927
 20
37.16821360074778
 30
0.0
 40
0.22917092968
100
AcDbArc
 50
0.0
 51
90.0
  0
ARC
  5
11C
330
2
100
AcDbEntity
  8
GAIKEI
100
AcDbCircle
 10
-48.11850927599289
 20
28.90422159107965
 30
0.0
 40
1.026835841272647
100
AcDbArc
 50
197.3865536512786
 51
342.6134463487214
  0
ELLIPSE
  5
11D
330
2
100
AcDbEntity
  8
GAIKEI
 62
     1
100
AcDbEllipse
 10
-37.37503292174165
 20
30.6760678931226
 30
0.0
 11
0.9025835400483698
 21
-0.0006581286661209
 31
0.0
210
0.0
220
0.0
230
1.0
 40
0.3358338760887368
 41
0.0
 42
6.283185307179586
  0
ELLIPSE
  5
11E
330
2
100
AcDbEntity
  8
GAIKEI
 62
     1
100
AcDbEllipse
 10
-40.05346505404713
 20
30.6760678931226
 30
0.0
 11
0.9025835400483698
 21
-0.0006581286661209
 31
0.0
210
0.0
220
0.0
230
1.0
 40
0.3358338760887368
 41
0.0
 42
6.283185307179586
  0
ELLIPSE
  5
11F
330
2
100
AcDbEntity
  8
GAIKEI
 62
     1
100
AcDbEllipse
 10
-42.74670060639095
 20
30.6760678931226
 30
0.0
 11
0.9025835400483698
 21
-0.0006581286661209
 31
0.0
210
0.0
220
0.0
230
1.0
 40
0.3358338760887368
 41
0.0
 42
6.283185307179586
  0
ELLIPSE
  5
120
330
2
100
AcDbEntity
  8
GAIKEI
 62
     1
100
AcDbEllipse
 10
-46.10566710561056
 20
30.6760678931226
 30
0.0
 11
0.9025835400483698
 21
-0.0006581286661209
 31
0.0
210
0.0
220
0.0
230
1.0
 40
0.3358338760887368
 41
0.0
 42
6.283185307179586
  0
LINE
  5
121
330
2
100
AcDbEntity
  8
GAIKEI
 62
     1
100
AcDbLine
 10
-20.00116334930635
 20
34.75109696734899
 30
0.0
 11
-13.37712632939724
 21
34.75109696734899
 31
0.0
  0
LINE
  5
122
330
2
100
AcDbEntity
  8
GAIKEI
 62
     1
100
AcDbLine
 10
-19.97465817818988
 20
34.94114468365325
 30
0.0
 11
-13.40391347041941
 21
34.94114468365325
 31
0.0
  0
LINE
  5
123
330
2
100
AcDbEntity
  8
GAIKEI
 62
     1
100
AcDbLine
 10
-13.12555648790726
 20
36.25061292477574
 30
0.0
 11
-13.12555648790726
 21
35.00261412305099
 31
0.0
  0
LINE
  5
124
330
2
100
AcDbEntity
  8
GAIKEI
 62
     1
100
AcDbLine
 10
-13.33675194712373
 20
36.20493380008549
 30
0.0
 11
-13.33675194712373
 21
35.00797155125548
 31
0.0
  0
ARC
  5
125
330
2
100
AcDbEntity
  8
GAIKEI
 62
     1
100
AcDbCircle
 10
-13.37700338387503
 20
36.25096491785968
 30
0.0
 40
0.2514471423399748
100
AcDbArc
 50
359.9197933827215
 51
90.01600967215415
  0
ARC
  5
126
330
2
100
AcDbEntity
  8
GAIKEI
 62
     1
100
AcDbCircle
 10
-13.40426297305339
 20
36.20453051417025
 30
0.0
 40
0.0675122304594405
100
AcDbArc
 50
0.3422597378664371
 51
89.89797378652268
  0
ARC
  5
127
330
2
100
AcDbEntity
  8
GAIKEI
 62
     1
100
AcDbCircle
 10
-11.5044705358323
 20
35.60739848699973
 30
0.0
 40
2.012586988290905
100
AcDbArc
 50
160.7164329415587
 51
199.332122800877
  0
ARC
  5
128
330
2
100
AcDbEntity
  8
GAIKEI
 62
     1
100
AcDbCircle
 10
-13.40426297305339
 20
35.00837483717067
 30
0.0
 40
0.0675122304594405
100
AcDbArc
 50
270.1020262134675
 51
359.6577402621238
  0
ARC
  5
129
330
2
100
AcDbEntity
  8
GAIKEI
 62
     1
100
AcDbCircle
 10
-13.37700338387503
 20
35.00226212996717
 30
0.0
 40
0.2514471423399748
100
AcDbArc
 50
269.9839903278361
 51
0.0802066172702716
  0
ARC
  5
12A
330
2
100
AcDbEntity
  8
GAIKEI
 62
     1
100
AcDbCircle
 10
-20.00123360904104
 20
35.00226212996745
 30
0.0
 40
0.2514471423399748
100
AcDbArc
 50
179.9197933827248
 51
270.0160096721575
  0
ARC
  5
12B
330
2
100
AcDbEntity
  8
GAIKEI
 62
     1
100
AcDbCircle
 10
-19.97397401986268
 20
35.00837483717095
 30
0.0
 40
0.0675122304594405
100
AcDbArc
 50
180.3422597378713
 51
269.897973786526
  0
ARC
  5
12C
330
2
100
AcDbEntity
  8
GAIKEI
 62
     1
100
AcDbCircle
 10
-21.87376645708377
 20
35.60739848700013
 30
0.0
 40
2.012586988290905
100
AcDbArc
 50
340.6678771991178
 51
19.2835670584361
  0
ARC
  5
12D
330
2
100
AcDbEntity
  8
GAIKEI
 62
     1
100
AcDbCircle
 10
-19.97397401986268
 20
36.20453051417053
 30
0.0
 40
0.0675122304594405
100
AcDbArc
 50
90.10202621347403
 51
179.6577402621287
  0
ARC
  5
12E
330
2
100
AcDbEntity
  8
GAIKEI
 62
     1
100
AcDbCircle
 10
-20.00123360904104
 20
36.25096491785996
 30
0.0
 40
0.2514471423399748
100
AcDbArc
 50
89.98399032784259
 51
180.0802066172751
  0
LINE
  5
12F
330
2
100
AcDbEntity
  8
GAIKEI
 62
     1
100
AcDbLine
 10
-20.04148504579234
 20
36.20493380008571
 30
0.0
 11
-20.04148504579234
 21
35.00797155125577
 31
0.0
  0
LINE
  5
130
330
2
100
AcDbEntity
  8
GAIKEI
 62
     1
100
AcDbLine
 10
-20.25268050500881
 20
36.25061292477608
 30
0.0
 11
-20.25268050500881
 21
35.00261412305133
 31
0.0
  0
LINE
  5
131
330
2
100
AcDbEntity
  8
GAIKEI
 62
     1
100
AcDbLine
 10
-19.97409423837871
 20
36.27204263759376
 30
0.0
 11
-13.40391347041941
 21
36.27204263759376
 31
0.0
  0
LINE
  5
132
330
2
100
AcDbEntity
  8
GAIKEI
 62
     1
100
AcDbLine
 10
-20.00116334930635
 20
36.5024120503839
 30
0.0
 11
-13.37712632939724
 21
36.5024120503839
 31
0.0
  0
ARC
  5
133
330
2
100
AcDbEntity
  8
GAIKEI
100
AcDbCircle
 10
-53.07024828335261
 20
28.67923251040696
 30
0.0
 40
0.0818467606
100
AcDbArc
 50
180.0
 51
270.0
  0
ARC
  5
134
330
2
100
AcDbEntity
  8
GAIKEI
100
AcDbCircle
 10
-11.2339485657294
 20
28.67923251040696
 30
0.0
 40
0.0818467606
100
AcDbArc
 50
270.0
 51
0.0
  0
LINE
  5
135
330
2
100
AcDbEntity
  8
GAIKEI
100
AcDbLine
 10
-11.2339485657294
 20
28.59738574980702
 30
0.0
 11
-36.07627953702786
 21
28.59738574980702
 31
0.0
  0
LINE
  5
136
330
2
100
AcDbEntity
  8
GAIKEI
 62
     1
100
AcDbLine
 10
-11.21554503386596
 20
28.80491560025195
 30
0.0
 11
-36.07635657929291
 21
28.80491560025195
 31
0.0
  0
LINE
  5
137
330
2
100
AcDbEntity
  8
GAIKEI
 62
     1
100
AcDbLine
 10
-11.21554503386596
 20
32.11806198982851
 30
0.0
 11
-11.21554503386596
 21
28.80491560025195
 31
0.0
  0
LINE
  5
138
330
2
100
AcDbEntity
  8
GAIKEI
 62
     1
100
AcDbLine
 10
-11.31536238041144
 20
34.11553680036127
 30
0.0
 11
-11.31592632022239
 21
32.11806198982851
 31
0.0
  0
ARC
  5
139
330
2
100
AcDbEntity
  8
GAIKEI
 62
     1
100
AcDbCircle
 10
-14.47427123168177
 20
35.218454441946
 30
0.0
 40
1.711408697644791
100
AcDbArc
 50
220.1244642906331
 51
319.875535709367
  0
LINE
  5
13A
330
2
100
AcDbEntity
  8
GAIKEI
 62
     1
100
AcDbLine
 10
-13.72338537334622
 20
34.11553680036127
 30
0.0
 11
-13.67488654960084
 21
33.70583452767579
 31
0.0
  0
LINE
  5
13B
330
2
100
AcDbEntity
  8
GAIKEI
 62
     1
100
AcDbLine
 10
-15.22572102982826
 20
34.11553680036127
 30
0.0
 11
-15.27421985357364
 21
33.70583452767579
 31
0.0
  0
LINE
  5
13C
330
2
100
AcDbEntity
  8
GAIKEI
 62
     1
100
AcDbLine
 10
-13.67488654960084
 20
33.70583452767579
 30
0.0
 11
-11.31592632022239
 21
33.70583452767579
 31
0.0
  0
LINE
  5
13D
330
2
100
AcDbEntity
  8
GAIKEI
 62
     1
100
AcDbLine
 10
-36.07832806573765
 20
34.11553680036127
 30
0.0
 11
-36.07627953702786
 21
28.59738574980702
 31
0.0
  0
LINE
  5
13E
330
2
100
AcDbEntity
  8
GAIKEI
 62
     1
100
AcDbLine
 10
-36.07825332636617
 20
33.70583452767579
 30
0.0
 11
-15.27421985357364
 21
33.70583452767579
 31
0.0
  0
LINE
  5
13F
330
2
100
AcDbEntity
  8
GAIKEI
 62
     1
100
AcDbLine
 10
-36.07832806573765
 20
34.11553680036127
 30
0.0
 11
-11.31536238041144
 21
34.11553680036127
 31
0.0
  0
LINE
  5
140
330
2
100
AcDbEntity
  8
GAIKEI
 62
     1
100
AcDbLine
 10
-36.07825332636617
 20
32.11806198982851
 30
0.0
 11
-11.21554503386596
 21
32.11806198982851
 31
0.0
  0
LINE
  5
141
330
2
100
AcDbEntity
  8
GAIKEI
100
AcDbLine
 10
-11.1521018051294
 20
28.67923251040696
 30
0.0
 11
-11.1521018051294
 21
37.16821360074778
 31
0.0
  0
LINE
  5
142
330
2
100
AcDbEntity
  8
GAIKEI
 62
     1
100
AcDbLine
 10
-53.14941632985028
 20
28.80435166044094
 30
0.0
 11
-36.07635636993905
 21
28.80435166044094
 31
0.0
  0
LINE
  5
143
330
2
100
AcDbEntity
  8
GAIKEI
100
AcDbLine
 10
-53.07024828335261
 20
28.59738574980702
 30
0.0
 11
-36.07627953702786
 21
28.59738574980702
 31
0.0
  0
ARC
  5
144
330
2
100
AcDbEntity
  8
GAIKEI
100
AcDbCircle
 10
-52.96196735563558
 20
37.20758142557406
 30
0.0
 40
0.1901331961434718
100
AcDbArc
 50
86.62333061770118
 51
179.5638862027404
  0
LINE
  5
145
330
2
100
AcDbEntity
  8
GAIKEI
100
AcDbLine
 10
-53.15209504395261
 20
37.20902863355656
 30
0.0
 11
-53.15209504395261
 21
28.67923251040696
 31
0.0
  0
LINE
  5
146
330
2
100
AcDbEntity
  8
GAIKEI
100
AcDbLine
 10
-52.95076853142837
 20
37.39738453042781
 30
0.0
 11
-11.38127273480927
 21
37.39738453042776
 31
0.0
  0
LINE
  5
147
330
2
100
AcDbEntity
  8
GAIKEI
 62
     1
100
AcDbLine
 10
-36.19893644591844
 20
32.11778001992298
 30
0.0
 11
-52.9882705288594
 21
32.11778001992298
 31
0.0
  0
LINE
  5
148
330
2
100
AcDbEntity
  8
GAIKEI
 62
     1
100
AcDbLine
 10
-36.19893644591844
 20
33.68355890514164
 30
0.0
 11
-52.9882705288594
 21
33.68355890514164
 31
0.0
  0
LINE
  5
149
330
2
100
AcDbEntity
  8
GAIKEI
 62
     1
100
AcDbLine
 10
-11.16084287219973
 20
37.06578792156467
 30
0.0
 11
-53.14941632985028
 21
37.06578792156467
 31
0.0
  0
LINE
  5
14A
330
2
100
AcDbEntity
  8
GAIKEI
  6
Continuous
 62
     1
100
AcDbLine
 10
-36.05210180512938
 20
34.8927760296084
 30
0.0
 11
-22.0321018051294
 21
34.8927760296084
 31
0.0
  0
LINE
  5
14B
330
2
100
AcDbEntity
  8
GAIKEI
  6
Continuous
 62
     1
100
AcDbLine
 10
-36.05210180512938
 20
35.29277602960838
 30
0.0
 11
-22.0321018051294
 21
35.29277602960838
 31
0.0
  0
LINE
  5
14C
330
2
100
AcDbEntity
  8
GAIKEI
  6
Continuous
 62
     1
100
AcDbLine
 10
-36.05210180512938
 20
35.79277602960838
 30
0.0
 11
-22.0321018051294
 21
35.79277602960838
 31
0.0
  0
LINE
  5
14D
330
2
100
AcDbEntity
  8
GAIKEI
  6
Continuous
 62
     1
100
AcDbLine
 10
-36.05210180512938
 20
36.19277602960835
 30
0.0
 11
-22.0321018051294
 21
36.19277602960835
 31
0.0
  0
SPLINE
  5
14E
330
2
100
AcDbEntity
  8
GAIKEI
  6
Continuous
 62
     1
100
AcDbSpline
210
0.0
220
0.0
230
1.0
 70
     8
 71
     3
 72
    24
 73
    20
 74
    18
 42
0.0000000001
 43
0.0000000001
 44
0.0000000001
 40
0.0
 40
0.0
 40
0.0
 40
0.0
 40
0.0365683983348248
 40
0.0732147840632353
 40
0.1099289315131176
 40
0.1467659045479293
 40
0.1836478127473814
 40
0.2207624931956496
 40
0.2578350858295384
 40
0.2951689287650372
 40
0.3323504080139013
 40
0.3697387143010773
 40
0.4068557682703453
 40
0.4440649432509228
 40
0.4809428726432289
 40
0.5178067098805716
 40
0.5544319990655252
 40
0.591023204750103
 40
0.6274246864114705
 40
0.6274246864114705
 40
0.6274246864114705
 40
0.6274246864114705
 10
-36.05210180512933
 20
35.79277602960826
 30
0.0
 10
-36.06430822235888
 20
35.79342311734479
 30
0.0
 10
-36.08874708876655
 20
35.79471867282592
 30
0.0
 10
-36.12421328119783
 20
35.8051011734911
 30
0.0
 10
-36.15733792575048
 20
35.82134826538549
 30
0.0
 10
-36.18697342245236
 20
35.8435626155777
 30
0.0
 10
-36.2121251221148
 20
35.87090250713373
 30
0.0
 10
-36.23185263739319
 20
35.90248661936448
 30
0.0
 10
-36.24546337465057
 20
35.93730797493771
 30
0.0
 10
-36.25239409719185
 20
35.97407435897992
 30
0.0
 10
-36.25238520903338
 20
36.01159107786339
 30
0.0
 10
-36.24542568875461
 20
36.04838650092734
 30
0.0
 10
-36.2317612153
 20
36.08325690636622
 30
0.0
 10
-36.21197081282699
 20
36.1148565591339
 30
0.0
 10
-36.18675332140799
 20
36.14218905908876
 30
0.0
 10
-36.15710202745976
 20
36.16434610044257
 30
0.0
 10
-36.12399184194555
 20
36.18053146955856
 30
0.0
 10
-36.088616686704
 20
36.19084882784034
 30
0.0
 10
-36.06425232287688
 20
36.19213474314449
 30
0.0
 10
-36.05210180512933
 20
36.19277602960835
 30
0.0
 11
-36.05210180512933
 21
35.79277602960826
 31
0.0
 11
-36.08851706716945
 21
35.79611914900841
 31
0.0
 11
-36.12378804144959
 21
35.80606479932828
 31
0.0
 11
-36.15671023056956
 21
35.82231466352835
 31
0.0
 11
-36.18619884260937
 21
35.84439144640839
 31
0.0
 11
-36.21116569780935
 21
35.87153792488823
 31
0.0
 11
-36.23082832636925
 21
35.9030161799684
 31
0.0
 11
-36.24432439376943
 21
35.93754491132836
 31
0.0
 11
-36.25124030212959
 21
35.97423259372841
 31
0.0
 11
-36.25123146988944
 21
36.01141407192824
 31
0.0
 11
-36.24428299380947
 21
36.0481510305284
 31
0.0
 11
-36.23074100704952
 21
36.08270953584838
 31
0.0
 11
-36.2109901732893
 21
36.11424407672837
 31
0.0
 11
-36.18598704812945
 21
36.14135174000842
 31
0.0
 11
-36.15644396000943
 21
36.1634005141284
 31
0.0
 11
-36.12357978764948
 21
36.17956708404836
 31
0.0
 11
-36.08835224080946
 21
36.18946335996839
 31
0.0
 11
-36.05210180512933
 21
36.19277602960835
 31
0.0
  0
SPLINE
  5
14F
330
2
100
AcDbEntity
  8
GAIKEI
  6
Continuous
 62
     1
100
AcDbSpline
210
0.0
220
0.0
230
1.0
 70
     8
 71
     3
 72
    24
 73
    20
 74
    18
 42
0.0000000001
 43
0.0000000001
 44
0.0000000001
 40
0.0
 40
0.0
 40
0.0
 40
0.0
 40
0.0364502547489201
 40
0.0730046994403854
 40
0.109658638500823
 40
0.1464784282857022
 40
0.1833856711690882
 40
0.2205524598782481
 40
0.2576784622344417
 40
0.2950462195922332
 40
0.3322279253673831
 40
0.3695817854608581
 40
0.4066453365114329
 40
0.4438012220639843
 40
0.4806545185030386
 40
0.5175349254639078
 40
0.5542197336613717
 40
0.59089944204798
 40
0.6274246879429015
 40
0.6274246879429015
 40
0.6274246879429015
 40
0.6274246879429015
 10
-22.03210180512923
 20
36.19277602960835
 30
0.0
 10
-22.01993493760296
 20
36.19213310466262
 30
0.0
 10
-21.99556642459794
 20
36.19084541702489
 30
0.0
 10
-21.96018022072519
 20
36.18051903970008
 30
0.0
 10
-21.92708742628111
 20
36.1643368632603
 30
0.0
 10
-21.89743501979717
 20
36.14217467465233
 30
0.0
 10
-21.87223169906707
 20
36.11485444999437
 30
0.0
 10
-21.85244314103744
 20
36.08325604268026
 30
0.0
 10
-21.83878307488573
 20
36.04840311943752
 30
0.0
 10
-21.83182105312804
 20
36.01161236057499
 30
0.0
 10
-21.83180686922717
 20
35.9740957417838
 30
0.0
 10
-21.83873507010807
 20
35.93732475990379
 30
0.0
 10
-21.85234992024175
 20
35.9024864576802
 30
0.0
 10
-21.87207900844351
 20
35.87090117785306
 30
0.0
 10
-21.8972444523387
 20
35.84354909638034
 30
0.0
 10
-21.92687854385702
 20
35.82133984484562
 30
0.0
 10
-21.96001900026403
 20
35.80508994864516
 30
0.0
 10
-21.99547439489049
 20
35.79471566033431
 30
0.0
 10
-22.0199098546606
 20
35.79342166307203
 30
0.0
 10
-22.03210180512923
 20
35.79277602960826
 30
0.0
 11
-22.03210180512923
 21
36.19277602960835
 31
0.0
 11
-21.99580320516924
 21
36.18945447692841
 31
0.0
 11
-21.96061255832939
 21
36.17956277324834
 31
0.0
 11
-21.92772481788944
 21
36.16337920820843
 31
0.0
 11
-21.89821909068945
 21
36.14135401848841
 31
0.0
 11
-21.87319762604937
 21
36.11422339216836
 31
0.0
 11
-21.85347003924932
 21
36.08272430484829
 31
0.0
 11
-21.83992270652931
 21
36.04815828356834
 31
0.0
 11
-21.83297476916942
 21
36.01144213648843
 31
0.0
 11
-21.83296071772935
 21
35.97426043336839
 31
0.0
 11
-21.83987704748944
 21
35.93755246084834
 31
0.0
 11
-21.85336768388942
 21
35.90303131448843
 31
0.0
 11
-21.87305273392923
 21
35.87151848160841
 31
0.0
 11
-21.8980015879294
 21
35.84439432000841
 31
0.0
 11
-21.92752690608921
 21
35.82229409364845
 31
0.0
 11
-21.96042478324927
 21
35.80606126176838
 31
0.0
 11
-21.99572915328957
 21
35.7961112636084
 31
0.0
 11
-22.03210180512923
 21
35.79277602960826
 31
0.0
  0
SPLINE
  5
150
330
2
100
AcDbEntity
  8
GAIKEI
  6
Continuous
 62
     1
100
AcDbSpline
210
0.0
220
0.0
230
1.0
 70
     8
 71
     3
 72
    24
 73
    20
 74
    18
 42
0.0000000001
 43
0.0000000001
 44
0.0000000001
 40
0.0
 40
0.0
 40
0.0
 40
0.0
 40
0.0367418266520875
 40
0.0735426495789794
 40
0.110373474153998
 40
0.1472677482574352
 40
0.1841406674804202
 40
0.2211726020990148
 40
0.2581032870709053
 40
0.2952522342569295
 40
0.3322241186465557
 40
0.3694146136123975
 40
0.4063692370615237
 40
0.4434764875661693
 40
0.480338431425871
 40
0.5172649689724933
 40
0.5540300614183168
 40
0.5908031859298337
 40
0.6274248013827135
 40
0.6274248013827135
 40
0.6274248013827135
 40
0.6274248013827135
 10
-36.05210180512933
 20
34.8927760296084
 30
0.0
 10
-36.06436627703684
 20
34.8934292768605
 30
0.0
 10
-36.08891491388892
 20
34.89473682028256
 30
0.0
 10
-36.12451355967403
 20
34.90520839687849
 30
0.0
 10
-36.15770625694614
 20
34.92156848715308
 30
0.0
 10
-36.18733365931507
 20
34.94388699458864
 30
0.0
 10
-36.2124091053351
 20
34.97128103100164
 30
0.0
 10
-36.23202308993277
 20
35.00284244875377
 30
0.0
 10
-36.24552412533791
 20
35.03755744335433
 30
0.0
 10
-36.2523888299815
 20
35.0741510476675
 30
0.0
 10
-36.25238402162751
 20
35.1114667420307
 30
0.0
 10
-36.24550186010981
 20
35.14807996674619
 30
0.0
 10
-36.23196534032763
 20
35.18283198658679
 30
0.0
 10
-36.2123106431082
 20
35.21440415372973
 30
0.0
 10
-36.1871878104516
 20
35.24179830451385
 30
0.0
 10
-36.15754978182861
 20
35.26407875511456
 30
0.0
 10
-36.12436135302596
 20
35.28039953778733
 30
0.0
 10
-36.08882500218005
 20
35.29082616911558
 30
0.0
 10
-36.06432601302544
 20
35.29212697119442
 30
0.0
 10
-36.05210180512933
 20
35.29277602960827
 30
0.0
 11
-36.05210180512933
 21
34.8927760296084
 31
0.0
 11
-36.08868830324917
 21
34.89615093420832
 31
0.0
 11
-36.12409532064948
 21
34.90618306692829
 31
0.0
 11
-36.15709046212925
 21
34.92254858792842
 31
0.0
 11
-36.18657232532934
 21
34.94472982332843
 31
0.0
 11
-36.21146524152943
 21
34.97193193528835
 31
0.0
 11
-36.23101278152916
 21
35.00338440516839
 31
0.0
 11
-36.24439859448927
 21
35.03780381108845
 31
0.0
 11
-36.25124803776947
 21
35.07431585572829
 31
0.0
 11
-36.25124325380938
 21
35.11128773980841
 31
0.0
 11
-36.24437287772952
 21
35.14783812760834
 31
0.0
 11
-36.23096022080944
 21
35.18227277336825
 31
0.0
 11
-36.21134845064938
 21
35.2137739878084
 31
0.0
 11
-36.18643743904949
 21
35.24094464120845
 31
0.0
 11
-36.15690779176936
 21
35.26311599900839
 31
0.0
 11
-36.12395672176916
 21
35.27942240904838
 31
0.0
 11
-36.0885696138094
 21
35.28942317284839
 31
0.0
 11
-36.05210180512933
 21
35.29277602960827
 31
0.0
  0
SPLINE
  5
151
330
2
100
AcDbEntity
  8
GAIKEI
  6
Continuous
 62
     1
100
AcDbSpline
210
0.0
220
0.0
230
1.0
 70
     8
 71
     3
 72
    24
 73
    20
 74
    18
 42
0.0000000001
 43
0.0000000001
 44
0.0000000001
 40
0.0
 40
0.0
 40
0.0
 40
0.0
 40
0.0366647659054409
 40
0.0734060529508167
 40
0.1101981754122472
 40
0.1470818299454623
 40
0.1839714557889822
 40
0.2210372475356348
 40
0.2580021229748683
 40
0.2951726248643167
 40
0.3321446482115644
 40
0.3693132333745753
 40
0.4062335761283803
 40
0.4433062145585016
 40
0.4801519255262888
 40
0.5170886265374673
 40
0.5538919824864408
 40
0.5907224253500177
 40
0.6274248022632892
 40
0.6274248022632892
 40
0.6274248022632892
 40
0.6274248022632892
 10
-22.03210180512923
 20
35.29277602960827
 30
0.0
 10
-22.01986313132576
 20
35.29212551176886
 30
0.0
 10
-21.99536024101462
 20
35.29082311842791
 30
0.0
 10
-21.95981338591025
 20
35.28038818123434
 30
0.0
 10
-21.92664090792749
 20
35.26407020832221
 30
0.0
 10
-21.89700213442541
 20
35.24178527183028
 30
0.0
 10
-21.87189307768699
 20
35.21440359149972
 30
0.0
 10
-21.85223973498444
 20
35.18283272068936
 30
0.0
 10
-21.83870704190491
 20
35.14809738626906
 30
0.0
 10
-21.8318222286126
 20
35.11148823571045
 30
0.0
 10
-21.83181214582541
 20
35.07417261247975
 30
0.0
 10
-21.83867418006693
 20
35.03757499510891
 30
0.0
 10
-21.85217884325934
 20
35.00284367031668
 30
0.0
 10
-21.87179400026904
 20
34.97128100348351
 30
0.0
 10
-21.8968829357508
 20
34.94387455653038
 30
0.0
 10
-21.9265093882878
 20
34.92156050314907
 30
0.0
 10
-21.95971699552439
 20
34.90519785068773
 30
0.0
 10
-21.9953053190196
 20
34.89473403494526
 30
0.0
 10
-22.01985055922205
 20
34.89342793981524
 30
0.0
 10
-22.03210180512923
 20
34.8927760296084
 30
0.0
 11
-22.03210180512923
 21
35.29277602960827
 31
0.0
 11
-21.99559139108913
 21
35.28941526696838
 31
0.0
 11
-21.96023628716927
 21
35.2794183274084
 31
0.0
 11
-21.92726302580928
 21
35.26309581808835
 31
0.0
 11
-21.8977695508093
 21
35.24094770520822
 31
0.0
 11
-21.87284110156924
 21
35.21375548364836
 31
0.0
 11
-21.85325162368958
 21
35.18228922752837
 31
0.0
 11
-21.83983296364937
 21
35.14784591788828
 31
0.0
 11
-21.83296296704947
 21
35.11131580212839
 31
0.0
 11
-21.83295298596937
 21
35.0743437801284
 31
0.0
 11
-21.83980272892933
 21
35.03781181132842
 31
0.0
 11
-21.85318246816934
 21
35.00340114020844
 31
0.0
 11
-21.87275176668942
 21
34.97191426872837
 31
0.0
 11
-21.8976274711693
 21
34.94473328744823
 31
0.0
 11
-21.92714503064946
 21
34.92252892832835
 31
0.0
 11
-21.96011749884934
 21
34.90617951396837
 31
0.0
 11
-21.99555425624936
 21
34.89614369080835
 31
0.0
 11
-22.03210180512923
 21
34.8927760296084
 31
0.0
  0
TEXT
  5
152
330
2
100
AcDbEntity
  8
TOUROKU
100
AcDbText
 10
49.46795433807777
 20
55.8877600925195
 30
0.0
 40
2.0
  1
ＤＧＧＸＤ４００
 72
     2
 11
67.73462100474444
 21
55.8877600925195
 31
0.0
100
AcDbText
  0
TEXT
  5
154
330
2
100
AcDbEntity
  8
MOJI1
100
AcDbText
 10
-54.76532902818314
 20
-46.82820541428429
 30
0.0
 40
3.0
  1
ネットワーク
100
AcDbText
  0
TEXT
  5
155
330
2
100
AcDbEntity
  8
MOJI1
100
AcDbText
 10
-14.76532902818314
 20
-46.82820541428429
 30
0.0
 40
3.0
  1
１００ＢＡＳＥ－ＴＸ／１０００ＢＡＳＥ－Ｔ（ＲＪ４５）
 41
0.85
100
AcDbText
  0
TEXT
  5
156
330
2
100
AcDbEntity
  8
MOJI1
100
AcDbText
 10
-54.76532902818314
 20
-21.8282054142843
 30
0.0
 40
3.0
  1
カメラグループ登録数
100
AcDbText
  0
TEXT
  5
157
330
2
100
AcDbEntity
  8
MOJI1
100
AcDbText
 10
-54.76532902818314
 20
-26.8282054142843
 30
0.0
 40
3.0
  1
シーケンス登録数
100
AcDbText
  0
TEXT
  5
158
330
2
100
AcDbEntity
  8
MOJI1
100
AcDbText
 10
-14.76532902818314
 20
-21.8282054142843
 30
0.0
 40
3.0
  1
最大６４
100
AcDbText
  0
TEXT
  5
159
330
2
100
AcDbEntity
  8
MOJI1
100
AcDbText
 10
-14.76532902818314
 20
-26.8282054142843
 30
0.0
 40
3.0
  1
グループ／ツアーシーケンス：各最大６４ステップ、１０パターン
 41
0.75
100
AcDbText
  0
LINE
  5
15A
330
2
100
AcDbEntity
  8
WAKU
 62
     1
100
AcDbLine
 10
-57.26532902818314
 20
-27.8282054142843
 30
0.0
 11
67.73467097181685
 21
-27.8282054142843
 31
0.0
  0
LINE
  5
15C
330
2
100
AcDbEntity
  8
WAKU
 62
     1
100
AcDbLine
 10
-57.26532902818314
 20
-22.8282054142843
 30
0.0
 11
67.73467097181685
 21
-22.8282054142843
 31
0.0
  0
TEXT
  5
15D
330
2
100
AcDbEntity
  8
MOJI1
100
AcDbText
 10
-14.76532902818314
 20
-11.8282054142843
 30
0.0
 40
3.0
  1
６画面：ＶＧＡ(６４０×４８０)×６画
100
AcDbText
  0
TEXT
  5
15E
330
2
100
AcDbEntity
  8
MOJI1
100
AcDbText
 10
-14.76532902818314
 20
-1.828205414284298
 30
0.0
 40
3.0
  1
３画面：４ＶＧＡ(１２８０×９６０)×１画
100
AcDbText
  0
TEXT
  5
15F
330
2
100
AcDbEntity
  8
MOJI1
100
AcDbText
 10
-14.76532902818314
 20
3.171794585715701
 30
0.0
 40
3.0
  1
ラインレベル、不平衡×１（ＲＣＡピン)
100
AcDbText
  0
TEXT
  5
160
330
2
100
AcDbEntity
  8
MOJI1
100
AcDbText
 10
-14.76532902818314
 20
13.1717945857157
 30
0.0
 40
3.0
  1
ＤＣ１２Ｖ１．４Ａ（ＡＣアダプター付属)／消費電力：約１７Ｗ
 41
0.75
100
AcDbText
  0
LINE
  5
161
330
2
100
AcDbEntity
  8
WAKU
 62
     1
100
AcDbLine
 10
-57.26532902818314
 20
-17.8282054142843
 30
0.0
 11
67.73467097181685
 21
-17.8282054142843
 31
0.0
  0
LINE
  5
162
330
2
100
AcDbEntity
  8
WAKU
 62
     1
100
AcDbLine
 10
-57.26532902818314
 20
-12.8282054142843
 30
0.0
 11
67.73467097181685
 21
-12.8282054142843
 31
0.0
  0
LINE
  5
163
330
2
100
AcDbEntity
  8
WAKU
 62
     1
100
AcDbLine
 10
-57.26532902818314
 20
7.171794585715701
 30
0.0
 11
67.73467097181685
 21
7.171794585715701
 31
0.0
  0
LINE
  5
164
330
2
100
AcDbEntity
  8
WAKU
 62
     1
100
AcDbLine
 10
-57.26532902818314
 20
12.1717945857157
 30
0.0
 11
67.73467097181685
 21
12.1717945857157
 31
0.0
  0
LINE
  5
165
330
2
100
AcDbEntity
  8
WAKU
 62
     4
100
AcDbLine
 10
-57.26532902818314
 20
17.1717945857157
 30
0.0
 11
67.73467097181685
 21
17.1717945857157
 31
0.0
  0
LINE
  5
166
330
2
100
AcDbEntity
  8
WAKU
 62
     1
100
AcDbLine
 10
-57.26532902818314
 20
-2.828205414284298
 30
0.0
 11
67.73467097181685
 21
-2.828205414284298
 31
0.0
  0
LINE
  5
167
330
2
100
AcDbEntity
  8
WAKU
 62
     1
100
AcDbLine
 10
-57.26532902818314
 20
2.171794585715701
 30
0.0
 11
67.73467097181685
 21
2.171794585715701
 31
0.0
  0
LINE
  5
168
330
2
100
AcDbEntity
  8
WAKU
 62
     4
100
AcDbLine
 10
-57.26532902818314
 20
17.1717945857157
 30
0.0
 11
-57.26532902818314
 21
-47.8282054142843
 31
0.0
  0
LINE
  5
169
330
2
100
AcDbEntity
  8
WAKU
 62
     4
100
AcDbLine
 10
-17.26532902818314
 20
17.1717945857157
 30
0.0
 11
-17.26532902818314
 21
-47.8282054142843
 31
0.0
  0
TEXT
  5
16A
330
2
100
AcDbEntity
  8
MOJI1
100
AcDbText
 10
-54.76532902818314
 20
3.171794585715701
 30
0.0
 40
3.0
  1
音声出力
100
AcDbText
  0
TEXT
  5
16B
330
2
100
AcDbEntity
  8
MOJI1
100
AcDbText
 10
-54.76532902818314
 20
-1.828205414284298
 30
0.0
 40
3.0
  1
多画面表示
100
AcDbText
  0
TEXT
  5
16C
330
2
100
AcDbEntity
  8
MOJI1
100
AcDbText
 10
-54.76532902818314
 20
13.1717945857157
 30
0.0
 40
3.0
  1
電源／消費電力
100
AcDbText
  0
LINE
  5
16D
330
2
100
AcDbEntity
  8
WAKU
 62
     4
100
AcDbLine
 10
67.73467097181685
 20
17.1717945857157
 30
0.0
 11
67.73467097181685
 21
-47.8282054142843
 31
0.0
  0
TEXT
  5
16E
330
2
100
AcDbEntity
  8
MOJI1
100
AcDbText
 10
-14.76532902818314
 20
-16.8282054142843
 30
0.0
 40
3.0
  1
１画面、３画面、６画面  (同一レイアウト)
100
AcDbText
  0
TEXT
  5
16F
330
2
100
AcDbEntity
  8
MOJI1
100
AcDbText
 10
-54.76532902818314
 20
-16.8282054142843
 30
0.0
 40
3.0
  1
シーケンス表示
100
AcDbText
  0
TEXT
  5
170
330
2
100
AcDbEntity
  8
MOJI1
100
AcDbText
 10
-54.76532902818314
 20
8.171794585715701
 30
0.0
 40
3.0
  1
映像出力
100
AcDbText
  0
TEXT
  5
171
330
2
100
AcDbEntity
  8
MOJI1
100
AcDbText
 10
-14.76532902818314
 20
8.171794585715701
 30
0.0
 40
3.0
  1
ＨＤＭＩ（１９２０×１０８０)×１、ＮＴＳＣコンポジット×１
 41
0.75
100
AcDbText
  0
LINE
  5
172
330
2
100
AcDbEntity
  8
WAKU
 62
     4
100
AcDbLine
 10
-57.26532902818314
 20
-47.8282054142843
 30
0.0
 11
67.73467097181685
 21
-47.8282054142843
 31
0.0
  0
LINE
  5
173
330
2
100
AcDbEntity
  8
WAKU
 62
     1
100
AcDbLine
 10
-57.26532902818314
 20
-32.8282054142843
 30
0.0
 11
67.73467097181685
 21
-32.8282054142843
 31
0.0
  0
LINE
  5
174
330
2
100
AcDbEntity
  8
WAKU
 62
     1
100
AcDbLine
 10
-57.26532902818314
 20
-37.8282054142843
 30
0.0
 11
67.73467097181685
 21
-37.8282054142843
 31
0.0
  0
LINE
  5
175
330
2
100
AcDbEntity
  8
WAKU
 62
     1
100
AcDbLine
 10
-57.26532902818314
 20
-42.8282054142843
 30
0.0
 11
67.73467097181685
 21
-42.8282054142843
 31
0.0
  0
TEXT
  5
176
330
2
100
AcDbEntity
  8
MOJI1
100
AcDbText
 10
-54.76532902818314
 20
-31.8282054142843
 30
0.0
 40
3.0
  1
カメラタイトル
100
AcDbText
  0
TEXT
  5
177
330
2
100
AcDbEntity
  8
MOJI1
100
AcDbText
 10
-54.76532902818314
 20
-41.82820541428429
 30
0.0
 40
3.0
  1
対応画像圧縮方式
100
AcDbText
  0
TEXT
  5
178
330
2
100
AcDbEntity
  8
MOJI1
100
AcDbText
 10
-54.76532902818314
 20
-36.8282054142843
 30
0.0
 40
3.0
  1
アラーム／コントロール端子
 41
0.8
100
AcDbText
  0
TEXT
  5
179
330
2
100
AcDbEntity
  8
MOJI1
100
AcDbText
 10
-14.76532902818314
 20
-31.8282054142843
 30
0.0
 40
3.0
  1
最大半角／全角１６文字(ＪＩＳ第二水準、英数、カナ対応)
 41
0.8
100
AcDbText
  0
TEXT
  5
17A
330
2
100
AcDbEntity
  8
MOJI1
100
AcDbText
 10
-14.76532902818314
 20
-41.82820541428429
 30
0.0
 40
3.0
  1
ＪＰＥＧ／ＭＰＥＧ－４
100
AcDbText
  0
TEXT
  5
17B
330
2
100
AcDbEntity
  8
MOJI1
100
AcDbText
 10
-14.76532902818314
 20
-36.8282054142843
 30
0.0
 40
3.0
  1
アラーム復帰入力×１、アラーム出力×１、異常出力×１
 41
0.85
100
AcDbText
  0
LINE
  5
17C
330
2
100
AcDbEntity
  8
WAKU
 62
     1
100
AcDbLine
 10
-57.26532902818314
 20
-7.828205414284298
 30
0.0
 11
67.73467097181685
 21
-7.828205414284298
 31
0.0
  0
TEXT
  5
17D
330
2
100
AcDbEntity
  8
MOJI1
100
AcDbText
 10
-14.76532902818314
 20
-6.828205414284298
 30
0.0
 40
3.0
  1
＋ＶＧＡ(６４０×４８０)×２画
100
AcDbText
  0
ENDSEC
  0
SECTION
  2
OBJECTS
  0
DICTIONARY
  5
7
330
0
100
AcDbDictionary
281
     1
  3
ACAD_COLOR
350
26
  3
ACAD_GROUP
350
22
  3
ACAD_LAYOUT
350
B
  3
ACAD_MATERIAL
350
25
  3
ACAD_MLINESTYLE
350
23
  3
ACAD_PLOTSETTINGS
350
24
  3
ACAD_PLOTSTYLENAME
350
6
  3
ACDBHEADERROUNDTRIPXREC
350
1BE
  3
AcDbVariableDictionary
350
1B9
  3
ASE_INDEX_DICTIONARY
350
186
  0
DICTIONARY
  5
11
330
10
100
AcDbDictionary
280
     1
281
     1
  3
ACAD_LAYERSTATES
360
12
  0
DICTIONARY
  5
26
102
{ACAD_REACTORS
330
7
102
}
330
7
100
AcDbDictionary
281
     1
  0
DICTIONARY
  5
22
102
{ACAD_REACTORS
330
7
102
}
330
7
100
AcDbDictionary
281
     1
  0
DICTIONARY
  5
B
102
{ACAD_REACTORS
330
7
102
}
330
7
100
AcDbDictionary
281
     1
  3
Model
350
A
  3
レイアウト1
350
F
  0
DICTIONARY
  5
25
102
{ACAD_REACTORS
330
7
102
}
330
7
100
AcDbDictionary
281
     1
  0
DICTIONARY
  5
23
102
{ACAD_REACTORS
330
7
102
}
330
7
100
AcDbDictionary
281
     1
  3
Standard
350
28
  0
DICTIONARY
  5
24
102
{ACAD_REACTORS
330
7
102
}
330
7
100
AcDbDictionary
281
     1
  0
ACDBDICTIONARYWDFLT
  5
6
102
{ACAD_REACTORS
330
7
102
}
330
7
100
AcDbDictionary
281
     1
  3
Normal
350
5
100
AcDbDictionaryWithDefault
340
5
  0
DICTIONARY
  5
1BE
102
{ACAD_REACTORS
330
7
102
}
330
7
100
AcDbDictionary
281
     1
  3
COLORDICT
350
1C0
  3
MATERIALDICT
350
1BF
  0
DICTIONARY
  5
1B9
102
{ACAD_REACTORS
330
7
102
}
330
7
100
AcDbDictionary
281
     1
  3
DIMASSOC
350
1BB
  3
HIDETEXT
350
1BA
  3
PROJECTNAME
350
1BC
  0
DICTIONARY
  5
186
102
{ACAD_REACTORS
330
7
102
}
330
7
100
AcDbDictionary
281
     1
  3
ASEBlockHierarchyIndexRecord
350
188
1001
DCO15
1040
1633946223.013
  0
DICTIONARY
  5
12
102
{ACAD_REACTORS
330
11
102
}
330
11
100
AcDbDictionary
281
     1
  0
LAYOUT
  5
A
102
{ACAD_XDICTIONARY
360
1C1
102
}
102
{ACAD_REACTORS
330
B
102
}
330
B
100
AcDbPlotSettings
  1

  2
Ａ４－縦3FRIM01.pc3
  4
A4
  6

 40
5.873749732971191
 41
5.873747825622558
 42
5.873748779296875
 43
5.873748779296875
 44
209.9733276367187
 45
296.9259948730469
 46
5.419999999999999
 47
0.0
 48
0.0
 49
0.0
140
0.0
141
0.0
142
1.0
143
1.382430990074067
 70
 11956
 72
     1
 73
     0
 74
     1
  7
tmsacad.ctb
 75
     0
147
0.7233634135664325
148
0.0128164608993302
149
0.0120295854767392
100
AcDbLayout
  1
Model
 70
     1
 71
     0
 10
0.0
 20
0.0
 11
12.0
 21
9.0
 12
0.0
 22
0.0
 32
0.0
 14
0.0
 24
0.0
 34
0.0
 15
0.0
 25
0.0
 35
0.0
146
0.0
 13
0.0
 23
0.0
 33
0.0
 16
1.0
 26
0.0
 36
0.0
 17
0.0
 27
1.0
 37
0.0
 76
     0
330
2
  0
LAYOUT
  5
F
102
{ACAD_XDICTIONARY
360
1C3
102
}
102
{ACAD_REACTORS
330
B
102
}
330
B
100
AcDbPlotSettings
  1

  2
None
  4

  6

 40
0.0
 41
0.0
 42
0.0
 43
0.0
 44
0.0
 45
0.0
 46
0.0
 47
0.0
 48
0.0
 49
0.0
140
0.0
141
0.0
142
1.0
143
1.0
 70
   688
 72
     0
 73
     0
 74
     5
  7
tmsacad.ctb
 75
    16
147
1.0
148
0.0
149
0.0
100
AcDbLayout
  1
レイアウト1
 70
     1
 71
     1
 10
0.0
 20
0.0
 11
12.0
 21
9.0
 12
0.0
 22
0.0
 32
0.0
 14
0.0
 24
0.0
 34
0.0
 15
0.0
 25
0.0
 35
0.0
146
0.0
 13
0.0
 23
0.0
 33
0.0
 16
1.0
 26
0.0
 36
0.0
 17
0.0
 27
1.0
 37
0.0
 76
     0
330
C
  0
MLINESTYLE
  5
28
102
{ACAD_REACTORS
330
23
102
}
330
23
100
AcDbMlineStyle
  2
STANDARD
 70
     0
  3

 62
   256
 51
90.0
 52
90.0
 71
     2
 49
0.5
 62
   256
  6
BYLAYER
 49
-0.5
 62
   256
  6
BYLAYER
  0
ACDBPLACEHOLDER
  5
5
102
{ACAD_REACTORS
330
6
102
}
330
6
  0
XRECORD
  5
1C0
102
{ACAD_REACTORS
330
1BE
102
}
330
1BE
100
AcDbXrecord
280
     1
340
26
  0
XRECORD
  5
1BF
102
{ACAD_REACTORS
330
1BE
102
}
330
1BE
100
AcDbXrecord
280
     1
340
25
  0
DICTIONARYVAR
  5
1BB
102
{ACAD_REACTORS
330
1B9
102
}
330
1B9
100
DictionaryVariables
280
     0
  1
2
  0
DICTIONARYVAR
  5
1BA
102
{ACAD_REACTORS
330
1B9
102
}
330
1B9
100
DictionaryVariables
280
     0
  1
1
  0
DICTIONARYVAR
  5
1BC
102
{ACAD_REACTORS
330
1B9
102
}
330
1B9
100
DictionaryVariables
280
     0
  1

  0
XRECORD
  5
188
102
{ACAD_REACTORS
330
186
102
}
330
186
100
AcDbXrecord
280
     1
330
54
330
55
330
47
330
48
330
39
330
3A
330
199
330
19A
330
1A5
330
1A6
330
1B1
330
1B2
  0
DICTIONARY
  5
1C1
330
A
100
AcDbDictionary
280
     1
281
     1
  3
ACAD_XREC_ROUNDTRIP
360
1C2
  0
DICTIONARY
  5
1C3
330
F
100
AcDbDictionary
280
     1
281
     1
  3
ACAD_XREC_ROUNDTRIP
360
1C4
  0
XRECORD
  5
1C2
102
{ACAD_REACTORS
330
1C1
102
}
330
1C1
100
AcDbXrecord
280
     1
102
SHADEPLOT
 70
     0
102
SHADEPLOTRESLEVEL
 70
     2
102
SHADEPLOTCUSTOMDPI
 70
   300
  0
XRECORD
  5
1C4
102
{ACAD_REACTORS
330
1C3
102
}
330
1C3
100
AcDbXrecord
280
     1
102
SHADEPLOT
 70
     0
102
SHADEPLOTRESLEVEL
 70
     2
102
SHADEPLOTCUSTOMDPI
 70
   300
  0
ENDSEC
  0
EOF
