  0
SECTION
  2
HEADER
  9
$ACADVER
  1
AC1015
  9
$ACADMAINTVER
 70
    20
  9
$DWGCODEPAGE
  3
ANSI_932
  9
$INSBASE
 10
0.0
 20
372.4992141396417
 30
0.0
  9
$EXTMIN
 10
1.999999999999658
 20
257.4992141396419
 30
0.0
  9
$EXTMAX
 10
126.9999999999996
 20
370.2325474729754
 30
0.0
  9
$LIMMIN
 10
-1101.784450318844
 20
-1579.160531687244
  9
$LIMMAX
 10
-508.2420711400536
 20
-1161.440814074914
  9
$ORTHOMODE
 70
     1
  9
$REGENMODE
 70
     1
  9
$FILLMODE
 70
     1
  9
$QTEXTMODE
 70
     0
  9
$MIRRTEXT
 70
     1
  9
$LTSCALE
 40
1.0
  9
$ATTMODE
 70
     1
  9
$TEXTSIZE
 40
3.0
  9
$TRACEWID
 40
0.5
  9
$TEXTSTYLE
  7
STANDARD
  9
$CLAYER
  8
SUNPO
  9
$CELTYPE
  6
BYLAYER
  9
$CECOLOR
 62
   256
  9
$CELTSCALE
 40
1.0
  9
$DISPSILH
 70
     0
  9
$DIMSCALE
 40
1.0
  9
$DIMASZ
 40
2.0
  9
$DIMEXO
 40
2.0
  9
$DIMDLI
 40
8.0
  9
$DIMRND
 40
0.0
  9
$DIMDLE
 40
0.0
  9
$DIMEXE
 40
2.0
  9
$DIMTP
 40
0.0
  9
$DIMTM
 40
0.0
  9
$DIMTXT
 40
2.5
  9
$DIMCEN
 40
0.0
  9
$DIMTSZ
 40
0.0
  9
$DIMTOL
 70
     0
  9
$DIMLIM
 70
     0
  9
$DIMTIH
 70
     0
  9
$DIMTOH
 70
     0
  9
$DIMSE1
 70
     0
  9
$DIMSE2
 70
     0
  9
$DIMTAD
 70
     3
  9
$DIMZIN
 70
     0
  9
$DIMBLK
  1

  9
$DIMASO
 70
     1
  9
$DIMSHO
 70
     1
  9
$DIMPOST
  1

  9
$DIMAPOST
  1

  9
$DIMALT
 70
     0
  9
$DIMALTD
 70
     2
  9
$DIMALTF
 40
25.4
  9
$DIMLFAC
 40
1.0
  9
$DIMTOFL
 70
     1
  9
$DIMTVP
 40
0.0
  9
$DIMTIX
 70
     0
  9
$DIMSOXD
 70
     0
  9
$DIMSAH
 70
     1
  9
$DIMBLK1
  1
OPEN30
  9
$DIMBLK2
  1
OPEN30
  9
$DIMSTYLE
  2
STANDARD
  9
$DIMCLRD
 70
     0
  9
$DIMCLRE
 70
     0
  9
$DIMCLRT
 70
     0
  9
$DIMTFAC
 40
1.0
  9
$DIMGAP
 40
0.5
  9
$DIMJUST
 70
     0
  9
$DIMSD1
 70
     0
  9
$DIMSD2
 70
     0
  9
$DIMTOLJ
 70
     1
  9
$DIMTZIN
 70
     0
  9
$DIMALTZ
 70
     0
  9
$DIMALTTZ
 70
     0
  9
$DIMUPT
 70
     0
  9
$DIMDEC
 70
     4
  9
$DIMTDEC
 70
     4
  9
$DIMALTU
 70
     2
  9
$DIMALTTD
 70
     2
  9
$DIMTXSTY
  7
STANDARD
  9
$DIMAUNIT
 70
     0
  9
$DIMADEC
 70
     0
  9
$DIMALTRND
 40
0.0
  9
$DIMAZIN
 70
     0
  9
$DIMDSEP
 70
    46
  9
$DIMATFIT
 70
     3
  9
$DIMFRAC
 70
     0
  9
$DIMLDRBLK
  1
OPEN30
  9
$DIMLUNIT
 70
     2
  9
$DIMLWD
 70
    -2
  9
$DIMLWE
 70
    -2
  9
$DIMTMOVE
 70
     0
  9
$LUNITS
 70
     2
  9
$LUPREC
 70
     4
  9
$SKETCHINC
 40
0.1
  9
$FILLETRAD
 40
0.0
  9
$AUNITS
 70
     0
  9
$AUPREC
 70
     0
  9
$MENU
  1
ACAD
  9
$ELEVATION
 40
0.0
  9
$PELEVATION
 40
0.0
  9
$THICKNESS
 40
0.0
  9
$LIMCHECK
 70
     0
  9
$CHAMFERA
 40
0.0
  9
$CHAMFERB
 40
0.0
  9
$CHAMFERC
 40
0.0
  9
$CHAMFERD
 40
0.0
  9
$SKPOLY
 70
     0
  9
$TDCREATE
 40
2451815.565532581
  9
$TDUCREATE
 40
2451815.190532581
  9
$TDUPDATE
 40
2454124.626182176
  9
$TDUUPDATE
 40
2454124.251182176
  9
$TDINDWG
 40
0.7334240509
  9
$TDUSRTIMER
 40
0.7334240509
  9
$USRTIMER
 70
     1
  9
$ANGBASE
 50
0.0
  9
$ANGDIR
 70
     0
  9
$PDMODE
 70
     0
  9
$PDSIZE
 40
0.0
  9
$PLINEWID
 40
0.0
  9
$SPLFRAME
 70
     0
  9
$SPLINETYPE
 70
     6
  9
$SPLINESEGS
 70
     8
  9
$HANDSEED
  5
1D3
  9
$SURFTAB1
 70
     6
  9
$SURFTAB2
 70
     6
  9
$SURFTYPE
 70
     6
  9
$SURFU
 70
     6
  9
$SURFV
 70
     6
  9
$UCSBASE
  2

  9
$UCSNAME
  2

  9
$UCSORG
 10
0.0
 20
0.0
 30
0.0
  9
$UCSXDIR
 10
1.0
 20
0.0
 30
0.0
  9
$UCSYDIR
 10
0.0
 20
1.0
 30
0.0
  9
$UCSORTHOREF
  2

  9
$UCSORTHOVIEW
 70
     0
  9
$UCSORGTOP
 10
0.0
 20
0.0
 30
0.0
  9
$UCSORGBOTTOM
 10
0.0
 20
0.0
 30
0.0
  9
$UCSORGLEFT
 10
0.0
 20
0.0
 30
0.0
  9
$UCSORGRIGHT
 10
0.0
 20
0.0
 30
0.0
  9
$UCSORGFRONT
 10
0.0
 20
0.0
 30
0.0
  9
$UCSORGBACK
 10
0.0
 20
0.0
 30
0.0
  9
$PUCSBASE
  2

  9
$PUCSNAME
  2

  9
$PUCSORG
 10
0.0
 20
0.0
 30
0.0
  9
$PUCSXDIR
 10
1.0
 20
0.0
 30
0.0
  9
$PUCSYDIR
 10
0.0
 20
1.0
 30
0.0
  9
$PUCSORTHOREF
  2

  9
$PUCSORTHOVIEW
 70
     0
  9
$PUCSORGTOP
 10
0.0
 20
0.0
 30
0.0
  9
$PUCSORGBOTTOM
 10
0.0
 20
0.0
 30
0.0
  9
$PUCSORGLEFT
 10
0.0
 20
0.0
 30
0.0
  9
$PUCSORGRIGHT
 10
0.0
 20
0.0
 30
0.0
  9
$PUCSORGFRONT
 10
0.0
 20
0.0
 30
0.0
  9
$PUCSORGBACK
 10
0.0
 20
0.0
 30
0.0
  9
$USERI1
 70
     0
  9
$USERI2
 70
     0
  9
$USERI3
 70
     0
  9
$USERI4
 70
     0
  9
$USERI5
 70
     0
  9
$USERR1
 40
0.0
  9
$USERR2
 40
0.0
  9
$USERR3
 40
0.0
  9
$USERR4
 40
0.0
  9
$USERR5
 40
0.0
  9
$WORLDVIEW
 70
     1
  9
$SHADEDGE
 70
     3
  9
$SHADEDIF
 70
    70
  9
$TILEMODE
 70
     1
  9
$MAXACTVP
 70
    48
  9
$PINSBASE
 10
0.0
 20
0.0
 30
0.0
  9
$PLIMCHECK
 70
     0
  9
$PEXTMIN
 10
1.000000000000000E+20
 20
1.000000000000000E+20
 30
1.000000000000000E+20
  9
$PEXTMAX
 10
-1.000000000000000E+20
 20
-1.000000000000000E+20
 30
-1.000000000000000E+20
  9
$PLIMMIN
 10
0.0
 20
0.0
  9
$PLIMMAX
 10
12.0
 20
9.0
  9
$UNITMODE
 70
     0
  9
$VISRETAIN
 70
     1
  9
$PLINEGEN
 70
     0
  9
$PSLTSCALE
 70
     1
  9
$TREEDEPTH
 70
  3020
  9
$CMLSTYLE
  2
STANDARD
  9
$CMLJUST
 70
     0
  9
$CMLSCALE
 40
1.0
  9
$PROXYGRAPHICS
 70
     1
  9
$MEASUREMENT
 70
     0
  9
$CELWEIGHT
370
    -1
  9
$ENDCAPS
280
     0
  9
$JOINSTYLE
280
     0
  9
$LWDISPLAY
290
     0
  9
$INSUNITS
 70
     0
  9
$HYPERLINKBASE
  1

  9
$STYLESHEET
  1

  9
$XEDIT
290
     1
  9
$CEPSNTYPE
380
     0
  9
$PSTYLEMODE
290
     1
  9
$FINGERPRINTGUID
  2
{1754B7AB-9B3C-11D4-AD9E-00104B1004F2}
  9
$VERSIONGUID
  2
{F0087429-8CBA-4CAA-986A-DB7B0B3B6CCE}
  9
$EXTNAMES
290
     1
  9
$PSVPSCALE
 40
0.0
  9
$OLESTARTUP
290
     0
  0
ENDSEC
  0
SECTION
  2
CLASSES
  0
CLASS
  1
ACDBDICTIONARYWDFLT
  2
AcDbDictionaryWithDefault
  3
ObjectDBX Classes
 90
        0
280
     0
281
     0
  0
CLASS
  1
ACDBPLACEHOLDER
  2
AcDbPlaceHolder
  3
ObjectDBX Classes
 90
        0
280
     0
281
     0
  0
CLASS
  1
LAYOUT
  2
AcDbLayout
  3
ObjectDBX Classes
 90
        0
280
     0
281
     0
  0
CLASS
  1
DICTIONARYVAR
  2
AcDbDictionaryVar
  3
ObjectDBX Classes
 90
        0
280
     0
281
     0
  0
CLASS
  1
SORTENTSTABLE
  2
AcDbSortentsTable
  3
ObjectDBX Classes
 90
    32768
280
     0
281
     0
  0
ENDSEC
  0
SECTION
  2
TABLES
  0
TABLE
  2
VPORT
  5
21
330
0
100
AcDbSymbolTable
 70
     3
  0
VPORT
  5
1CB
330
21
100
AcDbSymbolTableRecord
100
AcDbViewportTableRecord
  2
*Active
 70
     0
 10
0.0
 20
0.0
 11
1.0
 21
1.0
 12
64.8474196927059
 22
317.1579389921799
 13
0.0
 23
0.0
 14
1.0
 24
1.0
 15
0.0
 25
0.0
 16
0.0
 26
0.0
 36
1.0
 17
0.0
 27
0.0
 37
0.0
 40
136.7675698386012
 41
1.412451361867704
 42
50.0
 43
0.0
 44
0.0
 50
0.0
 51
0.0
 71
     0
 72
 10000
 73
     1
 74
     0
 75
     0
 76
     1
 77
     0
 78
     0
281
     0
 65
     1
110
0.0
120
0.0
130
0.0
111
1.0
121
0.0
131
0.0
112
0.0
122
1.0
132
0.0
 79
     0
146
0.0
  0
ENDTAB
  0
TABLE
  2
LTYPE
  5
1C
330
0
100
AcDbSymbolTable
 70
     1
  0
LTYPE
  5
1D
330
1C
100
AcDbSymbolTableRecord
100
AcDbLinetypeTableRecord
  2
BYBLOCK
 70
     0
  3

 72
    65
 73
     0
 40
0.0
  0
LTYPE
  5
1E
330
1C
100
AcDbSymbolTableRecord
100
AcDbLinetypeTableRecord
  2
BYLAYER
 70
     0
  3

 72
    65
 73
     0
 40
0.0
  0
LTYPE
  5
A
330
1C
100
AcDbSymbolTableRecord
100
AcDbLinetypeTableRecord
  2
CONTINUOUS
 70
     0
  3
Solid line
 72
    65
 73
     0
 40
0.0
  0
ENDTAB
  0
TABLE
  2
LAYER
  5
14
102
{ACAD_XDICTIONARY
360
15
102
}
330
0
100
AcDbSymbolTable
 70
     7
  0
LAYER
  5
6
330
14
100
AcDbSymbolTableRecord
100
AcDbLayerTableRecord
  2
0
 70
     0
 62
     7
  6
CONTINUOUS
370
    -3
390
7
  0
LAYER
  5
41
330
14
100
AcDbSymbolTableRecord
100
AcDbLayerTableRecord
  2
DEFPOINTS
 70
     0
 62
     7
  6
CONTINUOUS
290
     0
370
    -3
390
7
  0
LAYER
  5
18B
330
14
100
AcDbSymbolTableRecord
100
AcDbLayerTableRecord
  2
WAKU
 70
     0
 62
     4
  6
CONTINUOUS
370
    -3
390
7
  0
LAYER
  5
36
330
14
100
AcDbSymbolTableRecord
100
AcDbLayerTableRecord
  2
MOJI1
 70
     0
 62
     2
  6
CONTINUOUS
370
    -3
390
7
  0
LAYER
  5
53
330
14
100
AcDbSymbolTableRecord
100
AcDbLayerTableRecord
  2
GAIKEI
 70
     0
 62
     7
  6
CONTINUOUS
370
    -3
390
7
  0
LAYER
  5
33
330
14
100
AcDbSymbolTableRecord
100
AcDbLayerTableRecord
  2
SUNPO
 70
     0
 62
     3
  6
CONTINUOUS
370
    -3
390
7
  0
LAYER
  5
187
330
14
100
AcDbSymbolTableRecord
100
AcDbLayerTableRecord
  2
TOUROKU
 70
     0
 62
     1
  6
CONTINUOUS
370
    -3
390
7
  0
ENDTAB
  0
TABLE
  2
STYLE
  5
19
330
0
100
AcDbSymbolTable
 70
     2
  0
STYLE
  5
1A
330
19
100
AcDbSymbolTableRecord
100
AcDbTextStyleTableRecord
  2
STANDARD
 70
     0
 40
0.0
 41
1.0
 50
0.0
 71
     0
 42
3.0
  3
MONOTXT.shx
  4
BIGFONT.shx
  0
STYLE
  5
189
330
19
100
AcDbSymbolTableRecord
100
AcDbTextStyleTableRecord
  2
KANJI
 70
     0
 40
0.0
 41
1.0
 50
0.0
 71
     0
 42
3.5
  3
MONOTXT
  4
BIGFONT
  0
ENDTAB
  0
TABLE
  2
VIEW
  5
1F
330
0
100
AcDbSymbolTable
 70
     0
  0
ENDTAB
  0
TABLE
  2
UCS
  5
20
330
0
100
AcDbSymbolTable
 70
     0
  0
ENDTAB
  0
TABLE
  2
APPID
  5
23
330
0
100
AcDbSymbolTable
 70
     2
  0
APPID
  5
24
330
23
100
AcDbSymbolTableRecord
100
AcDbRegAppTableRecord
  2
ACAD
 70
     0
  0
APPID
  5
1B1
330
23
100
AcDbSymbolTableRecord
100
AcDbRegAppTableRecord
  2
DCO15
 70
     0
  0
ENDTAB
  0
TABLE
  2
DIMSTYLE
  5
25
330
0
100
AcDbSymbolTable
 70
     1
100
AcDbDimStyleTable
 71
     1
340
26
  0
DIMSTYLE
105
26
102
{ACAD_REACTORS
330
45
330
37
102
}
330
25
100
AcDbSymbolTableRecord
100
AcDbDimStyleTableRecord
  2
STANDARD
 70
     0
 40
0.0
 41
2.0
 42
2.0
 43
8.0
 44
2.0
 73
     0
 74
     0
 77
     3
140
3.0
141
0.0
173
     1
279
     2
288
     1
340
1A
341
27
343
27
344
27
  0
ENDTAB
  0
TABLE
  2
BLOCK_RECORD
  5
1
330
0
100
AcDbSymbolTable
 70
     3
  0
BLOCK_RECORD
  5
2
102
{ACAD_XDICTIONARY
360
3
102
}
330
1
100
AcDbSymbolTableRecord
100
AcDbBlockTableRecord
  2
*MODEL_SPACE
340
C
  0
BLOCK_RECORD
  5
E
102
{ACAD_XDICTIONARY
360
F
102
}
330
1
100
AcDbSymbolTableRecord
100
AcDbBlockTableRecord
  2
*PAPER_SPACE
340
13
  0
BLOCK_RECORD
  5
27
330
1
100
AcDbSymbolTableRecord
100
AcDbBlockTableRecord
  2
_OPEN30
340
0
102
{BLKREFS
331
3D
331
3E
331
4B
331
4C
102
}
  0
BLOCK_RECORD
  5
46
330
1
100
AcDbSymbolTableRecord
100
AcDbBlockTableRecord
  2
*D1
340
0
  0
BLOCK_RECORD
  5
38
330
1
100
AcDbSymbolTableRecord
100
AcDbBlockTableRecord
  2
*D2
340
0
  0
ENDTAB
  0
ENDSEC
  0
SECTION
  2
BLOCKS
  0
BLOCK
  5
5
330
2
100
AcDbEntity
  8
0
100
AcDbBlockBegin
  2
*MODEL_SPACE
 70
     0
 10
0.0
 20
0.0
 30
0.0
  3
*MODEL_SPACE
  1

  0
ENDBLK
  5
B
330
2
100
AcDbEntity
  8
0
100
AcDbBlockEnd
  0
BLOCK
  5
11
330
E
100
AcDbEntity
 67
     1
  8
0
100
AcDbBlockBegin
  2
*PAPER_SPACE
 70
     0
 10
0.0
 20
0.0
 30
0.0
  3
*PAPER_SPACE
  1

  0
ENDBLK
  5
12
330
E
100
AcDbEntity
 67
     1
  8
0
100
AcDbBlockEnd
  0
BLOCK
  5
28
330
27
100
AcDbEntity
  8
0
100
AcDbBlockBegin
  2
_OPEN30
 70
     0
 10
0.0
 20
0.0
 30
0.0
  3
_OPEN30
  1

  0
LINE
  5
29
330
27
100
AcDbEntity
  8
0
  6
ByBlock
 62
     0
100
AcDbLine
 10
-1.0
 20
0.26794919
 30
0.0
 11
0.0
 21
0.0
 31
0.0
  0
LINE
  5
2A
330
27
100
AcDbEntity
  8
0
  6
ByBlock
 62
     0
100
AcDbLine
 10
0.0
 20
0.0
 30
0.0
 11
-1.0
 21
-0.26794919
 31
0.0
  0
LINE
  5
2B
330
27
100
AcDbEntity
  8
0
  6
ByBlock
 62
     0
100
AcDbLine
 10
0.0
 20
0.0
 30
0.0
 11
-1.0
 21
0.0
 31
0.0
  0
ENDBLK
  5
2C
330
27
100
AcDbEntity
  8
0
100
AcDbBlockEnd
  0
BLOCK
  5
47
330
46
100
AcDbEntity
  8
0
100
AcDbBlockBegin
  2
*D1
 70
     1
 10
0.0
 20
0.0
 30
0.0
  3
*D1
  1

  0
LINE
  5
48
330
46
100
AcDbEntity
  8
SUNPO
 62
     0
370
    -2
100
AcDbLine
 10
68.60432177822701
 20
344.927923203418
 30
0.0
 11
68.60432177822701
 21
352.927923203418
 31
0.0
  0
LINE
  5
49
330
46
100
AcDbEntity
  8
SUNPO
 62
     0
370
    -2
100
AcDbLine
 10
95.74432177822703
 20
344.927923203418
 30
0.0
 11
95.74432177822703
 21
352.927923203418
 31
0.0
  0
LINE
  5
4A
330
46
100
AcDbEntity
  8
SUNPO
 62
     0
370
    -2
100
AcDbLine
 10
70.60432177822701
 20
350.927923203418
 30
0.0
 11
93.74432177822702
 21
350.927923203418
 31
0.0
  0
INSERT
  5
4B
330
46
100
AcDbEntity
  8
SUNPO
 62
     0
370
    -2
100
AcDbBlockReference
  2
_OPEN30
 10
68.60432177822701
 20
350.927923203418
 30
0.0
 41
2.0
 42
2.0
 43
2.0
 50
180.0
  0
INSERT
  5
4C
330
46
100
AcDbEntity
  8
SUNPO
 62
     0
370
    -2
100
AcDbBlockReference
  2
_OPEN30
 10
95.74432177822703
 20
350.927923203418
 30
0.0
 41
2.0
 42
2.0
 43
2.0
  0
MTEXT
  5
4D
330
46
100
AcDbEntity
  8
SUNPO
 62
     0
100
AcDbMText
 10
82.17432177822702
 20
352.677923203418
 30
0.0
 40
2.5
 41
0.0
 71
     5
 72
     1
  1
\A1;136
 73
     1
 44
1.0
1001
ACAD
1000
MTEXTBEGIN
1070
    73
1070
     1
1070
    44
1040
1.0
1070
    74
1070
     0
1000
MTEXTEND
  0
POINT
  5
4E
330
46
100
AcDbEntity
  8
DEFPOINTS
 62
     0
100
AcDbPoint
 10
68.60432177822701
 20
342.927923203418
 30
0.0
  0
POINT
  5
4F
330
46
100
AcDbEntity
  8
DEFPOINTS
 62
     0
100
AcDbPoint
 10
95.74432177822703
 20
342.927923203418
 30
0.0
  0
POINT
  5
50
330
46
100
AcDbEntity
  8
DEFPOINTS
 62
     0
100
AcDbPoint
 10
95.74432177822703
 20
350.927923203418
 30
0.0
  0
ENDBLK
  5
51
330
46
100
AcDbEntity
  8
0
100
AcDbBlockEnd
  0
BLOCK
  5
39
330
38
100
AcDbEntity
  8
0
100
AcDbBlockBegin
  2
*D2
 70
     1
 10
0.0
 20
0.0
 30
0.0
  3
*D2
  1

  0
LINE
  5
3A
330
38
100
AcDbEntity
  8
SUNPO
 62
     0
370
    -2
100
AcDbLine
 10
28.73901058386131
 20
344.927923203418
 30
0.0
 11
28.73901058386131
 21
352.927923203418
 31
0.0
  0
LINE
  5
3B
330
38
100
AcDbEntity
  8
SUNPO
 62
     0
370
    -2
100
AcDbLine
 10
53.03901058386131
 20
344.927923203418
 30
0.0
 11
53.03901058386131
 21
352.927923203418
 31
0.0
  0
LINE
  5
3C
330
38
100
AcDbEntity
  8
SUNPO
 62
     0
370
    -2
100
AcDbLine
 10
30.73901058386131
 20
350.927923203418
 30
0.0
 11
51.03901058386131
 21
350.927923203418
 31
0.0
  0
INSERT
  5
3D
330
38
100
AcDbEntity
  8
SUNPO
 62
     0
370
    -2
100
AcDbBlockReference
  2
_OPEN30
 10
28.73901058386131
 20
350.927923203418
 30
0.0
 41
2.0
 42
2.0
 43
2.0
 50
180.0
  0
INSERT
  5
3E
330
38
100
AcDbEntity
  8
SUNPO
 62
     0
370
    -2
100
AcDbBlockReference
  2
_OPEN30
 10
53.03901058386131
 20
350.927923203418
 30
0.0
 41
2.0
 42
2.0
 43
2.0
  0
MTEXT
  5
3F
330
38
100
AcDbEntity
  8
SUNPO
 62
     0
100
AcDbMText
 10
40.8890105838613
 20
352.677923203418
 30
0.0
 40
2.5
 41
0.0
 71
     5
 72
     1
  1
\A1;φ122
 73
     1
 44
1.0
1001
ACAD
1000
MTEXTBEGIN
1070
    73
1070
     1
1070
    44
1040
1.0
1070
    74
1070
     0
1000
MTEXTEND
  0
POINT
  5
40
330
38
100
AcDbEntity
  8
DEFPOINTS
 62
     0
100
AcDbPoint
 10
28.73901058386131
 20
342.927923203418
 30
0.0
  0
POINT
  5
42
330
38
100
AcDbEntity
  8
DEFPOINTS
 62
     0
100
AcDbPoint
 10
53.03901058386131
 20
342.927923203418
 30
0.0
  0
POINT
  5
43
330
38
100
AcDbEntity
  8
DEFPOINTS
 62
     0
100
AcDbPoint
 10
53.03901058386131
 20
350.927923203418
 30
0.0
  0
ENDBLK
  5
44
330
38
100
AcDbEntity
  8
0
100
AcDbBlockEnd
  0
ENDSEC
  0
SECTION
  2
ENTITIES
  0
TEXT
  5
35
330
2
100
AcDbEntity
  8
MOJI1
100
AcDbText
 10
28.99999999999966
 20
366.4992141396419
 30
0.0
 40
4.0
  1
ネットワークカメラ
100
AcDbText
  0
DIMENSION
  5
37
330
2
100
AcDbEntity
  8
SUNPO
100
AcDbDimension
  2
*D2
 10
53.03901058386131
 20
350.927923203418
 30
0.0
 11
40.8890105838613
 21
352.677923203418
 31
0.0
 70
     1
  1
φ122
 71
     5
 42
24.3
  3
STANDARD
100
AcDbAlignedDimension
 13
28.73901058386131
 23
342.927923203418
 33
0.0
 14
53.03901058386131
 24
342.927923203418
 34
0.0
1001
ACAD
1000
DSTYLE
1002
{
1070
    40
1040
1.0
1070
   140
1040
2.5
1070
   147
1040
0.5
1070
   172
1070
     1
1070
   279
1070
     0
1070
   288
1070
     0
1002
}
  0
DIMENSION
  5
45
330
2
100
AcDbEntity
  8
SUNPO
100
AcDbDimension
  2
*D1
 10
95.74432177822703
 20
350.927923203418
 30
0.0
 11
82.17432177822702
 21
352.677923203418
 31
0.0
 70
     1
  1
136
 71
     5
 42
27.14000000000002
  3
STANDARD
100
AcDbAlignedDimension
 13
68.60432177822701
 23
342.927923203418
 33
0.0
 14
95.74432177822703
 24
342.927923203418
 34
0.0
1001
ACAD
1000
DSTYLE
1002
{
1070
    40
1040
1.0
1070
   140
1040
2.5
1070
   147
1040
0.5
1070
   172
1070
     1
1070
   279
1070
     0
1070
   288
1070
     0
1002
}
  0
LINE
  5
52
330
2
100
AcDbEntity
  8
GAIKEI
 62
     1
100
AcDbLine
 10
94.72432177822705
 20
320.5566421207165
 30
0.0
 11
95.00432176256703
 21
320.5399367687365
 31
0.0
  0
LINE
  5
54
330
2
100
AcDbEntity
  8
GAIKEI
 62
     1
100
AcDbLine
 10
94.52438656984705
 20
323.8561743636765
 30
0.0
 11
95.74432177822705
 21
323.8621979944756
 31
0.0
  0
POINT
  5
55
330
2
100
AcDbEntity
  8
GAIKEI
 62
     7
100
AcDbPoint
 10
95.74432177822705
 20
343.0257418853766
 30
0.0
  0
POINT
  5
56
330
2
100
AcDbEntity
  8
GAIKEI
 62
     1
100
AcDbPoint
 10
95.80432177822704
 20
336.3801263572365
 30
0.0
  0
POINT
  5
57
330
2
100
AcDbEntity
  8
GAIKEI
 62
     7
100
AcDbPoint
 10
95.74432177822705
 20
343.0257418853766
 30
0.0
  0
POINT
  5
58
330
2
100
AcDbEntity
  8
GAIKEI
 62
     7
100
AcDbPoint
 10
95.74432177822705
 20
343.0257418853766
 30
0.0
  0
POINT
  5
59
330
2
100
AcDbEntity
  8
GAIKEI
 62
     7
100
AcDbPoint
 10
95.84432177822705
 20
318.6257418853765
 30
0.0
  0
POINT
  5
5A
330
2
100
AcDbEntity
  8
GAIKEI
 62
     7
100
AcDbPoint
 10
95.84432177822705
 20
342.9257418853765
 30
0.0
  0
LINE
  5
5B
330
2
100
AcDbEntity
  8
GAIKEI
  6
Continuous
 62
     1
100
AcDbLine
 10
94.52752299484705
 20
320.9320102934565
 30
0.0
 11
94.53127951760704
 21
320.9353110440365
 31
0.0
  0
LINE
  5
5C
330
2
100
AcDbEntity
  8
GAIKEI
  6
Continuous
 62
     1
100
AcDbLine
 10
94.52513870062702
 20
320.9280299921365
 30
0.0
 11
94.52752299484705
 21
320.9320102934565
 31
0.0
  0
LINE
  5
5D
330
2
100
AcDbEntity
  8
GAIKEI
  6
Continuous
 62
     1
100
AcDbLine
 10
94.52432177822704
 20
320.9236959448765
 30
0.0
 11
94.52513870062702
 21
320.9280299921365
 31
0.0
  0
LINE
  5
5E
330
2
100
AcDbEntity
  8
GAIKEI
  6
Continuous
 62
     1
100
AcDbLine
 10
95.28564790010705
 20
321.9607199241365
 30
0.0
 11
95.27256390336702
 21
321.9909454375165
 31
0.0
  0
LINE
  5
5F
330
2
100
AcDbEntity
  8
GAIKEI
  6
Continuous
 62
     1
100
AcDbLine
 10
95.29604920440704
 20
321.9225494135965
 30
0.0
 11
95.28564790010705
 21
321.9607199241365
 31
0.0
  0
LINE
  5
60
330
2
100
AcDbEntity
  8
GAIKEI
  6
Continuous
 62
     1
100
AcDbLine
 10
95.30250883670706
 20
321.8797127711765
 30
0.0
 11
95.29604920440704
 21
321.9225494135965
 31
0.0
  0
LINE
  5
61
330
2
100
AcDbEntity
  8
GAIKEI
  6
Continuous
 62
     1
100
AcDbLine
 10
95.30462638970703
 20
321.8357418853765
 30
0.0
 11
95.30250883670706
 21
321.8797127711765
 31
0.0
  0
LINE
  5
62
330
2
100
AcDbEntity
  8
GAIKEI
  6
Continuous
 62
     1
100
AcDbLine
 10
94.52752302026707
 20
323.5213230294765
 30
0.0
 11
94.53127951760704
 21
323.5180223090565
 31
0.0
  0
LINE
  5
63
330
2
100
AcDbEntity
  8
GAIKEI
  6
Continuous
 62
     1
100
AcDbLine
 10
94.52513871388706
 20
323.5253033265165
 30
0.0
 11
94.52752302026707
 21
323.5213230294765
 31
0.0
  0
LINE
  5
64
330
2
100
AcDbEntity
  8
GAIKEI
  6
Continuous
 62
     1
100
AcDbLine
 10
94.52432177822704
 20
323.5296374081965
 30
0.0
 11
94.52513871388706
 21
323.5253033265165
 31
0.0
  0
LINE
  5
65
330
2
100
AcDbEntity
  8
GAIKEI
  6
Continuous
 62
     1
100
AcDbLine
 10
94.52513871388706
 20
323.1396307606965
 30
0.0
 11
94.52432177822704
 21
323.1439648423765
 31
0.0
  0
LINE
  5
66
330
2
100
AcDbEntity
  8
GAIKEI
  6
Continuous
 62
     1
100
AcDbLine
 10
94.52752302026707
 20
323.1356504636565
 30
0.0
 11
94.52513871388706
 21
323.1396307606965
 31
0.0
  0
LINE
  5
67
330
2
100
AcDbEntity
  8
GAIKEI
  6
Continuous
 62
     1
100
AcDbLine
 10
94.53127951760704
 20
323.1323497432365
 30
0.0
 11
94.52752302026707
 21
323.1356504636565
 31
0.0
  0
LINE
  5
68
330
2
100
AcDbEntity
  8
GAIKEI
  6
Continuous
 62
     1
100
AcDbLine
 10
95.30250980056704
 20
321.6917808838765
 30
0.0
 11
95.30462638970703
 21
321.7357418853765
 31
0.0
  0
LINE
  5
69
330
2
100
AcDbEntity
  8
GAIKEI
  6
Continuous
 62
     1
100
AcDbLine
 10
95.29605628372706
 20
321.6489683215965
 30
0.0
 11
95.30250980056704
 21
321.6917808838765
 31
0.0
  0
LINE
  5
6A
330
2
100
AcDbEntity
  8
GAIKEI
  6
Continuous
 62
     1
100
AcDbLine
 10
95.28566640916706
 20
321.6108173037965
 30
0.0
 11
95.29605628372706
 21
321.6489683215965
 31
0.0
  0
LINE
  5
6B
330
2
100
AcDbEntity
  8
GAIKEI
  6
Continuous
 62
     1
100
AcDbLine
 10
95.27216205632702
 20
321.5795993548765
 30
0.0
 11
95.28566640916706
 21
321.6108173037965
 31
0.0
  0
LINE
  5
6C
330
2
100
AcDbEntity
  8
GAIKEI
  6
Continuous
 62
     1
100
AcDbLine
 10
95.25564449056705
 20
321.5555629380965
 30
0.0
 11
95.27216205632702
 21
321.5795993548765
 31
0.0
  0
LINE
  5
6D
330
2
100
AcDbEntity
  8
GAIKEI
  6
Continuous
 62
     1
100
AcDbLine
 10
95.23710774454702
 20
321.5406353472965
 30
0.0
 11
95.25564449056705
 21
321.5555629380965
 31
0.0
  0
LINE
  5
6E
330
2
100
AcDbEntity
  8
GAIKEI
  6
Continuous
 62
     1
100
AcDbLine
 10
95.22432177822706
 20
321.5373470847965
 30
0.0
 11
95.23710774454702
 21
321.5406353472965
 31
0.0
  0
LINE
  5
6F
330
2
100
AcDbEntity
  8
GAIKEI
  6
Continuous
 62
     1
100
AcDbLine
 10
94.82432177822705
 20
321.1284047607565
 30
0.0
 11
94.53127951760704
 21
320.9353110440365
 31
0.0
  0
LINE
  5
70
330
2
100
AcDbEntity
  8
GAIKEI
  6
Continuous
 62
     1
100
AcDbLine
 10
94.66781465080703
 20
321.2677859505165
 30
0.0
 11
94.52432177822704
 21
321.1732344956165
 31
0.0
  0
LINE
  5
71
330
2
100
AcDbEntity
  8
GAIKEI
  6
Continuous
 62
     1
100
AcDbLine
 10
94.66781465080703
 20
321.6534585163365
 30
0.0
 11
94.52432177822704
 21
321.5589070614365
 31
0.0
  0
LINE
  5
72
330
2
100
AcDbEntity
  8
GAIKEI
  6
Continuous
 62
     1
100
AcDbLine
 10
94.66781465080703
 20
322.7998748367565
 30
0.0
 11
94.82432177822705
 21
322.9392560265165
 31
0.0
  0
LINE
  5
73
330
2
100
AcDbEntity
  8
GAIKEI
  6
Continuous
 62
     1
100
AcDbLine
 10
94.52432177822704
 20
323.1261533609365
 30
0.0
 11
94.53127951760704
 21
323.1323497432365
 31
0.0
  0
LINE
  5
74
330
2
100
AcDbEntity
  8
GAIKEI
  6
Continuous
 62
     1
100
AcDbLine
 10
95.80432177822704
 20
327.0801263572365
 30
0.0
 11
95.80432177822704
 21
325.2713574134965
 31
0.0
  0
LINE
  5
75
330
2
100
AcDbEntity
  8
GAIKEI
  6
Continuous
 62
     1
100
AcDbLine
 10
95.80432177822704
 20
336.2801263572365
 30
0.0
 11
95.80432177822704
 21
334.4713574134965
 31
0.0
  0
LINE
  5
76
330
2
100
AcDbEntity
  8
GAIKEI
  6
Continuous
 62
     7
100
AcDbLine
 10
95.74432177822705
 20
342.9257418853765
 30
0.0
 11
95.74432177822705
 21
318.6257418853765
 31
0.0
  0
LINE
  5
77
330
2
100
AcDbEntity
  8
GAIKEI
  6
Continuous
 62
     1
100
AcDbLine
 10
95.48432177822707
 20
321.9909454375165
 30
0.0
 11
95.48432177822707
 21
322.5909454375165
 31
0.0
  0
LINE
  5
78
330
2
100
AcDbEntity
  8
GAIKEI
  6
Continuous
 62
     1
100
AcDbLine
 10
95.30462638970703
 20
321.7357418853765
 30
0.0
 11
95.30462638970703
 21
321.8357418853765
 31
0.0
  0
LINE
  5
79
330
2
100
AcDbEntity
  8
GAIKEI
  6
Continuous
 62
     1
100
AcDbLine
 10
95.24432177822706
 20
322.7809454375165
 30
0.0
 11
95.24432177822706
 21
321.8009454375165
 31
0.0
  0
LINE
  5
7A
330
2
100
AcDbEntity
  8
GAIKEI
  6
Continuous
 62
     1
100
AcDbLine
 10
95.22432177822706
 20
321.8009454375165
 30
0.0
 11
95.22432177822706
 21
321.4357418853765
 31
0.0
  0
LINE
  5
7B
330
2
100
AcDbEntity
  8
GAIKEI
  6
Continuous
 62
     1
100
AcDbLine
 10
95.02432177822702
 20
321.4357418853765
 30
0.0
 11
95.02432177822702
 21
321.8009454375165
 31
0.0
  0
LINE
  5
7C
330
2
100
AcDbEntity
  8
GAIKEI
  6
Continuous
 62
     1
100
AcDbLine
 10
95.00432177822705
 20
323.8585425540165
 30
0.0
 11
95.00432177822705
 21
320.5399370312365
 31
0.0
  0
LINE
  5
7D
330
2
100
AcDbEntity
  8
GAIKEI
  6
Continuous
 62
     7
100
AcDbLine
 10
86.84432177822705
 20
342.8157418853765
 30
0.0
 11
87.24432177822706
 21
342.5657418853765
 31
0.0
  0
LINE
  5
7E
330
2
100
AcDbEntity
  8
GAIKEI
  6
Continuous
 62
     7
100
AcDbLine
 10
86.84432177822705
 20
318.7357418853765
 30
0.0
 11
86.90432177822703
 21
318.7732418853765
 31
0.0
  0
LINE
  5
7F
330
2
100
AcDbEntity
  8
GAIKEI
  6
Continuous
 62
     1
100
AcDbLine
 10
94.82432177822705
 20
322.9392560265165
 30
0.0
 11
94.82432177822705
 21
323.3249285923365
 31
0.0
  0
LINE
  5
80
330
2
100
AcDbEntity
  8
GAIKEI
  6
Continuous
 62
     1
100
AcDbLine
 10
94.82432177822705
 20
321.1284047607565
 30
0.0
 11
94.82432177822705
 21
321.1865294110965
 31
0.0
  0
LINE
  5
81
330
2
100
AcDbEntity
  8
GAIKEI
  6
Continuous
 62
     1
100
AcDbLine
 10
94.76432177822704
 20
321.1865462724365
 30
0.0
 11
94.76432177822704
 21
322.8858215821965
 31
0.0
  0
LINE
  5
82
330
2
100
AcDbEntity
  8
GAIKEI
  6
Continuous
 62
     1
100
AcDbLine
 10
94.76432177822704
 20
321.0888690876965
 30
0.0
 11
94.76432177822704
 21
320.5542556793565
 31
0.0
  0
LINE
  5
83
330
2
100
AcDbEntity
  8
GAIKEI
  6
Continuous
 62
     1
100
AcDbLine
 10
94.76432177822704
 20
323.8573579832965
 30
0.0
 11
94.76432177822704
 21
323.3644642653765
 31
0.0
  0
LINE
  5
84
330
2
100
AcDbEntity
  8
GAIKEI
  6
Continuous
 62
     1
100
AcDbLine
 10
94.72432177822705
 20
320.5566421207165
 30
0.0
 11
94.72432177822705
 21
321.0625119723365
 31
0.0
  0
LINE
  5
85
330
2
100
AcDbEntity
  8
GAIKEI
  6
Continuous
 62
     1
100
AcDbLine
 10
94.72432177822705
 20
321.9452498940165
 30
0.0
 11
94.72432177822705
 21
321.6031347337565
 31
0.0
  0
LINE
  5
86
330
2
100
AcDbEntity
  8
GAIKEI
  6
Continuous
 62
     1
100
AcDbLine
 10
94.72432177822705
 20
322.8501986193165
 30
0.0
 11
94.72432177822705
 21
322.8062338767365
 31
0.0
  0
LINE
  5
87
330
2
100
AcDbEntity
  8
GAIKEI
  6
Continuous
 62
     1
100
AcDbLine
 10
94.72432177822705
 20
323.8571605548365
 30
0.0
 11
94.72432177822705
 21
323.3908213807365
 31
0.0
  0
LINE
  5
88
330
2
100
AcDbEntity
  8
GAIKEI
  6
Continuous
 62
     1
100
AcDbLine
 10
94.70432177822704
 20
323.8570618405965
 30
0.0
 11
94.70432177822704
 21
323.4039999384165
 31
0.0
  0
LINE
  5
89
330
2
100
AcDbEntity
  8
GAIKEI
  6
Continuous
 62
     1
100
AcDbLine
 10
94.66781465080703
 20
321.2677859505165
 30
0.0
 11
94.66781465080703
 21
321.6534585163365
 31
0.0
  0
LINE
  5
8A
330
2
100
AcDbEntity
  8
GAIKEI
  6
Continuous
 62
     1
100
AcDbLine
 10
94.66432177822701
 20
321.9909454375165
 30
0.0
 11
94.66432177822701
 21
321.7684889378965
 31
0.0
  0
LINE
  5
8B
330
2
100
AcDbEntity
  8
GAIKEI
  6
Continuous
 62
     1
100
AcDbLine
 10
94.66432177822701
 20
322.8021763878965
 30
0.0
 11
94.66432177822701
 21
322.5909454375165
 31
0.0
  0
LINE
  5
8C
330
2
100
AcDbEntity
  8
GAIKEI
  6
Continuous
 62
     1
100
AcDbLine
 10
94.60955537384705
 20
323.5264977223565
 30
0.0
 11
94.60955537384705
 21
323.4664441647165
 31
0.0
  0
LINE
  5
8D
330
2
100
AcDbEntity
  8
GAIKEI
  6
Continuous
 62
     1
100
AcDbLine
 10
94.53127951760704
 20
323.1323497432365
 30
0.0
 11
94.53127951760704
 21
323.5180223090565
 31
0.0
  0
LINE
  5
8E
330
2
100
AcDbEntity
  8
GAIKEI
  6
Continuous
 62
     1
100
AcDbLine
 10
94.52432177822704
 20
323.8693175871565
 30
0.0
 11
94.52432177822704
 21
320.5840157468565
 31
0.0
  0
LINE
  5
8F
330
2
100
AcDbEntity
  8
GAIKEI
  6
Continuous
 62
     1
100
AcDbLine
 10
94.48432177822708
 20
320.5840177891165
 30
0.0
 11
94.48432177822708
 21
320.2716326130365
 31
0.0
  0
LINE
  5
90
330
2
100
AcDbEntity
  8
GAIKEI
  6
Continuous
 62
     1
100
AcDbLine
 10
94.28432177822704
 20
320.5840157864365
 30
0.0
 11
94.28432177822704
 21
323.8693176269365
 31
0.0
  0
LINE
  5
91
330
2
100
AcDbEntity
  8
GAIKEI
  6
Continuous
 62
     1
100
AcDbLine
 10
94.24432177822707
 20
323.8547940400565
 30
0.0
 11
94.24432177822707
 21
322.9174458909765
 31
0.0
  0
LINE
  5
92
330
2
100
AcDbEntity
  8
GAIKEI
  6
Continuous
 62
     1
100
AcDbLine
 10
94.02432177822703
 20
321.6836924900165
 30
0.0
 11
94.02432177822703
 21
322.8981983849966
 31
0.0
  0
LINE
  5
93
330
2
100
AcDbEntity
  8
GAIKEI
  6
Continuous
 62
     7
100
AcDbLine
 10
87.24432177822706
 20
342.5157418853765
 30
0.0
 11
87.84432177822706
 21
342.5157418853765
 31
0.0
  0
LINE
  5
94
330
2
100
AcDbEntity
  8
GAIKEI
  6
Continuous
 62
     7
100
AcDbLine
 10
79.40432177822703
 20
341.8157418853765
 30
0.0
 11
81.14432177822704
 21
341.8157418853765
 31
0.0
  0
LINE
  5
95
330
2
100
AcDbEntity
  8
GAIKEI
  6
Continuous
 62
     7
100
AcDbLine
 10
88.24432177822705
 20
342.8157418853765
 30
0.0
 11
95.74432177822705
 21
342.9257418853765
 31
0.0
  0
LINE
  5
96
330
2
100
AcDbEntity
  8
GAIKEI
  6
Continuous
 62
     7
100
AcDbLine
 10
81.44432177822706
 20
342.7257418853765
 30
0.0
 11
86.84432177822705
 21
342.8157418853765
 31
0.0
  0
LINE
  5
97
330
2
100
AcDbEntity
  8
GAIKEI
  6
Continuous
 62
     1
100
AcDbLine
 10
88.24432177822705
 20
342.8157418853765
 30
0.0
 11
88.24432177822705
 21
318.7357418853765
 31
0.0
  0
LINE
  5
98
330
2
100
AcDbEntity
  8
GAIKEI
  6
Continuous
 62
     7
100
AcDbLine
 10
88.18432177822705
 20
318.7736584724765
 30
0.0
 11
88.18432177822705
 21
318.7732418853765
 31
0.0
  0
LINE
  5
99
330
2
100
AcDbEntity
  8
GAIKEI
  6
Continuous
 62
     1
100
AcDbLine
 10
87.84432177822706
 20
318.9861659812165
 30
0.0
 11
87.84432177822706
 21
342.5657418853765
 31
0.0
  0
LINE
  5
9A
330
2
100
AcDbEntity
  8
GAIKEI
  6
Continuous
 62
     1
100
AcDbLine
 10
87.24432177822706
 20
342.5657418853765
 30
0.0
 11
87.24432177822706
 21
318.9861659812165
 31
0.0
  0
LINE
  5
9B
330
2
100
AcDbEntity
  8
GAIKEI
  6
Continuous
 62
     7
100
AcDbLine
 10
86.90432177822703
 20
318.7736584724765
 30
0.0
 11
86.90432177822703
 21
318.7732418853765
 31
0.0
  0
LINE
  5
9C
330
2
100
AcDbEntity
  8
GAIKEI
  6
Continuous
 62
     1
100
AcDbLine
 10
86.84432177822705
 20
342.8157418853765
 30
0.0
 11
86.84432177822705
 21
318.7357418853765
 31
0.0
  0
LINE
  5
9D
330
2
100
AcDbEntity
  8
GAIKEI
  6
Continuous
 62
     1
100
AcDbLine
 10
94.66781465080703
 20
321.6534585163365
 30
0.0
 11
94.76432177822704
 21
321.5675117708765
 31
0.0
  0
LINE
  5
9E
330
2
100
AcDbEntity
  8
GAIKEI
  6
Continuous
 62
     1
100
AcDbLine
 10
94.66781465080703
 20
321.2677859505165
 30
0.0
 11
94.82432177822705
 21
321.1284047607565
 31
0.0
  0
LINE
  5
9F
330
2
100
AcDbEntity
  8
GAIKEI
  6
Continuous
 62
     1
100
AcDbLine
 10
94.52432177822704
 20
320.9415074263165
 30
0.0
 11
94.53127951760704
 21
320.9353110440365
 31
0.0
  0
LINE
  5
A0
330
2
100
AcDbEntity
  8
GAIKEI
  6
Continuous
 62
     1
100
AcDbLine
 10
94.53127951760704
 20
323.5180223090565
 30
0.0
 11
94.82432177822705
 21
323.3249285923365
 31
0.0
  0
LINE
  5
A1
330
2
100
AcDbEntity
  8
GAIKEI
  6
Continuous
 62
     1
100
AcDbLine
 10
94.53127951760704
 20
323.1323497432365
 30
0.0
 11
94.82432177822705
 21
322.9392560265165
 31
0.0
  0
LINE
  5
A2
330
2
100
AcDbEntity
  8
GAIKEI
  6
Continuous
 62
     1
100
AcDbLine
 10
94.52432177822704
 20
322.8944262916565
 30
0.0
 11
94.66781465080703
 21
322.7998748367565
 31
0.0
  0
LINE
  5
A3
330
2
100
AcDbEntity
  8
GAIKEI
  6
Continuous
 62
     1
100
AcDbLine
 10
81.44432177822706
 20
342.7257418853765
 30
0.0
 11
81.44432177822706
 21
318.8257418853765
 31
0.0
  0
LINE
  5
A4
330
2
100
AcDbEntity
  8
GAIKEI
  6
Continuous
 62
     7
100
AcDbLine
 10
81.14432177822704
 20
342.4257418853765
 30
0.0
 11
81.14432177822704
 21
319.1257418853765
 31
0.0
  0
LINE
  5
A5
330
2
100
AcDbEntity
  8
GAIKEI
  6
Continuous
 62
     1
100
AcDbLine
 10
79.40432177822703
 20
341.7739235532565
 30
0.0
 11
79.40432177822703
 21
341.8157418853765
 31
0.0
  0
LINE
  5
A6
330
2
100
AcDbEntity
  8
GAIKEI
  6
Continuous
 62
     7
100
AcDbLine
 10
79.40432177822703
 20
319.7357418853765
 30
0.0
 11
79.40432177822703
 21
319.7775602174765
 31
0.0
  0
LINE
  5
A7
330
2
100
AcDbEntity
  8
GAIKEI
  6
Continuous
 62
     7
100
AcDbLine
 10
88.18432177822705
 20
318.7732418853765
 30
0.0
 11
88.24432177822705
 21
318.7357418853765
 31
0.0
  0
LINE
  5
A8
330
2
100
AcDbEntity
  8
GAIKEI
  6
Continuous
 62
     7
100
AcDbLine
 10
87.84432177822706
 20
342.5657418853765
 30
0.0
 11
88.24432177822705
 21
342.8157418853765
 31
0.0
  0
LINE
  5
A9
330
2
100
AcDbEntity
  8
GAIKEI
  6
Continuous
 62
     1
100
AcDbLine
 10
94.52432177822704
 20
323.8693155639765
 30
0.0
 11
94.28432177822704
 21
323.8693155639765
 31
0.0
  0
LINE
  5
AA
330
2
100
AcDbEntity
  8
GAIKEI
  6
Continuous
 62
     7
100
AcDbLine
 10
81.14432177822704
 20
319.1257418853765
 30
0.0
 11
81.44432177822706
 21
318.8257418853765
 31
0.0
  0
LINE
  5
AB
330
2
100
AcDbEntity
  8
GAIKEI
  6
Continuous
 62
     1
100
AcDbLine
 10
94.02432177822703
 20
321.6836924900165
 30
0.0
 11
94.28432177822704
 21
321.6609454375165
 31
0.0
  0
LINE
  5
AC
330
2
100
AcDbEntity
  8
GAIKEI
  6
Continuous
 62
     1
100
AcDbLine
 10
95.24432177822706
 20
322.7809454375165
 30
0.0
 11
95.00432177822705
 21
322.7809454375165
 31
0.0
  0
LINE
  5
AD
330
2
100
AcDbEntity
  8
GAIKEI
  6
Continuous
 62
     1
100
AcDbLine
 10
94.74227052234704
 20
322.7257418853765
 30
0.0
 11
94.74548380876703
 21
322.7257418853765
 31
0.0
  0
LINE
  5
AE
330
2
100
AcDbEntity
  8
GAIKEI
  6
Continuous
 62
     1
100
AcDbLine
 10
94.76432177822704
 20
322.6589916314765
 30
0.0
 11
95.00432177822705
 21
322.6589916314765
 31
0.0
  0
LINE
  5
AF
330
2
100
AcDbEntity
  8
GAIKEI
  6
Continuous
 62
     1
100
AcDbLine
 10
93.94315974766703
 20
322.6409454375165
 30
0.0
 11
93.94637303408703
 21
322.6409454375165
 31
0.0
  0
LINE
  5
B0
330
2
100
AcDbEntity
  8
GAIKEI
  6
Continuous
 62
     1
100
AcDbLine
 10
95.24432177822706
 20
322.5909454375165
 30
0.0
 11
95.48432177822707
 21
322.5909454375165
 31
0.0
  0
LINE
  5
B1
330
2
100
AcDbEntity
  8
GAIKEI
  6
Continuous
 62
     1
100
AcDbLine
 10
94.52432177822704
 20
322.5909454375165
 30
0.0
 11
94.76432177822704
 21
322.5909454375165
 31
0.0
  0
LINE
  5
B2
330
2
100
AcDbEntity
  8
GAIKEI
  6
Continuous
 62
     1
100
AcDbLine
 10
94.52432177822704
 20
322.5550854762165
 30
0.0
 11
94.28432177822704
 21
322.5550854762165
 31
0.0
  0
LINE
  5
B3
330
2
100
AcDbEntity
  8
GAIKEI
  6
Continuous
 62
     1
100
AcDbLine
 10
93.91361922306705
 20
322.3909454375165
 30
0.0
 11
93.94637303408703
 21
322.3909454375165
 31
0.0
  0
LINE
  5
B4
330
2
100
AcDbEntity
  8
GAIKEI
  6
Continuous
 62
     1
100
AcDbLine
 10
93.94637303408703
 20
322.1909454375165
 30
0.0
 11
93.91361922306705
 21
322.1909454375165
 31
0.0
  0
LINE
  5
B5
330
2
100
AcDbEntity
  8
GAIKEI
  6
Continuous
 62
     1
100
AcDbLine
 10
94.76432177822704
 20
322.0954588103565
 30
0.0
 11
95.00432177822705
 21
322.0954588103565
 31
0.0
  0
LINE
  5
B6
330
2
100
AcDbEntity
  8
GAIKEI
  6
Continuous
 62
     1
100
AcDbLine
 10
95.24432177822706
 20
321.9909454375165
 30
0.0
 11
95.48432177822707
 21
321.9909454375165
 31
0.0
  0
LINE
  5
B7
330
2
100
AcDbEntity
  8
GAIKEI
  6
Continuous
 62
     1
100
AcDbLine
 10
94.52432177822704
 20
321.9909454375165
 30
0.0
 11
94.76432177822704
 21
321.9909454375165
 31
0.0
  0
LINE
  5
B8
330
2
100
AcDbEntity
  8
GAIKEI
  6
Continuous
 62
     1
100
AcDbLine
 10
93.94637303408703
 20
321.9409454375165
 30
0.0
 11
93.94315974766703
 21
321.9409454375165
 31
0.0
  0
LINE
  5
B9
330
2
100
AcDbEntity
  8
GAIKEI
  6
Continuous
 62
     1
100
AcDbLine
 10
95.24432177822706
 20
321.8009454375165
 30
0.0
 11
95.00432177822705
 21
321.8009454375165
 31
0.0
  0
LINE
  5
BA
330
2
100
AcDbEntity
  8
GAIKEI
  6
Continuous
 62
     1
100
AcDbLine
 10
94.52701450062704
 20
323.5221719384965
 30
0.0
 11
94.60955537384705
 21
323.5264977223565
 31
0.0
  0
LINE
  5
BB
330
2
100
AcDbEntity
  8
GAIKEI
  6
Continuous
 62
     7
100
AcDbLine
 10
81.14432177822704
 20
342.4257418853765
 30
0.0
 11
81.44432177822706
 21
342.7257418853765
 31
0.0
  0
LINE
  5
BC
330
2
100
AcDbEntity
  8
GAIKEI
  6
Continuous
 62
     1
100
AcDbLine
 10
94.48432177822708
 20
320.2716326130365
 30
0.0
 11
95.74432177822705
 21
320.2446397567279
 31
0.0
  0
LINE
  5
BD
330
2
100
AcDbEntity
  8
GAIKEI
  6
Continuous
 62
     1
100
AcDbLine
 10
94.52432177822704
 20
321.7357418853765
 30
0.0
 11
94.72432177822705
 21
321.7357418853765
 31
0.0
  0
LINE
  5
BE
330
2
100
AcDbEntity
  8
GAIKEI
  6
Continuous
 62
     1
100
AcDbLine
 10
95.02432177822702
 20
321.6357418853765
 30
0.0
 11
95.22432177822706
 21
321.6357418853765
 31
0.0
  0
LINE
  5
BF
330
2
100
AcDbEntity
  8
GAIKEI
  6
Continuous
 62
     1
100
AcDbLine
 10
95.00432177822705
 20
321.5357418853765
 30
0.0
 11
95.02432177822702
 21
321.5357418853765
 31
0.0
  0
LINE
  5
C0
330
2
100
AcDbEntity
  8
GAIKEI
  6
Continuous
 62
     1
100
AcDbLine
 10
95.00432177822705
 20
321.4357418853765
 30
0.0
 11
95.02432177822702
 21
321.4357418853765
 31
0.0
  0
LINE
  5
C1
330
2
100
AcDbEntity
  8
GAIKEI
  6
Continuous
 62
     1
100
AcDbLine
 10
94.76432177822704
 20
321.3294143672365
 30
0.0
 11
95.00432177822705
 21
321.3294143672365
 31
0.0
  0
LINE
  5
C2
330
2
100
AcDbEntity
  8
GAIKEI
  6
Continuous
 62
     1
100
AcDbLine
 10
95.00432177822705
 20
321.2357418853765
 30
0.0
 11
95.02432177822702
 21
321.2357418853765
 31
0.0
  0
LINE
  5
C3
330
2
100
AcDbEntity
  8
GAIKEI
  6
Continuous
 62
     1
100
AcDbLine
 10
94.76432177822704
 20
321.1865294110965
 30
0.0
 11
95.00432177822705
 21
321.1865294110965
 31
0.0
  0
LINE
  5
C4
330
2
100
AcDbEntity
  8
GAIKEI
  6
Continuous
 62
     1
100
AcDbLine
 10
94.28432177822704
 20
320.8697877013565
 30
0.0
 11
94.52432177822704
 21
320.8697877013565
 31
0.0
  0
LINE
  5
C5
330
2
100
AcDbEntity
  8
GAIKEI
  6
Continuous
 62
     1
100
AcDbLine
 10
94.28432177822704
 20
320.5840177891165
 30
0.0
 11
94.52432177822704
 21
320.5840177891165
 31
0.0
  0
LINE
  5
C6
330
2
100
AcDbEntity
  8
GAIKEI
  6
Continuous
 62
     1
100
AcDbLine
 10
94.02432177822703
 20
322.8981983849966
 30
0.0
 11
94.28432177822704
 21
322.9209454375165
 31
0.0
  0
LINE
  5
C7
330
2
100
AcDbEntity
  8
GAIKEI
  6
Continuous
 62
     1
100
AcDbLine
 10
94.66432177822701
 20
321.7684889378965
 30
0.0
 11
94.52432177822704
 21
321.7562405249965
 31
0.0
  0
LINE
  5
C8
330
2
100
AcDbEntity
  8
GAIKEI
  6
Continuous
 62
     7
100
AcDbLine
 10
81.10432177822705
 20
320.1762135939765
 30
0.0
 11
81.14432177822704
 21
320.1762135939765
 31
0.0
  0
LINE
  5
C9
330
2
100
AcDbEntity
  8
GAIKEI
  6
Continuous
 62
     7
100
AcDbLine
 10
79.40432177822703
 20
319.7357418853765
 30
0.0
 11
81.14432177822704
 21
319.7357418853765
 31
0.0
  0
LINE
  5
CA
330
2
100
AcDbEntity
  8
GAIKEI
  6
Continuous
 62
     7
100
AcDbLine
 10
81.44432177822706
 20
318.8257418853765
 30
0.0
 11
86.84432177822705
 21
318.7357418853765
 31
0.0
  0
LINE
  5
CB
330
2
100
AcDbEntity
  8
GAIKEI
  6
Continuous
 62
     7
100
AcDbLine
 10
88.24432177822705
 20
318.7357418853765
 30
0.0
 11
95.74432177822705
 21
318.6257418853765
 31
0.0
  0
LINE
  5
CC
330
2
100
AcDbEntity
  8
GAIKEI
  6
Continuous
 62
     7
100
AcDbLine
 10
87.24432177822706
 20
319.0357418853765
 30
0.0
 11
87.84432177822706
 21
319.0357418853765
 31
0.0
  0
LINE
  5
CD
330
2
100
AcDbEntity
  8
GAIKEI
  6
Continuous
 62
     1
100
AcDbLine
 10
52.39730360248128
 20
322.5550854762165
 30
0.0
 11
50.98317086118129
 21
320.8697877013565
 31
0.0
  0
LINE
  5
CE
330
2
100
AcDbEntity
  8
GAIKEI
  6
Continuous
 62
     1
100
AcDbLine
 10
50.6644274005813
 20
321.2677859505165
 30
0.0
 11
50.37570160376128
 21
320.9236959448765
 31
0.0
  0
LINE
  5
CF
330
2
100
AcDbEntity
  8
GAIKEI
  6
Continuous
 62
     1
100
AcDbLine
 10
52.23872841678129
 20
323.1439648423765
 30
0.0
 11
51.95000261996128
 21
322.7998748367565
 31
0.0
  0
LINE
  5
D0
330
2
100
AcDbEntity
  8
GAIKEI
  6
Continuous
 62
     1
100
AcDbLine
 10
50.20480073472128
 20
321.6534585163365
 30
0.0
 11
49.9160749379013
 21
321.3093685106965
 31
0.0
  0
LINE
  5
D1
330
2
100
AcDbEntity
  8
GAIKEI
  6
Continuous
 62
     1
100
AcDbLine
 10
51.7791017509013
 20
323.5296374081965
 30
0.0
 11
51.49037595408128
 21
323.1855474025565
 31
0.0
  0
LINE
  5
D2
330
2
100
AcDbEntity
  8
GAIKEI
  6
Continuous
 62
     1
100
AcDbLine
 10
50.20507771074131
 20
336.0389056950365
 30
0.0
 11
50.1050776850413
 21
336.2121108193565
 31
0.0
  0
LINE
  5
D3
330
2
100
AcDbEntity
  8
GAIKEI
  6
Continuous
 62
     1
100
AcDbLine
 10
51.3507972330213
 20
322.3909454375165
 30
0.0
 11
51.3507972330213
 21
322.1909454375165
 31
0.0
  0
LINE
  5
D4
330
2
100
AcDbEntity
  8
GAIKEI
  6
Continuous
 62
     1
100
AcDbLine
 10
51.1007972330213
 20
322.1509454375165
 30
0.0
 11
51.1007972330213
 21
321.9409454375165
 31
0.0
  0
LINE
  5
D5
330
2
100
AcDbEntity
  8
GAIKEI
  6
Continuous
 62
     1
100
AcDbLine
 10
51.1007972330213
 20
322.6409454375165
 30
0.0
 11
51.1007972330213
 21
322.4309454375165
 31
0.0
  0
LINE
  5
D6
330
2
100
AcDbEntity
  8
GAIKEI
  6
Continuous
 62
     1
100
AcDbLine
 10
50.90079723302131
 20
322.4309454375165
 30
0.0
 11
50.90079723302131
 21
322.6409454375165
 31
0.0
  0
LINE
  5
D7
330
2
100
AcDbEntity
  8
GAIKEI
  6
Continuous
 62
     1
100
AcDbLine
 10
50.90079723302131
 20
321.9409454375165
 30
0.0
 11
50.90079723302131
 21
322.1509454375165
 31
0.0
  0
LINE
  5
D8
330
2
100
AcDbEntity
  8
GAIKEI
  6
Continuous
 62
     1
100
AcDbLine
 10
50.6507972330213
 20
322.1909454375165
 30
0.0
 11
50.6507972330213
 21
322.3909454375165
 31
0.0
  0
LINE
  5
D9
330
2
100
AcDbEntity
  8
GAIKEI
  6
Continuous
 62
     1
100
AcDbLine
 10
46.95839818932128
 20
320.2716326130365
 30
0.0
 11
46.95011694344128
 21
320.2488495608565
 31
0.0
  0
LINE
  5
DA
330
2
100
AcDbEntity
  8
GAIKEI
  6
Continuous
 62
     1
100
AcDbLine
 10
49.43396062292129
 20
322.1642608083365
 30
0.0
 11
49.43423851090128
 21
322.1694962651965
 31
0.0
  0
LINE
  5
DB
330
2
100
AcDbEntity
  8
GAIKEI
  6
Continuous
 62
     1
100
AcDbLine
 10
36.58232506536129
 20
320.5963437551365
 30
0.0
 11
36.76019604620129
 21
320.9044253311365
 31
0.0
  0
LINE
  5
DC
330
2
100
AcDbEntity
  8
GAIKEI
  6
Continuous
 62
     1
100
AcDbLine
 10
36.81060878964129
 20
320.9917427640965
 30
0.0
 11
36.76024427228128
 21
320.9045088611365
 31
0.0
  0
LINE
  5
DD
330
2
100
AcDbEntity
  8
GAIKEI
  6
Continuous
 62
     1
100
AcDbLine
 10
36.3935253735813
 20
340.8727669841765
 30
0.0
 11
36.57856957772128
 21
340.4571508968765
 31
0.0
  0
LINE
  5
DE
330
2
100
AcDbEntity
  8
GAIKEI
  6
Continuous
 62
     1
100
AcDbLine
 10
36.04146737764128
 20
340.7146783432965
 30
0.0
 11
36.2460583201613
 21
340.2952047478965
 31
0.0
  0
LINE
  5
DF
330
2
100
AcDbEntity
  8
GAIKEI
  6
Continuous
 62
     1
100
AcDbLine
 10
36.66231285012128
 20
340.4965971084365
 30
0.0
 11
36.43474737032131
 21
340.8907520814965
 31
0.0
  0
LINE
  5
E0
330
2
100
AcDbEntity
  8
GAIKEI
  6
Continuous
 62
     1
100
AcDbLine
 10
52.23872841678129
 20
323.1439648423765
 30
0.0
 11
51.7791017509013
 21
323.5296374081965
 31
0.0
  0
LINE
  5
E1
330
2
100
AcDbEntity
  8
GAIKEI
  6
Continuous
 62
     1
100
AcDbLine
 10
52.11202748644129
 20
322.9929685534765
 30
0.0
 11
51.65240082056129
 21
323.3786411192765
 31
0.0
  0
LINE
  5
E2
330
2
100
AcDbEntity
  8
GAIKEI
  6
Continuous
 62
     1
100
AcDbLine
 10
35.2506701239013
 20
321.7525109608365
 30
0.0
 11
35.27680524004129
 21
321.7943358896165
 31
0.0
  0
LINE
  5
E3
330
2
100
AcDbEntity
  8
GAIKEI
  6
Continuous
 62
     1
100
AcDbLine
 10
36.53819731812129
 20
321.0659517781365
 30
0.0
 11
36.33050239584128
 21
320.7062136202765
 31
0.0
  0
LINE
  5
E4
330
2
100
AcDbEntity
  8
GAIKEI
  6
Continuous
 62
     1
100
AcDbLine
 10
36.12907898992131
 20
321.2598262057765
 30
0.0
 11
35.92146520966131
 21
320.9002285900165
 31
0.0
  0
LINE
  5
E5
330
2
100
AcDbEntity
  8
GAIKEI
  6
Continuous
 62
     1
100
AcDbLine
 10
35.56905781390128
 20
321.5613133939565
 30
0.0
 11
35.59166451358129
 21
321.6004693463765
 31
0.0
  0
LINE
  5
E6
330
2
100
AcDbEntity
  8
GAIKEI
  6
Continuous
 62
     1
100
AcDbLine
 10
35.89389177000129
 20
321.3812897346165
 30
0.0
 11
35.91592522104128
 21
321.4227286291165
 31
0.0
  0
LINE
  5
E7
330
2
100
AcDbEntity
  8
GAIKEI
  6
Continuous
 62
     1
100
AcDbLine
 10
36.22483887096129
 20
321.2127727046565
 30
0.0
 11
36.2460583201613
 21
321.2562790228365
 31
0.0
  0
LINE
  5
E8
330
2
100
AcDbEntity
  8
GAIKEI
  6
Continuous
 62
     1
100
AcDbLine
 10
36.56134497298129
 20
321.0556457781965
 30
0.0
 11
36.57856957772128
 21
321.0943328738565
 31
0.0
  0
LINE
  5
E9
330
2
100
AcDbEntity
  8
GAIKEI
  6
Continuous
 62
     1
100
AcDbLine
 10
40.9890105838613
 20
319.7194835252365
 30
0.0
 11
40.9890105838613
 21
320.1762135939765
 31
0.0
  0
LINE
  5
EA
330
2
100
AcDbEntity
  8
GAIKEI
  6
Continuous
 62
     1
100
AcDbLine
 10
40.78901058386128
 20
319.7194835252365
 30
0.0
 11
40.78901058386128
 21
320.1762135939765
 31
0.0
  0
LINE
  5
EB
330
2
100
AcDbEntity
  8
GAIKEI
  6
Continuous
 62
     1
100
AcDbLine
 10
35.02795166202128
 20
339.6559214057965
 30
0.0
 11
34.82034373310131
 21
340.0155088867565
 31
0.0
  0
LINE
  5
EC
330
2
100
AcDbEntity
  8
GAIKEI
  6
Continuous
 62
     1
100
AcDbLine
 10
34.65549231844131
 20
339.3985517542365
 30
0.0
 11
34.44779166078129
 21
339.7582998460565
 31
0.0
  0
LINE
  5
ED
330
2
100
AcDbEntity
  8
GAIKEI
  6
Continuous
 62
     1
100
AcDbLine
 10
34.45501969134131
 20
339.1997410066365
 30
0.0
 11
34.4046396717813
 21
339.2870017601965
 31
0.0
  0
LINE
  5
EE
330
2
100
AcDbEntity
  8
GAIKEI
  6
Continuous
 62
     1
100
AcDbLine
 10
34.22673066886131
 20
339.5951491923965
 30
0.0
 11
34.40460694792131
 21
339.2870584395965
 31
0.0
  0
LINE
  5
EF
330
2
100
AcDbEntity
  8
GAIKEI
  6
Continuous
 62
     1
100
AcDbLine
 10
51.0307492882213
 20
323.5712199683765
 30
0.0
 11
50.78873651738129
 21
323.7742927951165
 31
0.0
  0
LINE
  5
F0
330
2
100
AcDbEntity
  8
GAIKEI
  6
Continuous
 62
     1
100
AcDbLine
 10
51.95000261996128
 20
322.7998748367565
 30
0.0
 11
51.49037595408128
 21
323.1855474025565
 31
0.0
  0
LINE
  5
F1
330
2
100
AcDbEntity
  8
GAIKEI
  6
Continuous
 62
     7
100
AcDbLine
 10
29.3955820266213
 20
334.7157418853765
 30
0.0
 11
29.41884127386129
 21
334.7157418853765
 31
0.0
  0
LINE
  5
F2
330
2
100
AcDbEntity
  8
GAIKEI
  6
Continuous
 62
     7
100
AcDbLine
 10
29.3485383231413
 20
334.5757418853765
 30
0.0
 11
29.37594997322128
 21
334.5757418853765
 31
0.0
  0
LINE
  5
F3
330
2
100
AcDbEntity
  8
GAIKEI
  6
Continuous
 62
     7
100
AcDbLine
 10
29.3128517960613
 20
334.3757418853765
 30
0.0
 11
29.3107014814413
 21
334.3757418853765
 31
0.0
  0
LINE
  5
F4
330
2
100
AcDbEntity
  8
GAIKEI
  6
Continuous
 62
     1
100
AcDbLine
 10
34.39246637846128
 20
321.8340158955165
 30
0.0
 11
34.66387642734128
 21
322.2075797798365
 31
0.0
  0
LINE
  5
F5
330
2
100
AcDbEntity
  8
GAIKEI
  6
Continuous
 62
     1
100
AcDbLine
 10
34.7054174829413
 20
321.6081881088165
 30
0.0
 11
34.96180070840131
 21
321.9882918718365
 31
0.0
  0
LINE
  5
F6
330
2
100
AcDbEntity
  8
GAIKEI
  6
Continuous
 62
     1
100
AcDbLine
 10
34.9422087196613
 20
321.9527521660165
 30
0.0
 11
34.7331969010813
 21
321.5907330768565
 31
0.0
  0
LINE
  5
F7
330
2
100
AcDbEntity
  8
GAIKEI
  6
Continuous
 62
     1
100
AcDbLine
 10
34.35628084682131
 20
321.8607220687365
 30
0.0
 11
34.58385188104131
 21
322.2548866623165
 31
0.0
  0
LINE
  5
F8
330
2
100
AcDbEntity
  8
GAIKEI
  6
Continuous
 62
     1
100
AcDbLine
 10
50.6644274005813
 20
321.2677859505165
 30
0.0
 11
50.20480073472128
 21
321.6534585163365
 31
0.0
  0
LINE
  5
F9
330
2
100
AcDbEntity
  8
GAIKEI
  6
Continuous
 62
     1
100
AcDbLine
 10
49.50316129802129
 20
322.2422039088765
 30
0.0
 11
49.74517406884129
 21
322.0391310821365
 31
0.0
  0
LINE
  5
FA
330
2
100
AcDbEntity
  8
GAIKEI
  6
Continuous
 62
     1
100
AcDbLine
 10
50.50240253410129
 20
321.0746922337965
 30
0.0
 11
50.0427758682413
 21
321.4603647996165
 31
0.0
  0
LINE
  5
FB
330
2
100
AcDbEntity
  8
GAIKEI
  6
Continuous
 62
     1
100
AcDbLine
 10
50.37570160376128
 20
320.9236959448765
 30
0.0
 11
49.9160749379013
 21
321.3093685106965
 31
0.0
  0
LINE
  5
FC
330
2
100
AcDbEntity
  8
GAIKEI
  6
Continuous
 62
     1
100
AcDbLine
 10
31.75954981538129
 20
336.1621085714365
 30
0.0
 11
31.3640145041613
 21
336.3904709898565
 31
0.0
  0
LINE
  5
FD
330
2
100
AcDbEntity
  8
GAIKEI
  6
Continuous
 62
     1
100
AcDbLine
 10
31.6595498153813
 20
335.9889034906965
 30
0.0
 11
31.26400566722129
 21
336.2172710110965
 31
0.0
  0
LINE
  5
FE
330
2
100
AcDbEntity
  8
GAIKEI
  6
Continuous
 62
     1
100
AcDbLine
 10
50.1184713523213
 20
335.9889034906965
 30
0.0
 11
50.51401550048129
 21
336.2172710110965
 31
0.0
  0
LINE
  5
FF
330
2
100
AcDbEntity
  8
GAIKEI
  6
Continuous
 62
     1
100
AcDbLine
 10
50.01847132342129
 20
336.1621086204565
 30
0.0
 11
50.4140066486213
 21
336.3904710135965
 31
0.0
  0
LINE
  5
100
330
2
100
AcDbEntity
  8
GAIKEI
  6
Continuous
 62
     1
100
AcDbLine
 10
51.88103684762129
 20
329.6204333708965
 30
0.0
 11
51.42351141442128
 21
329.6685212316765
 31
0.0
  0
LINE
  5
101
330
2
100
AcDbEntity
  8
GAIKEI
  6
Continuous
 62
     1
100
AcDbLine
 10
51.9201486118013
 20
330.0043695709765
 30
0.0
 11
51.45486552232132
 21
330.0369053340565
 31
0.0
  0
LINE
  5
102
330
2
100
AcDbEntity
  8
GAIKEI
  6
Continuous
 62
     1
100
AcDbLine
 10
51.40140327058128
 20
332.1357418853765
 30
0.0
 11
51.50217279750129
 21
332.1357418853765
 31
0.0
  0
LINE
  5
103
330
2
100
AcDbEntity
  8
GAIKEI
  6
Continuous
 62
     1
100
AcDbLine
 10
51.85797316980128
 20
332.1357418853765
 30
0.0
 11
51.50222875744129
 21
332.1357418853765
 31
0.0
  0
LINE
  5
104
330
2
100
AcDbEntity
  8
GAIKEI
  6
Continuous
 62
     1
100
AcDbLine
 10
51.47334211500129
 20
331.8627221237365
 30
0.0
 11
51.8887357577413
 21
331.8627221237365
 31
0.0
  0
LINE
  5
105
330
2
100
AcDbEntity
  8
GAIKEI
  6
Continuous
 62
     1
100
AcDbLine
 10
51.51000109962129
 20
331.4114780445365
 30
0.0
 11
51.92522362792129
 21
331.4114780445365
 31
0.0
  0
LINE
  5
106
330
2
100
AcDbEntity
  8
GAIKEI
  6
Continuous
 62
     1
100
AcDbLine
 10
51.52252801868129
 20
330.4044112741365
 30
0.0
 11
51.4794596256213
 21
330.4059152555765
 31
0.0
  0
LINE
  5
107
330
2
100
AcDbEntity
  8
GAIKEI
  6
Continuous
 62
     1
100
AcDbLine
 10
51.52891612374128
 20
330.7757418853765
 30
0.0
 11
51.4794596256213
 21
330.7757418853765
 31
0.0
  0
LINE
  5
108
330
2
100
AcDbEntity
  8
GAIKEI
  6
Continuous
 62
     7
100
AcDbLine
 10
28.7725980669413
 20
330.3757418853765
 30
0.0
 11
28.7705436151613
 21
330.3757418853765
 31
0.0
  0
LINE
  5
109
330
2
100
AcDbEntity
  8
GAIKEI
  6
Continuous
 62
     7
100
AcDbLine
 10
28.77989874206131
 20
330.1757418853765
 30
0.0
 11
28.75383444174131
 21
330.1757418853765
 31
0.0
  0
LINE
  5
10A
330
2
100
AcDbEntity
  8
GAIKEI
  6
Continuous
 62
     1
100
AcDbLine
 10
51.5033447502413
 20
330.0371552593965
 30
0.0
 11
51.9213753341013
 21
330.0371552593965
 31
0.0
  0
LINE
  5
10B
330
2
100
AcDbEntity
  8
GAIKEI
  6
Continuous
 62
     7
100
AcDbLine
 10
28.78360749266131
 20
330.0357418853765
 30
0.0
 11
28.76156650028131
 21
330.0357418853765
 31
0.0
  0
LINE
  5
10C
330
2
100
AcDbEntity
  8
GAIKEI
  6
Continuous
 62
     1
100
AcDbLine
 10
51.42086702040129
 20
329.5757418853765
 30
0.0
 11
51.8760012203613
 21
329.5757418853765
 31
0.0
  0
LINE
  5
10D
330
2
100
AcDbEntity
  8
GAIKEI
  6
Continuous
 62
     1
100
AcDbLine
 10
51.5224042079613
 20
331.1470681730365
 30
0.0
 11
51.4794596256213
 21
331.1455685151766
 31
0.0
  0
LINE
  5
10E
330
2
100
AcDbEntity
  8
GAIKEI
  6
Continuous
 62
     1
100
AcDbLine
 10
51.50287068640131
 20
331.5179352847565
 30
0.0
 11
51.45486552232132
 21
331.5145784366765
 31
0.0
  0
LINE
  5
10F
330
2
100
AcDbEntity
  8
GAIKEI
  6
Continuous
 62
     1
100
AcDbLine
 10
51.47072244330129
 20
331.8879246181565
 30
0.0
 11
51.42351141442128
 21
331.8829625390765
 31
0.0
  0
LINE
  5
110
330
2
100
AcDbEntity
  8
GAIKEI
  6
Continuous
 62
     1
100
AcDbLine
 10
31.69026472292129
 20
336.2021103382165
 30
0.0
 11
31.59026472292129
 21
336.0289052574565
 31
0.0
  0
LINE
  5
111
330
2
100
AcDbEntity
  8
GAIKEI
  6
Continuous
 62
     1
100
AcDbLine
 10
50.90079723302131
 20
322.6409454375165
 30
0.0
 11
51.1007972330213
 21
322.6409454375165
 31
0.0
  0
LINE
  5
112
330
2
100
AcDbEntity
  8
GAIKEI
  6
Continuous
 62
     1
100
AcDbLine
 10
51.14079723302129
 20
322.3909454375165
 30
0.0
 11
51.3507972330213
 21
322.3909454375165
 31
0.0
  0
LINE
  5
113
330
2
100
AcDbEntity
  8
GAIKEI
  6
Continuous
 62
     1
100
AcDbLine
 10
50.6507972330213
 20
322.3909454375165
 30
0.0
 11
50.86079723302129
 21
322.3909454375165
 31
0.0
  0
LINE
  5
114
330
2
100
AcDbEntity
  8
GAIKEI
  6
Continuous
 62
     1
100
AcDbLine
 10
50.86079723302129
 20
322.1909454375165
 30
0.0
 11
50.6507972330213
 21
322.1909454375165
 31
0.0
  0
LINE
  5
115
330
2
100
AcDbEntity
  8
GAIKEI
  6
Continuous
 62
     1
100
AcDbLine
 10
51.3507972330213
 20
322.1909454375165
 30
0.0
 11
51.14079723302129
 21
322.1909454375165
 31
0.0
  0
LINE
  5
116
330
2
100
AcDbEntity
  8
GAIKEI
  6
Continuous
 62
     1
100
AcDbLine
 10
51.1007972330213
 20
321.9409454375165
 30
0.0
 11
50.90079723302131
 21
321.9409454375165
 31
0.0
  0
LINE
  5
117
330
2
100
AcDbEntity
  8
GAIKEI
  6
Continuous
 62
     1
100
AcDbLine
 10
40.78901058386128
 20
320.0762091852965
 30
0.0
 11
40.9890105838613
 21
320.0762091852965
 31
0.0
  0
LINE
  5
118
330
2
100
AcDbEntity
  8
GAIKEI
  6
Continuous
 62
     1
100
AcDbLine
 10
88.32606392728704
 20
319.8746116339165
 30
0.0
 11
90.53347654930703
 21
319.8791249218965
 31
0.0
  0
LINE
  5
119
330
2
100
AcDbEntity
  8
GAIKEI
  6
Continuous
 62
     1
100
AcDbLine
 10
86.77156530620704
 20
319.8727301513365
 30
0.0
 11
85.63407027792704
 21
319.8681249083165
 31
0.0
  0
LINE
  5
11A
330
2
100
AcDbEntity
  8
GAIKEI
  6
Continuous
 62
     1
100
AcDbLine
 10
90.53347654930703
 20
319.8791249218965
 30
0.0
 11
90.53588343460706
 21
318.7019367968565
 31
0.0
  0
LINE
  5
11B
330
2
100
AcDbEntity
  8
GAIKEI
  6
Continuous
 62
     1
100
AcDbLine
 10
88.32840172048705
 20
318.7312159026965
 30
0.0
 11
88.32606392728704
 21
319.8746116339165
 31
0.0
  0
LINE
  5
11C
330
2
100
AcDbEntity
  8
GAIKEI
  6
Continuous
 62
     1
100
AcDbLine
 10
85.63407027792704
 20
319.8681249083165
 30
0.0
 11
85.63828184052704
 21
318.7573845230965
 31
0.0
  0
LINE
  5
11D
330
2
100
AcDbEntity
  8
GAIKEI
  6
Continuous
 62
     1
100
AcDbLine
 10
86.77617054922706
 20
318.7352351230765
 30
0.0
 11
86.77156530620704
 21
319.8727301513365
 31
0.0
  0
ARC
  5
11E
330
2
100
AcDbEntity
  8
GAIKEI
  6
Continuous
 62
     1
100
AcDbCircle
 10
51.25996072250129
 20
322.0877641297565
 30
0.0
 40
0.025
100
AcDbArc
 50
0.0
 51
180.0
  0
ARC
  5
11F
330
2
100
AcDbEntity
  8
GAIKEI
  6
Continuous
 62
     1
100
AcDbCircle
 10
51.25996072250129
 20
322.0877641297565
 30
0.0
 40
0.025
100
AcDbArc
 50
180.0
 51
0.0
  0
ARC
  5
120
330
2
100
AcDbEntity
  8
GAIKEI
  6
Continuous
 62
     1
100
AcDbCircle
 10
95.54432177822704
 20
325.2713574134965
 30
0.0
 40
0.26
100
AcDbArc
 50
320.5781934623015
 51
0.0
  0
ARC
  5
121
330
2
100
AcDbEntity
  8
GAIKEI
  6
Continuous
 62
     1
100
AcDbCircle
 10
95.54432177822704
 20
327.0801263572365
 30
0.0
 40
0.26
100
AcDbArc
 50
0.0
 51
39.42180653769848
  0
ARC
  5
122
330
2
100
AcDbEntity
  8
GAIKEI
  6
Continuous
 62
     1
100
AcDbCircle
 10
95.54432177822704
 20
334.4713574134965
 30
0.0
 40
0.26
100
AcDbArc
 50
320.5781934623015
 51
0.0
  0
ARC
  5
123
330
2
100
AcDbEntity
  8
GAIKEI
  6
Continuous
 62
     1
100
AcDbCircle
 10
95.54432177822704
 20
336.2801263572365
 30
0.0
 40
0.26
100
AcDbArc
 50
0.0
 51
39.42180653769848
  0
ARC
  5
124
330
2
100
AcDbEntity
  8
GAIKEI
  6
Continuous
 62
     7
100
AcDbCircle
 10
79.60432177822704
 20
330.7757418853765
 30
0.0
 40
11.0
100
AcDbArc
 50
91.04179885049992
 51
268.9582011495001
  0
ARC
  5
125
330
2
100
AcDbEntity
  8
GAIKEI
  6
Continuous
 62
     1
100
AcDbCircle
 10
94.60432177822704
 20
323.6263606758365
 30
0.0
 40
0.1
100
AcDbArc
 50
272.9999999999502
 51
0.0
  0
ARC
  5
126
330
2
100
AcDbEntity
  8
GAIKEI
  6
Continuous
 62
     1
100
AcDbCircle
 10
95.02432177822702
 20
321.4357418853765
 30
0.0
 40
0.2
100
AcDbArc
 50
270.0
 51
0.0
  0
ARC
  5
127
330
2
100
AcDbEntity
  8
GAIKEI
  6
Continuous
 62
     1
100
AcDbCircle
 10
95.50080570416701
 20
322.2909454375165
 30
0.0
 40
1.59648392594
100
AcDbArc
 50
157.6434605857013
 51
167.3360847158008
  0
ARC
  5
128
330
2
100
AcDbEntity
  8
GAIKEI
  6
Continuous
 62
     1
100
AcDbCircle
 10
95.50080570416701
 20
322.2909454375165
 30
0.0
 40
1.59648392594
100
AcDbArc
 50
192.6639152841992
 51
202.3565394142987
  0
ARC
  5
129
330
2
100
AcDbEntity
  8
GAIKEI
  6
Continuous
 62
     1
100
AcDbCircle
 10
93.18783785226704
 20
322.3757418853765
 30
0.0
 40
1.59648392594
100
AcDbArc
 50
337.6434605857014
 51
346.0445664732973
  0
ARC
  5
12A
330
2
100
AcDbEntity
  8
GAIKEI
  6
Continuous
 62
     1
100
AcDbCircle
 10
93.18783785226704
 20
322.3757418853765
 30
0.0
 40
1.59648392594
100
AcDbArc
 50
12.66391528419757
 51
16.96702655000164
  0
ARC
  5
12B
330
2
100
AcDbEntity
  8
GAIKEI
  6
Continuous
 62
     1
100
AcDbCircle
 10
40.8890105838613
 20
330.7757418853765
 30
0.0
 40
10.7
100
AcDbArc
 50
7.30220630889993
 51
29.46451762969943
  0
ARC
  5
12C
330
2
100
AcDbEntity
  8
GAIKEI
  6
Continuous
 62
     1
100
AcDbCircle
 10
40.8890105838613
 20
330.7757418853765
 30
0.0
 40
10.7
100
AcDbArc
 50
30.5354826410994
 51
113.5607584057994
  0
ARC
  5
12D
330
2
100
AcDbEntity
  8
GAIKEI
  6
Continuous
 62
     1
100
AcDbCircle
 10
40.8890105838613
 20
330.7757418853765
 30
0.0
 40
10.7
100
AcDbArc
 50
270.535482370301
 51
353.5607584058013
  0
ARC
  5
12E
330
2
100
AcDbEntity
  8
GAIKEI
  6
Continuous
 62
     1
100
AcDbCircle
 10
40.8890105838613
 20
330.7757418853765
 30
0.0
 40
10.7
100
AcDbArc
 50
247.3022063089013
 51
269.4645176296991
  0
ARC
  5
12F
330
2
100
AcDbEntity
  8
GAIKEI
  6
Continuous
 62
     1
100
AcDbCircle
 10
40.8890105838613
 20
330.7757418853765
 30
0.0
 40
10.7
100
AcDbArc
 50
127.3022063088991
 51
149.4645176296995
  0
ARC
  5
130
330
2
100
AcDbEntity
  8
GAIKEI
  6
Continuous
 62
     1
100
AcDbCircle
 10
40.8890105838613
 20
330.7757418853765
 30
0.0
 40
10.7
100
AcDbArc
 50
150.5354823703005
 51
233.5607584058004
  0
ARC
  5
131
330
2
100
AcDbEntity
  8
GAIKEI
  6
Continuous
 62
     1
100
AcDbCircle
 10
40.8890105838613
 20
330.7757418853765
 30
0.0
 40
10.64
100
AcDbArc
 50
116.0195530278998
 51
127.3436104917005
  0
ARC
  5
132
330
2
100
AcDbEntity
  8
GAIKEI
  6
Continuous
 62
     1
100
AcDbCircle
 10
40.8890105838613
 20
330.7757418853765
 30
0.0
 40
10.64
100
AcDbArc
 50
236.0195530279014
 51
247.343610491702
  0
ARC
  5
133
330
2
100
AcDbEntity
  8
GAIKEI
  6
Continuous
 62
     1
100
AcDbCircle
 10
40.8890105838613
 20
330.7757418853765
 30
0.0
 40
10.64
100
AcDbArc
 50
356.0195530279018
 51
7.343610491700329
  0
ARC
  5
134
330
2
100
AcDbEntity
  8
GAIKEI
  6
Continuous
 62
     1
100
AcDbCircle
 10
40.8890105838613
 20
330.7757418853765
 30
0.0
 40
10.7
100
AcDbArc
 50
29.46451762969943
 51
30.5354826410994
  0
ARC
  5
135
330
2
100
AcDbEntity
  8
GAIKEI
  6
Continuous
 62
     1
100
AcDbCircle
 10
40.8890105838613
 20
330.7757418853765
 30
0.0
 40
10.68
100
AcDbArc
 50
149.4635148245009
 51
150.5364851754994
  0
ARC
  5
136
330
2
100
AcDbEntity
  8
GAIKEI
  6
Continuous
 62
     1
100
AcDbCircle
 10
40.8890105838613
 20
330.7757418853765
 30
0.0
 40
10.7
100
AcDbArc
 50
269.4645176296991
 51
270.535482370301
  0
ARC
  5
137
330
2
100
AcDbEntity
  8
GAIKEI
  6
Continuous
 62
     7
100
AcDbCircle
 10
40.8890105838613
 20
330.7757418853765
 30
0.0
 40
12.12506666666
100
AcDbArc
 50
162.7281602288995
 51
181.8905026671008
  0
ARC
  5
138
330
2
100
AcDbEntity
  8
GAIKEI
  6
Continuous
 62
     7
100
AcDbCircle
 10
40.8890105838613
 20
330.7757418853765
 30
0.0
 40
12.12301333334
100
AcDbArc
 50
162.7251428321001
 51
181.8908229869007
  0
ARC
  5
139
330
2
100
AcDbEntity
  8
GAIKEI
  6
Continuous
 62
     7
100
AcDbCircle
 10
40.8890105838613
 20
330.7757418853765
 30
0.0
 40
12.13152
100
AcDbArc
 50
300.0197851858021
 51
314.7778134304997
  0
ARC
  5
13A
330
2
100
AcDbEntity
  8
GAIKEI
  6
Continuous
 62
     7
100
AcDbCircle
 10
40.8890105838613
 20
330.7757418853765
 30
0.0
 40
12.128
100
AcDbArc
 50
314.7961666948015
 51
325.2038333052003
  0
ARC
  5
13B
330
2
100
AcDbEntity
  8
GAIKEI
  6
Continuous
 62
     7
100
AcDbCircle
 10
40.8890105838613
 20
330.7757418853765
 30
0.0
 40
12.15
100
AcDbArc
 50
183.4917805372007
 51
298.989166927501
  0
ARC
  5
13C
330
2
100
AcDbEntity
  8
GAIKEI
  6
Continuous
 62
     7
100
AcDbCircle
 10
40.8890105838613
 20
330.7757418853765
 30
0.0
 40
12.15
100
AcDbArc
 50
326.2499502866011
 51
161.0780502491
  0
ARC
  5
13D
330
2
100
AcDbEntity
  8
GAIKEI
  6
Continuous
 62
     7
100
AcDbCircle
 10
40.8890105838613
 20
330.7757418853765
 30
0.0
 40
12.15
100
AcDbArc
 50
161.7745289238991
 51
182.8305724703004
  0
ARC
  5
13E
330
2
100
AcDbEntity
  8
GAIKEI
  6
Continuous
 62
     1
100
AcDbCircle
 10
50.37033530668129
 20
321.3840177891165
 30
0.0
 40
0.8
100
AcDbArc
 50
140.0000000000031
 51
320.0000000000034
  0
ARC
  5
13F
330
2
100
AcDbEntity
  8
GAIKEI
  6
Continuous
 62
     1
100
AcDbCircle
 10
51.78446804798131
 20
323.0693155639765
 30
0.0
 40
0.8
100
AcDbArc
 50
320.0000000000031
 51
140.0000000000034
  0
ARC
  5
140
330
2
100
AcDbEntity
  8
GAIKEI
  6
Continuous
 62
     1
100
AcDbCircle
 10
49.68089530788128
 20
321.9625266378365
 30
0.0
 40
0.0999999999998
100
AcDbArc
 50
319.9999999999881
 51
49.99999999998824
  0
ARC
  5
141
330
2
100
AcDbEntity
  8
GAIKEI
  6
Continuous
 62
     1
100
AcDbCircle
 10
51.09502804918128
 20
323.6478244126965
 30
0.0
 40
0.1
100
AcDbArc
 50
230.0000000000598
 51
320.0000000000648
  0
ARC
  5
142
330
2
100
AcDbEntity
  8
GAIKEI
  6
Continuous
 62
     1
100
AcDbCircle
 10
51.14079723302129
 20
322.1509454375165
 30
0.0
 40
0.04
100
AcDbArc
 50
90.0
 51
180.0
  0
ARC
  5
143
330
2
100
AcDbEntity
  8
GAIKEI
  6
Continuous
 62
     1
100
AcDbCircle
 10
51.14079723302129
 20
322.4309454375165
 30
0.0
 40
0.04
100
AcDbArc
 50
180.0
 51
270.0
  0
ARC
  5
144
330
2
100
AcDbEntity
  8
GAIKEI
  6
Continuous
 62
     1
100
AcDbCircle
 10
50.86079723302129
 20
322.1509454375165
 30
0.0
 40
0.04
100
AcDbArc
 50
0.0
 51
90.0
  0
ARC
  5
145
330
2
100
AcDbEntity
  8
GAIKEI
  6
Continuous
 62
     1
100
AcDbCircle
 10
50.86079723302129
 20
322.4309454375165
 30
0.0
 40
0.04
100
AcDbArc
 50
270.0
 51
0.0
  0
CIRCLE
  5
146
330
2
100
AcDbEntity
  8
GAIKEI
  6
Continuous
 62
     1
100
AcDbCircle
 10
40.8890105838613
 20
330.7757418853765
 30
0.0
 40
10.09007433052
  0
CIRCLE
  5
147
330
2
100
AcDbEntity
  8
GAIKEI
  6
Continuous
 62
     1
100
AcDbCircle
 10
40.8890105838613
 20
330.7757418853765
 30
0.0
 40
10.2841142217
  0
CIRCLE
  5
148
330
2
100
AcDbEntity
  8
GAIKEI
  6
Continuous
 62
     1
100
AcDbCircle
 10
40.8890105838613
 20
330.7757418853765
 30
0.0
 40
10.6
  0
CIRCLE
  5
149
330
2
100
AcDbEntity
  8
GAIKEI
  6
Continuous
 62
     1
100
AcDbCircle
 10
40.8890105838613
 20
330.7757418853765
 30
0.0
 40
11.65
  0
CIRCLE
  5
14A
330
2
100
AcDbEntity
  8
GAIKEI
  6
Continuous
 62
     1
100
AcDbCircle
 10
40.8890105838613
 20
330.7757418853765
 30
0.0
 40
11.95
  0
CIRCLE
  5
14B
330
2
100
AcDbEntity
  8
GAIKEI
  6
Continuous
 62
     1
100
AcDbCircle
 10
40.8890105838613
 20
330.7757418853765
 30
0.0
 40
11.06
  0
CIRCLE
  5
14C
330
2
100
AcDbEntity
  8
GAIKEI
  6
Continuous
 62
     1
100
AcDbCircle
 10
51.0007972330213
 20
322.2909454375165
 30
0.0
 40
0.6072529474800002
  0
CIRCLE
  5
14D
330
2
100
AcDbEntity
  8
GAIKEI
  6
Continuous
 62
     1
100
AcDbCircle
 10
51.0007972330213
 20
322.2909454375165
 30
0.0
 40
0.63
  0
SPLINE
  5
14E
330
2
100
AcDbEntity
  8
GAIKEI
  6
Continuous
 62
     7
100
AcDbSpline
210
0.0
220
0.0
230
1.0
 70
     8
 71
     3
 72
    11
 73
     7
 74
     5
 42
0.0000000001
 43
0.0000000001
 44
0.00000000001
 40
0.0
 40
0.0
 40
0.0
 40
0.0
 40
0.1002268944169685
 40
0.2004566888423499
 40
0.3007009833104707
 40
0.4009481777872132
 40
0.4009481777872132
 40
0.4009481777872132
 40
0.4009481777872132
 10
87.84432177822708
 20
318.9861659812166
 30
0.0
 10
87.87265223818852
 20
318.9684588084394
 30
0.0
 10
87.92931397783718
 20
318.9330439505381
 30
0.0
 10
88.01431110564042
 20
318.8799188615179
 30
0.0
 10
88.09931397798514
 20
318.826790196405
 30
0.0
 10
88.15598557157104
 20
318.7913692179015
 30
0.0
 10
88.18432177822703
 20
318.7736584724765
 30
0.0
 11
87.84432177822708
 21
318.9861659812166
 31
0.0
 11
87.9293131597509
 21
318.9330444655083
 31
0.0
 11
88.01430700808717
 21
318.8799214249746
 31
0.0
 11
88.09931315984925
 21
318.8267907112959
 31
0.0
 11
88.18432177822703
 21
318.7736584724765
 31
0.0
  0
SPLINE
  5
14F
330
2
100
AcDbEntity
  8
GAIKEI
  6
Continuous
 62
     1
100
AcDbSpline
210
0.0
220
0.0
230
1.0
 70
    24
 71
     3
 72
     9
 73
     5
 74
     3
 42
0.0000000001
 43
0.0000000001
 44
0.00000000001
 40
0.0
 40
0.0
 40
0.0
 40
0.0
 40
0.0007848553381263
 40
0.0015697106762422
 40
0.0015697106762422
 40
0.0015697106762422
 40
0.0015697106762422
 10
87.84432177822708
 20
319.3605589605165
 30
0.0
 10
87.84454547447706
 20
319.3604232984398
 30
0.0
 10
87.844992866977
 20
319.3601519742865
 30
0.0
 10
87.84544025947703
 20
319.3598806501331
 30
0.0
 10
87.84566395572705
 20
319.3597449880565
 30
0.0
 11
87.84432177822708
 21
319.3605589605165
 31
0.0
 11
87.84499286697704
 21
319.3601519742864
 31
0.0
 11
87.84566395572705
 21
319.3597449880565
 31
0.0
  0
SPLINE
  5
150
330
2
100
AcDbEntity
  8
GAIKEI
  6
Continuous
 62
     1
100
AcDbSpline
210
0.0
220
0.0
230
1.0
 70
     8
 71
     3
 72
     9
 73
     5
 74
     3
 42
0.0000000001
 43
0.0000000001
 44
0.00000000001
 40
0.0
 40
0.0
 40
0.0
 40
0.0
 40
0.1000118766468129
 40
0.2000237532936086
 40
0.2000237532936086
 40
0.2000237532936086
 40
0.2000237532936086
 10
94.52432177746704
 20
320.7329296643966
 30
0.0
 10
94.55765511116069
 20
320.732415935737
 30
0.0
 10
94.62432177854802
 20
320.7313884784179
 30
0.0
 10
94.69098844500072
 20
320.730360960457
 30
0.0
 10
94.72432177822705
 20
320.7298472014766
 30
0.0
 11
94.52432177746704
 21
320.7329296643966
 31
0.0
 11
94.62432177831436
 21
320.7313884632575
 31
0.0
 11
94.72432177822705
 21
320.7298472014766
 31
0.0
  0
SPLINE
  5
151
330
2
100
AcDbEntity
  8
GAIKEI
  6
Continuous
 62
     1
100
AcDbSpline
210
0.0
220
0.0
230
1.0
 70
    24
 71
     3
 72
     9
 73
     5
 74
     3
 42
0.0000000001
 43
0.0000000001
 44
0.00000000001
 40
0.0
 40
0.0
 40
0.0
 40
0.0
 40
0.0200002430132081
 40
0.0400004860263593
 40
0.0400004860263593
 40
0.0400004860263593
 40
0.0400004860263593
 10
94.24432177822703
 20
323.8547940400565
 30
0.0
 10
94.2509884449837
 20
323.8548268861399
 30
0.0
 10
94.26432177849703
 20
323.8548925783066
 30
0.0
 10
94.27765511201036
 20
323.8549582704732
 30
0.0
 10
94.284321778767
 20
323.8549911165566
 30
0.0
 11
94.24432177822703
 21
323.8547940400565
 31
0.0
 11
94.26432177849704
 21
323.8548925783065
 31
0.0
 11
94.284321778767
 21
323.8549911165566
 31
0.0
  0
SPLINE
  5
152
330
2
100
AcDbEntity
  8
GAIKEI
  6
Continuous
 62
     7
100
AcDbSpline
210
0.0
220
0.0
230
1.0
 70
     8
 71
     3
 72
    15
 73
    11
 74
     9
 42
0.0000000001
 43
0.0000000001
 44
0.00000000001
 40
0.0
 40
0.0
 40
0.0
 40
0.0
 40
0.016445628396517
 40
0.0321321327834193
 40
0.0446829691243529
 40
0.0571603146144277
 40
0.0672479584331064
 40
0.0774207409495036
 40
0.0852298228456058
 40
0.0924788908890794
 40
0.0924788908890794
 40
0.0924788908890794
 40
0.0924788908890794
 10
81.10432177822707
 20
320.1762135939765
 30
0.0
 10
81.10455495538928
 20
320.1707236194852
 30
0.0
 10
81.10501054634381
 20
320.1599970856565
 30
0.0
 10
81.10880093338497
 20
320.1454804860059
 30
0.0
 10
81.11400786924251
 20
320.1329281539659
 30
0.0
 10
81.1196346777165
 20
320.1226334370555
 30
0.0
 10
81.12592799940106
 20
320.1136882721895
 30
0.0
 10
81.13222105834966
 20
320.1067404317664
 30
0.0
 10
81.13833348056255
 20
320.1009503283651
 30
0.0
 10
81.14226868802347
 20
320.0978311473317
 30
0.0
 10
81.14416311640704
 20
320.0963295581165
 30
0.0
 11
81.10432177822707
 21
320.1762135939765
 31
0.0
 11
81.10561597447162
 21
320.1598189683498
 31
0.0
 11
81.10944216110331
 21
320.144606252756
 31
0.0
 11
81.11422085671319
 21
320.1330007557341
 31
0.0
 11
81.12023836318437
 21
320.1220703501447
 31
0.0
 11
81.12607216242082
 21
320.1138406876801
 31
0.0
 11
81.13285494492377
 21
320.1062591729473
 31
0.0
 11
81.13854639796334
 21
320.100912293263
 31
0.0
 11
81.14416311640704
 21
320.0963295581165
 31
0.0
  0
SPLINE
  5
153
330
2
100
AcDbEntity
  8
GAIKEI
  6
Continuous
 62
     7
100
AcDbSpline
210
0.0
220
0.0
230
1.0
 70
     8
 71
     3
 72
    11
 73
     7
 74
     5
 42
0.0000000001
 43
0.0000000001
 44
0.00000000001
 40
0.0
 40
0.0
 40
0.0
 40
0.0
 40
0.1002268944205655
 40
0.2004566888486704
 40
0.3007009833142486
 40
0.4009481777872612
 40
0.4009481777872612
 40
0.4009481777872612
 40
0.4009481777872612
 10
87.24432177822704
 20
318.9861659812166
 30
0.0
 10
87.21599131826211
 20
318.9684588084428
 30
0.0
 10
87.15932957860667
 20
318.9330439505483
 30
0.0
 10
87.07433245080636
 20
318.8799188615211
 30
0.0
 10
86.98932957846821
 20
318.8267901963998
 30
0.0
 10
86.93265798488269
 20
318.7913692178997
 30
0.0
 10
86.90432177822703
 20
318.7736584724765
 30
0.0
 11
87.24432177822704
 21
318.9861659812166
 31
0.0
 11
87.1593303966946
 21
318.9330444655153
 31
0.0
 11
87.07433654835838
 21
318.8799214249764
 31
0.0
 11
86.9893303966025
 21
318.8267907112925
 31
0.0
 11
86.90432177822703
 21
318.7736584724765
 31
0.0
  0
SPLINE
  5
154
330
2
100
AcDbEntity
  8
GAIKEI
  6
Continuous
 62
     1
100
AcDbSpline
210
0.0
220
0.0
230
1.0
 70
     8
 71
     3
 72
    21
 73
    17
 74
    15
 42
0.0000000001
 43
0.0000000001
 44
0.00000000001
 40
0.0
 40
0.0
 40
0.0
 40
0.0
 40
0.0483347742869654
 40
0.0944900124668122
 40
0.128242390150644
 40
0.1607412484775044
 40
0.1859023235491453
 40
0.2119889971603319
 40
0.2342705333082909
 40
0.2565537074947101
 40
0.2738335103008638
 40
0.2909942346385003
 40
0.3029174738522602
 40
0.3144823073773615
 40
0.3224579804349809
 40
0.3301807206521805
 40
0.3301807206521805
 40
0.3301807206521805
 40
0.3301807206521805
 10
94.61038063836708
 20
323.8565985863565
 30
0.0
 10
94.61054753377034
 20
323.8404878549837
 30
0.0
 10
94.61087379884492
 20
323.8089928654919
 30
0.0
 10
94.61121555089372
 20
323.766246725639
 30
0.0
 10
94.61145299520129
 20
323.7287786472613
 30
0.0
 10
94.61160577984477
 20
323.6983082435909
 30
0.0
 10
94.61169196105254
 20
323.6703928250597
 30
0.0
 10
94.61171981737905
 20
323.6458830629115
 30
0.0
 10
94.61169620097866
 20
323.6223325870082
 30
0.0
 10
94.61164167475905
 20
323.6017178573768
 30
0.0
 10
94.61151354292885
 20
323.5828101251459
 30
0.0
 10
94.6112965697617
 20
323.5673574240697
 30
0.0
 10
94.61104373584365
 20
323.553808866116
 30
0.0
 10
94.61098074832603
 20
323.5433244333334
 30
0.0
 10
94.61066919065222
 20
323.5342306343338
 30
0.0
 10
94.6099226366225
 20
323.529047522918
 30
0.0
 10
94.60955537384705
 20
323.5264977223565
 30
0.0
 11
94.61038063836708
 21
323.8565985863565
 31
0.0
 11
94.61086184105827
 21
323.8082662074647
 31
0.0
 11
94.61123387322112
 21
323.7621124686832
 31
0.0
 11
94.6114480600085
 21
323.7283607706025
 31
0.0
 11
94.61160627869416
 21
323.6958622974169
 31
0.0
 11
94.61168297611829
 21
323.6707013392422
 31
0.0
 11
94.61171122582411
 21
323.6446146809271
 31
0.0
 11
94.61169010329829
 21
323.622333154791
 31
0.0
 11
94.61161997861543
 21
323.6000500909453
 31
0.0
 11
94.61149228508245
 21
323.5827707599577
 31
0.0
 11
94.61125646444196
 21
323.5656116560062
 31
0.0
 11
94.61106703671161
 21
323.5536899216322
 31
0.0
 11
94.61090904777236
 21
323.5421261673129
 31
0.0
 11
94.61051990527101
 21
323.5341599932728
 31
0.0
 11
94.60955537384705
 21
323.5264977223565
 31
0.0
  0
SPLINE
  5
155
330
2
100
AcDbEntity
  8
GAIKEI
  6
Continuous
 62
     1
100
AcDbSpline
210
0.0
220
0.0
230
1.0
 70
     8
 71
     3
 72
    19
 73
    15
 74
    13
 42
0.0000000001
 43
0.0000000001
 44
0.00000000001
 40
0.0
 40
0.0
 40
0.0
 40
0.0
 40
0.0014442868393111
 40
0.0029231299796764
 40
0.0049196509526938
 40
0.006948463707907
 40
0.0096719888683004
 40
0.0124277548050652
 40
0.0158240246307
 40
0.0191046686948484
 40
0.023413442979358
 40
0.0278819274473096
 40
0.0339649021667879
 40
0.0403178194295783
 40
0.0403178194295783
 40
0.0403178194295783
 40
0.0403178194295783
 10
93.91361922306709
 20
322.1909454375166
 30
0.0
 10
93.91332537769043
 20
322.1905553163844
 30
0.0
 10
93.91273065633281
 20
322.1897657400025
 30
0.0
 10
93.91245860531657
 20
322.1881068924426
 30
0.0
 10
93.91239989439133
 20
322.1862839508911
 30
0.0
 10
93.91225226455034
 20
322.1840354541724
 30
0.0
 10
93.91215944379345
 20
322.1815352348493
 30
0.0
 10
93.91214325847673
 20
322.1785760469921
 30
0.0
 10
93.9121911192868
 20
322.1754321860374
 30
0.0
 10
93.91228982435396
 20
322.1717715031958
 30
0.0
 10
93.91245764054529
 20
322.1677555688033
 30
0.0
 10
93.91271905647487
 20
322.1628090031341
 30
0.0
 10
93.91309033064658
 20
322.1571861079876
 30
0.0
 10
93.91344039269286
 20
322.1530555479897
 30
0.0
 10
93.91361922306709
 20
322.1509454375165
 30
0.0
 11
93.91361922306709
 21
322.1909454375166
 31
0.0
 11
93.91284341113893
 21
322.189727209161
 31
0.0
 11
93.91251531847263
 21
322.1882852201749
 31
0.0
 11
93.91238913991671
 21
322.1862926903839
 31
0.0
 11
93.91227569977827
 21
322.1842670515882
 31
0.0
 11
93.91217410976432
 21
322.1815454217882
 31
0.0
 11
93.9121529409785
 21
322.178789737158
 31
0.0
 11
93.9121984622813
 21
322.1753937724145
 31
0.0
 11
93.91228758176584
 21
322.1721143390499
 31
0.0
 11
93.91246318921409
 21
322.1678091447617
 31
0.0
 11
93.91269892757376
 21
322.1633468829063
 31
0.0
 11
93.91310280847795
 21
322.1572773308921
 31
0.0
 11
93.91361922306709
 21
322.1509454375165
 31
0.0
  0
SPLINE
  5
156
330
2
100
AcDbEntity
  8
GAIKEI
  6
Continuous
 62
     1
100
AcDbSpline
210
0.0
220
0.0
230
1.0
 70
     8
 71
     3
 72
    17
 73
    13
 74
    11
 42
0.0000000001
 43
0.0000000001
 44
0.00000000001
 40
0.0
 40
0.0
 40
0.0
 40
0.0
 40
0.0217548060122547
 40
0.0426693577207802
 40
0.0603266741626285
 40
0.0775879218310176
 40
0.0941449769834649
 40
0.1105456091149219
 40
0.1311904864882972
 40
0.1526832869283006
 40
0.181964313472752
 40
0.2126952785935638
 40
0.2126952785935638
 40
0.2126952785935638
 40
0.2126952785935638
 10
93.91361922306709
 20
322.1509454375165
 30
0.0
 10
93.91428201318706
 20
322.143724068748
 30
0.0
 10
93.91558199392269
 20
322.1295602482551
 30
0.0
 10
93.91777424812639
 20
322.1095702023936
 30
0.0
 10
93.92001765275262
 20
322.0910946612674
 30
0.0
 10
93.92225304889644
 20
322.0740820297356
 30
0.0
 10
93.92461280677951
 20
322.057509207791
 30
0.0
 10
93.9273280705783
 20
322.03984883734
 30
0.0
 10
93.93053156810999
 20
322.0206002632406
 30
0.0
 10
93.93470251660714
 20
321.997161980179
 30
0.0
 10
93.93987268823261
 20
321.9704873782222
 30
0.0
 10
93.94417163015663
 20
321.9509500966282
 30
0.0
 10
93.94637303408705
 20
321.9409454375166
 30
0.0
 11
93.91361922306709
 21
322.1509454375165
 31
0.0
 11
93.91567273817299
 21
322.1292877677356
 31
0.0
 11
93.91793617139473
 21
322.108496054405
 31
0.0
 11
93.92006254784448
 21
322.0909672396384
 31
0.0
 11
93.92231502145994
 21
322.0738535891312
 31
0.0
 11
93.92465065077496
 21
322.05746210015
 31
0.0
 11
93.92714262288833
 21
322.041251893202
 31
0.0
 11
93.93052235289818
 21
322.0208855389179
 31
0.0
 11
93.93429346044234
 21
321.9997261623051
 31
0.0
 11
93.93989787534295
 21
321.9709864850432
 31
0.0
 11
93.94637303408705
 21
321.9409454375166
 31
0.0
  0
SPLINE
  5
157
330
2
100
AcDbEntity
  8
GAIKEI
  6
Continuous
 62
     1
100
AcDbSpline
210
0.0
220
0.0
230
1.0
 70
     8
 71
     3
 72
    17
 73
    13
 74
    11
 42
0.0000000001
 43
0.0000000001
 44
0.00000000001
 40
0.0
 40
0.0
 40
0.0
 40
0.0
 40
0.0307309651293851
 40
0.0600119916805588
 40
0.0815047921195688
 40
0.1021496694911016
 40
0.1185503016204798
 40
0.1351073567720553
 40
0.152368604440319
 40
0.1700259208812714
 40
0.1909404725857947
 40
0.2126952785933259
 40
0.2126952785933259
 40
0.2126952785933259
 40
0.2126952785933259
 10
93.94637303408705
 20
322.6409454375164
 30
0.0
 10
93.94417163015729
 20
322.6309407784017
 30
0.0
 10
93.93987268823458
 20
322.6114034968022
 30
0.0
 10
93.9347025166092
 20
322.5847288948406
 30
0.0
 10
93.93053156811136
 20
322.5612906117778
 30
0.0
 10
93.92732807057759
 20
322.5420420376804
 30
0.0
 10
93.92461280677734
 20
322.5243816672312
 30
0.0
 10
93.92225304889629
 20
322.5078088452875
 30
0.0
 10
93.9200176527545
 20
322.4907962137558
 30
0.0
 10
93.91777424812669
 20
322.4723206726319
 30
0.0
 10
93.91558199392131
 20
322.4523306267733
 30
0.0
 10
93.91428201318658
 20
322.4381668062834
 30
0.0
 10
93.91361922306709
 20
322.4309454375165
 30
0.0
 11
93.94637303408705
 21
322.6409454375164
 31
0.0
 11
93.93989787534446
 21
322.6109043899807
 31
0.0
 11
93.93429346044371
 21
322.582164712712
 31
0.0
 11
93.93052235289914
 21
322.5610053361003
 31
0.0
 11
93.92714262288754
 21
322.5406389818184
 31
0.0
 11
93.92465065077344
 21
322.5244287748726
 31
0.0
 11
93.9223150214598
 21
322.508037285892
 31
0.0
 11
93.92006254784574
 21
322.4909236353848
 31
0.0
 11
93.91793617139498
 21
322.4733948206192
 31
0.0
 11
93.9156727381721
 21
322.4526031072928
 31
0.0
 11
93.91361922306709
 21
322.4309454375165
 31
0.0
  0
SPLINE
  5
158
330
2
100
AcDbEntity
  8
GAIKEI
  6
Continuous
 62
     1
100
AcDbSpline
210
0.0
220
0.0
230
1.0
 70
     8
 71
     3
 72
    19
 73
    15
 74
    13
 42
0.0000000001
 43
0.0000000001
 44
0.00000000001
 40
0.0
 40
0.0
 40
0.0
 40
0.0
 40
0.0064710682419342
 40
0.0126526962112009
 40
0.0171084864181034
 40
0.0213884894683193
 40
0.0245979373224045
 40
0.0279286117635871
 40
0.03064347660284
 40
0.0333303278160093
 40
0.0353558433869801
 40
0.0373509584298126
 40
0.0388498300298679
 40
0.0403162158161874
 40
0.0403162158161874
 40
0.0403162158161874
 40
0.0403162158161874
 10
93.91361922306709
 20
322.4309454375165
 30
0.0
 10
93.91343710894547
 20
322.4287960780661
 30
0.0
 10
93.91308102636831
 20
322.4245934964895
 30
0.0
 10
93.91270785617139
 20
322.4189025214837
 30
0.0
 10
93.91244850757795
 20
322.4139367604616
 30
0.0
 10
93.91228443413536
 20
322.4099582571877
 30
0.0
 10
93.91218922296758
 20
322.4063526923662
 30
0.0
 10
93.91214363457184
 20
322.4032680340308
 30
0.0
 10
93.91216000889908
 20
322.40035660331
 30
0.0
 10
93.9122511270285
 20
322.3978832637778
 30
0.0
 10
93.91239610352
 20
322.3956485415165
 30
0.0
 10
93.91245365149222
 20
322.3938201512267
 30
0.0
 10
93.91272576096403
 20
322.3921479935687
 30
0.0
 10
93.91332358551743
 20
322.3913433511195
 30
0.0
 10
93.91361922306709
 20
322.3909454375164
 30
0.0
 11
93.91361922306709
 21
322.4309454375165
 31
0.0
 11
93.91309383289192
 21
322.4244957329221
 31
0.0
 11
93.91268611296316
 21
322.4183275655435
 31
0.0
 11
93.91245374720867
 21
322.413877838302
 31
0.0
 11
93.91228180254319
 21
322.4096012904954
 31
0.0
 11
93.91219639058425
 21
322.4063929793625
 31
0.0
 11
93.91215308074487
 21
322.4030625865192
 31
0.0
 11
93.91217424237254
 21
322.4003478041557
 31
0.0
 11
93.91227355813995
 21
322.3976627891055
 31
0.0
 11
93.91238534434876
 21
322.3956403605723
 31
0.0
 11
93.91250944225447
 21
322.3936491087691
 31
0.0
 11
93.91283872988807
 21
322.3921868551222
 31
0.0
 11
93.91361922306709
 21
322.3909454375164
 31
0.0
  0
SPLINE
  5
159
330
2
100
AcDbEntity
  8
GAIKEI
  6
Continuous
 62
     1
100
AcDbSpline
210
0.0
220
0.0
230
1.0
 70
     8
 71
     3
 72
    13
 73
     9
 74
     7
 42
0.0000000001
 43
0.0000000001
 44
0.00000000001
 40
0.0
 40
0.0
 40
0.0
 40
0.0
 40
0.0363869378141679
 40
0.0703463800754405
 40
0.1000673804996487
 40
0.1297883809235136
 40
0.1637478231802942
 40
0.2001347609896018
 40
0.2001347609896018
 40
0.2001347609896018
 40
0.2001347609896018
 10
93.94637303408705
 20
322.3909454375164
 30
0.0
 10
93.94566230809777
 20
322.3788367121508
 30
0.0
 10
93.94428827105111
 20
322.3554270753975
 30
0.0
 10
93.94334795143693
 20
322.3220794874085
 30
0.0
 10
93.94312867880914
 20
322.2909454375118
 30
0.0
 10
93.94334795143658
 20
322.2598113876167
 30
0.0
 10
93.94428827105056
 20
322.2264637996307
 30
0.0
 10
93.94566230809758
 20
322.2030541628805
 30
0.0
 10
93.94637303408705
 20
322.1909454375166
 30
0.0
 11
93.94637303408705
 21
322.3909454375164
 31
0.0
 11
93.94443162083119
 21
322.354610328351
 31
0.0
 11
93.94343578388683
 21
322.3206654903417
 31
0.0
 11
93.94319845291155
 21
322.2909454375117
 31
0.0
 11
93.94343578388655
 21
322.2612253846819
 31
0.0
 11
93.94443162083078
 21
322.2272805466771
 31
0.0
 11
93.94637303408705
 21
322.1909454375166
 31
0.0
  0
SPLINE
  5
15A
330
2
100
AcDbEntity
  8
GAIKEI
  6
Continuous
 62
     1
100
AcDbSpline
210
0.0
220
0.0
230
1.0
 70
     8
 71
     3
 72
     9
 73
     5
 74
     3
 42
0.0000000001
 43
0.0000000001
 44
0.00000000001
 40
0.0
 40
0.0
 40
0.0
 40
0.0
 40
0.0348281916412564
 40
0.0696582067362128
 40
0.0696582067362128
 40
0.0696582067362128
 40
0.0696582067362128
 10
94.75608199680705
 20
322.6574708862565
 30
0.0
 10
94.75396669382927
 20
322.6688868277823
 30
0.0
 10
94.74973597712562
 20
322.6917193085235
 30
0.0
 10
94.74475905070049
 20
322.7144008285129
 30
0.0
 10
94.74227052234704
 20
322.7257418853766
 30
0.0
 11
94.75608199680705
 21
322.6574708862565
 31
0.0
 11
94.74954954521008
 21
322.691680972622
 31
0.0
 11
94.74227052234704
 21
322.7257418853766
 31
0.0
  0
SPLINE
  5
15B
330
2
100
AcDbEntity
  8
GAIKEI
  6
Continuous
 62
     1
100
AcDbSpline
210
0.0
220
0.0
230
1.0
 70
     8
 71
     3
 72
    11
 73
     7
 74
     5
 42
0.0000000001
 43
0.0000000001
 44
0.00000000001
 40
0.0
 40
0.0
 40
0.0
 40
0.0
 40
0.0106863489933546
 40
0.0219875272008576
 40
0.0363607664068619
 40
0.0513481147449322
 40
0.0513481147449322
 40
0.0513481147449322
 40
0.0513481147449322
 10
94.76434531392703
 20
322.6067941503965
 30
0.0
 10
94.76382098592106
 20
322.6103174800805
 30
0.0
 10
94.76274216318179
 20
322.6175668509659
 30
0.0
 10
94.76085976369455
 20
322.62954013459
 30
0.0
 10
94.75866102736224
 20
322.6429148217563
 30
0.0
 10
94.75695357805513
 20
322.6525516762695
 30
0.0
 10
94.75608199680705
 20
322.6574708862565
 30
0.0
 11
94.76434531392703
 21
322.6067941503965
 31
0.0
 11
94.76275828151548
 21
322.6173619970519
 31
0.0
 11
94.76100734466772
 21
322.6285267115146
 31
0.0
 11
94.75866552179502
 21
322.6427078916808
 31
0.0
 11
94.75608199680705
 21
322.6574708862565
 31
0.0
  0
SPLINE
  5
15C
330
2
100
AcDbEntity
  8
GAIKEI
  6
Continuous
 62
     1
100
AcDbSpline
210
0.0
220
0.0
230
1.0
 70
     8
 71
     3
 72
    11
 73
     7
 74
     5
 42
0.0000000001
 43
0.0000000001
 44
0.00000000001
 40
0.0
 40
0.0
 40
0.0
 40
0.0
 40
0.1055690124373729
 40
0.2140251888790233
 40
0.3369171853223399
 40
0.4626963457624928
 40
0.4626963457624928
 40
0.4626963457624928
 40
0.4626963457624928
 10
36.37183056916132
 20
340.3586177664565
 30
0.0
 10
36.35701983849991
 20
340.390538843963
 30
0.0
 10
36.32699332452523
 20
340.4552539955479
 30
0.0
 10
36.27972481677759
 20
340.557127764577
 30
0.0
 10
36.2296201016616
 20
340.6651121203994
 30
0.0
 10
36.19473079004697
 20
340.7403022258968
 30
0.0
 10
36.17708359534123
 20
340.7783337710965
 30
0.0
 11
36.37183056916132
 21
340.3586177664565
 31
0.0
 11
36.32739823078151
 21
340.4543809310508
 31
0.0
 11
36.28175000928653
 21
340.5527627488968
 31
0.0
 11
36.23002494352207
 21
340.664239026021
 31
0.0
 11
36.17708359534123
 21
340.7783337710965
 31
0.0
  0
SPLINE
  5
15D
330
2
100
AcDbEntity
  8
GAIKEI
  6
Continuous
 62
     1
100
AcDbSpline
210
0.0
220
0.0
230
1.0
 70
     8
 71
     3
 72
    11
 73
     7
 74
     5
 42
0.0000000001
 43
0.0000000001
 44
0.00000000001
 40
0.0
 40
0.0
 40
0.0
 40
0.0
 40
0.1042349638167233
 40
0.2113913969730893
 40
0.3331551768071528
 40
0.4578404259732436
 40
0.4578404259732436
 40
0.4578404259732436
 40
0.4578404259732436
 10
36.4505423368613
 20
340.3983034323766
 30
0.0
 10
36.43579823250052
 20
340.4297649258802
 30
0.0
 10
36.40589678001456
 20
340.4935697071081
 30
0.0
 10
36.35877269289422
 20
340.5941271840684
 30
0.0
 10
36.3087567202744
 20
340.700857605233
 30
0.0
 10
36.27389846049815
 20
340.7752449095743
 30
0.0
 10
36.25626272128128
 20
340.8128794647365
 30
0.0
 11
36.4505423368613
 21
340.3983034323766
 31
0.0
 11
36.40631016761023
 21
340.4926879802921
 31
0.0
 11
36.36083897915611
 21
340.5897182445778
 31
0.0
 11
36.30917016827263
 21
340.6999759067214
 31
0.0
 11
36.25626272128128
 21
340.8128794647365
 31
0.0
  0
SPLINE
  5
15E
330
2
100
AcDbEntity
  8
GAIKEI
  6
Continuous
 62
     1
100
AcDbSpline
210
0.0
220
0.0
230
1.0
 70
     8
 71
     3
 72
     9
 73
     5
 74
     3
 42
0.0000000001
 43
0.0000000001
 44
0.00000000001
 40
0.0
 40
0.0
 40
0.0
 40
0.0
 40
0.0233108624623555
 40
0.0466217249245537
 40
0.0466217249245537
 40
0.0466217249245537
 40
0.0466217249245537
 10
36.70932932048123
 20
321.0417892797166
 30
0.0
 10
36.70630693650011
 20
321.0346308886468
 30
0.0
 10
36.70026216853788
 20
321.0203141065072
 30
0.0
 10
36.6942173653668
 20
321.0059973392334
 30
0.0
 10
36.69119496378127
 20
320.9988389555965
 30
0.0
 11
36.70932932048123
 21
321.0417892797166
 31
0.0
 11
36.70026215973564
 21
321.0203141102236
 31
0.0
 11
36.69119496378127
 21
320.9988389555965
 31
0.0
  0
SPLINE
  5
15F
330
2
100
AcDbEntity
  8
GAIKEI
  6
Continuous
 62
     1
100
AcDbSpline
210
0.0
220
0.0
230
1.0
 70
    24
 71
     3
 72
     9
 73
     5
 74
     3
 42
0.0000000001
 43
0.0000000001
 44
0.00000000001
 40
0.0
 40
0.0
 40
0.0
 40
0.0
 40
0.0020559978524092
 40
0.0041119957048073
 40
0.0041119957048073
 40
0.0041119957048073
 40
0.0041119957048073
 10
36.77380902292128
 20
320.9683828374166
 30
0.0
 10
36.77354003571461
 20
320.9677524988732
 30
0.0
 10
36.77300206130126
 20
320.9664918217866
 30
0.0
 10
36.77246408688795
 20
320.9652311446999
 30
0.0
 10
36.77219509968129
 20
320.9646008061566
 30
0.0
 11
36.77380902292128
 21
320.9683828374166
 31
0.0
 11
36.77300206130127
 21
320.9664918217866
 31
0.0
 11
36.77219509968129
 21
320.9646008061566
 31
0.0
  0
SPLINE
  5
160
330
2
100
AcDbEntity
  8
GAIKEI
  6
Continuous
 62
     1
100
AcDbSpline
210
0.0
220
0.0
230
1.0
 70
    24
 71
     3
 72
     9
 73
     5
 74
     3
 42
0.0000000001
 43
0.0000000001
 44
0.00000000001
 40
0.0
 40
0.0
 40
0.0
 40
0.0
 40
0.0179646519019992
 40
0.0359293038039239
 40
0.0359293038039239
 40
0.0359293038039239
 40
0.0359293038039239
 10
36.78791101422127
 20
321.0014289977565
 30
0.0
 10
36.78556068233792
 20
320.9959213043665
 30
0.0
 10
36.78086001857125
 20
320.9849059175865
 30
0.0
 10
36.7761593548046
 20
320.9738905308065
 30
0.0
 10
36.77380902292128
 20
320.9683828374166
 30
0.0
 11
36.78791101422127
 21
321.0014289977565
 31
0.0
 11
36.78086001857125
 21
320.9849059175865
 31
0.0
 11
36.77380902292128
 21
320.9683828374166
 31
0.0
  0
SPLINE
  5
161
330
2
100
AcDbEntity
  8
GAIKEI
  6
Continuous
 62
     1
100
AcDbSpline
210
0.0
220
0.0
230
1.0
 70
     8
 71
     3
 72
     9
 73
     5
 74
     3
 42
0.0000000001
 43
0.0000000001
 44
0.00000000001
 40
0.0
 40
0.0
 40
0.0
 40
0.0
 40
0.0227932783365903
 40
0.0455865566731002
 40
0.0455865566731002
 40
0.0455865566731002
 40
0.0455865566731002
 10
36.37183056692126
 20
321.1928660054365
 30
0.0
 10
36.36863281332753
 20
321.1859739578056
 30
0.0
 10
36.36223730614005
 20
321.172189862544
 30
0.0
 10
36.35584176575418
 20
321.1584057826857
 30
0.0
 10
36.35264399556124
 20
321.1515137427565
 30
0.0
 11
36.37183056692126
 21
321.1928660054365
 31
0.0
 11
36.36223729784044
 21
321.1721898663948
 31
0.0
 11
36.35264399556124
 21
321.1515137427565
 31
0.0
  0
SPLINE
  5
162
330
2
100
AcDbEntity
  8
GAIKEI
  6
Continuous
 62
     1
100
AcDbSpline
210
0.0
220
0.0
230
1.0
 70
     8
 71
     3
 72
     9
 73
     5
 74
     3
 42
0.0000000001
 43
0.0000000001
 44
0.00000000001
 40
0.0
 40
0.0
 40
0.0
 40
0.0
 40
0.0214702183006894
 40
0.042940436601281
 40
0.042940436601281
 40
0.042940436601281
 40
0.042940436601281
 10
36.45054233478129
 20
321.1531803394165
 30
0.0
 10
36.44750534643969
 20
321.1466999365638
 30
0.0
 10
36.44143136975652
 20
321.1337391308585
 30
0.0
 10
36.43535742221303
 20
321.1207783114972
 30
0.0
 10
36.43232044844129
 20
321.1142979018165
 30
0.0
 11
36.45054233478129
 21
321.1531803394165
 31
0.0
 11
36.44143137704143
 21
321.1337391274445
 31
0.0
 11
36.43232044844129
 21
321.1142979018165
 31
0.0
  0
SPLINE
  5
163
330
2
100
AcDbEntity
  8
GAIKEI
  6
Continuous
 62
     1
100
AcDbSpline
210
0.0
220
0.0
230
1.0
 70
     8
 71
     3
 72
     9
 73
     5
 74
     3
 42
0.0000000001
 43
0.0000000001
 44
0.00000000001
 40
0.0
 40
0.0
 40
0.0
 40
0.0
 40
0.0245368377267306
 40
0.0490736754534423
 40
0.0490736754534423
 40
0.0490736754534423
 40
0.0490736754534423
 10
36.04165821752125
 20
321.3593353849965
 30
0.0
 10
36.03795902385638
 20
321.3520407895718
 30
0.0
 10
36.03056063652666
 20
321.3374515987222
 30
0.0
 10
36.02316221142976
 20
321.3228624270251
 30
0.0
 10
36.0194629988813
 20
321.3155678411765
 30
0.0
 11
36.04165821752125
 21
321.3593353849965
 31
0.0
 11
36.03056062708487
 21
321.3374516035103
 31
0.0
 11
36.0194629988813
 21
321.3155678411765
 31
0.0
  0
SPLINE
  5
164
330
2
100
AcDbEntity
  8
GAIKEI
  6
Continuous
 62
     1
100
AcDbSpline
210
0.0
220
0.0
230
1.0
 70
     8
 71
     3
 72
     9
 73
     5
 74
     3
 42
0.0000000001
 43
0.0000000001
 44
0.00000000001
 40
0.0
 40
0.0
 40
0.0
 40
0.0
 40
0.0247296757216607
 40
0.0494593514433126
 40
0.0494593514433126
 40
0.0494593514433126
 40
0.0494593514433126
 10
36.12035042644127
 20
321.3196596123164
 30
0.0
 10
36.11659401474935
 20
321.3123220286838
 30
0.0
 10
36.10908119136553
 20
321.2976468614183
 30
0.0
 10
36.10156840582934
 20
321.2829716747771
 30
0.0
 10
36.09781201306126
 20
321.2756340814565
 30
0.0
 11
36.12035042644127
 21
321.3196596123164
 31
0.0
 11
36.10908120082743
 21
321.2976468565743
 31
0.0
 11
36.09781201306126
 21
321.2756340814565
 31
0.0
  0
SPLINE
  5
165
330
2
100
AcDbEntity
  8
GAIKEI
  6
Continuous
 62
     1
100
AcDbSpline
210
0.0
220
0.0
230
1.0
 70
     8
 71
     3
 72
     9
 73
     5
 74
     3
 42
0.0000000001
 43
0.0000000001
 44
0.00000000001
 40
0.0
 40
0.0
 40
0.0
 40
0.0
 40
0.0201154490849279
 40
0.0402308981698247
 40
0.0402308981698247
 40
0.0402308981698247
 40
0.0402308981698247
 10
35.71173337968128
 20
321.5265400340966
 30
0.0
 10
35.70849389803703
 20
321.5206693619793
 30
0.0
 10
35.70201493474856
 20
321.5089280177448
 30
0.0
 10
35.69553594654369
 20
321.4971866872593
 30
0.0
 10
35.69229645244124
 20
321.4913160220165
 30
0.0
 11
35.71173337968128
 21
321.5265400340966
 31
0.0
 11
35.70201492851945
 21
321.508928021182
 31
0.0
 11
35.69229645244124
 21
321.4913160220165
 31
0.0
  0
SPLINE
  5
166
330
2
100
AcDbEntity
  8
GAIKEI
  6
Continuous
 62
     1
100
AcDbSpline
210
0.0
220
0.0
230
1.0
 70
     8
 71
     3
 72
     9
 73
     5
 74
     3
 42
0.0000000001
 43
0.0000000001
 44
0.00000000001
 40
0.0
 40
0.0
 40
0.0
 40
0.0
 40
0.0215083090535285
 40
0.0430166181070255
 40
0.0430166181070255
 40
0.0430166181070255
 40
0.0430166181070255
 10
35.79008646588131
 20
321.4861752123965
 30
0.0
 10
35.78659864861225
 20
321.4799113519022
 30
0.0
 10
35.77962301407416
 20
321.4673836309138
 30
0.0
 10
35.77264740778557
 20
321.4548558941956
 30
0.0
 10
35.76915960464129
 20
321.4485920258365
 30
0.0
 11
35.79008646588131
 21
321.4861752123965
 31
0.0
 11
35.77962302113653
 21
321.4673836269814
 31
0.0
 11
35.76915960464129
 21
321.4485920258365
 31
0.0
  0
SPLINE
  5
167
330
2
100
AcDbEntity
  8
GAIKEI
  6
Continuous
 62
     7
100
AcDbSpline
210
0.0
220
0.0
230
1.0
 70
     8
 71
     3
 72
    23
 73
    19
 74
    17
 42
0.0000000001
 43
0.0000000001
 44
0.00000000001
 40
0.0
 40
0.0
 40
0.0
 40
0.0
 40
0.0038208706993546
 40
0.0077700416473585
 40
0.0135217748117557
 40
0.0194486325730113
 40
0.0280238771878592
 40
0.036665062585185
 40
0.0478742248740801
 40
0.0590925836231405
 40
0.0724652838956648
 40
0.0858258930317822
 40
0.1006506798718616
 40
0.1149881725436307
 40
0.1326024933658928
 40
0.1508198050917714
 40
0.1749277642800777
 40
0.2001135239381214
 40
0.2001135239381214
 40
0.2001135239381214
 40
0.2001135239381214
 10
28.77586136492124
 20
330.1757418853765
 30
0.0
 10
28.77602485367982
 20
330.177006192693
 30
0.0
 10
28.77635732095312
 20
330.1795772612469
 30
0.0
 10
28.77637598955013
 20
330.1840918428091
 30
0.0
 10
28.77623225546757
 20
330.1892969579167
 30
0.0
 10
28.77614920523676
 20
330.196048607388
 30
0.0
 10
28.77601899109008
 20
330.203761673366
 30
0.0
 10
28.77578703693544
 20
330.2132341950609
 30
0.0
 10
28.77549331781899
 20
330.2235862304101
 30
0.0
 10
28.77514417496433
 20
330.2355145423943
 30
0.0
 10
28.77475493405907
 20
330.2481591101052
 30
0.0
 10
28.77431363273993
 20
330.2620047803578
 30
0.0
 10
28.77385106300302
 20
330.2761715273027
 30
0.0
 10
28.7733367403724
 20
330.2917552426058
 30
0.0
 10
28.77278015339538
 20
330.3084690195799
 30
0.0
 10
28.7721140406842
 20
330.3284377765076
 30
0.0
 10
28.77136441720703
 20
330.3509289646442
 30
0.0
 10
28.77082117514781
 20
330.3673512216591
 30
0.0
 10
28.77054361516128
 20
330.3757418853765
 30
0.0
 11
28.77586136492124
 21
330.1757418853765
 31
0.0
 11
28.7762740306506
 21
330.1795404061277
 31
0.0
 11
28.7763564948537
 21
330.183488715998
 31
0.0
 11
28.77624830431427
 21
330.1892394315362
 31
0.0
 11
28.77615636860921
 21
330.1951655762145
 31
0.0
 11
28.77600854052878
 21
330.2037395465354
 31
0.0
 11
28.77580312488129
 21
330.2123782900483
 31
0.0
 11
28.77549173149276
 21
330.2235831262085
 31
0.0
 11
28.77516260746273
 21
330.2347966560005
 31
0.0
 11
28.77475238398276
 21
330.2481630627456
 31
0.0
 11
28.77432753889741
 21
330.2615169154908
 31
0.0
 11
28.77384487918832
 21
330.276333843123
 31
0.0
 11
28.77337213369134
 21
330.2906635398333
 31
0.0
 11
28.77278667985022
 21
330.3082681284916
 31
0.0
 11
28.77217957714831
 21
330.3264753213787
 31
0.0
 11
28.77137736582998
 21
330.3505699297637
 31
0.0
 11
28.77054361516128
 21
330.3757418853765
 31
0.0
  0
SPLINE
  5
168
330
2
100
AcDbEntity
  8
GAIKEI
  6
Continuous
 62
     7
100
AcDbSpline
210
0.0
220
0.0
230
1.0
 70
     8
 71
     3
 72
    23
 73
    19
 74
    17
 42
0.0000000001
 43
0.0000000001
 44
0.00000000001
 40
0.0
 40
0.0
 40
0.0
 40
0.0
 40
0.0271240826062171
 40
0.0530732035692732
 40
0.0725070044088149
 40
0.091279452533753
 40
0.1063272272296374
 40
0.1218890863175205
 40
0.1356805391658512
 40
0.1494668178315382
 40
0.160868374390155
 40
0.1722641745551424
 40
0.1809978007933151
 40
0.1896777549029814
 40
0.1956460062225402
 40
0.2014333933201911
 40
0.2053554353289246
 40
0.2091386775340841
 40
0.2091386775340841
 40
0.2091386775340841
 40
0.2091386775340841
 10
29.3107014814413
 20
334.3757418853765
 30
0.0
 10
29.31338696401279
 20
334.3843752156777
 30
0.0
 10
29.31864159935908
 20
334.4012678974767
 30
0.0
 10
29.32583176641676
 20
334.4243426058462
 30
0.0
 10
29.33219733693192
 20
334.4447583597477
 30
0.0
 10
29.33748211944991
 20
334.461704780927
 30
0.0
 10
29.34237981858794
 20
334.4774199644157
 30
0.0
 10
29.34677991579443
 20
334.4915511312164
 30
0.0
 10
29.35104553195145
 20
334.5052837589429
 30
0.0
 10
29.35488717990138
 20
334.5176959421401
 30
0.0
 10
29.35847629549518
 20
334.5293503637604
 30
0.0
 10
29.36156237482478
 20
334.5393973655876
 30
0.0
 10
29.36434703302179
 20
334.5485880772612
 30
0.0
 10
29.36654884083352
 20
334.5560642312568
 30
0.0
 10
29.36844574260085
 20
334.5626076690229
 30
0.0
 10
29.36998380823244
 20
334.5675996614604
 30
0.0
 10
29.37117257930739
 20
334.5719453194545
 30
0.0
 10
29.37152803748887
 20
334.5744916529353
 30
0.0
 10
29.37170256504126
 20
334.5757418853765
 30
0.0
 11
29.3107014814413
 21
334.3757418853765
 31
0.0
 11
29.31876011694519
 21
334.4016411952331
 31
0.0
 11
29.32647869031914
 21
334.4264157891516
 31
0.0
 11
29.33226311606151
 21
334.4449687682628
 31
0.0
 11
29.33785114597688
 21
334.4628902283113
 31
0.0
 11
29.34232823400851
 21
334.4772565502503
 31
0.0
 11
29.34695355029004
 21
334.4921151473431
 31
0.0
 11
29.35104381410972
 21
334.5052860969502
 31
0.0
 11
29.35511882083776
 21
334.518456358892
 31
0.0
 11
29.35847553373762
 21
334.5293525954196
 31
0.0
 11
29.36181508579009
 21
334.5402480831779
 31
0.0
 11
29.36434131147525
 21
334.5486083709155
 31
0.0
 11
29.36679728209336
 21
334.5569336223633
 31
0.0
 11
29.36847853570927
 21
334.5626601754358
 31
0.0
 11
29.37013231083017
 21
334.5682062440675
 31
0.0
 11
29.37110101521742
 21
334.572006773679
 31
0.0
 11
29.37170256504126
 21
334.5757418853765
 31
0.0
  0
SPLINE
  5
169
330
2
100
AcDbEntity
  8
GAIKEI
  6
Continuous
 62
     1
100
AcDbSpline
210
0.0
220
0.0
230
1.0
 70
     8
 71
     3
 72
     9
 73
     5
 74
     3
 42
0.0000000001
 43
0.0000000001
 44
0.00000000001
 40
0.0
 40
0.0
 40
0.0
 40
0.0
 40
0.0245983177327721
 40
0.0491966354656002
 40
0.0491966354656002
 40
0.0491966354656002
 40
0.0491966354656002
 10
35.39668128658124
 20
321.7205252871766
 30
0.0
 10
35.39247173760927
 20
321.7134889172763
 30
0.0
 10
35.3840526396653
 20
321.6994161774758
 30
0.0
 10
35.37563350516928
 20
321.6853434595429
 30
0.0
 10
35.37142393792127
 20
321.6783071005764
 30
0.0
 11
35.39668128658124
 21
321.7205252871766
 31
0.0
 11
35.38405263052729
 21
321.6994161829427
 31
0.0
 11
35.37142393792127
 21
321.6783071005764
 31
0.0
  0
SPLINE
  5
16A
330
2
100
AcDbEntity
  8
GAIKEI
  6
Continuous
 62
     1
100
AcDbSpline
210
0.0
220
0.0
230
1.0
 70
     8
 71
     3
 72
     9
 73
     5
 74
     3
 42
0.0000000001
 43
0.0000000001
 44
0.00000000001
 40
0.0
 40
0.0
 40
0.0
 40
0.0
 40
0.0241735978809017
 40
0.0483471957617537
 40
0.0483471957617537
 40
0.0483471957617537
 40
0.0483471957617537
 10
35.47172727606128
 20
321.6743176276965
 30
0.0
 10
35.46756394265769
 20
321.6674186524969
 30
0.0
 10
35.45923727585055
 20
321.6536207020977
 30
0.0
 10
35.45091064391102
 20
321.6398227306569
 30
0.0
 10
35.44674732794127
 20
321.6329237449365
 30
0.0
 11
35.47172727606128
 21
321.6743176276965
 31
0.0
 11
35.45923728456745
 21
321.6536206968373
 31
0.0
 11
35.44674732794127
 21
321.6329237449365
 31
0.0
  0
SPLINE
  5
16B
330
2
100
AcDbEntity
  8
GAIKEI
  6
Continuous
 62
     1
100
AcDbSpline
210
0.0
220
0.0
230
1.0
 70
     8
 71
     3
 72
     9
 73
     5
 74
     3
 42
0.0000000001
 43
0.0000000001
 44
0.00000000001
 40
0.0
 40
0.0
 40
0.0
 40
0.0
 40
0.0226297324799547
 40
0.0452594649601701
 40
0.0452594649601701
 40
0.0452594649601701
 40
0.0452594649601701
 10
35.08184318680125
 20
321.9143787759165
 30
0.0
 10
35.07774696918354
 20
321.9080446198018
 30
0.0
 10
35.06955453394808
 20
321.8953763075723
 30
0.0
 10
35.06136206843689
 20
321.8827080149218
 30
0.0
 10
35.05726583568128
 20
321.8763738685964
 30
0.0
 11
35.08184318680125
 21
321.9143787759165
 31
0.0
 11
35.0695545263792
 21
321.8953763124671
 31
0.0
 11
35.05726583568128
 21
321.8763738685964
 31
0.0
  0
SPLINE
  5
16C
330
2
100
AcDbEntity
  8
GAIKEI
  6
Continuous
 62
     1
100
AcDbSpline
210
0.0
220
0.0
230
1.0
 70
     8
 71
     3
 72
     9
 73
     5
 74
     3
 42
0.0000000001
 43
0.0000000001
 44
0.00000000001
 40
0.0
 40
0.0
 40
0.0
 40
0.0
 40
0.0236751703706882
 40
0.0473503407413
 40
0.0473503407413
 40
0.0473503407413
 40
0.0473503407413
 10
35.15689852374129
 20
321.8681653958765
 30
0.0
 10
35.15258771062972
 20
321.8615550865466
 30
0.0
 10
35.14396608440659
 20
321.8483344678868
 30
0.0
 10
35.13534449085636
 20
321.8351138279198
 30
0.0
 10
35.13103369408125
 20
321.8285035079365
 30
0.0
 11
35.15689852374129
 21
321.8681653958765
 31
0.0
 11
35.1439660925748
 21
321.84833446256
 31
0.0
 11
35.13103369408125
 21
321.8285035079365
 31
0.0
  0
SPLINE
  5
16D
330
2
100
AcDbEntity
  8
GAIKEI
  6
Continuous
 62
     1
100
AcDbSpline
210
0.0
220
0.0
230
1.0
 70
     8
 71
     3
 72
    11
 73
     7
 74
     5
 42
0.0000000001
 43
0.0000000001
 44
0.00000000001
 40
0.0
 40
0.0
 40
0.0
 40
0.0
 40
0.1060678216403113
 40
0.2148135088387577
 40
0.3369485238081161
 40
0.4617614043281727
 40
0.4617614043281727
 40
0.4617614043281727
 40
0.4617614043281727
 10
34.77709811126127
 20
322.1238414738765
 30
0.0
 10
34.75687424853278
 20
322.0948408202925
 30
0.0
 10
34.71591593669231
 20
322.0361073414801
 30
0.0
 10
34.65166937273981
 20
321.9439807866873
 30
0.0
 10
34.58384795461399
 20
321.8467295530701
 30
0.0
 10
34.536760667899
 20
321.779211366256
 30
0.0
 10
34.51296172084127
 20
321.7450861943565
 30
0.0
 11
34.77709811126127
 21
322.1238414738765
 31
0.0
 11
34.71642638768051
 21
322.0368396075445
 31
0.0
 11
34.65422223831931
 21
321.9476416911646
 31
0.0
 11
34.58435835429194
 21
321.8474618549191
 31
0.0
 11
34.51296172084127
 21
321.7450861943565
 31
0.0
  0
SPLINE
  5
16E
330
2
100
AcDbEntity
  8
GAIKEI
  6
Continuous
 62
     1
100
AcDbSpline
210
0.0
220
0.0
230
1.0
 70
     8
 71
     3
 72
    11
 73
     7
 74
     5
 42
0.0000000001
 43
0.0000000001
 44
0.00000000001
 40
0.0
 40
0.0
 40
0.0
 40
0.0
 40
0.1050632903282164
 40
0.213081969681811
 40
0.335877594142473
 40
0.4616286076211276
 40
0.4616286076211276
 40
0.4616286076211276
 40
0.4616286076211276
 10
34.84796567050128
 20
322.0714280736165
 30
0.0
 10
34.82782352797608
 20
322.0427789669305
 30
0.0
 10
34.78697265238029
 20
321.9846748654579
 30
0.0
 10
34.72258093795078
 20
321.8930857332395
 30
0.0
 10
34.65422384460148
 20
321.7958548535989
 30
0.0
 10
34.60657583039527
 20
321.7280787254582
 30
0.0
 10
34.58246853960125
 20
321.6937877091965
 30
0.0
 11
34.84796567050128
 21
322.0714280736165
 31
0.0
 11
34.78753937355393
 21
321.9854806617194
 31
0.0
 11
34.72541395303995
 21
321.8971151298913
 31
0.0
 11
34.65479062479059
 21
321.796660608372
 31
0.0
 11
34.58246853960125
 21
321.6937877091965
 31
0.0
  0
SPLINE
  5
16F
330
2
100
AcDbEntity
  8
GAIKEI
  6
Continuous
 62
     1
100
AcDbSpline
210
0.0
220
0.0
230
1.0
 70
     8
 71
     3
 72
     9
 73
     5
 74
     3
 42
0.0000000001
 43
0.0000000001
 44
0.00000000001
 40
0.0
 40
0.0
 40
0.0
 40
0.0
 40
0.0218681132291926
 40
0.0437362264582871
 40
0.0437362264582871
 40
0.0437362264582871
 40
0.0437362264582871
 10
51.41156140894125
 20
332.0233647572566
 30
0.0
 10
51.4187947310368
 20
332.0242669668505
 30
0.0
 10
51.43326137522787
 20
332.0260713860384
 30
0.0
 10
51.44772802359685
 20
332.0278757717305
 30
0.0
 10
51.45496134778131
 20
332.0287779645765
 30
0.0
 11
51.41156140894125
 21
332.0233647572566
 31
0.0
 11
51.43326137627238
 21
332.0260713776645
 31
0.0
 11
51.45496134778131
 21
332.0287779645765
 31
0.0
  0
SPLINE
  5
170
330
2
100
AcDbEntity
  8
GAIKEI
  6
Continuous
 62
     1
100
AcDbSpline
210
0.0
220
0.0
230
1.0
 70
     8
 71
     3
 72
     9
 73
     5
 74
     3
 42
0.0000000001
 43
0.0000000001
 44
0.00000000001
 40
0.0
 40
0.0
 40
0.0
 40
0.0
 40
0.0201610526554958
 40
0.0403221053110359
 40
0.0403221053110359
 40
0.0403221053110359
 40
0.0403221053110359
 10
51.40408485610127
 20
332.1112082308365
 30
0.0
 10
51.41075667104208
 20
332.112014457489
 30
0.0
 10
51.42410030092374
 20
332.1136269107941
 30
0.0
 10
51.4374439274021
 20
332.1152393922623
 30
0.0
 10
51.44411574064128
 20
332.1160456329965
 30
0.0
 11
51.40408485610127
 21
332.1112082308365
 31
0.0
 11
51.42410030007289
 21
332.1136269178349
 31
0.0
 11
51.44411574064128
 21
332.1160456329965
 31
0.0
  0
SPLINE
  5
171
330
2
100
AcDbEntity
  8
GAIKEI
  6
Continuous
 62
     1
100
AcDbSpline
210
0.0
220
0.0
230
1.0
 70
     8
 71
     3
 72
     9
 73
     5
 74
     3
 42
0.0000000001
 43
0.0000000001
 44
0.00000000001
 40
0.0
 40
0.0
 40
0.0
 40
0.0
 40
0.0246448971035184
 40
0.0492897942070155
 40
0.0492897942070155
 40
0.0492897942070155
 40
0.0492897942070155
 10
51.44292602536132
 20
331.6548573495766
 30
0.0
 10
51.45110834373526
 20
331.6555890103578
 30
0.0
 10
51.46747298048317
 20
331.6570523319202
 30
0.0
 10
51.48383762104193
 20
331.6585156108644
 30
0.0
 10
51.4920199413213
 20
331.6592472503365
 30
0.0
 11
51.44292602536132
 21
331.6548573495766
 31
0.0
 11
51.46747298143589
 21
331.6570523212657
 31
0.0
 11
51.4920199413213
 21
331.6592472503365
 31
0.0
  0
SPLINE
  5
172
330
2
100
AcDbEntity
  8
GAIKEI
  6
Continuous
 62
     1
100
AcDbSpline
210
0.0
220
0.0
230
1.0
 70
     8
 71
     3
 72
     9
 73
     5
 74
     3
 42
0.0000000001
 43
0.0000000001
 44
0.00000000001
 40
0.0
 40
0.0
 40
0.0
 40
0.0
 40
0.0245691097193627
 40
0.0491382194387125
 40
0.0491382194387125
 40
0.0491382194387125
 40
0.0491382194387125
 10
51.43545223452128
 20
331.7426680603965
 30
0.0
 10
51.44361212609021
 20
331.7433662070423
 30
0.0
 10
51.45993190922808
 20
331.7447625003339
 30
0.0
 10
51.47625168878356
 20
331.7461588354956
 30
0.0
 10
51.48441157856129
 20
331.7468570030766
 30
0.0
 11
51.43545223452128
 21
331.7426680603965
 31
0.0
 11
51.45993190833249
 21
331.7447625108014
 31
0.0
 11
51.48441157856129
 21
331.7468570030766
 31
0.0
  0
SPLINE
  5
173
330
2
100
AcDbEntity
  8
GAIKEI
  6
Continuous
 62
     1
100
AcDbSpline
210
0.0
220
0.0
230
1.0
 70
     8
 71
     3
 72
     9
 73
     5
 74
     3
 42
0.0000000001
 43
0.0000000001
 44
0.00000000001
 40
0.0
 40
0.0
 40
0.0
 40
0.0
 40
0.0211548959775244
 40
0.0423097919550372
 40
0.0423097919550372
 40
0.0423097919550372
 40
0.0423097919550372
 10
51.47428793180131
 20
331.2863817823766
 30
0.0
 10
51.48132917987919
 20
331.2867643255291
 30
0.0
 10
51.49541167603494
 20
331.2875294118343
 30
0.0
 10
51.50949417390584
 20
331.2882944665691
 30
0.0
 10
51.51653542284129
 20
331.2886769939365
 30
0.0
 11
51.47428793180131
 21
331.2863817823766
 31
0.0
 11
51.49541167646373
 21
331.2875294039417
 31
0.0
 11
51.51653542284129
 21
331.2886769939365
 31
0.0
  0
SPLINE
  5
174
330
2
100
AcDbEntity
  8
GAIKEI
  6
Continuous
 62
     1
100
AcDbSpline
210
0.0
220
0.0
230
1.0
 70
     8
 71
     3
 72
     9
 73
     5
 74
     3
 42
0.0000000001
 43
0.0000000001
 44
0.00000000001
 40
0.0
 40
0.0
 40
0.0
 40
0.0
 40
0.0225950317320735
 40
0.0451900634639625
 40
0.0451900634639625
 40
0.0451900634639625
 40
0.0451900634639625
 10
51.46681198870126
 20
331.3742174504765
 30
0.0
 10
51.47433408538685
 20
331.374597218249
 30
0.0
 10
51.48937827875793
 20
331.3753567537939
 30
0.0
 10
51.50442247033351
 20
331.3761163249024
 30
0.0
 10
51.51194456612126
 20
331.3764961104565
 30
0.0
 11
51.46681198870126
 21
331.3742174504765
 31
0.0
 11
51.48937827830912
 21
331.3753567626848
 31
0.0
 11
51.51194456612126
 21
331.3764961104565
 31
0.0
  0
SPLINE
  5
175
330
2
100
AcDbEntity
  8
GAIKEI
  6
Continuous
 62
     1
100
AcDbSpline
210
0.0
220
0.0
230
1.0
 70
     8
 71
     3
 72
     9
 73
     5
 74
     3
 42
0.0000000001
 43
0.0000000001
 44
0.00000000001
 40
0.0
 40
0.0
 40
0.0
 40
0.0
 40
0.0242328898100485
 40
0.0484657796200326
 40
0.0484657796200326
 40
0.0484657796200326
 40
0.0484657796200326
 10
51.47945961714128
 20
330.9165297346165
 30
0.0
 10
51.48753573188129
 20
330.9166861830118
 30
0.0
 10
51.50368796136127
 20
330.9169990798023
 30
0.0
 10
51.51984019164127
 20
330.9173119352918
 30
0.0
 10
51.52791630678127
 20
330.9174683630365
 30
0.0
 11
51.47945961714128
 21
330.9165297346165
 31
0.0
 11
51.50368796156129
 21
330.9169990694771
 31
0.0
 11
51.52791630678127
 21
330.9174683630365
 31
0.0
  0
SPLINE
  5
176
330
2
100
AcDbEntity
  8
GAIKEI
  6
Continuous
 62
     1
100
AcDbSpline
210
0.0
220
0.0
230
1.0
 70
     8
 71
     3
 72
     9
 73
     5
 74
     3
 42
0.0000000001
 43
0.0000000001
 44
0.00000000001
 40
0.0
 40
0.0
 40
0.0
 40
0.0
 40
0.0235154210927273
 40
0.0470308421854061
 40
0.0470308421854061
 40
0.0470308421854061
 40
0.0470308421854061
 10
51.47945963222125
 20
331.0046650365364
 30
0.0
 10
51.48729715978731
 20
331.0047868214239
 30
0.0
 10
51.50297221491943
 20
331.0050303911985
 30
0.0
 10
51.51864726945403
 20
331.0052739994239
 30
0.0
 10
51.52648479672132
 20
331.0053958035366
 30
0.0
 11
51.47945963222125
 21
331.0046650365364
 31
0.0
 11
51.50297221477007
 21
331.0050304008112
 31
0.0
 11
51.52648479672132
 21
331.0053958035366
 31
0.0
  0
SPLINE
  5
177
330
2
100
AcDbEntity
  8
GAIKEI
  6
Continuous
 62
     1
100
AcDbSpline
210
0.0
220
0.0
230
1.0
 70
     8
 71
     3
 72
     9
 73
     5
 74
     3
 42
0.0000000001
 43
0.0000000001
 44
0.00000000001
 40
0.0
 40
0.0
 40
0.0
 40
0.0
 40
0.0234797882684348
 40
0.0469595765367531
 40
0.0469595765367531
 40
0.0469595765367531
 40
0.0469595765367531
 10
51.47945963222125
 20
330.5468187315765
 30
0.0
 10
51.48728528362191
 20
330.54669713181
 30
0.0
 10
51.50293658642318
 20
330.5464539322768
 30
0.0
 10
51.51858788862193
 20
330.54621069397
 30
0.0
 10
51.52641353972128
 20
330.5460890748165
 30
0.0
 11
51.47945963222125
 21
330.5468187315765
 31
0.0
 11
51.50293658627259
 21
330.5464539225834
 31
0.0
 11
51.52641353972128
 21
330.5460890748165
 31
0.0
  0
SPLINE
  5
178
330
2
100
AcDbEntity
  8
GAIKEI
  6
Continuous
 62
     1
100
AcDbSpline
210
0.0
220
0.0
230
1.0
 70
     8
 71
     3
 72
     9
 73
     5
 74
     3
 42
0.0000000001
 43
0.0000000001
 44
0.00000000001
 40
0.0
 40
0.0
 40
0.0
 40
0.0
 40
0.0243022411867034
 40
0.0486044823733301
 40
0.0486044823733301
 40
0.0486044823733301
 40
0.0486044823733301
 10
51.47945961716129
 20
330.6349540333965
 30
0.0
 10
51.48755884470188
 20
330.6347971378511
 30
0.0
 10
51.50375729978303
 20
330.6344833467603
 30
0.0
 10
51.51995575566187
 20
330.6341695968511
 30
0.0
 10
51.52805498360129
 20
330.6340127218965
 30
0.0
 11
51.47945961716129
 21
330.6349540333965
 31
0.0
 11
51.50375729998248
 21
330.6344833570557
 31
0.0
 11
51.52805498360129
 21
330.6340127218965
 31
0.0
  0
SPLINE
  5
179
330
2
100
AcDbEntity
  8
GAIKEI
  6
Continuous
 62
     1
100
AcDbSpline
210
0.0
220
0.0
230
1.0
 70
     8
 71
     3
 72
     9
 73
     5
 74
     3
 42
0.0000000001
 43
0.0000000001
 44
0.00000000001
 40
0.0
 40
0.0
 40
0.0
 40
0.0
 40
0.0226036287118168
 40
0.0452072574236831
 40
0.0452072574236831
 40
0.0452072574236831
 40
0.0452072574236831
 10
51.4668119884613
 20
330.1772663177965
 30
0.0
 10
51.47433694718838
 20
330.1768864060603
 30
0.0
 10
51.48938686464252
 20
330.176126582588
 30
0.0
 10
51.50443678028169
 20
330.175366723167
 30
0.0
 10
51.51196173810129
 20
330.1749867934566
 30
0.0
 11
51.4668119884613
 21
330.1772663177965
 31
0.0
 11
51.48938686418876
 21
330.1761265736008
 31
0.0
 11
51.51196173810129
 21
330.1749867934566
 31
0.0
  0
SPLINE
  5
17A
330
2
100
AcDbEntity
  8
GAIKEI
  6
Continuous
 62
     1
100
AcDbSpline
210
0.0
220
0.0
230
1.0
 70
     8
 71
     3
 72
     9
 73
     5
 74
     3
 42
0.0000000001
 43
0.0000000001
 44
0.00000000001
 40
0.0
 40
0.0
 40
0.0
 40
0.0
 40
0.0211545627603727
 40
0.0423091255207697
 40
0.0423091255207697
 40
0.0423091255207697
 40
0.0423091255207697
 10
51.4742879315813
 20
330.2651019860965
 30
0.0
 10
51.48132906877825
 20
330.2647194494829
 30
0.0
 10
51.49541134317214
 20
330.2639543762556
 30
0.0
 10
51.50949361925823
 20
330.263189334176
 30
0.0
 10
51.51653475730128
 20
330.2628068131365
 30
0.0
 11
51.4742879315813
 21
330.2651019860965
 31
0.0
 11
51.49541134359518
 21
330.2639543840424
 31
0.0
 11
51.51653475730128
 21
330.2628068131365
 31
0.0
  0
SPLINE
  5
17B
330
2
100
AcDbEntity
  8
GAIKEI
  6
Continuous
 62
     1
100
AcDbSpline
210
0.0
220
0.0
230
1.0
 70
     8
 71
     3
 72
    11
 73
     7
 74
     5
 42
0.0000000001
 43
0.0000000001
 44
0.00000000001
 40
0.0
 40
0.0
 40
0.0
 40
0.0
 40
0.1071403048819434
 40
0.216814978329791
 40
0.3391614945868924
 40
0.4640423794022535
 40
0.4640423794022535
 40
0.4640423794022535
 40
0.4640423794022535
 10
51.43545223428126
 20
329.8088157075565
 30
0.0
 10
51.47103566184973
 20
329.8057711847398
 30
0.0
 10
51.54304423122666
 20
329.7996101219236
 30
0.0
 10
51.65568642143399
 20
329.789971355977
 30
0.0
 10
51.77422053305427
 20
329.7798275552244
 30
0.0
 10
51.856329470619
 20
329.7727999177997
 30
0.0
 10
51.89780479548128
 20
329.7692500783565
 30
0.0
 11
51.43545223428126
 21
329.8088157075565
 31
0.0
 11
51.54220250259848
 21
329.7996819709501
 31
0.0
 11
51.65147784301732
 21
329.7903313574814
 31
0.0
 11
51.77337879930371
 21
329.7798993444105
 31
0.0
 11
51.89780479548128
 21
329.7692500783565
 31
0.0
  0
SPLINE
  5
17C
330
2
100
AcDbEntity
  8
GAIKEI
  6
Continuous
 62
     1
100
AcDbSpline
210
0.0
220
0.0
230
1.0
 70
     8
 71
     3
 72
    11
 73
     7
 74
     5
 42
0.0000000001
 43
0.0000000001
 44
0.00000000001
 40
0.0
 40
0.0
 40
0.0
 40
0.0
 40
0.1073050485474211
 40
0.2172660957037217
 40
0.3405071358839901
 40
0.4664041746655492
 40
0.4664041746655492
 40
0.4664041746655492
 40
0.4664041746655492
 10
51.4429260251213
 20
329.8966264183765
 30
0.0
 10
51.47855223280777
 20
329.8934408017992
 30
0.0
 10
51.55068646277692
 20
329.8869907187365
 30
0.0
 10
51.66373788373336
 20
329.8768829902955
 30
0.0
 10
51.7829620898063
 20
329.8662242403137
 30
0.0
 10
51.86567830956225
 20
329.8588303592597
 30
0.0
 10
51.90747732788125
 20
329.8550940065765
 30
0.0
 11
51.4429260251213
 21
329.8966264183765
 31
0.0
 11
51.54980466308024
 21
329.8870697352801
 31
0.0
 11
51.65932881824821
 21
329.8772773236031
 31
0.0
 11
51.78208029608043
 21
329.8663033236615
 31
0.0
 11
51.90747732788125
 21
329.8550940065765
 31
0.0
  0
SPLINE
  5
17D
330
2
100
AcDbEntity
  8
GAIKEI
  6
Continuous
 62
     1
100
AcDbSpline
210
0.0
220
0.0
230
1.0
 70
     8
 71
     3
 72
    23
 73
    19
 74
    17
 42
0.0000000001
 43
0.0000000001
 44
0.00000000001
 40
0.0
 40
0.0
 40
0.0
 40
0.0
 40
0.0249287120423922
 40
0.0487814519322747
 40
0.0667899361245855
 40
0.0841988524908981
 40
0.098391525914214
 40
0.1130715783160745
 40
0.1263513112697995
 40
0.1396410069013045
 40
0.1508524557813472
 40
0.1620549134043067
 40
0.1707777426759689
 40
0.1794284093814458
 40
0.1855590528164813
 40
0.1915293563492539
 40
0.1958318667019745
 40
0.2000325028610063
 40
0.2000325028610063
 40
0.2000325028610063
 40
0.2000325028610063
 10
46.77743815816126
 20
320.1479989122765
 30
0.0
 10
46.7847026872404
 20
320.1520332357111
 30
0.0
 10
46.7989181940617
 20
320.1599277532604
 30
0.0
 10
46.81832631838157
 20
320.1708357337595
 30
0.0
 10
46.83551734793091
 20
320.1805720945273
 30
0.0
 10
46.8498856838026
 20
320.1887583010838
 30
0.0
 10
46.86326627808364
 20
320.1964367932502
 30
0.0
 10
46.87543335484111
 20
320.2034644782049
 30
0.0
 10
46.88731945700467
 20
320.2103767031518
 30
0.0
 10
46.89818568955315
 20
320.216742634278
 30
0.0
 10
46.90843349900065
 20
320.2227942025003
 30
0.0
 10
46.9173547903175
 20
320.2280982146984
 30
0.0
 10
46.92551750087328
 20
320.2330078000026
 30
0.0
 10
46.93220078800192
 20
320.2370961975035
 30
0.0
 10
46.93808004220316
 20
320.2407415687042
 30
0.0
 10
46.94274941554989
 20
320.2435840255986
 30
0.0
 10
46.94680309762124
 20
320.2462092442721
 30
0.0
 10
46.94902118630044
 20
320.247976513072
 30
0.0
 10
46.95011694344128
 20
320.2488495608566
 30
0.0
 11
46.77743815816126
 21
320.1479989122765
 31
0.0
 11
46.79922120277112
 21
320.1601207789487
 31
0.0
 11
46.82001724042282
 21
320.171803159624
 31
0.0
 11
46.83568740400963
 21
320.1806773624653
 31
0.0
 11
46.85081226932195
 21
320.1892976187453
 31
0.0
 11
46.86312210705898
 21
320.1963616030168
 31
0.0
 11
46.87583374971478
 21
320.2037044961465
 31
0.0
 11
46.88731300479432
 21
320.2103811727255
 31
0.0
 11
46.89877918361725
 21
320.2171000084266
 31
0.0
 11
46.90843324922886
 21
320.2228004999104
 31
0.0
 11
46.91805977235659
 21
320.2285298200503
 31
0.0
 11
46.92553240090552
 21
320.2330295503835
 31
0.0
 11
46.93291213173558
 21
320.237543263636
 31
0.0
 11
46.93812963826778
 21
320.2407623340785
 31
0.0
 11
46.94320827171006
 21
320.2439011247106
 31
0.0
 11
46.94678978326257
 21
320.2462853164677
 31
0.0
 11
46.95011694344128
 21
320.2488495608566
 31
0.0
  0
SPLINE
  5
17E
330
2
100
AcDbEntity
  8
GAIKEI
  6
Continuous
 62
     1
100
AcDbSpline
210
0.0
220
0.0
230
1.0
 70
     8
 71
     3
 72
    23
 73
    19
 74
    17
 42
0.0000000001
 43
0.0000000001
 44
0.00000000001
 40
0.0
 40
0.0
 40
0.0
 40
0.0
 40
0.0041703336207811
 40
0.0084443764845573
 40
0.0143969130569888
 40
0.0205106698438053
 40
0.0291575831742258
 40
0.037875906160867
 40
0.0490910037851102
 40
0.0603154778907247
 40
0.0736431328131888
 40
0.0869612053977367
 40
0.1017069561221616
 40
0.1159616688390311
 40
0.1334808094253385
 40
0.1516071099313869
 40
0.1756501174738616
 40
0.2007803193479742
 40
0.2007803193479742
 40
0.2007803193479742
 40
0.2007803193479742
 10
50.87610054262128
 20
323.8612276963966
 30
0.0
 10
50.87705611099597
 20
323.8622384566797
 30
0.0
 10
50.87899101113738
 20
323.8642851131687
 30
0.0
 10
50.88192818910663
 20
323.8680867477634
 30
0.0
 10
50.88513499044046
 20
323.8724877706464
 30
0.0
 10
50.88924875767187
 20
323.8780334501651
 30
0.0
 10
50.89387362461762
 20
323.8843469719454
 30
0.0
 10
50.89944503857369
 20
323.8920749149853
 30
0.0
 10
50.90547560416403
 20
323.9005307234055
 30
0.0
 10
50.91236960342957
 20
323.9102578561333
 30
0.0
 10
50.91963309660194
 20
323.9205822248607
 30
0.0
 10
50.92753561034347
 20
323.9318920624196
 30
0.0
 10
50.93558094385108
 20
323.9434790151315
 30
0.0
 10
50.94438904929106
 20
323.9562410884455
 30
0.0
 10
50.95379466440405
 20
323.9699598637738
 30
0.0
 10
50.96500324552049
 20
323.9863983848178
 30
0.0
 10
50.97757997950122
 20
324.0049746394715
 30
0.0
 10
50.98669979267071
 20
324.0185943639638
 30
0.0
 10
50.99136051644129
 20
324.0255547887565
 30
0.0
 11
50.87610054262128
 21
323.8612276963966
 31
0.0
 11
50.87891551097385
 21
323.8643046487333
 31
0.0
 11
50.88157188393466
 21
323.8676529505558
 31
0.0
 11
50.88511026742409
 21
323.8724396544246
 31
0.0
 11
50.888741537376
 21
323.8773581806861
 31
0.0
 11
50.8938507739683
 21
323.8843341975717
 31
0.0
 11
50.89895301956983
 21
323.8914035854886
 31
0.0
 11
50.90546929233003
 21
323.9005313784331
 31
0.0
 11
50.91195936589881
 21
323.9096893129174
 31
0.0
 11
50.91962907872852
 21
323.9205889409313
 31
0.0
 11
50.92725793213464
 21
323.9315055179166
 31
0.0
 11
50.9356685093914
 21
323.9436174688179
 31
0.0
 11
50.94376550101035
 21
323.9553492871494
 31
0.0
 11
50.95367416045727
 21
323.9697970812664
 31
0.0
 11
50.96388510565936
 21
323.984773708661
 31
0.0
 11
50.97736018517801
 21
324.0046857262296
 31
0.0
 11
50.99136051644129
 21
324.0255547887565
 31
0.0
  0
SPLINE
  5
17F
330
2
100
AcDbEntity
  8
GAIKEI
  6
Continuous
 62
     1
100
AcDbSpline
210
0.0
220
0.0
230
1.0
 70
     8
 71
     3
 72
    11
 73
     7
 74
     5
 42
0.0000000001
 43
0.0000000001
 44
0.00000000001
 40
0.0
 40
0.0
 40
0.0
 40
0.0
 40
0.0071137304688137
 40
0.0142282426427389
 40
0.0213466636054541
 40
0.0284658663788691
 40
0.0284658663788691
 40
0.0284658663788691
 40
0.0284658663788691
 10
50.84837125220127
 20
323.8547940400565
 30
0.0
 10
50.85068137524213
 20
323.8553289487346
 30
0.0
 10
50.8553018751759
 20
323.8563988248703
 30
0.0
 10
50.86223348785324
 20
323.8580062649155
 30
0.0
 10
50.86916652127157
 20
323.8596156522975
 30
0.0
 10
50.87378911755999
 20
323.8606903286927
 30
0.0
 10
50.87610054262128
 20
323.8612276963966
 30
0.0
 11
50.84837125220127
 21
323.8547940400565
 31
0.0
 11
50.85530153243571
 21
323.8563991497273
 31
0.0
 11
50.86223215927773
 21
323.858006226281
 31
0.0
 11
50.86916617824505
 21
323.859615977182
 31
0.0
 11
50.87610054262128
 21
323.8612276963966
 31
0.0
  0
SPLINE
  5
180
330
2
100
AcDbEntity
  8
GAIKEI
  6
Continuous
 62
     7
100
AcDbSpline
210
0.0
220
0.0
230
1.0
 70
     8
 71
     3
 72
    13
 73
     9
 74
     7
 42
0.0000000001
 43
0.0000000001
 44
0.00000000001
 40
0.0
 40
0.0
 40
0.0
 40
0.0
 40
0.0329367249148607
 40
0.0642609577379839
 40
0.0957764794933942
 40
0.1278769524683499
 40
0.1670541897187125
 40
0.2084288857237569
 40
0.2084288857237569
 40
0.2084288857237569
 40
0.2084288857237569
 10
29.37555681470127
 20
334.5745143312965
 30
0.0
 10
29.37222271875814
 20
334.5640539182279
 30
0.0
 10
29.36571775510285
 20
334.5436452053442
 30
0.0
 10
29.35605114827371
 20
334.5132183393821
 30
0.0
 10
29.34649798212434
 20
334.4830479289115
 30
0.0
 10
29.33618759934467
 20
334.4503715440211
 30
0.0
 10
29.32493849558823
 20
334.4145452593251
 30
0.0
 10
29.31695330794317
 20
334.3889094584558
 30
0.0
 10
29.31285179606127
 20
334.3757418853765
 30
0.0
 11
29.37555681470127
 21
334.5745143312965
 31
0.0
 11
29.36555956583987
 21
334.5431314878415
 31
0.0
 11
29.3560752307283
 21
334.5132775944698
 31
0.0
 11
29.3465618502222
 21
334.4832322337154
 31
0.0
 11
29.33690385308131
 21
334.4526191081572
 31
0.0
 11
29.32517175683549
 21
334.4152397845109
 31
0.0
 11
29.31285179606127
 21
334.3757418853765
 31
0.0
  0
SPLINE
  5
181
330
2
100
AcDbEntity
  8
GAIKEI
  6
Continuous
 62
     7
100
AcDbSpline
210
0.0
220
0.0
230
1.0
 70
    24
 71
     3
 72
     9
 73
     5
 74
     3
 42
0.0000000001
 43
0.0000000001
 44
0.00000000001
 40
0.0
 40
0.0
 40
0.0
 40
0.0
 40
0.0023629924354353
 40
0.0047259848709247
 40
0.0047259848709247
 40
0.0047259848709247
 40
0.0047259848709247
 10
29.37699301482132
 20
334.5790168041965
 30
0.0
 10
29.37675364813464
 20
334.5782663920465
 30
0.0
 10
29.37627491476128
 20
334.5767655677465
 30
0.0
 10
29.37579618138795
 20
334.5752647434465
 30
0.0
 10
29.37555681470127
 20
334.5745143312965
 30
0.0
 11
29.37699301482132
 21
334.5790168041965
 31
0.0
 11
29.3762749147613
 21
334.5767655677465
 31
0.0
 11
29.37555681470127
 21
334.5745143312965
 31
0.0
  0
SPLINE
  5
182
330
2
100
AcDbEntity
  8
GAIKEI
  6
Continuous
 62
     7
100
AcDbSpline
210
0.0
220
0.0
230
1.0
 70
     8
 71
     3
 72
    19
 73
    15
 74
    13
 42
0.0000000001
 43
0.0000000001
 44
0.00000000001
 40
0.0
 40
0.0
 40
0.0
 40
0.0
 40
0.0039297407431549
 40
0.0080128560379088
 40
0.0140578278749369
 40
0.0202970139666424
 40
0.0292911178854242
 40
0.0383209381079976
 40
0.0497345156080266
 40
0.0606167344049304
 40
0.0762224493778351
 40
0.092684405790542
 40
0.1171889531372181
 40
0.1430556610880591
 40
0.1430556610880591
 40
0.1430556610880591
 40
0.1430556610880591
 10
29.41884127386126
 20
334.7157418853765
 30
0.0
 10
29.41871211642104
 20
334.7144361211282
 30
0.0
 10
29.41844876063182
 20
334.7117736297261
 30
0.0
 10
29.41721872090153
 20
334.7072379757165
 30
0.0
 10
29.4155798019095
 20
334.7020385134231
 30
0.0
 10
29.41359618117057
 20
334.6952269805336
 30
0.0
 10
29.41129424640082
 20
334.6874743463186
 30
0.0
 10
29.40840643854731
 20
334.6780960816507
 30
0.0
 10
29.4052861232399
 20
334.6681314017371
 30
0.0
 10
29.40150092352919
 20
334.6560779068038
 30
0.0
 10
29.39718503752577
 20
334.6424273004147
 30
0.0
 10
29.39147821096561
 20
334.6244541521145
 30
0.0
 10
29.38471732406074
 20
334.6032270924619
 30
0.0
 10
29.37961378855012
 20
334.5872310904823
 30
0.0
 10
29.37699301482132
 20
334.5790168041965
 30
0.0
 11
29.41884127386126
 21
334.7157418853765
 31
0.0
 11
29.41834851161735
 21
334.7118431615238
 31
0.0
 11
29.41736958150747
 21
334.7078791324686
 31
0.0
 11
29.41561980758482
 21
334.7020929441093
 31
0.0
 11
29.4138487835867
 21
334.6961103930577
 31
0.0
 11
29.4112831572318
 21
334.6874899831655
 31
0.0
 11
29.40863426390703
 21
334.6788574274949
 31
0.0
 11
29.40523167422947
 21
334.6679628354954
 31
0.0
 11
29.40196989676471
 21
334.6575809525393
 31
0.0
 11
29.39726811416884
 21
334.6427003752576
 31
0.0
 11
29.39228764509716
 21
334.6270099024553
 31
0.0
 11
29.38485323962024
 21
334.6036603316698
 31
0.0
 11
29.37699301482132
 21
334.5790168041965
 31
0.0
  0
SPLINE
  5
183
330
2
100
AcDbEntity
  8
GAIKEI
  6
Continuous
 62
     7
100
AcDbSpline
210
0.0
220
0.0
230
1.0
 70
     8
 71
     3
 72
    19
 73
    15
 74
    13
 42
0.0000000001
 43
0.0000000001
 44
0.00000000001
 40
0.0
 40
0.0
 40
0.0
 40
0.0
 40
0.0198877717034827
 40
0.0394352484561169
 40
0.0558394881251534
 40
0.0720033004705949
 40
0.0849336263420808
 40
0.0979638743658167
 40
0.1079680546953573
 40
0.1179005966074473
 40
0.124731102868844
 40
0.1313600855567614
 40
0.1358897792376379
 40
0.1402722067760996
 40
0.1402722067760996
 40
0.1402722067760996
 40
0.1402722067760996
 10
28.77989604182128
 20
330.1758985558165
 30
0.0
 10
28.7801524505961
 20
330.1692742591732
 30
0.0
 10
28.78066088079594
 20
330.1561390126573
 30
0.0
 10
28.78137974558963
 20
330.1375397368529
 30
0.0
 10
28.7820383967784
 20
330.1201803811568
 30
0.0
 10
28.78259534692262
 20
330.1050244840872
 30
0.0
 10
28.78308709412059
 20
330.0909916127405
 30
0.0
 10
28.78349667823588
 20
330.0790104214134
 30
0.0
 10
28.78382192031241
 20
330.0680259661508
 30
0.0
 10
28.78400393065719
 20
330.0591058687138
 30
0.0
 10
28.78412026789844
 20
330.0513078864561
 30
0.0
 10
28.78432157756456
 20
330.0453185403085
 30
0.0
 10
28.78429665935104
 20
330.0401257782386
 30
0.0
 10
28.78383467021614
 20
330.0371869959368
 30
0.0
 10
28.78360749266128
 20
330.0357418853765
 30
0.0
 11
28.77989604182128
 21
330.1758985558165
 31
0.0
 11
28.78066507743799
 21
330.1560256585051
 31
0.0
 11
28.78141770815617
 21
330.1364926762853
 31
0.0
 11
28.78203815350614
 21
330.1201001741369
 31
0.0
 11
28.78262983298725
 21
330.1039471946925
 31
0.0
 11
28.78308409084326
 21
330.0910248505962
 31
0.0
 11
28.78351991603262
 21
330.0780018931762
 31
0.0
 11
28.78380723581228
 21
330.0680018396058
 31
0.0
 11
28.78401427496576
 21
330.0580714557449
 31
0.0
 11
28.78414282146548
 21
330.0512421591791
 31
0.0
 11
28.78429468658021
 21
330.0446149162785
 31
0.0
 11
28.78418076879965
 21
330.0400866552898
 31
0.0
 11
28.78360749266128
 21
330.0357418853765
 31
0.0
  0
SPLINE
  5
184
330
2
100
AcDbEntity
  8
GAIKEI
  6
Continuous
 62
     7
100
AcDbSpline
210
0.0
220
0.0
230
1.0
 70
    24
 71
     3
 72
     9
 73
     5
 74
     3
 42
0.0000000001
 43
0.0000000001
 44
0.00000000001
 40
0.0
 40
0.0
 40
0.0
 40
0.0
 40
0.0079955491995104
 40
0.0159910983990776
 40
0.0159910983990776
 40
0.0159910983990776
 40
0.0159910983990776
 10
28.77927218402127
 20
330.1918774803565
 30
0.0
 10
28.77937616032127
 20
330.1892143262666
 30
0.0
 10
28.77958411292128
 20
330.1838880180866
 30
0.0
 10
28.77979206552127
 20
330.1785617099064
 30
0.0
 10
28.77989604182128
 20
330.1758985558165
 30
0.0
 11
28.77927218402127
 21
330.1918774803565
 31
0.0
 11
28.77958411292127
 21
330.1838880180865
 31
0.0
 11
28.77989604182128
 21
330.1758985558165
 31
0.0
  0
SPLINE
  5
185
330
2
100
AcDbEntity
  8
GAIKEI
  6
Continuous
 62
     7
100
AcDbSpline
210
0.0
220
0.0
230
1.0
 70
     8
 71
     3
 72
    13
 73
     9
 74
     7
 42
0.0000000001
 43
0.0000000001
 44
0.00000000001
 40
0.0
 40
0.0
 40
0.0
 40
0.0
 40
0.0349324817577089
 40
0.0676384488187337
 40
0.0952354989136074
 40
0.12260470589053
 40
0.1522959051524537
 40
0.1839857678203572
 40
0.1839857678203572
 40
0.1839857678203572
 40
0.1839857678203572
 10
28.7725980669413
 20
330.3757418853765
 30
0.0
 10
28.77298628215543
 20
330.3641041962035
 30
0.0
 10
28.77373796865379
 20
330.3415705769501
 30
0.0
 10
28.7748520079825
 20
330.3098449489214
 30
0.0
 10
28.77591031852677
 20
330.2806400408732
 30
0.0
 10
28.77695347719326
 20
330.2524401735575
 30
0.0
 10
28.77807147774176
 20
330.2228778789664
 30
0.0
 10
28.7788633536882
 20
330.2024328538938
 30
0.0
 10
28.77927218402127
 20
330.1918774803565
 30
0.0
 11
28.7725980669413
 21
330.3757418853765
 31
0.0
 11
28.77377325639784
 21
330.340829176924
 31
0.0
 11
28.77491839578053
 21
330.3081432634873
 31
0.0
 11
28.7759165451873
 21
330.2805642701826
 31
0.0
 11
28.77692847598144
 21
330.2532137768303
 31
0.0
 11
28.77805066395124
 21
330.2235437918662
 31
0.0
 11
28.77927218402127
 21
330.1918774803565
 31
0.0
  0
TEXT
  5
186
330
2
100
AcDbEntity
  8
TOUROKU
100
AcDbText
 10
110.9999500329273
 20
360.4992141396417
 30
0.0
 40
2.0
  1
ＤＧＮＦ２８２
 72
     2
 11
126.9999500329273
 21
360.4992141396417
 31
0.0
100
AcDbText
  0
TEXT
  5
188
330
2
100
AcDbEntity
  8
MOJI1
100
AcDbText
 10
44.63619560749077
 20
278.5623375316003
 30
0.0
 40
3.0
  1
垂直：２６．７°～５４．０°
  7
KANJI
100
AcDbText
  0
LINE
  5
18A
330
2
100
AcDbEntity
  8
WAKU
 62
     1
100
AcDbLine
 10
126.9999999999996
 20
282.4992141396417
 30
0.0
 11
1.999999999999658
 21
282.4992141396417
 31
0.0
  0
TEXT
  5
18C
330
2
100
AcDbEntity
  8
MOJI1
100
AcDbText
 10
4.705581230518077
 20
273.6311705770999
 30
0.0
 40
3.0
  1
最低照度
  7
KANJI
100
AcDbText
  0
TEXT
  5
18D
330
2
100
AcDbEntity
  8
MOJI1
100
AcDbText
 10
44.63619560749077
 20
273.5623375316003
 30
0.0
 40
3.0
  1
１．５ルクス（Ｆ１．４）
  7
KANJI
100
AcDbText
  0
TEXT
  5
18E
330
2
100
AcDbEntity
  8
MOJI1
100
AcDbText
 10
44.63619560749077
 20
283.5623375316004
 30
0.0
 40
3.0
  1
水平：３５．６°～７２．６°
  7
KANJI
100
AcDbText
  0
TEXT
  5
18F
330
2
100
AcDbEntity
  8
MOJI1
100
AcDbText
 10
4.705581230518077
 20
293.6243330907572
 30
0.0
 40
3.0
  1
消費電力
  7
KANJI
100
AcDbText
  0
TEXT
  5
190
330
2
100
AcDbEntity
  8
MOJI1
100
AcDbText
 10
44.63619560749077
 20
293.5555000452577
 30
0.0
 40
3.0
  1
ＤＣ１２Ｖ：３５０ｍＡ、ＰｏＥ：約４．０Ｗ（クラス２機器)
 41
0.8
  7
KANJI
100
AcDbText
  0
LINE
  5
191
330
2
100
AcDbEntity
  8
WAKU
 62
     1
100
AcDbLine
 10
126.9999999999996
 20
262.4992141396417
 30
0.0
 11
1.999999999999658
 21
262.4992141396417
 31
0.0
  0
LINE
  5
192
330
2
100
AcDbEntity
  8
WAKU
 62
     4
100
AcDbLine
 10
126.9999999999996
 20
257.4992141396419
 30
0.0
 11
126.9999999999996
 21
302.4992141396416
 31
0.0
  0
TEXT
  5
193
330
2
100
AcDbEntity
  8
MOJI1
100
AcDbText
 10
44.63619560749077
 20
298.5555000452577
 30
0.0
 40
3.0
  1
ＤＣ１２Ｖ、ＰｏＥ（ＩＥＥＥ８０２．３ａｆ準拠)
 41
0.95
  7
KANJI
100
AcDbText
  0
TEXT
  5
194
330
2
100
AcDbEntity
  8
MOJI1
100
AcDbText
 10
44.70558123051808
 20
263.6550665345243
 30
0.0
 40
3.0
  1
ＶＧＡ（６４０×４８０）／ＱＶＧＡ（３２０×２４０）
 41
0.85
  7
KANJI
100
AcDbText
  0
TEXT
  5
195
330
2
100
AcDbEntity
  8
MOJI1
100
AcDbText
 10
44.63619560749077
 20
268.5623375316004
 30
0.0
 40
3.0
  1
ＯＦＦ、２、４、８、１６ＡＵＴＯ
  7
KANJI
100
AcDbText
  0
LINE
  5
196
330
2
100
AcDbEntity
  8
WAKU
 62
     4
100
AcDbLine
 10
42.20558123051808
 20
257.4992141396419
 30
0.0
 11
42.20558123051807
 21
302.4992141396416
 31
0.0
  0
TEXT
  5
197
330
2
100
AcDbEntity
  8
MOJI1
100
AcDbText
 10
44.70558123051808
 20
288.6550665345243
 30
0.0
 40
3.0
  1
１／４型　インターライン転送方式ＣＣＤ
  7
KANJI
100
AcDbText
  0
TEXT
  5
198
330
2
100
AcDbEntity
  8
MOJI1
100
AcDbText
 10
44.51430450521786
 20
258.4992141396421
 30
0.0
 40
3.0
  1
ＭＰＥＧ－４／ＪＰＥＧ  デュアルエンコーディング
 41
0.9517362071823139
 72
     5
 11
125.982923840024
 21
258.4992141396421
 31
0.0
100
AcDbText
  0
TEXT
  5
199
330
2
100
AcDbEntity
  8
MOJI1
100
AcDbText
 10
4.705581230518077
 20
283.4992141396419
 30
0.0
 40
3.0
  1
画  角
100
AcDbText
  0
TEXT
  5
19A
330
2
100
AcDbEntity
  8
MOJI1
100
AcDbText
 10
4.705581230518077
 20
298.6243330907573
 30
0.0
 40
3.0
  1
電　源
  7
KANJI
100
AcDbText
  0
TEXT
  5
19B
330
2
100
AcDbEntity
  8
MOJI1
100
AcDbText
 10
4.705581230518077
 20
288.6277518339286
 30
0.0
 40
3.0
  1
撮像素子
  7
KANJI
100
AcDbText
  0
TEXT
  5
19C
330
2
100
AcDbEntity
  8
MOJI1
100
AcDbText
 10
4.705581230518077
 20
258.4992141396419
 30
0.0
 40
3.0
  1
画像圧縮方式
100
AcDbText
  0
TEXT
  5
19D
330
2
100
AcDbEntity
  8
MOJI1
100
AcDbText
 10
4.705581230518077
 20
268.6311705770999
 30
0.0
 40
3.0
  1
電子感度アップ
  7
KANJI
100
AcDbText
  0
LINE
  5
19E
330
2
100
AcDbEntity
  8
WAKU
 62
     4
100
AcDbLine
 10
1.999999999999658
 20
302.4992141396416
 30
0.0
 11
1.999999999999658
 21
257.4992141396419
 31
0.0
  0
LINE
  5
19F
330
2
100
AcDbEntity
  8
WAKU
 62
     1
100
AcDbLine
 10
126.9999999999996
 20
267.4992141396416
 30
0.0
 11
1.999999999999658
 21
267.4992141396416
 31
0.0
  0
LINE
  5
1A0
330
2
100
AcDbEntity
  8
WAKU
 62
     4
100
AcDbLine
 10
1.999999999999658
 20
257.4992141396419
 30
0.0
 11
126.9999999999996
 21
257.4992141396419
 31
0.0
  0
LINE
  5
1A1
330
2
100
AcDbEntity
  8
WAKU
 62
     1
100
AcDbLine
 10
126.9999999999996
 20
272.4992141396417
 30
0.0
 11
1.999999999999658
 21
272.4992141396417
 31
0.0
  0
LINE
  5
1A2
330
2
100
AcDbEntity
  8
WAKU
 62
     1
100
AcDbLine
 10
126.9999999999996
 20
277.4992141396416
 30
0.0
 11
1.999999999999658
 21
277.4992141396416
 31
0.0
  0
LINE
  5
1A3
330
2
100
AcDbEntity
  8
WAKU
 62
     1
100
AcDbLine
 10
126.9999999999996
 20
287.4992141396417
 30
0.0
 11
1.999999999999658
 21
287.4992141396417
 31
0.0
  0
LINE
  5
1A4
330
2
100
AcDbEntity
  8
WAKU
 62
     1
100
AcDbLine
 10
126.9999999999996
 20
292.4992141396416
 30
0.0
 11
1.999999999999658
 21
292.4992141396416
 31
0.0
  0
LINE
  5
1A5
330
2
100
AcDbEntity
  8
WAKU
 62
     1
100
AcDbLine
 10
126.9999999999996
 20
297.4992141396417
 30
0.0
 11
1.999999999999658
 21
297.4992141396417
 31
0.0
  0
LINE
  5
1A6
330
2
100
AcDbEntity
  8
WAKU
 62
     4
100
AcDbLine
 10
126.9999999999996
 20
302.4992141396416
 30
0.0
 11
1.999999999999658
 21
302.4992141396416
 31
0.0
  0
TEXT
  5
1A7
330
2
100
AcDbEntity
  8
MOJI1
100
AcDbText
 10
4.705581230518077
 20
263.6277518339286
 30
0.0
 40
3.0
  1
画像解像度
  7
KANJI
100
AcDbText
  0
ENDSEC
  0
SECTION
  2
OBJECTS
  0
DICTIONARY
  5
9
330
0
100
AcDbDictionary
281
     1
  3
ACAD_COLOR
350
32
  3
ACAD_GROUP
350
2E
  3
ACAD_LAYOUT
350
D
  3
ACAD_MATERIAL
350
31
  3
ACAD_MLINESTYLE
350
2F
  3
ACAD_PLOTSETTINGS
350
30
  3
ACAD_PLOTSTYLENAME
350
8
  3
ACDBHEADERROUNDTRIPXREC
350
1CC
  3
AcDbVariableDictionary
350
1BB
  3
ASE_INDEX_DICTIONARY
350
1B0
  0
DICTIONARY
  5
15
330
14
100
AcDbDictionary
280
     1
281
     1
  3
ACAD_LAYERFILTERS
360
16
  3
ACAD_LAYERSTATES
360
18
  0
DICTIONARY
  5
3
330
2
100
AcDbDictionary
280
     1
281
     1
  3
ACAD_LAYOUTSELFREF
360
4
  0
DICTIONARY
  5
F
330
E
100
AcDbDictionary
280
     1
281
     1
  3
ACAD_LAYOUTSELFREF
360
10
  0
DICTIONARY
  5
32
102
{ACAD_REACTORS
330
9
102
}
330
9
100
AcDbDictionary
281
     1
  0
DICTIONARY
  5
2E
102
{ACAD_REACTORS
330
9
102
}
330
9
100
AcDbDictionary
281
     1
  0
DICTIONARY
  5
D
102
{ACAD_REACTORS
330
9
102
}
330
9
100
AcDbDictionary
281
     1
  3
Model
350
C
  3
ﾚｲｱｳﾄ1
350
13
  0
DICTIONARY
  5
31
102
{ACAD_REACTORS
330
9
102
}
330
9
100
AcDbDictionary
281
     1
  0
DICTIONARY
  5
2F
102
{ACAD_REACTORS
330
9
102
}
330
9
100
AcDbDictionary
281
     1
  3
STANDARD
350
34
  0
DICTIONARY
  5
30
102
{ACAD_REACTORS
330
9
102
}
330
9
100
AcDbDictionary
281
     1
  0
ACDBDICTIONARYWDFLT
  5
8
102
{ACAD_REACTORS
330
9
102
}
330
9
100
AcDbDictionary
281
     1
  3
Normal
350
7
100
AcDbDictionaryWithDefault
340
7
  0
DICTIONARY
  5
1CC
102
{ACAD_REACTORS
330
9
102
}
330
9
100
AcDbDictionary
281
     1
  3
COLORDICT
350
1CE
  3
MATERIALDICT
350
1CD
  0
DICTIONARY
  5
1BB
102
{ACAD_REACTORS
330
9
102
}
330
9
100
AcDbDictionary
281
     1
  3
DIMASSOC
350
1BD
  3
HIDETEXT
350
1BC
  3
PROJECTNAME
350
1BE
  0
DICTIONARY
  5
1B0
102
{ACAD_REACTORS
330
9
102
}
330
9
100
AcDbDictionary
281
     1
  3
ASEBlockHierarchyIndexRecord
350
1B2
1001
DCO15
1040
1582970198.14
  0
DICTIONARY
  5
16
102
{ACAD_REACTORS
330
15
102
}
330
15
100
AcDbDictionary
280
     1
281
     1
  3
ロック画層
360
17
  0
DICTIONARY
  5
18
102
{ACAD_REACTORS
330
15
102
}
330
15
100
AcDbDictionary
281
     1
  0
XRECORD
  5
4
102
{ACAD_REACTORS
330
3
102
}
330
3
100
AcDbXrecord
280
     1
340
2
  0
XRECORD
  5
10
102
{ACAD_REACTORS
330
F
102
}
330
F
100
AcDbXrecord
280
     1
340
E
  0
LAYOUT
  5
C
102
{ACAD_XDICTIONARY
360
1CF
102
}
102
{ACAD_REACTORS
330
D
102
}
330
D
100
AcDbPlotSettings
  1

  2
8FPAM09-A4.pc3
  4
A4
  6

 40
4.349750041961669
 41
4.222751140594482
 42
4.3497314453125
 43
4.180419921875
 44
297.0106506347656
 45
210.0156707763672
 46
0.0
 47
6.099999999999999
 48
0.0
 49
0.0
140
0.0
141
0.0
142
1.0
143
1.367719688917462
 70
 11956
 72
     1
 73
     1
 74
     1
  7
tmsacad.ctb
 75
     0
147
0.7311439676586735
148
0.531503490873547
149
0.0985174452198408
100
AcDbLayout
  1
Model
 70
     1
 71
     0
 10
0.0
 20
0.0
 11
12.0
 21
9.0
 12
0.0
 22
0.0
 32
0.0
 14
0.0
 24
0.0
 34
0.0
 15
0.0
 25
0.0
 35
0.0
146
0.0
 13
0.0
 23
0.0
 33
0.0
 16
1.0
 26
0.0
 36
0.0
 17
0.0
 27
1.0
 37
0.0
 76
     0
330
2
  0
LAYOUT
  5
13
102
{ACAD_XDICTIONARY
360
1D1
102
}
102
{ACAD_REACTORS
330
D
102
}
330
D
100
AcDbPlotSettings
  1

  2
C:\Program Files\ACAD2000\plotters\DWF ePlot.pc3
  4

  6

 40
0.0
 41
0.0
 42
0.0
 43
0.0
 44
0.0
 45
0.0
 46
0.0
 47
0.0
 48
0.0
 49
0.0
140
0.0
141
0.0
142
1.0
143
1.0
 70
   688
 72
     0
 73
     0
 74
     5
  7
tmsacad.ctb
 75
    16
147
1.0
148
0.0
149
0.0
100
AcDbLayout
  1
ﾚｲｱｳﾄ1
 70
     1
 71
     1
 10
0.0
 20
0.0
 11
12.0
 21
9.0
 12
0.0
 22
0.0
 32
0.0
 14
1.000000000000000E+20
 24
1.000000000000000E+20
 34
1.000000000000000E+20
 15
-1.000000000000000E+20
 25
-1.000000000000000E+20
 35
-1.000000000000000E+20
146
0.0
 13
0.0
 23
0.0
 33
0.0
 16
1.0
 26
0.0
 36
0.0
 17
0.0
 27
1.0
 37
0.0
 76
     0
330
E
  0
MLINESTYLE
  5
34
102
{ACAD_REACTORS
330
2F
102
}
330
2F
100
AcDbMlineStyle
  2
STANDARD
 70
     0
  3

 62
   256
 51
90.0
 52
90.0
 71
     2
 49
0.5
 62
   256
  6
BYLAYER
 49
-0.5
 62
   256
  6
BYLAYER
  0
ACDBPLACEHOLDER
  5
7
102
{ACAD_REACTORS
330
8
102
}
330
8
  0
XRECORD
  5
1CE
102
{ACAD_REACTORS
330
1CC
102
}
330
1CC
100
AcDbXrecord
280
     1
340
32
  0
XRECORD
  5
1CD
102
{ACAD_REACTORS
330
1CC
102
}
330
1CC
100
AcDbXrecord
280
     1
340
31
  0
DICTIONARYVAR
  5
1BD
102
{ACAD_REACTORS
330
1BB
102
}
330
1BB
100
DictionaryVariables
280
     0
  1
1
  0
DICTIONARYVAR
  5
1BC
102
{ACAD_REACTORS
330
1BB
102
}
330
1BB
100
DictionaryVariables
280
     0
  1
1
  0
DICTIONARYVAR
  5
1BE
102
{ACAD_REACTORS
330
1BB
102
}
330
1BB
100
DictionaryVariables
280
     0
  1

  0
XRECORD
  5
1B2
102
{ACAD_REACTORS
330
1B0
102
}
330
1B0
100
AcDbXrecord
280
     1
330
4B
330
4C
330
3D
330
3E
  0
XRECORD
  5
17
102
{ACAD_REACTORS
330
16
102
}
330
16
100
AcDbXrecord
280
     1
  1
ロック画層
  1
*
  1
*
  1
*
 70
   256
  1
*
  1
*
  0
DICTIONARY
  5
1CF
330
C
100
AcDbDictionary
280
     1
281
     1
  3
ACAD_XREC_ROUNDTRIP
360
1D0
  0
DICTIONARY
  5
1D1
330
13
100
AcDbDictionary
280
     1
281
     1
  3
ACAD_XREC_ROUNDTRIP
360
1D2
  0
XRECORD
  5
1D0
102
{ACAD_REACTORS
330
1CF
102
}
330
1CF
100
AcDbXrecord
280
     1
102
SHADEPLOT
 70
     0
102
SHADEPLOTRESLEVEL
 70
     2
102
SHADEPLOTCUSTOMDPI
 70
   300
  0
XRECORD
  5
1D2
102
{ACAD_REACTORS
330
1D1
102
}
330
1D1
100
AcDbXrecord
280
     1
102
SHADEPLOT
 70
     0
102
SHADEPLOTRESLEVEL
 70
     2
102
SHADEPLOTCUSTOMDPI
 70
   300
  0
ENDSEC
  0
EOF
