  0
SECTION
  2
HEADER
  9
$ACADVER
  1
AC1015
  9
$ACADMAINTVER
 70
    20
  9
$DWGCODEPAGE
  3
ANSI_932
  9
$INSBASE
 10
129.0
 20
372.4992141396417
 30
0.0
  9
$EXTMIN
 10
-65.48534856891172
 20
-57.92494484586644
 30
0.0
  9
$EXTMAX
 10
59.51465143108817
 20
54.80838848746704
 30
0.0
  9
$LIMMIN
 10
-1101.784450318844
 20
-1579.160531687244
  9
$LIMMAX
 10
-508.2420711400536
 20
-1161.440814074914
  9
$ORTHOMODE
 70
     1
  9
$REGENMODE
 70
     1
  9
$FILLMODE
 70
     1
  9
$QTEXTMODE
 70
     0
  9
$MIRRTEXT
 70
     1
  9
$LTSCALE
 40
1.0
  9
$ATTMODE
 70
     1
  9
$TEXTSIZE
 40
3.0
  9
$TRACEWID
 40
0.5
  9
$TEXTSTYLE
  7
STANDARD
  9
$CLAYER
  8
SUNPO
  9
$CELTYPE
  6
BYLAYER
  9
$CECOLOR
 62
   256
  9
$CELTSCALE
 40
1.0
  9
$DISPSILH
 70
     0
  9
$DIMSCALE
 40
1.0
  9
$DIMASZ
 40
2.0
  9
$DIMEXO
 40
2.0
  9
$DIMDLI
 40
8.0
  9
$DIMRND
 40
0.0
  9
$DIMDLE
 40
0.0
  9
$DIMEXE
 40
2.0
  9
$DIMTP
 40
0.0
  9
$DIMTM
 40
0.0
  9
$DIMTXT
 40
2.5
  9
$DIMCEN
 40
0.0
  9
$DIMTSZ
 40
0.0
  9
$DIMTOL
 70
     0
  9
$DIMLIM
 70
     0
  9
$DIMTIH
 70
     0
  9
$DIMTOH
 70
     0
  9
$DIMSE1
 70
     0
  9
$DIMSE2
 70
     0
  9
$DIMTAD
 70
     3
  9
$DIMZIN
 70
     0
  9
$DIMBLK
  1

  9
$DIMASO
 70
     1
  9
$DIMSHO
 70
     1
  9
$DIMPOST
  1

  9
$DIMAPOST
  1

  9
$DIMALT
 70
     0
  9
$DIMALTD
 70
     2
  9
$DIMALTF
 40
25.4
  9
$DIMLFAC
 40
1.0
  9
$DIMTOFL
 70
     1
  9
$DIMTVP
 40
0.0
  9
$DIMTIX
 70
     0
  9
$DIMSOXD
 70
     0
  9
$DIMSAH
 70
     1
  9
$DIMBLK1
  1
OPEN30
  9
$DIMBLK2
  1
OPEN30
  9
$DIMSTYLE
  2
STANDARD
  9
$DIMCLRD
 70
     0
  9
$DIMCLRE
 70
     0
  9
$DIMCLRT
 70
     0
  9
$DIMTFAC
 40
1.0
  9
$DIMGAP
 40
0.5
  9
$DIMJUST
 70
     0
  9
$DIMSD1
 70
     0
  9
$DIMSD2
 70
     0
  9
$DIMTOLJ
 70
     1
  9
$DIMTZIN
 70
     0
  9
$DIMALTZ
 70
     0
  9
$DIMALTTZ
 70
     0
  9
$DIMUPT
 70
     0
  9
$DIMDEC
 70
     4
  9
$DIMTDEC
 70
     4
  9
$DIMALTU
 70
     2
  9
$DIMALTTD
 70
     2
  9
$DIMTXSTY
  7
STANDARD
  9
$DIMAUNIT
 70
     0
  9
$DIMADEC
 70
     0
  9
$DIMALTRND
 40
0.0
  9
$DIMAZIN
 70
     0
  9
$DIMDSEP
 70
    46
  9
$DIMATFIT
 70
     3
  9
$DIMFRAC
 70
     0
  9
$DIMLDRBLK
  1
OPEN30
  9
$DIMLUNIT
 70
     2
  9
$DIMLWD
 70
    -2
  9
$DIMLWE
 70
    -2
  9
$DIMTMOVE
 70
     0
  9
$LUNITS
 70
     2
  9
$LUPREC
 70
     4
  9
$SKETCHINC
 40
0.1
  9
$FILLETRAD
 40
0.0
  9
$AUNITS
 70
     0
  9
$AUPREC
 70
     0
  9
$MENU
  1
ACAD
  9
$ELEVATION
 40
0.0
  9
$PELEVATION
 40
0.0
  9
$THICKNESS
 40
0.0
  9
$LIMCHECK
 70
     0
  9
$CHAMFERA
 40
0.0
  9
$CHAMFERB
 40
0.0
  9
$CHAMFERC
 40
0.0
  9
$CHAMFERD
 40
0.0
  9
$SKPOLY
 70
     0
  9
$TDCREATE
 40
2451815.565532581
  9
$TDUCREATE
 40
2451815.190532581
  9
$TDUPDATE
 40
2454322.550411412
  9
$TDUUPDATE
 40
2454322.175411412
  9
$TDINDWG
 40
0.8360638657
  9
$TDUSRTIMER
 40
0.8360638657
  9
$USRTIMER
 70
     1
  9
$ANGBASE
 50
0.0
  9
$ANGDIR
 70
     0
  9
$PDMODE
 70
     0
  9
$PDSIZE
 40
0.0
  9
$PLINEWID
 40
0.0
  9
$SPLFRAME
 70
     0
  9
$SPLINETYPE
 70
     6
  9
$SPLINESEGS
 70
     8
  9
$HANDSEED
  5
20B
  9
$SURFTAB1
 70
     6
  9
$SURFTAB2
 70
     6
  9
$SURFTYPE
 70
     6
  9
$SURFU
 70
     6
  9
$SURFV
 70
     6
  9
$UCSBASE
  2

  9
$UCSNAME
  2

  9
$UCSORG
 10
0.0
 20
0.0
 30
0.0
  9
$UCSXDIR
 10
1.0
 20
0.0
 30
0.0
  9
$UCSYDIR
 10
0.0
 20
1.0
 30
0.0
  9
$UCSORTHOREF
  2

  9
$UCSORTHOVIEW
 70
     0
  9
$UCSORGTOP
 10
0.0
 20
0.0
 30
0.0
  9
$UCSORGBOTTOM
 10
0.0
 20
0.0
 30
0.0
  9
$UCSORGLEFT
 10
0.0
 20
0.0
 30
0.0
  9
$UCSORGRIGHT
 10
0.0
 20
0.0
 30
0.0
  9
$UCSORGFRONT
 10
0.0
 20
0.0
 30
0.0
  9
$UCSORGBACK
 10
0.0
 20
0.0
 30
0.0
  9
$PUCSBASE
  2

  9
$PUCSNAME
  2

  9
$PUCSORG
 10
0.0
 20
0.0
 30
0.0
  9
$PUCSXDIR
 10
1.0
 20
0.0
 30
0.0
  9
$PUCSYDIR
 10
0.0
 20
1.0
 30
0.0
  9
$PUCSORTHOREF
  2

  9
$PUCSORTHOVIEW
 70
     0
  9
$PUCSORGTOP
 10
0.0
 20
0.0
 30
0.0
  9
$PUCSORGBOTTOM
 10
0.0
 20
0.0
 30
0.0
  9
$PUCSORGLEFT
 10
0.0
 20
0.0
 30
0.0
  9
$PUCSORGRIGHT
 10
0.0
 20
0.0
 30
0.0
  9
$PUCSORGFRONT
 10
0.0
 20
0.0
 30
0.0
  9
$PUCSORGBACK
 10
0.0
 20
0.0
 30
0.0
  9
$USERI1
 70
     0
  9
$USERI2
 70
     0
  9
$USERI3
 70
     0
  9
$USERI4
 70
     0
  9
$USERI5
 70
     0
  9
$USERR1
 40
0.0
  9
$USERR2
 40
0.0
  9
$USERR3
 40
0.0
  9
$USERR4
 40
0.0
  9
$USERR5
 40
0.0
  9
$WORLDVIEW
 70
     1
  9
$SHADEDGE
 70
     3
  9
$SHADEDIF
 70
    70
  9
$TILEMODE
 70
     1
  9
$MAXACTVP
 70
    48
  9
$PINSBASE
 10
0.0
 20
0.0
 30
0.0
  9
$PLIMCHECK
 70
     0
  9
$PEXTMIN
 10
1.000000000000000E+20
 20
1.000000000000000E+20
 30
1.000000000000000E+20
  9
$PEXTMAX
 10
-1.000000000000000E+20
 20
-1.000000000000000E+20
 30
-1.000000000000000E+20
  9
$PLIMMIN
 10
0.0
 20
0.0
  9
$PLIMMAX
 10
12.0
 20
9.0
  9
$UNITMODE
 70
     0
  9
$VISRETAIN
 70
     1
  9
$PLINEGEN
 70
     0
  9
$PSLTSCALE
 70
     1
  9
$TREEDEPTH
 70
  3020
  9
$CMLSTYLE
  2
STANDARD
  9
$CMLJUST
 70
     0
  9
$CMLSCALE
 40
1.0
  9
$PROXYGRAPHICS
 70
     1
  9
$MEASUREMENT
 70
     0
  9
$CELWEIGHT
370
    -1
  9
$ENDCAPS
280
     0
  9
$JOINSTYLE
280
     0
  9
$LWDISPLAY
290
     0
  9
$INSUNITS
 70
     0
  9
$HYPERLINKBASE
  1

  9
$STYLESHEET
  1

  9
$XEDIT
290
     1
  9
$CEPSNTYPE
380
     0
  9
$PSTYLEMODE
290
     1
  9
$FINGERPRINTGUID
  2
{1754B7AB-9B3C-11D4-AD9E-00104B1004F2}
  9
$VERSIONGUID
  2
{6EFE6862-0EB5-4905-8AB6-AA195C5E909D}
  9
$EXTNAMES
290
     1
  9
$PSVPSCALE
 40
0.0
  9
$OLESTARTUP
290
     0
  0
ENDSEC
  0
SECTION
  2
CLASSES
  0
CLASS
  1
ACDBDICTIONARYWDFLT
  2
AcDbDictionaryWithDefault
  3
ObjectDBX Classes
 90
        0
280
     0
281
     0
  0
CLASS
  1
ACDBPLACEHOLDER
  2
AcDbPlaceHolder
  3
ObjectDBX Classes
 90
        0
280
     0
281
     0
  0
CLASS
  1
LAYOUT
  2
AcDbLayout
  3
ObjectDBX Classes
 90
        0
280
     0
281
     0
  0
CLASS
  1
DICTIONARYVAR
  2
AcDbDictionaryVar
  3
ObjectDBX Classes
 90
        0
280
     0
281
     0
  0
CLASS
  1
SORTENTSTABLE
  2
AcDbSortentsTable
  3
ObjectDBX Classes
 90
    32768
280
     0
281
     0
  0
ENDSEC
  0
SECTION
  2
TABLES
  0
TABLE
  2
VPORT
  5
20
330
0
100
AcDbSymbolTable
 70
     2
  0
VPORT
  5
203
330
20
100
AcDbSymbolTableRecord
100
AcDbViewportTableRecord
  2
*Active
 70
     0
 10
0.0
 20
0.0
 11
1.0
 21
1.0
 12
-2.985348568911771
 22
-1.558278179199696
 13
0.0
 23
0.0
 14
1.0
 24
1.0
 15
0.0
 25
0.0
 16
0.0
 26
0.0
 36
1.0
 17
0.0
 27
0.0
 37
0.0
 40
113.6027420736934
 41
1.504504504504504
 42
50.0
 43
0.0
 44
0.0
 50
0.0
 51
0.0
 71
     0
 72
 10000
 73
     1
 74
     0
 75
     0
 76
     1
 77
     0
 78
     0
281
     0
 65
     1
110
0.0
120
0.0
130
0.0
111
1.0
121
0.0
131
0.0
112
0.0
122
1.0
132
0.0
 79
     0
146
0.0
  0
ENDTAB
  0
TABLE
  2
LTYPE
  5
1B
330
0
100
AcDbSymbolTable
 70
     1
  0
LTYPE
  5
1C
330
1B
100
AcDbSymbolTableRecord
100
AcDbLinetypeTableRecord
  2
BYBLOCK
 70
     0
  3

 72
    65
 73
     0
 40
0.0
  0
LTYPE
  5
1D
330
1B
100
AcDbSymbolTableRecord
100
AcDbLinetypeTableRecord
  2
BYLAYER
 70
     0
  3

 72
    65
 73
     0
 40
0.0
  0
LTYPE
  5
A
330
1B
100
AcDbSymbolTableRecord
100
AcDbLinetypeTableRecord
  2
CONTINUOUS
 70
     0
  3
Solid line
 72
    65
 73
     0
 40
0.0
  0
ENDTAB
  0
TABLE
  2
LAYER
  5
14
102
{ACAD_XDICTIONARY
360
15
102
}
330
0
100
AcDbSymbolTable
 70
     7
  0
LAYER
  5
6
330
14
100
AcDbSymbolTableRecord
100
AcDbLayerTableRecord
  2
0
 70
     0
 62
     7
  6
CONTINUOUS
370
    -3
390
7
  0
LAYER
  5
18B
330
14
100
AcDbSymbolTableRecord
100
AcDbLayerTableRecord
  2
DEFPOINTS
 70
     0
 62
     7
  6
CONTINUOUS
290
     0
370
    -3
390
7
  0
LAYER
  5
1AA
330
14
100
AcDbSymbolTableRecord
100
AcDbLayerTableRecord
  2
WAKU
 70
     0
 62
     4
  6
CONTINUOUS
370
    -3
390
7
  0
LAYER
  5
35
330
14
100
AcDbSymbolTableRecord
100
AcDbLayerTableRecord
  2
MOJI1
 70
     0
 62
     2
  6
CONTINUOUS
370
    -3
390
7
  0
LAYER
  5
3A
330
14
100
AcDbSymbolTableRecord
100
AcDbLayerTableRecord
  2
GAIKEI
 70
     0
 62
     7
  6
CONTINUOUS
370
    -3
390
7
  0
LAYER
  5
38
330
14
100
AcDbSymbolTableRecord
100
AcDbLayerTableRecord
  2
TOUROKU
 70
     0
 62
     1
  6
CONTINUOUS
370
    -3
390
7
  0
LAYER
  5
32
330
14
100
AcDbSymbolTableRecord
100
AcDbLayerTableRecord
  2
SUNPO
 70
     0
 62
     3
  6
CONTINUOUS
370
    -3
390
7
  0
ENDTAB
  0
TABLE
  2
STYLE
  5
18
330
0
100
AcDbSymbolTable
 70
     2
  0
STYLE
  5
19
330
18
100
AcDbSymbolTableRecord
100
AcDbTextStyleTableRecord
  2
STANDARD
 70
     0
 40
0.0
 41
1.0
 50
0.0
 71
     0
 42
3.0
  3
MONOTXT.shx
  4
BIGFONT.shx
  0
STYLE
  5
36
330
18
100
AcDbSymbolTableRecord
100
AcDbTextStyleTableRecord
  2
KANJI
 70
     0
 40
0.0
 41
1.0
 50
0.0
 71
     0
 42
3.5
  3
MONOTXT
  4
BIGFONT
  0
ENDTAB
  0
TABLE
  2
VIEW
  5
1E
330
0
100
AcDbSymbolTable
 70
     0
  0
ENDTAB
  0
TABLE
  2
UCS
  5
1F
330
0
100
AcDbSymbolTable
 70
     0
  0
ENDTAB
  0
TABLE
  2
APPID
  5
22
330
0
100
AcDbSymbolTable
 70
     1
  0
APPID
  5
23
330
22
100
AcDbSymbolTableRecord
100
AcDbRegAppTableRecord
  2
ACAD
 70
     0
  0
ENDTAB
  0
TABLE
  2
DIMSTYLE
  5
24
330
0
100
AcDbSymbolTable
 70
     1
100
AcDbDimStyleTable
 71
     1
340
25
  0
DIMSTYLE
105
25
102
{ACAD_REACTORS
330
19C
330
18F
330
181
102
}
330
24
100
AcDbSymbolTableRecord
100
AcDbDimStyleTableRecord
  2
STANDARD
 70
     0
 40
0.0
 41
2.0
 42
2.0
 43
8.0
 44
2.0
 73
     0
 74
     0
 77
     3
140
3.0
141
0.0
173
     1
279
     2
288
     1
340
19
341
26
343
26
344
26
  0
ENDTAB
  0
TABLE
  2
BLOCK_RECORD
  5
1
330
0
100
AcDbSymbolTable
 70
     7
  0
BLOCK_RECORD
  5
2
102
{ACAD_XDICTIONARY
360
3
102
}
330
1
100
AcDbSymbolTableRecord
100
AcDbBlockTableRecord
  2
*MODEL_SPACE
340
C
  0
BLOCK_RECORD
  5
E
102
{ACAD_XDICTIONARY
360
F
102
}
330
1
100
AcDbSymbolTableRecord
100
AcDbBlockTableRecord
  2
*PAPER_SPACE
340
13
  0
BLOCK_RECORD
  5
26
330
1
100
AcDbSymbolTableRecord
100
AcDbBlockTableRecord
  2
_OPEN30
340
0
102
{BLKREFS
331
1A2
331
1A3
331
195
331
196
331
187
331
188
331
1E3
331
1E4
331
1EF
331
1F0
331
1FB
331
1FC
102
}
  0
BLOCK_RECORD
  5
19D
330
1
100
AcDbSymbolTableRecord
100
AcDbBlockTableRecord
  2
*D1
340
0
  0
BLOCK_RECORD
  5
190
330
1
100
AcDbSymbolTableRecord
100
AcDbBlockTableRecord
  2
*D2
340
0
  0
BLOCK_RECORD
  5
182
330
1
100
AcDbSymbolTableRecord
100
AcDbBlockTableRecord
  2
*D3
340
0
  0
BLOCK_RECORD
  5
1DF
330
1
100
AcDbSymbolTableRecord
100
AcDbBlockTableRecord
  2
*D4
340
0
  0
BLOCK_RECORD
  5
1EB
330
1
100
AcDbSymbolTableRecord
100
AcDbBlockTableRecord
  2
*D5
340
0
  0
BLOCK_RECORD
  5
1F7
330
1
100
AcDbSymbolTableRecord
100
AcDbBlockTableRecord
  2
*D6
340
0
  0
ENDTAB
  0
ENDSEC
  0
SECTION
  2
BLOCKS
  0
BLOCK
  5
5
330
2
100
AcDbEntity
  8
0
100
AcDbBlockBegin
  2
*MODEL_SPACE
 70
     0
 10
0.0
 20
0.0
 30
0.0
  3
*MODEL_SPACE
  1

  0
ENDBLK
  5
B
330
2
100
AcDbEntity
  8
0
100
AcDbBlockEnd
  0
BLOCK
  5
11
330
E
100
AcDbEntity
 67
     1
  8
0
100
AcDbBlockBegin
  2
*PAPER_SPACE
 70
     0
 10
0.0
 20
0.0
 30
0.0
  3
*PAPER_SPACE
  1

  0
ENDBLK
  5
12
330
E
100
AcDbEntity
 67
     1
  8
0
100
AcDbBlockEnd
  0
BLOCK
  5
27
330
26
100
AcDbEntity
  8
0
100
AcDbBlockBegin
  2
_OPEN30
 70
     0
 10
0.0
 20
0.0
 30
0.0
  3
_OPEN30
  1

  0
LINE
  5
28
330
26
100
AcDbEntity
  8
0
  6
ByBlock
 62
     0
100
AcDbLine
 10
-1.0
 20
0.26794919
 30
0.0
 11
0.0
 21
0.0
 31
0.0
  0
LINE
  5
29
330
26
100
AcDbEntity
  8
0
  6
ByBlock
 62
     0
100
AcDbLine
 10
0.0
 20
0.0
 30
0.0
 11
-1.0
 21
-0.26794919
 31
0.0
  0
LINE
  5
2A
330
26
100
AcDbEntity
  8
0
  6
ByBlock
 62
     0
100
AcDbLine
 10
0.0
 20
0.0
 30
0.0
 11
-1.0
 21
0.0
 31
0.0
  0
ENDBLK
  5
2B
330
26
100
AcDbEntity
  8
0
100
AcDbBlockEnd
  0
BLOCK
  5
19E
330
19D
100
AcDbEntity
  8
0
100
AcDbBlockBegin
  2
*D1
 70
     1
 10
0.0
 20
0.0
 30
0.0
  3
*D1
  1

  0
LINE
  5
19F
330
19D
100
AcDbEntity
  8
SUNPO
 62
     0
370
    -2
100
AcDbLine
 10
151.1655547248791
 20
350.6695885544171
 30
0.0
 11
151.1655547248791
 21
358.6695885544171
 31
0.0
  0
LINE
  5
1A0
330
19D
100
AcDbEntity
  8
SUNPO
 62
     0
370
    -2
100
AcDbLine
 10
188.1655547248791
 20
350.6695885544171
 30
0.0
 11
188.1655547248791
 21
358.6695885544171
 31
0.0
  0
LINE
  5
1A1
330
19D
100
AcDbEntity
  8
SUNPO
 62
     0
370
    -2
100
AcDbLine
 10
153.1655547248791
 20
356.6695885544171
 30
0.0
 11
186.1655547248791
 21
356.6695885544171
 31
0.0
  0
INSERT
  5
1A2
330
19D
100
AcDbEntity
  8
SUNPO
 62
     0
370
    -2
100
AcDbBlockReference
  2
_OPEN30
 10
151.1655547248791
 20
356.6695885544171
 30
0.0
 41
2.0
 42
2.0
 43
2.0
 50
180.0
  0
INSERT
  5
1A3
330
19D
100
AcDbEntity
  8
SUNPO
 62
     0
370
    -2
100
AcDbBlockReference
  2
_OPEN30
 10
188.1655547248791
 20
356.6695885544171
 30
0.0
 41
2.0
 42
2.0
 43
2.0
  0
MTEXT
  5
1A4
330
19D
100
AcDbEntity
  8
SUNPO
 62
     0
100
AcDbMText
 10
169.6655547248791
 20
358.4195885544172
 30
0.0
 40
2.5
 41
0.0
 71
     5
 72
     1
  1
\A1;φ185
 73
     1
 44
1.0
1001
ACAD
1000
MTEXTBEGIN
1070
    73
1070
     1
1070
    44
1040
1.0
1070
    74
1070
     0
1000
MTEXTEND
  0
POINT
  5
1A5
330
19D
100
AcDbEntity
  8
DEFPOINTS
 62
     0
100
AcDbPoint
 10
151.1655547248791
 20
348.6695885544171
 30
0.0
  0
POINT
  5
1A6
330
19D
100
AcDbEntity
  8
DEFPOINTS
 62
     0
100
AcDbPoint
 10
188.1655547248791
 20
348.6695885544171
 30
0.0
  0
POINT
  5
1A7
330
19D
100
AcDbEntity
  8
DEFPOINTS
 62
     0
100
AcDbPoint
 10
188.1655547248791
 20
356.6695885544171
 30
0.0
  0
ENDBLK
  5
1A8
330
19D
100
AcDbEntity
  8
0
100
AcDbBlockEnd
  0
BLOCK
  5
191
330
190
100
AcDbEntity
  8
0
100
AcDbBlockBegin
  2
*D2
 70
     1
 10
0.0
 20
0.0
 30
0.0
  3
*D2
  1

  0
LINE
  5
192
330
190
100
AcDbEntity
  8
SUNPO
 62
     0
370
    -2
100
AcDbLine
 10
190.1667872735563
 20
348.6652312659698
 30
0.0
 11
198.1667872735563
 21
348.6652312659698
 31
0.0
  0
LINE
  5
193
330
190
100
AcDbEntity
  8
SUNPO
 62
     0
370
    -2
100
AcDbLine
 10
190.1667872735563
 20
317.8652312659699
 30
0.0
 11
198.1667872735563
 21
317.8652312659699
 31
0.0
  0
LINE
  5
194
330
190
100
AcDbEntity
  8
SUNPO
 62
     0
370
    -2
100
AcDbLine
 10
196.1667872735563
 20
346.6652312659698
 30
0.0
 11
196.1667872735563
 21
319.8652312659699
 31
0.0
  0
INSERT
  5
195
330
190
100
AcDbEntity
  8
SUNPO
 62
     0
370
    -2
100
AcDbBlockReference
  2
_OPEN30
 10
196.1667872735563
 20
348.6652312659698
 30
0.0
 41
2.0
 42
2.0
 43
2.0
 50
90.0
  0
INSERT
  5
196
330
190
100
AcDbEntity
  8
SUNPO
 62
     0
370
    -2
100
AcDbBlockReference
  2
_OPEN30
 10
196.1667872735563
 20
317.8652312659699
 30
0.0
 41
2.0
 42
2.0
 43
2.0
 50
270.0
  0
MTEXT
  5
197
330
190
100
AcDbEntity
  8
SUNPO
 62
     0
100
AcDbMText
 10
194.4167872735563
 20
333.2652312659699
 30
0.0
 40
2.5
 41
0.0
 71
     5
 72
     1
  1
\A1;154
 11
0.0000000000000001
 21
1.0
 31
0.0
 73
     1
 44
1.0
1001
ACAD
1000
MTEXTBEGIN
1070
    73
1070
     1
1070
    44
1040
1.0
1070
    74
1070
     0
1000
MTEXTEND
  0
POINT
  5
198
330
190
100
AcDbEntity
  8
DEFPOINTS
 62
     0
100
AcDbPoint
 10
188.1667872735563
 20
348.6652312659698
 30
0.0
  0
POINT
  5
199
330
190
100
AcDbEntity
  8
DEFPOINTS
 62
     0
100
AcDbPoint
 10
188.1667872735563
 20
317.8652312659699
 30
0.0
  0
POINT
  5
19A
330
190
100
AcDbEntity
  8
DEFPOINTS
 62
     0
100
AcDbPoint
 10
196.1667872735563
 20
317.8652312659699
 30
0.0
  0
ENDBLK
  5
19B
330
190
100
AcDbEntity
  8
0
100
AcDbBlockEnd
  0
BLOCK
  5
183
330
182
100
AcDbEntity
  8
0
100
AcDbBlockBegin
  2
*D3
 70
     1
 10
0.0
 20
0.0
 30
0.0
  3
*D3
  1

  0
LINE
  5
184
330
182
100
AcDbEntity
  8
SUNPO
 62
     0
370
    -2
100
AcDbLine
 10
158.1655587290235
 20
315.8627446889687
 30
0.0
 11
158.1655587290235
 21
307.8627446889687
 31
0.0
  0
LINE
  5
185
330
182
100
AcDbEntity
  8
SUNPO
 62
     0
370
    -2
100
AcDbLine
 10
181.1655507206943
 20
315.8627446889687
 30
0.0
 11
181.1655507206943
 21
307.8627446889687
 31
0.0
  0
LINE
  5
186
330
182
100
AcDbEntity
  8
SUNPO
 62
     0
370
    -2
100
AcDbLine
 10
160.1655587290235
 20
309.8627446889687
 30
0.0
 11
179.1655507206943
 21
309.8627446889687
 31
0.0
  0
INSERT
  5
187
330
182
100
AcDbEntity
  8
SUNPO
 62
     0
370
    -2
100
AcDbBlockReference
  2
_OPEN30
 10
158.1655587290235
 20
309.8627446889687
 30
0.0
 41
2.0
 42
2.0
 43
2.0
 50
180.0
  0
INSERT
  5
188
330
182
100
AcDbEntity
  8
SUNPO
 62
     0
370
    -2
100
AcDbBlockReference
  2
_OPEN30
 10
181.1655507206943
 20
309.8627446889687
 30
0.0
 41
2.0
 42
2.0
 43
2.0
  0
MTEXT
  5
189
330
182
100
AcDbEntity
  8
SUNPO
 62
     0
100
AcDbMText
 10
169.6655547248589
 20
311.6127446889687
 30
0.0
 40
2.5
 41
0.0
 71
     5
 72
     1
  1
\A1;φ115
 73
     1
 44
1.0
1001
ACAD
1000
MTEXTBEGIN
1070
    73
1070
     1
1070
    44
1040
1.0
1070
    74
1070
     0
1000
MTEXTEND
  0
POINT
  5
18A
330
182
100
AcDbEntity
  8
DEFPOINTS
 62
     0
100
AcDbPoint
 10
158.1655587290235
 20
317.8627446889688
 30
0.0
  0
POINT
  5
18C
330
182
100
AcDbEntity
  8
DEFPOINTS
 62
     0
100
AcDbPoint
 10
181.1655507206943
 20
317.8627446889687
 30
0.0
  0
POINT
  5
18D
330
182
100
AcDbEntity
  8
DEFPOINTS
 62
     0
100
AcDbPoint
 10
181.1655507206943
 20
309.8627446889687
 30
0.0
  0
ENDBLK
  5
18E
330
182
100
AcDbEntity
  8
0
100
AcDbBlockEnd
  0
BLOCK
  5
1E9
330
1DF
100
AcDbEntity
  8
0
100
AcDbBlockBegin
  2
*D4
 70
     1
 10
0.0
 20
0.0
 30
0.0
  3
*D4
  1

  0
LINE
  5
1E0
330
1DF
100
AcDbEntity
  8
SUNPO
 62
     0
370
    -2
100
AcDbLine
 10
-45.31979384403245
 20
35.24542956890889
 30
0.0
 11
-45.31979384403245
 21
43.24542956890889
 31
0.0
  0
LINE
  5
1E1
330
1DF
100
AcDbEntity
  8
SUNPO
 62
     0
370
    -2
100
AcDbLine
 10
-8.31979384403246
 20
35.24542956890889
 30
0.0
 11
-8.31979384403246
 21
43.24542956890889
 31
0.0
  0
LINE
  5
1E2
330
1DF
100
AcDbEntity
  8
SUNPO
 62
     0
370
    -2
100
AcDbLine
 10
-43.31979384403246
 20
41.24542956890889
 30
0.0
 11
-10.31979384403246
 21
41.24542956890889
 31
0.0
  0
INSERT
  5
1E3
330
1DF
100
AcDbEntity
  8
SUNPO
 62
     0
370
    -2
100
AcDbBlockReference
  2
_OPEN30
 10
-45.31979384403245
 20
41.24542956890889
 30
0.0
 41
2.0
 42
2.0
 43
2.0
 50
180.0
  0
INSERT
  5
1E4
330
1DF
100
AcDbEntity
  8
SUNPO
 62
     0
370
    -2
100
AcDbBlockReference
  2
_OPEN30
 10
-8.31979384403246
 20
41.24542956890889
 30
0.0
 41
2.0
 42
2.0
 43
2.0
  0
MTEXT
  5
1E5
330
1DF
100
AcDbEntity
  8
SUNPO
 62
     0
100
AcDbMText
 10
-26.81979384403246
 20
42.99542956890888
 30
0.0
 40
2.5
 41
0.0
 71
     5
 72
     1
  1
\A1;φ185
 73
     1
 44
1.0
1001
ACAD
1000
MTEXTBEGIN
1070
    73
1070
     1
1070
    44
1040
1.0
1070
    74
1070
     0
1000
MTEXTEND
  0
POINT
  5
1E6
330
1DF
100
AcDbEntity
  8
DEFPOINTS
 62
     0
100
AcDbPoint
 10
-45.31979384403245
 20
33.24542956890889
 30
0.0
  0
POINT
  5
1E7
330
1DF
100
AcDbEntity
  8
DEFPOINTS
 62
     0
100
AcDbPoint
 10
-8.31979384403246
 20
33.24542956890889
 30
0.0
  0
POINT
  5
1E8
330
1DF
100
AcDbEntity
  8
DEFPOINTS
 62
     0
100
AcDbPoint
 10
-8.31979384403246
 20
41.24542956890889
 30
0.0
  0
ENDBLK
  5
1EA
330
1DF
100
AcDbEntity
  8
0
100
AcDbBlockEnd
  0
BLOCK
  5
1F5
330
1EB
100
AcDbEntity
  8
0
100
AcDbBlockBegin
  2
*D5
 70
     1
 10
0.0
 20
0.0
 30
0.0
  3
*D5
  1

  0
LINE
  5
1EC
330
1EB
100
AcDbEntity
  8
SUNPO
 62
     0
370
    -2
100
AcDbLine
 10
-6.318561295355266
 20
33.24107228046154
 30
0.0
 11
1.68143870464474
 21
33.24107228046154
 31
0.0
  0
LINE
  5
1ED
330
1EB
100
AcDbEntity
  8
SUNPO
 62
     0
370
    -2
100
AcDbLine
 10
-6.318561295355265
 20
2.441072280461639
 30
0.0
 11
1.681438704644734
 21
2.441072280461637
 31
0.0
  0
LINE
  5
1EE
330
1EB
100
AcDbEntity
  8
SUNPO
 62
     0
370
    -2
100
AcDbLine
 10
-0.3185612953552599
 20
31.24107228046154
 30
0.0
 11
-0.3185612953552659
 21
4.441072280461638
 31
0.0
  0
INSERT
  5
1EF
330
1EB
100
AcDbEntity
  8
SUNPO
 62
     0
370
    -2
100
AcDbBlockReference
  2
_OPEN30
 10
-0.3185612953552595
 20
33.24107228046154
 30
0.0
 41
2.0
 42
2.0
 43
2.0
 50
90.0
  0
INSERT
  5
1F0
330
1EB
100
AcDbEntity
  8
SUNPO
 62
     0
370
    -2
100
AcDbBlockReference
  2
_OPEN30
 10
-0.3185612953552663
 20
2.441072280461637
 30
0.0
 41
2.0
 42
2.0
 43
2.0
 50
270.0
  0
MTEXT
  5
1F1
330
1EB
100
AcDbEntity
  8
SUNPO
 62
     0
100
AcDbMText
 10
-2.068561295355266
 20
17.84107228046159
 30
0.0
 40
2.5
 41
0.0
 71
     5
 72
     1
  1
\A1;154
 11
0.0000000000000001
 21
1.0
 31
0.0
 73
     1
 44
1.0
1001
ACAD
1000
MTEXTBEGIN
1070
    73
1070
     1
1070
    44
1040
1.0
1070
    74
1070
     0
1000
MTEXTEND
  0
POINT
  5
1F2
330
1EB
100
AcDbEntity
  8
DEFPOINTS
 62
     0
100
AcDbPoint
 10
-8.318561295355266
 20
33.24107228046154
 30
0.0
  0
POINT
  5
1F3
330
1EB
100
AcDbEntity
  8
DEFPOINTS
 62
     0
100
AcDbPoint
 10
-8.318561295355266
 20
2.441072280461639
 30
0.0
  0
POINT
  5
1F4
330
1EB
100
AcDbEntity
  8
DEFPOINTS
 62
     0
100
AcDbPoint
 10
-0.3185612953552663
 20
2.441072280461637
 30
0.0
  0
ENDBLK
  5
1F6
330
1EB
100
AcDbEntity
  8
0
100
AcDbBlockEnd
  0
BLOCK
  5
201
330
1F7
100
AcDbEntity
  8
0
100
AcDbBlockBegin
  2
*D6
 70
     1
 10
0.0
 20
0.0
 30
0.0
  3
*D6
  1

  0
LINE
  5
1F8
330
1F7
100
AcDbEntity
  8
SUNPO
 62
     0
370
    -2
100
AcDbLine
 10
-38.31978983988808
 20
0.4385857034604897
 30
0.0
 11
-38.31978983988808
 21
-7.561414296539567
 31
0.0
  0
LINE
  5
1F9
330
1F7
100
AcDbEntity
  8
SUNPO
 62
     0
370
    -2
100
AcDbLine
 10
-15.31979784821732
 20
0.4385857034604328
 30
0.0
 11
-15.31979784821732
 21
-7.561414296539567
 31
0.0
  0
LINE
  5
1FA
330
1F7
100
AcDbEntity
  8
SUNPO
 62
     0
370
    -2
100
AcDbLine
 10
-36.31978983988807
 20
-5.561414296539567
 30
0.0
 11
-17.31979784821732
 21
-5.561414296539567
 31
0.0
  0
INSERT
  5
1FB
330
1F7
100
AcDbEntity
  8
SUNPO
 62
     0
370
    -2
100
AcDbBlockReference
  2
_OPEN30
 10
-38.31978983988808
 20
-5.561414296539567
 30
0.0
 41
2.0
 42
2.0
 43
2.0
 50
180.0
  0
INSERT
  5
1FC
330
1F7
100
AcDbEntity
  8
SUNPO
 62
     0
370
    -2
100
AcDbBlockReference
  2
_OPEN30
 10
-15.31979784821732
 20
-5.561414296539567
 30
0.0
 41
2.0
 42
2.0
 43
2.0
  0
MTEXT
  5
1FD
330
1F7
100
AcDbEntity
  8
SUNPO
 62
     0
100
AcDbMText
 10
-26.8197938440527
 20
-3.811414296539567
 30
0.0
 40
2.5
 41
0.0
 71
     5
 72
     1
  1
\A1;φ115
 73
     1
 44
1.0
1001
ACAD
1000
MTEXTBEGIN
1070
    73
1070
     1
1070
    44
1040
1.0
1070
    74
1070
     0
1000
MTEXTEND
  0
POINT
  5
1FE
330
1F7
100
AcDbEntity
  8
DEFPOINTS
 62
     0
100
AcDbPoint
 10
-38.31978983988808
 20
2.438585703460489
 30
0.0
  0
POINT
  5
1FF
330
1F7
100
AcDbEntity
  8
DEFPOINTS
 62
     0
100
AcDbPoint
 10
-15.31979784821732
 20
2.438585703460432
 30
0.0
  0
POINT
  5
200
330
1F7
100
AcDbEntity
  8
DEFPOINTS
 62
     0
100
AcDbPoint
 10
-15.31979784821732
 20
-5.561414296539567
 30
0.0
  0
ENDBLK
  5
202
330
1F7
100
AcDbEntity
  8
0
100
AcDbBlockEnd
  0
ENDSEC
  0
SECTION
  2
ENTITIES
  0
TEXT
  5
34
330
2
100
AcDbEntity
  8
MOJI1
100
AcDbText
 10
-38.48534856891161
 20
51.07505515413368
 30
0.0
 40
4.0
  1
ネットワークカメラ
  7
KANJI
100
AcDbText
  0
TEXT
  5
37
330
2
100
AcDbEntity
  8
TOUROKU
100
AcDbText
 10
40.98126813068236
 20
45.07505515413344
 30
0.0
 40
2.0
  1
ＤＧＮＳ２０２Ａ
 72
     2
 11
59.51460146401569
 21
45.07505515413344
 31
0.0
100
AcDbText
  0
ARC
  5
39
330
2
100
AcDbEntity
  8
GAIKEI
100
AcDbCircle
 10
-26.81979384405264
 20
12.66293775447019
 30
0.0
 40
10.22186547400854
100
AcDbArc
 50
251.3378853619752
 51
288.6621146380232
  0
LINE
  5
3B
330
2
100
AcDbEntity
  8
GAIKEI
100
AcDbLine
 10
-29.36423472201255
 20
2.780602697184804
 30
0.0
 11
-30.19065384403251
 21
2.780602697184804
 31
0.0
  0
ELLIPSE
  5
3C
330
2
100
AcDbEntity
  8
GAIKEI
 62
     1
100
AcDbEllipse
 10
-26.84893384405262
 20
8.506072280451576
 30
0.0
 11
-3.2
 21
0.0000000000099988
 31
0.0
210
0.0
220
0.0
230
1.0
 40
0.8660254037843735
 41
0.0
 42
6.283185307179586
  0
LINE
  5
3D
330
2
100
AcDbEntity
  8
GAIKEI
 62
     1
100
AcDbLine
 10
-30.09065384405273
 20
17.94304729604817
 30
0.0
 11
-30.09065384405273
 21
2.880602697161577
 31
0.0
  0
ARC
  5
3E
330
2
100
AcDbEntity
  8
GAIKEI
100
AcDbCircle
 10
-30.19065384403251
 20
2.880602735884792
 30
0.0
 40
0.1000000000000188
100
AcDbArc
 50
270.0000000737946
 51
359.9999778265236
  0
ARC
  5
3F
330
2
100
AcDbEntity
  8
GAIKEI
 62
     1
100
AcDbCircle
 10
-27.7831457844481
 20
17.83376437942036
 30
0.0
 40
2.310094413872915
100
AcDbArc
 50
107.4444604682055
 51
177.2885144203068
  0
ARC
  5
40
330
2
100
AcDbEntity
  8
GAIKEI
 62
     1
100
AcDbCircle
 10
-26.87365751562305
 20
16.57379754564238
 30
0.0
 40
3.816340708503203
100
AcDbArc
 50
89.62881407816411
 51
114.8204933765232
  0
ARC
  5
41
330
2
100
AcDbEntity
  8
GAIKEI
 62
     1
100
AcDbCircle
 10
-54.62623391224553
 20
13.72601698051824
 30
0.0
 40
24.53568436257004
100
AcDbArc
 50
359.4120234993543
 51
12.26506515203525
  0
ARC
  5
42
330
2
100
AcDbEntity
  8
GAIKEI
 62
     1
100
AcDbCircle
 10
314.261073671781
 20
85.04326883873705
 30
0.0
 40
351.1892876379805
100
AcDbArc
 50
190.4681385037854
 51
190.8496172462178
  0
ARC
  5
43
330
2
100
AcDbEntity
  8
GAIKEI
 62
     1
100
AcDbCircle
 10
-29.66205610535514
 20
21.5902379706618
 30
0.0
 40
1.464451838344886
100
AcDbArc
 50
112.7717633071481
 51
193.9926894507511
  0
ARC
  5
44
330
2
100
AcDbEntity
  8
GAIKEI
 62
     1
100
AcDbCircle
 10
-26.83829590868004
 20
14.72426055448142
 30
0.0
 40
8.888385362004683
100
AcDbArc
 50
90.06857364079854
 51
112.4243516601303
  0
LINE
  5
45
330
2
100
AcDbEntity
  8
GAIKEI
100
AcDbLine
 10
-31.99065384403247
 20
3.599209845304756
 30
0.0
 11
-31.99065384403247
 21
21.61756338084479
 31
0.0
  0
ARC
  5
46
330
2
100
AcDbEntity
  8
GAIKEI
100
AcDbCircle
 10
-30.09162075393107
 20
21.61780146169309
 30
0.0
 40
1.899033105025448
100
AcDbArc
 50
124.6493414008169
 51
180.0071831437751
  0
ARC
  5
47
330
2
100
AcDbEntity
  8
GAIKEI
100
AcDbCircle
 10
-27.88002945277611
 20
17.93679855173929
 30
0.0
 40
6.190648626005991
100
AcDbArc
 50
101.2872859610508
 51
122.1173648010642
  0
ARC
  5
48
330
2
100
AcDbEntity
  8
GAIKEI
100
AcDbCircle
 10
-26.87885377276416
 20
13.63462733081729
 30
0.0
 40
10.60648715044067
100
AcDbArc
 50
89.83837363974179
 51
102.0422493800672
  0
ARC
  5
49
330
2
100
AcDbEntity
  8
GAIKEI
100
AcDbCircle
 10
-26.63887106063607
 20
12.9041478804117
 30
0.0
 40
10.7342186859821
100
AcDbArc
 50
219.4876380092284
 51
250.4903209999121
  0
ARC
  5
4A
330
2
100
AcDbEntity
  8
GAIKEI
100
AcDbCircle
 10
-26.5945423721401
 20
12.86839002963705
 30
0.0
 40
10.7458358413249
100
AcDbArc
 50
198.5990229012065
 51
219.1901927291276
  0
LINE
  5
4B
330
2
100
AcDbEntity
  8
GAIKEI
 62
     1
100
AcDbLine
 10
-36.77916457113275
 20
9.441079335741562
 30
0.0
 11
-36.77903805005275
 21
12.84107228046156
 31
0.0
  0
ARC
  5
4C
330
2
100
AcDbEntity
  8
GAIKEI
100
AcDbCircle
 10
-26.55492054608789
 20
12.87787160194466
 30
0.0
 40
10.78645489349826
100
AcDbArc
 50
180.195471998988
 51
198.0201159147267
  0
LINE
  5
4D
330
2
100
AcDbEntity
  8
GAIKEI
100
AcDbLine
 10
-36.8122778791257
 20
9.541072280461548
 30
0.0
 11
-36.77879161133268
 21
9.541072280461548
 31
0.0
  0
ARC
  5
4E
330
2
100
AcDbEntity
  8
GAIKEI
100
AcDbCircle
 10
-63.32657596591229
 20
14.3674064196494
 30
0.0
 40
26.03005195220135
100
AcDbArc
 50
356.6383971325302
 51
9.146862695462434
  0
ARC
  5
4F
330
2
100
AcDbEntity
  8
GAIKEI
100
AcDbCircle
 10
-2.481413018320154
 20
25.64190660650115
 30
0.0
 40
35.86335272838559
100
AcDbArc
 50
182.3984539370895
 51
191.4781771855466
  0
LINE
  5
50
330
2
100
AcDbEntity
  8
GAIKEI
100
AcDbLine
 10
-38.31334796769278
 20
24.14107228046157
 30
0.0
 11
-38.28428338481268
 21
24.14107228046157
 31
0.0
  0
ARC
  5
51
330
2
100
AcDbEntity
  8
GAIKEI
 62
     1
100
AcDbCircle
 10
-62.26659242121025
 20
16.67419112388688
 30
0.0
 40
25.1178241774564
100
AcDbArc
 50
9.54913758971487
 51
17.53301353220634
  0
ARC
  5
52
330
2
100
AcDbEntity
  8
GAIKEI
 62
     1
100
AcDbCircle
 10
-160.0152520758751
 20
-1.711693358504192
 30
0.0
 40
124.5768688040841
100
AcDbArc
 50
8.661317925549568
 51
10.43004777470367
  0
ARC
  5
53
330
2
100
AcDbEntity
  8
GAIKEI
 62
     1
100
AcDbCircle
 10
-64.32110621314291
 20
14.42172021870516
 30
0.0
 40
27.58738781771449
100
AcDbArc
 50
356.7153801921762
 51
5.464342448121404
  0
LINE
  5
54
330
2
100
AcDbEntity
  8
GAIKEI
100
AcDbLine
 10
-38.31565375663269
 20
24.24106818746168
 30
0.0
 11
-38.31978983988808
 21
25.18107228046154
 31
0.0
  0
LINE
  5
55
330
2
100
AcDbEntity
  8
GAIKEI
100
AcDbLine
 10
-38.31978983988808
 20
25.18107228046165
 30
0.0
 11
-15.31979784829928
 21
25.18107228046165
 31
0.0
  0
LINE
  5
56
330
2
100
AcDbEntity
  8
GAIKEI
 62
     1
100
AcDbLine
 10
-37.69065384405275
 20
25.2410722804616
 30
0.0
 11
-37.75065384405269
 21
25.18107228046165
 31
0.0
  0
ARC
  5
57
330
2
100
AcDbEntity
  8
GAIKEI
 62
     1
100
AcDbCircle
 10
-37.9906538440527
 20
25.34107228046162
 30
0.0
 40
0.0999999999999773
100
AcDbArc
 50
179.999999999987
 51
270.0000000000065
  0
LINE
  5
58
330
2
100
AcDbEntity
  8
GAIKEI
 62
     1
100
AcDbLine
 10
-38.11065384405271
 20
25.64107228046157
 30
0.0
 11
-38.11065384405271
 21
25.34107228046162
 31
0.0
  0
ARC
  5
59
330
2
100
AcDbEntity
  8
GAIKEI
100
AcDbCircle
 10
-38.65097646383248
 20
25.84107228046162
 30
0.0
 40
0.2000000000000455
100
AcDbArc
 50
199.2200769715077
 51
269.9999999999935
  0
ARC
  5
5A
330
2
100
AcDbEntity
  8
GAIKEI
100
AcDbCircle
 10
-34.59065384403215
 20
27.25662172260172
 30
0.0
 40
4.500000000000322
100
AcDbArc
 50
180.0
 51
199.2200769667026
  0
LINE
  5
5B
330
2
100
AcDbEntity
  8
GAIKEI
100
AcDbLine
 10
-39.09065384403249
 20
27.25662172260172
 30
0.0
 11
-39.09065384403249
 21
27.45194088620156
 31
0.0
  0
ARC
  5
5C
330
2
100
AcDbEntity
  8
GAIKEI
100
AcDbCircle
 10
-39.29065384403254
 20
27.45194088620156
 30
0.0
 40
0.2
100
AcDbArc
 50
0.0
 51
80.13950737010063
  0
LINE
  5
5D
330
2
100
AcDbEntity
  8
GAIKEI
 62
     1
100
AcDbLine
 10
-39.09065384403249
 20
27.62107228044818
 30
0.0
 11
-14.54893384403243
 21
27.62107228044818
 31
0.0
  0
ARC
  5
5E
330
2
100
AcDbEntity
  8
GAIKEI
100
AcDbCircle
 10
-36.51640719103267
 20
43.41262870058119
 30
0.0
 40
15.99999999999941
100
AcDbArc
 50
238.379400563698
 51
260.1395073701006
  0
ARC
  5
5F
330
2
100
AcDbEntity
  8
GAIKEI
100
AcDbCircle
 10
-44.80022224100849
 20
29.95832053485628
 30
0.0
 40
0.1999999999835659
100
AcDbArc
 50
185.0424510684741
 51
238.37940057086
  0
LINE
  5
60
330
2
100
AcDbEntity
  8
GAIKEI
100
AcDbLine
 10
-44.99944821099751
 20
29.94074177280083
 30
0.0
 11
-45.31979384403245
 21
32.94223332546164
 31
0.0
  0
LINE
  5
61
330
2
100
AcDbEntity
  8
GAIKEI
 62
     1
100
AcDbLine
 10
-44.90508065479247
 20
29.84107228043865
 30
0.0
 11
-8.73450703327245
 21
29.84107228043865
 31
0.0
  0
LINE
  5
62
330
2
100
AcDbEntity
  8
GAIKEI
100
AcDbLine
 10
-45.31979384403245
 20
32.94223332546164
 30
0.0
 11
-44.99052315143257
 21
33.24107228046159
 31
0.0
  0
LINE
  5
63
330
2
100
AcDbEntity
  8
GAIKEI
100
AcDbLine
 10
-44.99052315143257
 20
33.24107228046159
 30
0.0
 11
-8.648933844032455
 21
33.24107228046159
 31
0.0
  0
LINE
  5
64
330
2
100
AcDbEntity
  8
GAIKEI
 62
     1
100
AcDbLine
 10
-45.31979384403245
 20
32.94223332546164
 30
0.0
 11
-8.319793843992215
 21
32.94223332546164
 31
0.0
  0
LINE
  5
65
330
2
100
AcDbEntity
  8
GAIKEI
 62
     1
100
AcDbLine
 10
-41.55896490497247
 20
32.93634946242162
 30
0.0
 11
-41.43987954727248
 21
31.23517296826162
 31
0.0
  0
LINE
  5
66
330
2
100
AcDbEntity
  8
GAIKEI
 62
     1
100
AcDbLine
 10
-41.35499894307253
 20
32.92996407010162
 30
0.0
 11
-41.23677217879247
 21
31.24112501276159
 31
0.0
  0
ARC
  5
67
330
2
100
AcDbEntity
  8
GAIKEI
 62
     1
100
AcDbCircle
 10
-41.12564309502857
 20
31.25446686852809
 30
0.0
 40
0.3148282111029862
100
AcDbArc
 50
183.5135103964319
 51
222.8040864246993
  0
ARC
  5
68
330
2
100
AcDbEntity
  8
GAIKEI
 62
     1
100
AcDbCircle
 10
-41.69232477589895
 20
31.19475981723542
 30
0.0
 40
0.4579059948139692
100
AcDbArc
 50
346.6018618050386
 51
5.81143397512514
  0
ARC
  5
69
330
2
100
AcDbEntity
  8
GAIKEI
 62
     1
100
AcDbCircle
 10
-41.30842058668287
 20
31.08133021619597
 30
0.0
 40
0.0629740609859418
100
AcDbArc
 50
220.247691006269
 51
267.8213426182125
  0
ARC
  5
6A
330
2
100
AcDbEntity
  8
GAIKEI
 62
     1
100
AcDbCircle
 10
-41.31661968205475
 20
31.0769112859183
 30
0.0
 40
0.0587968843512716
100
AcDbArc
 50
275.6661245958905
 51
323.9614555970565
  0
ARC
  5
6B
330
2
100
AcDbEntity
  8
GAIKEI
 62
     1
100
AcDbCircle
 10
-41.38962319931891
 20
31.12854194812371
 30
0.0
 40
0.1482097866747372
100
AcDbArc
 50
324.4255394112553
 51
344.3880141141621
  0
ARC
  5
6C
330
2
100
AcDbEntity
  8
GAIKEI
 62
     1
100
AcDbCircle
 10
-41.09119844651894
 20
31.12876912030368
 30
0.0
 40
0.1482097866747372
100
AcDbArc
 50
324.4255394112553
 51
344.3880141141621
  0
ARC
  5
6D
330
2
100
AcDbEntity
  8
GAIKEI
 62
     1
100
AcDbCircle
 10
-41.01819492925478
 20
31.07713845809826
 30
0.0
 40
0.0587968843512716
100
AcDbArc
 50
275.6661245958905
 51
323.9614555970565
  0
ARC
  5
6E
330
2
100
AcDbEntity
  8
GAIKEI
 62
     1
100
AcDbCircle
 10
-41.00999583388289
 20
31.08155738837604
 30
0.0
 40
0.0629740609859418
100
AcDbArc
 50
220.247691006269
 51
267.8213426182125
  0
ARC
  5
6F
330
2
100
AcDbEntity
  8
GAIKEI
 62
     1
100
AcDbCircle
 10
-41.39390002309897
 20
31.1949869894155
 30
0.0
 40
0.4579059948139692
100
AcDbArc
 50
346.6018618050386
 51
5.81143397512514
  0
ARC
  5
70
330
2
100
AcDbEntity
  8
GAIKEI
 62
     1
100
AcDbCircle
 10
-40.8272183422286
 20
31.25469404070805
 30
0.0
 40
0.3148282111029862
100
AcDbArc
 50
183.5135103964319
 51
222.8040864246993
  0
LINE
  5
71
330
2
100
AcDbEntity
  8
GAIKEI
 62
     1
100
AcDbLine
 10
-41.05657419027255
 20
32.9301912422817
 30
0.0
 11
-40.9383474259925
 21
31.24135218494166
 31
0.0
  0
LINE
  5
72
330
2
100
AcDbEntity
  8
GAIKEI
 62
     1
100
AcDbLine
 10
-41.26054015217249
 20
32.93657663460158
 30
0.0
 11
-41.14145479447251
 21
31.23540014044158
 31
0.0
  0
LINE
  5
73
330
2
100
AcDbEntity
  8
GAIKEI
 62
     1
100
AcDbLine
 10
-40.95230804213253
 20
32.93681134208157
 30
0.0
 11
-40.83322268443254
 21
31.23563484792157
 31
0.0
  0
LINE
  5
74
330
2
100
AcDbEntity
  8
GAIKEI
 62
     1
100
AcDbLine
 10
-40.74834208023259
 20
32.93042594976169
 30
0.0
 11
-40.63011531595253
 21
31.24158689242165
 31
0.0
  0
ARC
  5
75
330
2
100
AcDbEntity
  8
GAIKEI
 62
     1
100
AcDbCircle
 10
-40.51898623218863
 20
31.25492874818804
 30
0.0
 40
0.3148282111029862
100
AcDbArc
 50
183.5135103964319
 51
222.8040864246993
  0
ARC
  5
76
330
2
100
AcDbEntity
  8
GAIKEI
 62
     1
100
AcDbCircle
 10
-41.08566791305901
 20
31.19522169689549
 30
0.0
 40
0.4579059948139692
100
AcDbArc
 50
346.6018618050386
 51
5.81143397512514
  0
ARC
  5
77
330
2
100
AcDbEntity
  8
GAIKEI
 62
     1
100
AcDbCircle
 10
-40.70176372384293
 20
31.08179209585603
 30
0.0
 40
0.0629740609859418
100
AcDbArc
 50
220.247691006269
 51
267.8213426182125
  0
ARC
  5
78
330
2
100
AcDbEntity
  8
GAIKEI
 62
     1
100
AcDbCircle
 10
-40.7099628192148
 20
31.07737316557825
 30
0.0
 40
0.0587968843512716
100
AcDbArc
 50
275.6661245958905
 51
323.9614555970565
  0
ARC
  5
79
330
2
100
AcDbEntity
  8
GAIKEI
 62
     1
100
AcDbCircle
 10
-40.78296633647897
 20
31.12900382778367
 30
0.0
 40
0.1482097866747372
100
AcDbArc
 50
324.4255394112553
 51
344.3880141141621
  0
ARC
  5
7A
330
2
100
AcDbEntity
  8
GAIKEI
 62
     1
100
AcDbCircle
 10
-40.46513808347896
 20
31.12924591482374
 30
0.0
 40
0.1482097866747372
100
AcDbArc
 50
324.4255394112553
 51
344.3880141141621
  0
ARC
  5
7B
330
2
100
AcDbEntity
  8
GAIKEI
 62
     1
100
AcDbCircle
 10
-40.39213456621479
 20
31.07761525261833
 30
0.0
 40
0.0587968843512716
100
AcDbArc
 50
275.6661245958905
 51
323.9614555970565
  0
ARC
  5
7C
330
2
100
AcDbEntity
  8
GAIKEI
 62
     1
100
AcDbCircle
 10
-40.38393547084291
 20
31.082034182896
 30
0.0
 40
0.0629740609859418
100
AcDbArc
 50
220.247691006269
 51
267.8213426182125
  0
ARC
  5
7D
330
2
100
AcDbEntity
  8
GAIKEI
 62
     1
100
AcDbCircle
 10
-40.76783966005899
 20
31.19546378393545
 30
0.0
 40
0.4579059948139692
100
AcDbArc
 50
346.6018618050386
 51
5.81143397512514
  0
ARC
  5
7E
330
2
100
AcDbEntity
  8
GAIKEI
 62
     1
100
AcDbCircle
 10
-40.20115797918862
 20
31.25517083522812
 30
0.0
 40
0.3148282111029862
100
AcDbArc
 50
183.5135103964319
 51
222.8040864246993
  0
LINE
  5
7F
330
2
100
AcDbEntity
  8
GAIKEI
 62
     1
100
AcDbLine
 10
-40.43051382723257
 20
32.93066803680165
 30
0.0
 11
-40.31228706295252
 21
31.24182897946162
 31
0.0
  0
LINE
  5
80
330
2
100
AcDbEntity
  8
GAIKEI
 62
     1
100
AcDbLine
 10
-40.63447978913251
 20
32.93705342912165
 30
0.0
 11
-40.51539443143252
 21
31.23587693496165
 31
0.0
  0
LINE
  5
81
330
2
100
AcDbEntity
  8
GAIKEI
 62
     1
100
AcDbLine
 10
-40.30727318391251
 20
32.93730273474159
 30
0.0
 11
-40.18818782621252
 21
31.2361262405816
 31
0.0
  0
LINE
  5
82
330
2
100
AcDbEntity
  8
GAIKEI
 62
     1
100
AcDbLine
 10
-40.10330722201257
 20
32.93091734242171
 30
0.0
 11
-39.98508045773252
 21
31.24207828508168
 31
0.0
  0
ARC
  5
83
330
2
100
AcDbEntity
  8
GAIKEI
 62
     1
100
AcDbCircle
 10
-39.87395137396863
 20
31.25542014084806
 30
0.0
 40
0.3148282111029862
100
AcDbArc
 50
183.5135103964319
 51
222.8040864246993
  0
ARC
  5
84
330
2
100
AcDbEntity
  8
GAIKEI
 62
     1
100
AcDbCircle
 10
-40.44063305483899
 20
31.19571308955551
 30
0.0
 40
0.4579059948139692
100
AcDbArc
 50
346.6018618050386
 51
5.81143397512514
  0
ARC
  5
85
330
2
100
AcDbEntity
  8
GAIKEI
 62
     1
100
AcDbCircle
 10
-40.05672886562291
 20
31.08228348851594
 30
0.0
 40
0.0629740609859418
100
AcDbArc
 50
220.247691006269
 51
267.8213426182125
  0
ARC
  5
86
330
2
100
AcDbEntity
  8
GAIKEI
 62
     1
100
AcDbCircle
 10
-40.06492796099479
 20
31.07786455823827
 30
0.0
 40
0.0587968843512716
100
AcDbArc
 50
275.6661245958905
 51
323.9614555970565
  0
ARC
  5
87
330
2
100
AcDbEntity
  8
GAIKEI
 62
     1
100
AcDbCircle
 10
-40.13793147825896
 20
31.12949522044369
 30
0.0
 40
0.1482097866747372
100
AcDbArc
 50
324.4255394112553
 51
344.3880141141621
  0
ARC
  5
88
330
2
100
AcDbEntity
  8
GAIKEI
 62
     1
100
AcDbCircle
 10
-39.80157073871902
 20
31.12975157840367
 30
0.0
 40
0.1482097866747372
100
AcDbArc
 50
324.4255394112553
 51
344.3880141141621
  0
ARC
  5
89
330
2
100
AcDbEntity
  8
GAIKEI
 62
     1
100
AcDbCircle
 10
-39.72856722145485
 20
31.07812091619826
 30
0.0
 40
0.0587968843512716
100
AcDbArc
 50
275.6661245958905
 51
323.9614555970565
  0
ARC
  5
8A
330
2
100
AcDbEntity
  8
GAIKEI
 62
     1
100
AcDbCircle
 10
-39.72036812608298
 20
31.08253984647604
 30
0.0
 40
0.0629740609859418
100
AcDbArc
 50
220.247691006269
 51
267.8213426182125
  0
ARC
  5
8B
330
2
100
AcDbEntity
  8
GAIKEI
 62
     1
100
AcDbCircle
 10
-40.10427231529894
 20
31.19596944751549
 30
0.0
 40
0.4579059948139692
100
AcDbArc
 50
346.6018618050386
 51
5.81143397512514
  0
ARC
  5
8C
330
2
100
AcDbEntity
  8
GAIKEI
 62
     1
100
AcDbCircle
 10
-39.53759063442868
 20
31.25567649880804
 30
0.0
 40
0.3148282111029862
100
AcDbArc
 50
183.5135103964319
 51
222.8040864246993
  0
LINE
  5
8D
330
2
100
AcDbEntity
  8
GAIKEI
 62
     1
100
AcDbLine
 10
-39.76694648247252
 20
32.93117370038169
 30
0.0
 11
-39.64871971819258
 21
31.24233464304166
 31
0.0
  0
LINE
  5
8E
330
2
100
AcDbEntity
  8
GAIKEI
 62
     1
100
AcDbLine
 10
-39.97091244437257
 20
32.93755909270158
 30
0.0
 11
-39.85182708667247
 21
31.23638259854158
 31
0.0
  0
LINE
  5
8F
330
2
100
AcDbEntity
  8
GAIKEI
 62
     1
100
AcDbLine
 10
-39.62562806207251
 20
32.93782233162165
 30
0.0
 11
-39.50654270437252
 21
31.23664583746165
 31
0.0
  0
LINE
  5
90
330
2
100
AcDbEntity
  8
GAIKEI
 62
     1
100
AcDbLine
 10
-39.42166210017257
 20
32.93143693930165
 30
0.0
 11
-39.30343533589251
 21
31.24259788196162
 31
0.0
  0
ARC
  5
91
330
2
100
AcDbEntity
  8
GAIKEI
 62
     1
100
AcDbCircle
 10
-39.19230625212862
 20
31.25593973772812
 30
0.0
 40
0.3148282111029862
100
AcDbArc
 50
183.5135103964319
 51
222.8040864246993
  0
ARC
  5
92
330
2
100
AcDbEntity
  8
GAIKEI
 62
     1
100
AcDbCircle
 10
-39.75898793299899
 20
31.19623268643545
 30
0.0
 40
0.4579059948139692
100
AcDbArc
 50
346.6018618050386
 51
5.81143397512514
  0
ARC
  5
93
330
2
100
AcDbEntity
  8
GAIKEI
 62
     1
100
AcDbCircle
 10
-39.37508374378291
 20
31.082803085396
 30
0.0
 40
0.0629740609859418
100
AcDbArc
 50
220.247691006269
 51
267.8213426182125
  0
ARC
  5
94
330
2
100
AcDbEntity
  8
GAIKEI
 62
     1
100
AcDbCircle
 10
-39.38328283915479
 20
31.07838415511833
 30
0.0
 40
0.0587968843512716
100
AcDbArc
 50
275.6661245958905
 51
323.9614555970565
  0
ARC
  5
95
330
2
100
AcDbEntity
  8
GAIKEI
 62
     1
100
AcDbCircle
 10
-39.45628635641896
 20
31.13001481732374
 30
0.0
 40
0.1482097866747372
100
AcDbArc
 50
324.4255394112553
 51
344.3880141141621
  0
ARC
  5
96
330
2
100
AcDbEntity
  8
GAIKEI
 62
     1
100
AcDbCircle
 10
-39.10231493871896
 20
31.13028476082377
 30
0.0
 40
0.1482097866747372
100
AcDbArc
 50
324.4255394112553
 51
344.3880141141621
  0
ARC
  5
97
330
2
100
AcDbEntity
  8
GAIKEI
 62
     1
100
AcDbCircle
 10
-39.02931142145479
 20
31.07865409861825
 30
0.0
 40
0.0587968843512716
100
AcDbArc
 50
275.6661245958905
 51
323.9614555970565
  0
ARC
  5
98
330
2
100
AcDbEntity
  8
GAIKEI
 62
     1
100
AcDbCircle
 10
-39.02111232608291
 20
31.08307302889603
 30
0.0
 40
0.0629740609859418
100
AcDbArc
 50
220.247691006269
 51
267.8213426182125
  0
ARC
  5
99
330
2
100
AcDbEntity
  8
GAIKEI
 62
     1
100
AcDbCircle
 10
-39.40501651529899
 20
31.19650262993548
 30
0.0
 40
0.4579059948139692
100
AcDbArc
 50
346.6018618050386
 51
5.81143397512514
  0
ARC
  5
9A
330
2
100
AcDbEntity
  8
GAIKEI
 62
     1
100
AcDbCircle
 10
-38.83833483442862
 20
31.25620968122803
 30
0.0
 40
0.3148282111029862
100
AcDbArc
 50
183.5135103964319
 51
222.8040864246993
  0
LINE
  5
9B
330
2
100
AcDbEntity
  8
GAIKEI
 62
     1
100
AcDbLine
 10
-39.06769068247257
 20
32.93170688280168
 30
0.0
 11
-38.94946391819252
 21
31.24286782546164
 31
0.0
  0
LINE
  5
9C
330
2
100
AcDbEntity
  8
GAIKEI
 62
     1
100
AcDbLine
 10
-39.27165664437251
 20
32.93809227512156
 30
0.0
 11
-39.15257128667253
 21
31.23691578096157
 31
0.0
  0
LINE
  5
9D
330
2
100
AcDbEntity
  8
GAIKEI
 62
     1
100
AcDbLine
 10
-38.90924075231254
 20
32.93836874188162
 30
0.0
 11
-38.79015539461255
 21
31.23719224772163
 31
0.0
  0
LINE
  5
9E
330
2
100
AcDbEntity
  8
GAIKEI
 62
     1
100
AcDbLine
 10
-38.7052747904126
 20
32.93198334956162
 30
0.0
 11
-38.58704802613255
 21
31.24314429222159
 31
0.0
  0
ARC
  5
9F
330
2
100
AcDbEntity
  8
GAIKEI
 62
     1
100
AcDbCircle
 10
-38.47591894236865
 20
31.25648614798809
 30
0.0
 40
0.3148282111029862
100
AcDbArc
 50
183.5135103964319
 51
222.8040864246993
  0
ARC
  5
A0
330
2
100
AcDbEntity
  8
GAIKEI
 62
     1
100
AcDbCircle
 10
-39.04260062323891
 20
31.19677909669543
 30
0.0
 40
0.4579059948139692
100
AcDbArc
 50
346.6018618050386
 51
5.81143397512514
  0
ARC
  5
A1
330
2
100
AcDbEntity
  8
GAIKEI
 62
     1
100
AcDbCircle
 10
-38.65869643402294
 20
31.08334949565597
 30
0.0
 40
0.0629740609859418
100
AcDbArc
 50
220.247691006269
 51
267.8213426182125
  0
ARC
  5
A2
330
2
100
AcDbEntity
  8
GAIKEI
 62
     1
100
AcDbCircle
 10
-38.66689552939482
 20
31.0789305653783
 30
0.0
 40
0.0587968843512716
100
AcDbArc
 50
275.6661245958905
 51
323.9614555970565
  0
ARC
  5
A3
330
2
100
AcDbEntity
  8
GAIKEI
 62
     1
100
AcDbCircle
 10
-38.73989904665899
 20
31.13056122758371
 30
0.0
 40
0.1482097866747372
100
AcDbArc
 50
324.4255394112553
 51
344.3880141141621
  0
ARC
  5
A4
330
2
100
AcDbEntity
  8
GAIKEI
 62
     1
100
AcDbCircle
 10
-38.36928702881897
 20
31.13084403140374
 30
0.0
 40
0.1482097866747372
100
AcDbArc
 50
324.4255394112553
 51
344.3880141141621
  0
ARC
  5
A5
330
2
100
AcDbEntity
  8
GAIKEI
 62
     1
100
AcDbCircle
 10
-38.29628351155481
 20
31.07921336919833
 30
0.0
 40
0.0587968843512716
100
AcDbArc
 50
275.6661245958905
 51
323.9614555970565
  0
ARC
  5
A6
330
2
100
AcDbEntity
  8
GAIKEI
 62
     1
100
AcDbCircle
 10
-38.28808441618292
 20
31.08363229947599
 30
0.0
 40
0.0629740609859418
100
AcDbArc
 50
220.247691006269
 51
267.8213426182125
  0
ARC
  5
A7
330
2
100
AcDbEntity
  8
GAIKEI
 62
     1
100
AcDbCircle
 10
-38.6719886053989
 20
31.19706190051545
 30
0.0
 40
0.4579059948139692
100
AcDbArc
 50
346.6018618050386
 51
5.81143397512514
  0
ARC
  5
A8
330
2
100
AcDbEntity
  8
GAIKEI
 62
     1
100
AcDbCircle
 10
-38.10530692452863
 20
31.25676895180812
 30
0.0
 40
0.3148282111029862
100
AcDbArc
 50
183.5135103964319
 51
222.8040864246993
  0
LINE
  5
A9
330
2
100
AcDbEntity
  8
GAIKEI
 62
     1
100
AcDbLine
 10
-38.33466277257247
 20
32.93226615338165
 30
0.0
 11
-38.21643600829253
 21
31.24342709604162
 31
0.0
  0
LINE
  5
AA
330
2
100
AcDbEntity
  8
GAIKEI
 62
     1
100
AcDbLine
 10
-38.53862873447253
 20
32.93865154570165
 30
0.0
 11
-38.41954337677242
 21
31.23747505154165
 31
0.0
  0
LINE
  5
AB
330
2
100
AcDbEntity
  8
GAIKEI
 62
     1
100
AcDbLine
 10
-38.16007455687253
 20
32.93894049568155
 30
0.0
 11
-38.04098919917255
 21
31.23776400152156
 31
0.0
  0
LINE
  5
AC
330
2
100
AcDbEntity
  8
GAIKEI
 62
     1
100
AcDbLine
 10
-37.95610859497259
 20
32.93255510336166
 30
0.0
 11
-37.83788183069254
 21
31.24371604602163
 31
0.0
  0
ARC
  5
AD
330
2
100
AcDbEntity
  8
GAIKEI
 62
     1
100
AcDbCircle
 10
-37.72675274692864
 20
31.25705790178813
 30
0.0
 40
0.3148282111029862
100
AcDbArc
 50
183.5135103964319
 51
222.8040864246993
  0
ARC
  5
AE
330
2
100
AcDbEntity
  8
GAIKEI
 62
     1
100
AcDbCircle
 10
-38.2934344277989
 20
31.19735085049547
 30
0.0
 40
0.4579059948139692
100
AcDbArc
 50
346.6018618050386
 51
5.81143397512514
  0
ARC
  5
AF
330
2
100
AcDbEntity
  8
GAIKEI
 62
     1
100
AcDbCircle
 10
-37.90953023858293
 20
31.08392124945601
 30
0.0
 40
0.0629740609859418
100
AcDbArc
 50
220.247691006269
 51
267.8213426182125
  0
ARC
  5
B0
330
2
100
AcDbEntity
  8
GAIKEI
 62
     1
100
AcDbCircle
 10
-37.91772933395481
 20
31.07950231917823
 30
0.0
 40
0.0587968843512716
100
AcDbArc
 50
275.6661245958905
 51
323.9614555970565
  0
ARC
  5
B1
330
2
100
AcDbEntity
  8
GAIKEI
 62
     1
100
AcDbCircle
 10
-37.99073285121898
 20
31.13113298138376
 30
0.0
 40
0.1482097866747372
100
AcDbArc
 50
324.4255394112553
 51
344.3880141141621
  0
LINE
  5
B2
330
2
100
AcDbEntity
  8
GAIKEI
 62
     1
100
AcDbLine
 10
-10.75073373108495
 20
33.64107228046157
 30
0.0
 11
-10.75066895476487
 21
33.40107228046156
 31
0.0
  0
LINE
  5
B3
330
2
100
AcDbEntity
  8
GAIKEI
 62
     1
100
AcDbLine
 10
-35.99065384402496
 20
33.40107228046156
 30
0.0
 11
-42.88325630058494
 21
33.40107228046156
 31
0.0
  0
LINE
  5
B4
330
2
100
AcDbEntity
  8
GAIKEI
 62
     1
100
AcDbLine
 10
-42.88325630058494
 20
33.40107228046156
 30
0.0
 11
-42.88325630058494
 21
33.64107228046157
 31
0.0
  0
LINE
  5
B5
330
2
100
AcDbEntity
  8
GAIKEI
 62
     1
100
AcDbLine
 10
-42.88325630058494
 20
33.64107228046157
 30
0.0
 11
-10.75073373108495
 21
33.64107228046157
 31
0.0
  0
LINE
  5
B6
330
2
100
AcDbEntity
  8
GAIKEI
 62
     1
100
AcDbLine
 10
-35.99065384402496
 20
33.64107228046157
 30
0.0
 11
-35.99065384402496
 21
33.24107228046159
 31
0.0
  0
LINE
  5
B7
330
2
100
AcDbEntity
  8
GAIKEI
 62
     1
100
AcDbLine
 10
-36.39065384402494
 20
33.40107228046156
 30
0.0
 11
-36.39065384402494
 21
33.64107228046157
 31
0.0
  0
LINE
  5
B8
330
2
100
AcDbEntity
  8
GAIKEI
 62
     1
100
AcDbLine
 10
-37.52444234952492
 20
33.40107228046156
 30
0.0
 11
-37.52444234952492
 21
33.24107228046159
 31
0.0
  0
LINE
  5
B9
330
2
100
AcDbEntity
  8
GAIKEI
 62
     1
100
AcDbLine
 10
-37.75626454782497
 20
33.40107228046156
 30
0.0
 11
-37.75626454782497
 21
33.24107228046159
 31
0.0
  0
LINE
  5
BA
330
2
100
AcDbEntity
  8
GAIKEI
 62
     1
100
AcDbLine
 10
-38.11861121098485
 20
33.40107228046156
 30
0.0
 11
-38.11861121098485
 21
33.24107228046159
 31
0.0
  0
LINE
  5
BB
330
2
100
AcDbEntity
  8
GAIKEI
 62
     1
100
AcDbLine
 10
-39.19065384402501
 20
33.40107228046156
 30
0.0
 11
-39.19065384402501
 21
33.24107228046159
 31
0.0
  0
LINE
  5
BC
330
2
100
AcDbEntity
  8
GAIKEI
 62
     1
100
AcDbLine
 10
-39.4306538440249
 20
33.40107228046156
 30
0.0
 11
-39.4306538440249
 21
33.24107228046159
 31
0.0
  0
LINE
  5
BD
330
2
100
AcDbEntity
  8
GAIKEI
 62
     1
100
AcDbLine
 10
-41.190653844025
 20
33.64107228046157
 30
0.0
 11
-41.190653844025
 21
33.40107228046156
 31
0.0
  0
LINE
  5
BE
330
2
100
AcDbEntity
  8
GAIKEI
 62
     1
100
AcDbLine
 10
-33.59065384402498
 20
33.64107228046157
 30
0.0
 11
-33.59065384402498
 21
33.24107228046159
 31
0.0
  0
LINE
  5
BF
330
2
100
AcDbEntity
  8
GAIKEI
 62
     1
100
AcDbLine
 10
-33.19065384402501
 20
33.64107228046157
 30
0.0
 11
-33.19065384402501
 21
33.40107228046156
 31
0.0
  0
LINE
  5
C0
330
2
100
AcDbEntity
  8
GAIKEI
 62
     1
100
AcDbLine
 10
-33.59065384402498
 20
33.40107228046156
 30
0.0
 11
-10.75066895476487
 21
33.40107228046156
 31
0.0
  0
LINE
  5
C1
330
2
100
AcDbEntity
  8
GAIKEI
 62
     1
100
AcDbLine
 10
-18.44893384402491
 20
33.40107228046156
 30
0.0
 11
-18.67269677710982
 21
33.24107228046159
 31
0.0
  0
LINE
  5
C2
330
2
100
AcDbEntity
  8
GAIKEI
 62
     1
100
AcDbLine
 10
-14.4489338440249
 20
33.40107228046156
 30
0.0
 11
-14.4489338440249
 21
33.24107228046159
 31
0.0
  0
LINE
  5
C3
330
2
100
AcDbEntity
  8
GAIKEI
 62
     1
100
AcDbLine
 10
-14.20893384402489
 20
33.40107228046156
 30
0.0
 11
-14.20893384402489
 21
33.24107228046159
 31
0.0
  0
LINE
  5
C4
330
2
100
AcDbEntity
  8
GAIKEI
 62
     1
100
AcDbLine
 10
-11.86559565375245
 20
33.24107228046159
 30
0.0
 11
-11.63315186601249
 21
32.96935311564164
 31
0.0
  0
ARC
  5
C5
330
2
100
AcDbEntity
  8
GAIKEI
 62
     1
100
AcDbCircle
 10
-15.64885483684605
 20
31.13113298138376
 30
0.0
 40
0.1482097866747372
100
AcDbArc
 50
195.611985885838
 51
215.5744605887447
  0
ARC
  5
C6
330
2
100
AcDbEntity
  8
GAIKEI
 62
     1
100
AcDbCircle
 10
-15.72185835411022
 20
31.07950231917823
 30
0.0
 40
0.0587968843512716
100
AcDbArc
 50
216.0385444029435
 51
264.3338754041079
  0
ARC
  5
C7
330
2
100
AcDbEntity
  8
GAIKEI
 62
     1
100
AcDbCircle
 10
-15.7300574494821
 20
31.08392124945601
 30
0.0
 40
0.0629740609859418
100
AcDbArc
 50
272.1786573817875
 51
319.7523089937309
  0
ARC
  5
C8
330
2
100
AcDbEntity
  8
GAIKEI
 62
     1
100
AcDbCircle
 10
-15.34615326026602
 20
31.19735085049547
 30
0.0
 40
0.4579059948139692
100
AcDbArc
 50
174.1885660248748
 51
193.3981381949613
  0
ARC
  5
C9
330
2
100
AcDbEntity
  8
GAIKEI
 62
     1
100
AcDbCircle
 10
-15.91283494113639
 20
31.25705790178813
 30
0.0
 40
0.3148282111029862
100
AcDbArc
 50
317.1959135753007
 51
356.486489603568
  0
LINE
  5
CA
330
2
100
AcDbEntity
  8
GAIKEI
 62
     1
100
AcDbLine
 10
-15.68347909309244
 20
32.93255510336166
 30
0.0
 11
-15.80170585737249
 21
31.24371604602163
 31
0.0
  0
LINE
  5
CB
330
2
100
AcDbEntity
  8
GAIKEI
 62
     1
100
AcDbLine
 10
-15.4795131311925
 20
32.93894049568155
 30
0.0
 11
-15.59859848889249
 21
31.23776400152156
 31
0.0
  0
LINE
  5
CC
330
2
100
AcDbEntity
  8
GAIKEI
 62
     1
100
AcDbLine
 10
-15.10095895359251
 20
32.93865154570165
 30
0.0
 11
-15.22004431129249
 21
31.23747505154165
 31
0.0
  0
LINE
  5
CD
330
2
100
AcDbEntity
  8
GAIKEI
 62
     1
100
AcDbLine
 10
-15.30492491549245
 20
32.93226615338165
 30
0.0
 11
-15.4231516797725
 21
31.24342709604162
 31
0.0
  0
ARC
  5
CE
330
2
100
AcDbEntity
  8
GAIKEI
 62
     1
100
AcDbCircle
 10
-15.5342807635364
 20
31.25676895180812
 30
0.0
 40
0.3148282111029862
100
AcDbArc
 50
317.1959135753007
 51
356.486489603568
  0
ARC
  5
CF
330
2
100
AcDbEntity
  8
GAIKEI
 62
     1
100
AcDbCircle
 10
-14.96759908266603
 20
31.19706190051545
 30
0.0
 40
0.4579059948139692
100
AcDbArc
 50
174.1885660248748
 51
193.3981381949613
  0
ARC
  5
D0
330
2
100
AcDbEntity
  8
GAIKEI
 62
     1
100
AcDbCircle
 10
-15.35150327188211
 20
31.08363229947599
 30
0.0
 40
0.0629740609859418
100
AcDbArc
 50
272.1786573817875
 51
319.7523089937309
  0
ARC
  5
D1
330
2
100
AcDbEntity
  8
GAIKEI
 62
     1
100
AcDbCircle
 10
-15.34330417651023
 20
31.07921336919833
 30
0.0
 40
0.0587968843512716
100
AcDbArc
 50
216.0385444029435
 51
264.3338754041079
  0
ARC
  5
D2
330
2
100
AcDbEntity
  8
GAIKEI
 62
     1
100
AcDbCircle
 10
-15.27030065924606
 20
31.13084403140374
 30
0.0
 40
0.1482097866747372
100
AcDbArc
 50
195.611985885838
 51
215.5744605887447
  0
ARC
  5
D3
330
2
100
AcDbEntity
  8
GAIKEI
 62
     1
100
AcDbCircle
 10
-14.89968864140604
 20
31.13056122758371
 30
0.0
 40
0.1482097866747372
100
AcDbArc
 50
195.611985885838
 51
215.5744605887447
  0
ARC
  5
D4
330
2
100
AcDbEntity
  8
GAIKEI
 62
     1
100
AcDbCircle
 10
-14.97269215867021
 20
31.0789305653783
 30
0.0
 40
0.0587968843512716
100
AcDbArc
 50
216.0385444029435
 51
264.3338754041079
  0
ARC
  5
D5
330
2
100
AcDbEntity
  8
GAIKEI
 62
     1
100
AcDbCircle
 10
-14.98089125404209
 20
31.08334949565597
 30
0.0
 40
0.0629740609859418
100
AcDbArc
 50
272.1786573817875
 51
319.7523089937309
  0
ARC
  5
D6
330
2
100
AcDbEntity
  8
GAIKEI
 62
     1
100
AcDbCircle
 10
-14.59698706482601
 20
31.19677909669543
 30
0.0
 40
0.4579059948139692
100
AcDbArc
 50
174.1885660248748
 51
193.3981381949613
  0
ARC
  5
D7
330
2
100
AcDbEntity
  8
GAIKEI
 62
     1
100
AcDbCircle
 10
-15.16366874569638
 20
31.25648614798809
 30
0.0
 40
0.3148282111029862
100
AcDbArc
 50
317.1959135753007
 51
356.486489603568
  0
LINE
  5
D8
330
2
100
AcDbEntity
  8
GAIKEI
 62
     1
100
AcDbLine
 10
-14.93431289765243
 20
32.93198334956162
 30
0.0
 11
-15.05253966193248
 21
31.24314429222159
 31
0.0
  0
LINE
  5
D9
330
2
100
AcDbEntity
  8
GAIKEI
 62
     1
100
AcDbLine
 10
-14.73034693575249
 20
32.93836874188162
 30
0.0
 11
-14.84943229345248
 21
31.23719224772163
 31
0.0
  0
LINE
  5
DA
330
2
100
AcDbEntity
  8
GAIKEI
 62
     1
100
AcDbLine
 10
-14.36793104369241
 20
32.93809227512156
 30
0.0
 11
-14.48701640139251
 21
31.23691578096157
 31
0.0
  0
LINE
  5
DB
330
2
100
AcDbEntity
  8
GAIKEI
 62
     1
100
AcDbLine
 10
-14.57189700559246
 20
32.93170688280168
 30
0.0
 11
-14.6901237698724
 21
31.24286782546164
 31
0.0
  0
ARC
  5
DC
330
2
100
AcDbEntity
  8
GAIKEI
 62
     1
100
AcDbCircle
 10
-14.8012528536363
 20
31.25620968122803
 30
0.0
 40
0.3148282111029862
100
AcDbArc
 50
317.1959135753007
 51
356.486489603568
  0
ARC
  5
DD
330
2
100
AcDbEntity
  8
GAIKEI
 62
     1
100
AcDbCircle
 10
-14.23457117276604
 20
31.19650262993548
 30
0.0
 40
0.4579059948139692
100
AcDbArc
 50
174.1885660248748
 51
193.3981381949613
  0
ARC
  5
DE
330
2
100
AcDbEntity
  8
GAIKEI
 62
     1
100
AcDbCircle
 10
-14.61847536198201
 20
31.08307302889603
 30
0.0
 40
0.0629740609859418
100
AcDbArc
 50
272.1786573817875
 51
319.7523089937309
  0
ARC
  5
DF
330
2
100
AcDbEntity
  8
GAIKEI
 62
     1
100
AcDbCircle
 10
-14.61027626661013
 20
31.07865409861825
 30
0.0
 40
0.0587968843512716
100
AcDbArc
 50
216.0385444029435
 51
264.3338754041079
  0
ARC
  5
E0
330
2
100
AcDbEntity
  8
GAIKEI
 62
     1
100
AcDbCircle
 10
-14.53727274934596
 20
31.13028476082377
 30
0.0
 40
0.1482097866747372
100
AcDbArc
 50
195.611985885838
 51
215.5744605887447
  0
ARC
  5
E1
330
2
100
AcDbEntity
  8
GAIKEI
 62
     1
100
AcDbCircle
 10
-14.18330133164596
 20
31.13001481732374
 30
0.0
 40
0.1482097866747372
100
AcDbArc
 50
195.611985885838
 51
215.5744605887447
  0
ARC
  5
E2
330
2
100
AcDbEntity
  8
GAIKEI
 62
     1
100
AcDbCircle
 10
-14.25630484891013
 20
31.07838415511833
 30
0.0
 40
0.0587968843512716
100
AcDbArc
 50
216.0385444029435
 51
264.3338754041079
  0
ARC
  5
E3
330
2
100
AcDbEntity
  8
GAIKEI
 62
     1
100
AcDbCircle
 10
-14.26450394428201
 20
31.082803085396
 30
0.0
 40
0.0629740609859418
100
AcDbArc
 50
272.1786573817875
 51
319.7523089937309
  0
ARC
  5
E4
330
2
100
AcDbEntity
  8
GAIKEI
 62
     1
100
AcDbCircle
 10
-13.88059975506604
 20
31.19623268643545
 30
0.0
 40
0.4579059948139692
100
AcDbArc
 50
174.1885660248748
 51
193.3981381949613
  0
ARC
  5
E5
330
2
100
AcDbEntity
  8
GAIKEI
 62
     1
100
AcDbCircle
 10
-14.4472814359363
 20
31.25593973772812
 30
0.0
 40
0.3148282111029862
100
AcDbArc
 50
317.1959135753007
 51
356.486489603568
  0
LINE
  5
E6
330
2
100
AcDbEntity
  8
GAIKEI
 62
     1
100
AcDbLine
 10
-14.21792558789246
 20
32.93143693930165
 30
0.0
 11
-14.3361523521724
 21
31.24259788196162
 31
0.0
  0
LINE
  5
E7
330
2
100
AcDbEntity
  8
GAIKEI
 62
     1
100
AcDbLine
 10
-14.01395962599241
 20
32.93782233162165
 30
0.0
 11
-14.13304498369251
 21
31.23664583746165
 31
0.0
  0
LINE
  5
E8
330
2
100
AcDbEntity
  8
GAIKEI
 62
     1
100
AcDbLine
 10
-13.66867524369246
 20
32.93755909270158
 30
0.0
 11
-13.78776060139245
 21
31.23638259854158
 31
0.0
  0
LINE
  5
E9
330
2
100
AcDbEntity
  8
GAIKEI
 62
     1
100
AcDbLine
 10
-13.8726412055924
 20
32.93117370038169
 30
0.0
 11
-13.99086796987245
 21
31.24233464304166
 31
0.0
  0
ARC
  5
EA
330
2
100
AcDbEntity
  8
GAIKEI
 62
     1
100
AcDbCircle
 10
-14.10199705363635
 20
31.25567649880804
 30
0.0
 40
0.3148282111029862
100
AcDbArc
 50
317.1959135753007
 51
356.486489603568
  0
ARC
  5
EB
330
2
100
AcDbEntity
  8
GAIKEI
 62
     1
100
AcDbCircle
 10
-13.53531537276598
 20
31.19596944751549
 30
0.0
 40
0.4579059948139692
100
AcDbArc
 50
174.1885660248748
 51
193.3981381949613
  0
ARC
  5
EC
330
2
100
AcDbEntity
  8
GAIKEI
 62
     1
100
AcDbCircle
 10
-13.91921956198206
 20
31.08253984647604
 30
0.0
 40
0.0629740609859418
100
AcDbArc
 50
272.1786573817875
 51
319.7523089937309
  0
ARC
  5
ED
330
2
100
AcDbEntity
  8
GAIKEI
 62
     1
100
AcDbCircle
 10
-13.91102046661018
 20
31.07812091619826
 30
0.0
 40
0.0587968843512716
100
AcDbArc
 50
216.0385444029435
 51
264.3338754041079
  0
ARC
  5
EE
330
2
100
AcDbEntity
  8
GAIKEI
 62
     1
100
AcDbCircle
 10
-13.83801694934601
 20
31.12975157840367
 30
0.0
 40
0.1482097866747372
100
AcDbArc
 50
195.611985885838
 51
215.5744605887447
  0
ARC
  5
EF
330
2
100
AcDbEntity
  8
GAIKEI
 62
     1
100
AcDbCircle
 10
-13.50165620980607
 20
31.12949522044369
 30
0.0
 40
0.1482097866747372
100
AcDbArc
 50
195.611985885838
 51
215.5744605887447
  0
ARC
  5
F0
330
2
100
AcDbEntity
  8
GAIKEI
 62
     1
100
AcDbCircle
 10
-13.57465972707013
 20
31.07786455823827
 30
0.0
 40
0.0587968843512716
100
AcDbArc
 50
216.0385444029435
 51
264.3338754041079
  0
ARC
  5
F1
330
2
100
AcDbEntity
  8
GAIKEI
 62
     1
100
AcDbCircle
 10
-13.58285882244212
 20
31.08228348851594
 30
0.0
 40
0.0629740609859418
100
AcDbArc
 50
272.1786573817875
 51
319.7523089937309
  0
ARC
  5
F2
330
2
100
AcDbEntity
  8
GAIKEI
 62
     1
100
AcDbCircle
 10
-13.19895463322604
 20
31.19571308955551
 30
0.0
 40
0.4579059948139692
100
AcDbArc
 50
174.1885660248748
 51
193.3981381949613
  0
ARC
  5
F3
330
2
100
AcDbEntity
  8
GAIKEI
 62
     1
100
AcDbCircle
 10
-13.7656363140963
 20
31.25542014084806
 30
0.0
 40
0.3148282111029862
100
AcDbArc
 50
317.1959135753007
 51
356.486489603568
  0
LINE
  5
F4
330
2
100
AcDbEntity
  8
GAIKEI
 62
     1
100
AcDbLine
 10
-13.53628046605246
 20
32.93091734242171
 30
0.0
 11
-13.6545072303324
 21
31.24207828508168
 31
0.0
  0
LINE
  5
F5
330
2
100
AcDbEntity
  8
GAIKEI
 62
     1
100
AcDbLine
 10
-13.3323145041524
 20
32.93730273474159
 30
0.0
 11
-13.45139986185251
 21
31.2361262405816
 31
0.0
  0
LINE
  5
F6
330
2
100
AcDbEntity
  8
GAIKEI
 62
     1
100
AcDbLine
 10
-13.00510789893241
 20
32.93705342912165
 30
0.0
 11
-13.12419325663251
 21
31.23587693496165
 31
0.0
  0
LINE
  5
F7
330
2
100
AcDbEntity
  8
GAIKEI
 62
     1
100
AcDbLine
 10
-13.20907386083246
 20
32.93066803680165
 30
0.0
 11
-13.3273006251124
 21
31.24182897946162
 31
0.0
  0
ARC
  5
F8
330
2
100
AcDbEntity
  8
GAIKEI
 62
     1
100
AcDbCircle
 10
-13.4384297088763
 20
31.25517083522812
 30
0.0
 40
0.3148282111029862
100
AcDbArc
 50
317.1959135753007
 51
356.486489603568
  0
ARC
  5
F9
330
2
100
AcDbEntity
  8
GAIKEI
 62
     1
100
AcDbCircle
 10
-12.87174802800604
 20
31.19546378393545
 30
0.0
 40
0.4579059948139692
100
AcDbArc
 50
174.1885660248748
 51
193.3981381949613
  0
ARC
  5
FA
330
2
100
AcDbEntity
  8
GAIKEI
 62
     1
100
AcDbCircle
 10
-13.25565221722212
 20
31.082034182896
 30
0.0
 40
0.0629740609859418
100
AcDbArc
 50
272.1786573817875
 51
319.7523089937309
  0
ARC
  5
FB
330
2
100
AcDbEntity
  8
GAIKEI
 62
     1
100
AcDbCircle
 10
-13.24745312185013
 20
31.07761525261833
 30
0.0
 40
0.0587968843512716
100
AcDbArc
 50
216.0385444029435
 51
264.3338754041079
  0
ARC
  5
FC
330
2
100
AcDbEntity
  8
GAIKEI
 62
     1
100
AcDbCircle
 10
-13.17444960458607
 20
31.12924591482374
 30
0.0
 40
0.1482097866747372
100
AcDbArc
 50
195.611985885838
 51
215.5744605887447
  0
ARC
  5
FD
330
2
100
AcDbEntity
  8
GAIKEI
 62
     1
100
AcDbCircle
 10
-12.85662135158605
 20
31.12900382778367
 30
0.0
 40
0.1482097866747372
100
AcDbArc
 50
195.611985885838
 51
215.5744605887447
  0
ARC
  5
FE
330
2
100
AcDbEntity
  8
GAIKEI
 62
     1
100
AcDbCircle
 10
-12.92962486885011
 20
31.07737316557825
 30
0.0
 40
0.0587968843512716
100
AcDbArc
 50
216.0385444029435
 51
264.3338754041079
  0
ARC
  5
FF
330
2
100
AcDbEntity
  8
GAIKEI
 62
     1
100
AcDbCircle
 10
-12.9378239642221
 20
31.08179209585603
 30
0.0
 40
0.0629740609859418
100
AcDbArc
 50
272.1786573817875
 51
319.7523089937309
  0
ARC
  5
100
330
2
100
AcDbEntity
  8
GAIKEI
 62
     1
100
AcDbCircle
 10
-12.55391977500602
 20
31.19522169689549
 30
0.0
 40
0.4579059948139692
100
AcDbArc
 50
174.1885660248748
 51
193.3981381949613
  0
ARC
  5
101
330
2
100
AcDbEntity
  8
GAIKEI
 62
     1
100
AcDbCircle
 10
-13.12060145587628
 20
31.25492874818804
 30
0.0
 40
0.3148282111029862
100
AcDbArc
 50
317.1959135753007
 51
356.486489603568
  0
LINE
  5
102
330
2
100
AcDbEntity
  8
GAIKEI
 62
     1
100
AcDbLine
 10
-12.89124560783244
 20
32.93042594976169
 30
0.0
 11
-13.00947237211238
 21
31.24158689242165
 31
0.0
  0
LINE
  5
103
330
2
100
AcDbEntity
  8
GAIKEI
 62
     1
100
AcDbLine
 10
-12.68727964593239
 20
32.93681134208157
 30
0.0
 11
-12.80636500363249
 21
31.23563484792157
 31
0.0
  0
LINE
  5
104
330
2
100
AcDbEntity
  8
GAIKEI
 62
     1
100
AcDbLine
 10
-12.37904753589242
 20
32.93657663460158
 30
0.0
 11
-12.49813289359252
 21
31.23540014044158
 31
0.0
  0
LINE
  5
105
330
2
100
AcDbEntity
  8
GAIKEI
 62
     1
100
AcDbLine
 10
-12.58301349779248
 20
32.9301912422817
 30
0.0
 11
-12.70124026207241
 21
31.24135218494166
 31
0.0
  0
ARC
  5
106
330
2
100
AcDbEntity
  8
GAIKEI
 62
     1
100
AcDbCircle
 10
-12.81236934583631
 20
31.25469404070805
 30
0.0
 40
0.3148282111029862
100
AcDbArc
 50
317.1959135753007
 51
356.486489603568
  0
ARC
  5
107
330
2
100
AcDbEntity
  8
GAIKEI
 62
     1
100
AcDbCircle
 10
-12.24568766496605
 20
31.1949869894155
 30
0.0
 40
0.4579059948139692
100
AcDbArc
 50
174.1885660248748
 51
193.3981381949613
  0
ARC
  5
108
330
2
100
AcDbEntity
  8
GAIKEI
 62
     1
100
AcDbCircle
 10
-12.62959185418202
 20
31.08155738837604
 30
0.0
 40
0.0629740609859418
100
AcDbArc
 50
272.1786573817875
 51
319.7523089937309
  0
ARC
  5
109
330
2
100
AcDbEntity
  8
GAIKEI
 62
     1
100
AcDbCircle
 10
-12.62139275881014
 20
31.07713845809826
 30
0.0
 40
0.0587968843512716
100
AcDbArc
 50
216.0385444029435
 51
264.3338754041079
  0
ARC
  5
10A
330
2
100
AcDbEntity
  8
GAIKEI
 62
     1
100
AcDbCircle
 10
-12.54838924154597
 20
31.12876912030368
 30
0.0
 40
0.1482097866747372
100
AcDbArc
 50
195.611985885838
 51
215.5744605887447
  0
ARC
  5
10B
330
2
100
AcDbEntity
  8
GAIKEI
 62
     1
100
AcDbCircle
 10
-12.249964488746
 20
31.12854194812371
 30
0.0
 40
0.1482097866747372
100
AcDbArc
 50
195.611985885838
 51
215.5744605887447
  0
ARC
  5
10C
330
2
100
AcDbEntity
  8
GAIKEI
 62
     1
100
AcDbCircle
 10
-12.32296800601017
 20
31.0769112859183
 30
0.0
 40
0.0587968843512716
100
AcDbArc
 50
216.0385444029435
 51
264.3338754041079
  0
ARC
  5
10D
330
2
100
AcDbEntity
  8
GAIKEI
 62
     1
100
AcDbCircle
 10
-12.33116710138205
 20
31.08133021619597
 30
0.0
 40
0.0629740609859418
100
AcDbArc
 50
272.1786573817875
 51
319.7523089937309
  0
ARC
  5
10E
330
2
100
AcDbEntity
  8
GAIKEI
 62
     1
100
AcDbCircle
 10
-11.94726291216608
 20
31.19475981723542
 30
0.0
 40
0.4579059948139692
100
AcDbArc
 50
174.1885660248748
 51
193.3981381949613
  0
ARC
  5
10F
330
2
100
AcDbEntity
  8
GAIKEI
 62
     1
100
AcDbCircle
 10
-12.51394459303634
 20
31.25446686852809
 30
0.0
 40
0.3148282111029862
100
AcDbArc
 50
317.1959135753007
 51
356.486489603568
  0
LINE
  5
110
330
2
100
AcDbEntity
  8
GAIKEI
 62
     1
100
AcDbLine
 10
-12.2845887449925
 20
32.92996407010162
 30
0.0
 11
-12.40281550927244
 21
31.24112501276159
 31
0.0
  0
LINE
  5
111
330
2
100
AcDbEntity
  8
GAIKEI
 62
     1
100
AcDbLine
 10
-12.08062278309245
 20
32.93634946242162
 30
0.0
 11
-12.19970814079255
 21
31.23517296826162
 31
0.0
  0
LINE
  5
112
330
2
100
AcDbEntity
  8
GAIKEI
100
AcDbLine
 10
-8.648933844032455
 20
33.24107228046159
 30
0.0
 11
-8.319793843992215
 21
32.94223332546164
 31
0.0
  0
LINE
  5
113
330
2
100
AcDbEntity
  8
GAIKEI
 62
     1
100
AcDbLine
 10
-8.818715100432484
 20
32.94223332546164
 30
0.0
 11
-9.074352171272437
 21
33.24107228046159
 31
0.0
  0
LINE
  5
114
330
2
100
AcDbEntity
  8
GAIKEI
 62
     1
100
AcDbLine
 10
-8.818715100432484
 20
32.94223332546164
 30
0.0
 11
-8.95892852061246
 21
31.2410722804616
 31
0.0
  0
ARC
  5
115
330
2
100
AcDbEntity
  8
GAIKEI
 62
     1
100
AcDbCircle
 10
-10.47550113640096
 20
31.30039065371045
 30
0.0
 40
1.517732245280562
100
AcDbArc
 50
336.25321918421
 51
357.7601066954551
  0
LINE
  5
116
330
2
100
AcDbEntity
  8
GAIKEI
 62
     1
100
AcDbLine
 10
-11.6099585829125
 20
32.94223332546164
 30
0.0
 11
-11.75017200309247
 21
31.2410722804616
 31
0.0
  0
ARC
  5
117
330
2
100
AcDbEntity
  8
GAIKEI
 62
     1
100
AcDbCircle
 10
-10.94468623296637
 20
31.14946814255416
 30
0.0
 40
0.8106778916174533
100
AcDbArc
 50
173.5118937419396
 51
206.4928287161024
  0
ARC
  5
118
330
2
100
AcDbEntity
  8
GAIKEI
 62
     1
100
AcDbCircle
 10
-11.3559374303623
 20
30.96848866648191
 30
0.0
 40
0.3625165651924582
100
AcDbArc
 50
209.8894907794944
 51
235.2190918991301
  0
LINE
  5
119
330
2
100
AcDbEntity
  8
GAIKEI
 62
     1
100
AcDbLine
 10
-11.56273134919246
 20
30.67073955200158
 30
0.0
 11
-11.46248809733248
 21
30.64107228046157
 31
0.0
  0
LINE
  5
11A
330
2
100
AcDbEntity
  8
GAIKEI
 62
     1
100
AcDbLine
 10
-11.46248809733248
 20
30.64107228046157
 30
0.0
 11
-9.149743497552492
 21
30.64107228046157
 31
0.0
  0
ARC
  5
11B
330
2
100
AcDbEntity
  8
GAIKEI
 62
     1
100
AcDbCircle
 10
-9.190048231778916
 20
30.76014006370542
 30
0.0
 40
0.1257044494346086
100
AcDbArc
 50
288.7010849954769
 51
325.6474226469372
  0
ARC
  5
11C
330
2
100
AcDbEntity
  8
GAIKEI
100
AcDbCircle
 10
-14.34893384407286
 20
27.45194088620156
 30
0.0
 40
0.2
100
AcDbArc
 50
99.86049262989938
 51
180.0
  0
LINE
  5
11D
330
2
100
AcDbEntity
  8
GAIKEI
100
AcDbLine
 10
-14.5489338440729
 20
27.25662172260172
 30
0.0
 11
-14.5489338440729
 21
27.45194088620156
 31
0.0
  0
ARC
  5
11E
330
2
100
AcDbEntity
  8
GAIKEI
100
AcDbCircle
 10
-19.04893384407313
 20
27.25662172260172
 30
0.0
 40
4.500000000000322
100
AcDbArc
 50
340.7799230332973
 51
0.0
  0
ARC
  5
11F
330
2
100
AcDbEntity
  8
GAIKEI
100
AcDbCircle
 10
-14.98861122427291
 20
25.84107228046162
 30
0.0
 40
0.2000000000000455
100
AcDbArc
 50
270.0000000000065
 51
340.7799230284923
  0
LINE
  5
120
330
2
100
AcDbEntity
  8
GAIKEI
100
AcDbLine
 10
-14.98861122427291
 20
25.64107228046157
 30
0.0
 11
-38.65097646383248
 21
25.64107228046157
 31
0.0
  0
LINE
  5
121
330
2
100
AcDbEntity
  8
GAIKEI
 62
     1
100
AcDbLine
 10
-15.64893384405269
 20
25.2410722804616
 30
0.0
 11
-37.9906538440527
 21
25.2410722804616
 31
0.0
  0
LINE
  5
122
330
2
100
AcDbEntity
  8
GAIKEI
 62
     1
100
AcDbLine
 10
-15.52893384405269
 20
25.64107228046157
 30
0.0
 11
-15.52893384405269
 21
25.34107228046162
 31
0.0
  0
ARC
  5
123
330
2
100
AcDbEntity
  8
GAIKEI
 62
     1
100
AcDbCircle
 10
-15.64893384405269
 20
25.34107228046162
 30
0.0
 40
0.0999999999999773
100
AcDbArc
 50
269.9999999999935
 51
0.0000000000130276
  0
LINE
  5
124
330
2
100
AcDbEntity
  8
GAIKEI
 62
     1
100
AcDbLine
 10
-15.94893384405265
 20
25.2410722804616
 30
0.0
 11
-15.8889338440527
 21
25.18107228046165
 31
0.0
  0
LINE
  5
125
330
2
100
AcDbEntity
  8
GAIKEI
100
AcDbLine
 10
-15.32393393147271
 20
24.24106818746168
 30
0.0
 11
-15.31979784821732
 21
25.18107228046154
 31
0.0
  0
ARC
  5
126
330
2
100
AcDbEntity
  8
GAIKEI
 62
     1
100
AcDbCircle
 10
10.68151852503769
 20
14.42172021870516
 30
0.0
 40
27.58738781771449
100
AcDbArc
 50
174.5356575518786
 51
183.2846198078237
  0
ARC
  5
127
330
2
100
AcDbEntity
  8
GAIKEI
 62
     1
100
AcDbCircle
 10
106.3756643877697
 20
-1.711693358504192
 30
0.0
 40
124.5768688040841
100
AcDbArc
 50
169.5699522252963
 51
171.3386820744504
  0
ARC
  5
128
330
2
100
AcDbEntity
  8
GAIKEI
 62
     1
100
AcDbCircle
 10
8.627004733104911
 20
16.67419112388688
 30
0.0
 40
25.1178241774564
100
AcDbArc
 50
162.4669864677936
 51
170.4508624102851
  0
LINE
  5
129
330
2
100
AcDbEntity
  8
GAIKEI
100
AcDbLine
 10
-15.32623972041261
 20
24.14107228046157
 30
0.0
 11
-15.35530430329271
 21
24.14107228046157
 31
0.0
  0
ARC
  5
12A
330
2
100
AcDbEntity
  8
GAIKEI
100
AcDbCircle
 10
-51.15817466978518
 20
25.64190660650115
 30
0.0
 40
35.86335272838559
100
AcDbArc
 50
348.5218228144534
 51
357.6015460629104
  0
ARC
  5
12B
330
2
100
AcDbEntity
  8
GAIKEI
100
AcDbCircle
 10
9.68698827780696
 20
14.3674064196494
 30
0.0
 40
26.03005195220135
100
AcDbArc
 50
170.8531373045375
 51
183.3616028674697
  0
LINE
  5
12C
330
2
100
AcDbEntity
  8
GAIKEI
100
AcDbLine
 10
-16.82730980897969
 20
9.541072280461548
 30
0.0
 11
-16.8607960767726
 21
9.541072280461548
 31
0.0
  0
ARC
  5
12D
330
2
100
AcDbEntity
  8
GAIKEI
100
AcDbCircle
 10
-27.0846671420174
 20
12.87787160194466
 30
0.0
 40
10.78645489349826
100
AcDbArc
 50
341.9798840852732
 51
359.804528001012
  0
LINE
  5
12E
330
2
100
AcDbEntity
  8
GAIKEI
 62
     1
100
AcDbLine
 10
-16.86042311697264
 20
9.441079335741562
 30
0.0
 11
-16.86054963805253
 21
12.84107228046156
 31
0.0
  0
ARC
  5
12F
330
2
100
AcDbEntity
  8
GAIKEI
100
AcDbCircle
 10
-27.04504531596518
 20
12.86839002963705
 30
0.0
 40
10.7458358413249
100
AcDbArc
 50
320.8098072708724
 51
341.4009770987935
  0
ARC
  5
130
330
2
100
AcDbEntity
  8
GAIKEI
100
AcDbCircle
 10
-27.00071662746933
 20
12.9041478804117
 30
0.0
 40
10.7342186859821
100
AcDbArc
 50
289.5096790000879
 51
320.5123619907717
  0
ARC
  5
131
330
2
100
AcDbEntity
  8
GAIKEI
100
AcDbCircle
 10
-26.81809434841961
 20
13.08377990104543
 30
0.0
 40
11.157335000563
100
AcDbArc
 50
78.25984244287804
 51
90.15836892887939
  0
ARC
  5
132
330
2
100
AcDbEntity
  8
GAIKEI
100
AcDbCircle
 10
-25.75955823532928
 20
17.93679855173929
 30
0.0
 40
6.190648626005991
100
AcDbArc
 50
57.88263519893572
 51
78.7127140389492
  0
ARC
  5
133
330
2
100
AcDbEntity
  8
GAIKEI
100
AcDbCircle
 10
-23.54796693417433
 20
21.61780146169309
 30
0.0
 40
1.899033105025448
100
AcDbArc
 50
359.9928168562249
 51
55.35065859918312
  0
LINE
  5
134
330
2
100
AcDbEntity
  8
GAIKEI
100
AcDbLine
 10
-21.64893384407282
 20
3.599209845304756
 30
0.0
 11
-21.64893384407282
 21
21.61756338084479
 31
0.0
  0
ARC
  5
135
330
2
100
AcDbEntity
  8
GAIKEI
 62
     1
100
AcDbCircle
 10
-26.85919011935681
 20
14.429675804915
 30
0.0
 40
9.182969473155678
100
AcDbArc
 50
67.94285524812185
 51
89.93600747423334
  0
ARC
  5
136
330
2
100
AcDbEntity
  8
GAIKEI
 62
     1
100
AcDbCircle
 10
-23.97753158275026
 20
21.5902379706618
 30
0.0
 40
1.464451838344886
100
AcDbArc
 50
346.0073105492489
 51
67.2282366928519
  0
ARC
  5
137
330
2
100
AcDbEntity
  8
GAIKEI
 62
     1
100
AcDbCircle
 10
-367.9006613598864
 20
85.04326883873705
 30
0.0
 40
351.1892876379805
100
AcDbArc
 50
349.1503827537822
 51
349.5318614962146
  0
ARC
  5
138
330
2
100
AcDbEntity
  8
GAIKEI
 62
     1
100
AcDbCircle
 10
0.9866462241402018
 20
13.72601698051824
 30
0.0
 40
24.53568436257004
100
AcDbArc
 50
167.7349348479647
 51
180.5879765006457
  0
ARC
  5
139
330
2
100
AcDbEntity
  8
GAIKEI
 62
     1
100
AcDbCircle
 10
-26.82273358553863
 20
16.31113146527065
 30
0.0
 40
4.079010848951141
100
AcDbArc
 50
66.00413110313398
 51
90.36802416397932
  0
ARC
  5
13A
330
2
100
AcDbEntity
  8
GAIKEI
 62
     1
100
AcDbCircle
 10
-25.8564419036573
 20
17.83376437942036
 30
0.0
 40
2.310094413872915
100
AcDbArc
 50
2.71148557969316
 51
72.55553953179449
  0
ARC
  5
13B
330
2
100
AcDbEntity
  8
GAIKEI
100
AcDbCircle
 10
-23.44893384407289
 20
2.880602735884792
 30
0.0
 40
0.1000000000000188
100
AcDbArc
 50
180.0000221734764
 51
269.9999999262054
  0
LINE
  5
13C
330
2
100
AcDbEntity
  8
GAIKEI
 62
     1
100
AcDbLine
 10
-23.54893384405267
 20
17.94304729604817
 30
0.0
 11
-23.54893384405267
 21
2.880602697161577
 31
0.0
  0
LINE
  5
13D
330
2
100
AcDbEntity
  8
GAIKEI
100
AcDbLine
 10
-24.27535296609284
 20
2.780602697184804
 30
0.0
 11
-23.44893384407289
 21
2.780602697184804
 31
0.0
  0
ARC
  5
13E
330
2
100
AcDbEntity
  8
GAIKEI
100
AcDbCircle
 10
-17.12318049707272
 20
43.41262870058119
 30
0.0
 40
15.99999999999941
100
AcDbArc
 50
279.8604926298994
 51
301.620599436302
  0
ARC
  5
13F
330
2
100
AcDbEntity
  8
GAIKEI
100
AcDbCircle
 10
-8.839365447096781
 20
29.95832053485628
 30
0.0
 40
0.1999999999835659
100
AcDbArc
 50
301.6205994291401
 51
354.9575489315259
  0
LINE
  5
140
330
2
100
AcDbEntity
  8
GAIKEI
100
AcDbLine
 10
-8.640139477107879
 20
29.94074177280083
 30
0.0
 11
-8.31979384403246
 21
32.94223332546164
 31
0.0
  0
LINE
  5
141
330
2
100
AcDbEntity
  8
GAIKEI
 62
     1
100
AcDbLine
 10
-26.8489338440325
 20
25.24107228048479
 30
0.0
 11
-26.8489338440325
 21
24.24107228048479
 31
0.0
  0
LINE
  5
142
330
2
100
AcDbEntity
  8
GAIKEI
100
AcDbLine
 10
10.37150741848262
 20
29.94074177280129
 30
0.0
 11
10.10666992852754
 21
32.94223332546199
 31
0.0
  0
ARC
  5
143
330
2
100
AcDbEntity
  8
GAIKEI
100
AcDbCircle
 10
10.57073338847152
 20
29.95832053485663
 30
0.0
 40
0.1999999999835659
100
AcDbArc
 50
185.0424510684741
 51
238.37940057086
  0
ARC
  5
144
330
2
100
AcDbEntity
  8
GAIKEI
100
AcDbCircle
 10
18.85454843844746
 20
43.41262870058165
 30
0.0
 40
15.99999999999941
100
AcDbArc
 50
238.379400563698
 51
260.1395073701006
  0
LINE
  5
145
330
2
100
AcDbEntity
  8
GAIKEI
 62
     1
100
AcDbLine
 10
17.68030178542739
 20
25.24107228046194
 30
0.0
 11
17.62030178542744
 21
25.18107228046199
 31
0.0
  0
ARC
  5
146
330
2
100
AcDbEntity
  8
GAIKEI
 62
     1
100
AcDbCircle
 10
17.38030178542743
 20
25.34107228046196
 30
0.0
 40
0.0999999999999773
100
AcDbArc
 50
179.999999999987
 51
270.0000000000065
  0
LINE
  5
147
330
2
100
AcDbEntity
  8
GAIKEI
 62
     1
100
AcDbLine
 10
17.26030178542731
 20
25.64107228046203
 30
0.0
 11
17.26030178542731
 21
25.34107228046196
 31
0.0
  0
LINE
  5
148
330
2
100
AcDbEntity
  8
GAIKEI
 62
     1
100
AcDbLine
 10
17.38030178542743
 20
25.24107228046194
 30
0.0
 11
39.78030178542741
 21
25.24107228046194
 31
0.0
  0
LINE
  5
149
330
2
100
AcDbEntity
  8
GAIKEI
100
AcDbLine
 10
16.71997916564754
 20
25.64107228046203
 30
0.0
 11
40.44062440520718
 21
25.64107228046203
 31
0.0
  0
ARC
  5
14A
330
2
100
AcDbEntity
  8
GAIKEI
100
AcDbCircle
 10
16.71997916564766
 20
25.84107228046207
 30
0.0
 40
0.2000000000000455
100
AcDbArc
 50
199.2200769715077
 51
269.9999999999935
  0
ARC
  5
14B
330
2
100
AcDbEntity
  8
GAIKEI
100
AcDbCircle
 10
20.78030178544787
 20
27.25662172260206
 30
0.0
 40
4.500000000000322
100
AcDbArc
 50
180.0
 51
199.2200769667026
  0
LINE
  5
14C
330
2
100
AcDbEntity
  8
GAIKEI
100
AcDbLine
 10
16.28030178544753
 20
27.25662172260206
 30
0.0
 11
16.28030178544753
 21
27.45194088620201
 31
0.0
  0
ARC
  5
14D
330
2
100
AcDbEntity
  8
GAIKEI
100
AcDbCircle
 10
16.0803017854476
 20
27.45194088620201
 30
0.0
 40
0.2
100
AcDbArc
 50
0.0
 51
80.13950737010063
  0
LINE
  5
14E
330
2
100
AcDbEntity
  8
GAIKEI
100
AcDbLine
 10
10.10666992848718
 20
32.94223332546199
 30
0.0
 11
10.55008304180722
 21
32.94223332546199
 31
0.0
  0
LINE
  5
14F
330
2
100
AcDbEntity
  8
GAIKEI
100
AcDbLine
 10
10.38030178540719
 20
33.24107228046194
 30
0.0
 11
10.10666992848718
 21
32.94223332546199
 31
0.0
  0
LINE
  5
150
330
2
100
AcDbEntity
  8
GAIKEI
 62
     1
100
AcDbLine
 10
15.94030178539964
 20
33.40107228046202
 30
0.0
 11
15.94030178539964
 21
33.24107228046194
 31
0.0
  0
LINE
  5
151
330
2
100
AcDbEntity
  8
GAIKEI
 62
     1
100
AcDbLine
 10
16.18030178539965
 20
33.40107228046202
 30
0.0
 11
16.18030178539965
 21
33.24107228046194
 31
0.0
  0
LINE
  5
152
330
2
100
AcDbEntity
  8
GAIKEI
 62
     1
100
AcDbLine
 10
20.18030178539965
 20
33.40107228046202
 30
0.0
 11
20.40406471848456
 21
33.24107228046194
 31
0.0
  0
LINE
  5
153
330
2
100
AcDbEntity
  8
GAIKEI
 62
     1
100
AcDbLine
 10
42.98030178539971
 20
33.64107228046203
 30
0.0
 11
42.98030178539971
 21
33.40107228046202
 31
0.0
  0
LINE
  5
154
330
2
100
AcDbEntity
  8
GAIKEI
 62
     1
100
AcDbLine
 10
41.22030178539961
 20
33.40107228046202
 30
0.0
 11
41.22030178539961
 21
33.24107228046194
 31
0.0
  0
LINE
  5
155
330
2
100
AcDbEntity
  8
GAIKEI
 62
     1
100
AcDbLine
 10
40.98030178539971
 20
33.40107228046202
 30
0.0
 11
40.98030178539971
 21
33.24107228046194
 31
0.0
  0
LINE
  5
156
330
2
100
AcDbEntity
  8
GAIKEI
 62
     1
100
AcDbLine
 10
39.90825915235956
 20
33.40107228046202
 30
0.0
 11
39.90825915235956
 21
33.24107228046194
 31
0.0
  0
LINE
  5
157
330
2
100
AcDbEntity
  8
GAIKEI
 62
     1
100
AcDbLine
 10
39.54591248919968
 20
33.40107228046202
 30
0.0
 11
39.54591248919968
 21
33.24107228046194
 31
0.0
  0
LINE
  5
158
330
2
100
AcDbEntity
  8
GAIKEI
 62
     1
100
AcDbLine
 10
39.31409029089963
 20
33.40107228046202
 30
0.0
 11
39.31409029089963
 21
33.24107228046194
 31
0.0
  0
LINE
  5
159
330
2
100
AcDbEntity
  8
GAIKEI
 62
     1
100
AcDbLine
 10
44.67290424195965
 20
33.64107228046203
 30
0.0
 11
12.48210167245969
 21
33.64107228046203
 31
0.0
  0
LINE
  5
15A
330
2
100
AcDbEntity
  8
GAIKEI
 62
     1
100
AcDbLine
 10
44.67290424195965
 20
33.40107228046202
 30
0.0
 11
44.67290424195965
 21
33.64107228046203
 31
0.0
  0
LINE
  5
15B
330
2
100
AcDbEntity
  8
GAIKEI
 62
     1
100
AcDbLine
 10
44.67290424195965
 20
33.40107228046202
 30
0.0
 11
12.48203689613962
 21
33.40107228046202
 31
0.0
  0
LINE
  5
15C
330
2
100
AcDbEntity
  8
GAIKEI
 62
     1
100
AcDbLine
 10
12.48210167245969
 20
33.64107228046203
 30
0.0
 11
12.48203689613962
 21
33.40107228046202
 31
0.0
  0
LINE
  5
15D
330
2
100
AcDbEntity
  8
GAIKEI
 62
     1
100
AcDbLine
 10
47.05393364232731
 20
32.94223332546199
 30
0.0
 11
10.10666992848718
 21
32.94223332546199
 31
0.0
  0
LINE
  5
15E
330
2
100
AcDbEntity
  8
GAIKEI
100
AcDbLine
 10
46.78017109280728
 20
33.24107228046194
 30
0.0
 11
10.38030178540719
 21
33.24107228046194
 31
0.0
  0
LINE
  5
15F
330
2
100
AcDbEntity
  8
GAIKEI
100
AcDbLine
 10
47.05393364232731
 20
32.94223332546199
 30
0.0
 11
46.78017109280728
 21
33.24107228046194
 31
0.0
  0
LINE
  5
160
330
2
100
AcDbEntity
  8
GAIKEI
 62
     1
100
AcDbLine
 10
46.69472859616718
 20
29.841072280439
 30
0.0
 11
10.46587497464719
 21
29.841072280439
 31
0.0
  0
LINE
  5
161
330
2
100
AcDbEntity
  8
GAIKEI
100
AcDbLine
 10
46.78909615237222
 20
29.94074177280129
 30
0.0
 11
47.05393364232731
 21
32.94223332546199
 31
0.0
  0
ARC
  5
162
330
2
100
AcDbEntity
  8
GAIKEI
100
AcDbCircle
 10
46.5898701823832
 20
29.95832053485663
 30
0.0
 40
0.1999999999835659
100
AcDbArc
 50
301.6205994291401
 51
354.9575489315259
  0
ARC
  5
163
330
2
100
AcDbEntity
  8
GAIKEI
100
AcDbCircle
 10
38.30605513240738
 20
43.41262870058165
 30
0.0
 40
15.99999999999941
100
AcDbArc
 50
279.8604926298994
 51
301.620599436302
  0
LINE
  5
164
330
2
100
AcDbEntity
  8
GAIKEI
 62
     1
100
AcDbLine
 10
40.88030178540719
 20
27.62107228044863
 30
0.0
 11
16.28030178540717
 21
27.62107228044863
 31
0.0
  0
ARC
  5
165
330
2
100
AcDbEntity
  8
GAIKEI
100
AcDbCircle
 10
41.08030178540724
 20
27.45194088620201
 30
0.0
 40
0.2
100
AcDbArc
 50
99.86049262989938
 51
180.0
  0
LINE
  5
166
330
2
100
AcDbEntity
  8
GAIKEI
100
AcDbLine
 10
40.88030178540719
 20
27.25662172260206
 30
0.0
 11
40.88030178540719
 21
27.45194088620201
 31
0.0
  0
ARC
  5
167
330
2
100
AcDbEntity
  8
GAIKEI
100
AcDbCircle
 10
36.38030178540686
 20
27.25662172260206
 30
0.0
 40
4.500000000000322
100
AcDbArc
 50
340.7799230332973
 51
0.0
  0
ARC
  5
168
330
2
100
AcDbEntity
  8
GAIKEI
100
AcDbCircle
 10
40.44062440520718
 20
25.84107228046207
 30
0.0
 40
0.2000000000000455
100
AcDbArc
 50
270.0000000000065
 51
340.7799230284923
  0
LINE
  5
169
330
2
100
AcDbEntity
  8
GAIKEI
 62
     1
100
AcDbLine
 10
39.90030178542742
 20
25.64107228046203
 30
0.0
 11
39.90030178542742
 21
25.34107228046196
 31
0.0
  0
ARC
  5
16A
330
2
100
AcDbEntity
  8
GAIKEI
 62
     1
100
AcDbCircle
 10
39.78030178542741
 20
25.34107228046196
 30
0.0
 40
0.0999999999999773
100
AcDbArc
 50
269.9999999999935
 51
0.0000000000130276
  0
LINE
  5
16B
330
2
100
AcDbEntity
  8
GAIKEI
 62
     1
100
AcDbLine
 10
39.48030178542746
 20
25.24107228046194
 30
0.0
 11
39.5403017854274
 21
25.18107228046199
 31
0.0
  0
LINE
  5
16C
330
2
100
AcDbEntity
  8
GAIKEI
100
AcDbLine
 10
40.10943778126278
 20
25.18107228046165
 30
0.0
 11
17.05057917189532
 21
25.18107228046165
 31
0.0
  0
LINE
  5
16D
330
2
100
AcDbEntity
  8
GAIKEI
100
AcDbLine
 10
40.10943778126278
 20
25.18107228046165
 30
0.0
 11
40.10676747510257
 21
24.31817973011039
 31
0.0
  0
ARC
  5
16E
330
2
100
AcDbEntity
  8
GAIKEI
100
AcDbCircle
 10
15.03737854439856
 20
24.68834393436555
 30
0.0
 40
25.07212162735759
100
AcDbArc
 50
352.5129966623112
 51
359.1540557468109
  0
ARC
  5
16F
330
2
100
AcDbEntity
  8
GAIKEI
100
AcDbCircle
 10
165.5263692095874
 20
-0.1270759147849958
 30
0.0
 40
127.4652533402396
100
AcDbArc
 50
170.2671883962313
 51
172.4769682004552
  0
ARC
  5
170
330
2
100
AcDbEntity
  8
GAIKEI
100
AcDbCircle
 10
67.78385463173361
 20
14.57782316005216
 30
0.0
 40
28.69419176715974
100
AcDbArc
 50
176.0363324687214
 51
183.0941631015526
  0
ARC
  5
171
330
2
100
AcDbEntity
  8
GAIKEI
100
AcDbCircle
 10
28.48886963690387
 20
12.83030044297629
 30
0.0
 40
10.64447896468101
100
AcDbArc
 50
289.335834975958
 51
1.069566341200263
  0
LINE
  5
172
330
2
100
AcDbEntity
  8
GAIKEI
100
AcDbLine
 10
31.9802234571294
 20
2.780602697161555
 30
0.0
 11
28.58022345714955
 21
2.780601845521516
 31
0.0
  0
LINE
  5
173
330
2
100
AcDbEntity
  8
GAIKEI
 62
     1
100
AcDbLine
 10
35.18021059328959
 20
4.55108232482155
 30
0.0
 11
29.99983185150603
 21
3.672142977085059
 31
0.0
  0
ARC
  5
174
330
2
100
AcDbEntity
  8
GAIKEI
 62
     1
100
AcDbCircle
 10
28.65019073896889
 20
12.80387421129302
 30
0.0
 40
9.230928797605345
100
AcDbArc
 50
205.2837980093389
 51
278.4072724016083
  0
ARC
  5
175
330
2
100
AcDbEntity
  8
GAIKEI
 62
     1
100
AcDbCircle
 10
29.76691978853097
 20
13.14074176683067
 30
0.0
 40
10.38598613291837
100
AcDbArc
 50
174.7483490492203
 51
204.3329021626993
  0
ARC
  5
176
330
2
100
AcDbEntity
  8
GAIKEI
 62
     1
100
AcDbCircle
 10
0.7397725538975806
 20
14.86894258897519
 30
0.0
 40
18.70093074894088
100
AcDbArc
 50
357.6170048671149
 51
22.45582759799516
  0
ARC
  5
177
330
2
100
AcDbEntity
  8
GAIKEI
 62
     1
100
AcDbCircle
 10
-11.20866654896684
 20
10.53389041327773
 30
0.0
 40
31.40418629587308
100
AcDbArc
 50
21.43842783112035
 51
25.83774359422292
  0
ARC
  5
178
330
2
100
AcDbEntity
  8
GAIKEI
100
AcDbCircle
 10
44.68401051418465
 20
24.84687031864564
 30
0.0
 40
27.63545220726986
100
AcDbArc
 50
179.307091900156
 51
183.5261120099016
  0
ARC
  5
179
330
2
100
AcDbEntity
  8
GAIKEI
 62
     1
100
AcDbCircle
 10
28.58022345712942
 20
12.84107228046156
 30
0.0
 40
10.39999999999998
100
AcDbArc
 50
163.7450261584997
 51
284.6807749099322
  0
ARC
  5
17A
330
2
100
AcDbEntity
  8
GAIKEI
100
AcDbCircle
 10
28.61320797241541
 20
12.76400909512358
 30
0.0
 40
9.983500870733863
100
AcDbArc
 50
206.3925714351552
 51
269.7507415605834
  0
ARC
  5
17B
330
2
100
AcDbEntity
  8
GAIKEI
100
AcDbCircle
 10
29.61684515600979
 20
13.09207010973193
 30
0.0
 40
11.02940885769495
100
AcDbArc
 50
176.0690586500583
 51
205.6015373764946
  0
ARC
  5
17C
330
2
100
AcDbEntity
  8
GAIKEI
100
AcDbCircle
 10
-6.084166106307236
 20
14.59657233459023
 30
0.0
 40
24.70888653031377
100
AcDbArc
 50
358.2643397432367
 51
20.17856916419753
  0
LINE
  5
17D
330
2
100
AcDbEntity
  8
GAIKEI
100
AcDbLine
 10
31.9802234571294
 20
20.84107228046156
 30
0.0
 11
31.9802234571294
 21
12.84107228046156
 31
0.0
  0
LINE
  5
17E
330
2
100
AcDbEntity
  8
GAIKEI
100
AcDbLine
 10
25.18022345712945
 20
20.84107228046156
 30
0.0
 11
25.18022345712945
 21
12.84107228046156
 31
0.0
  0
ARC
  5
17F
330
2
100
AcDbEntity
  8
GAIKEI
100
AcDbCircle
 10
28.58022345712942
 20
12.84107228046156
 30
0.0
 40
3.400000000000023
100
AcDbArc
 50
180.0
 51
0.0
  0
ARC
  5
180
330
2
100
AcDbEntity
  8
GAIKEI
100
AcDbCircle
 10
28.58022345712942
 20
20.84107228046156
 30
0.0
 40
3.4
100
AcDbArc
 50
0.0
 51
180.0
  0
DIMENSION
  5
181
330
2
100
AcDbEntity
  8
SUNPO
100
AcDbDimension
  2
*D6
 10
-15.31979784821732
 20
-5.561414296539567
 30
0.0
 11
-26.8197938440527
 21
-3.811414296539567
 31
0.0
 70
    33
  1
φ115
 71
     5
 42
22.99999199167075
  3
STANDARD
100
AcDbAlignedDimension
 13
-38.31978983988808
 23
2.438585703460489
 33
0.0
 14
-15.31979784821732
 24
2.438585703460432
 34
0.0
1001
ACAD
1000
DSTYLE
1002
{
1070
   287
1070
     3
1070
    40
1040
1.0
1070
   140
1040
2.5
1070
   147
1040
0.5
1070
   172
1070
     1
1070
   279
1070
     0
1070
   288
1070
     0
1002
}
  0
DIMENSION
  5
18F
330
2
100
AcDbEntity
  8
SUNPO
100
AcDbDimension
  2
*D5
 10
-0.3185612953552663
 20
2.441072280461637
 30
0.0
 11
-2.068561295355266
 21
17.84107228046159
 31
0.0
 70
    33
  1
154
 71
     5
 42
30.7999999999999
  3
STANDARD
100
AcDbAlignedDimension
 13
-8.318561295355266
 23
33.24107228046154
 33
0.0
 14
-8.318561295355266
 24
2.441072280461639
 34
0.0
1001
ACAD
1000
DSTYLE
1002
{
1070
   287
1070
     3
1070
    40
1040
1.0
1070
   140
1040
2.5
1070
   147
1040
0.5
1070
   172
1070
     1
1070
   279
1070
     0
1070
   288
1070
     0
1002
}
  0
DIMENSION
  5
19C
330
2
100
AcDbEntity
  8
SUNPO
100
AcDbDimension
  2
*D4
 10
-8.31979384403246
 20
41.24542956890889
 30
0.0
 11
-26.81979384403246
 21
42.99542956890888
 31
0.0
 70
    33
  1
φ185
 71
     5
 42
37.0
  3
STANDARD
100
AcDbAlignedDimension
 13
-45.31979384403245
 23
33.24542956890889
 33
0.0
 14
-8.31979384403246
 24
33.24542956890889
 34
0.0
1001
ACAD
1000
DSTYLE
1002
{
1070
   287
1070
     3
1070
    40
1040
1.0
1070
   140
1040
2.5
1070
   147
1040
0.5
1070
   172
1070
     1
1070
   279
1070
     0
1070
   288
1070
     0
1002
}
  0
LINE
  5
1A9
330
2
100
AcDbEntity
  8
WAKU
 62
     4
100
AcDbLine
 10
59.51465143108817
 20
-12.92494484586643
 30
0.0
 11
59.51465143108817
 21
-57.92494484586644
 31
0.0
  0
LINE
  5
1AB
330
2
100
AcDbEntity
  8
WAKU
 62
     4
100
AcDbLine
 10
-25.48534856891172
 20
-12.92494484586643
 30
0.0
 11
-25.48534856891172
 21
-57.92494484586644
 31
0.0
  0
TEXT
  5
1AC
330
2
100
AcDbEntity
  8
MOJI1
100
AcDbText
 10
-62.98534856891172
 20
-16.92494484586643
 30
0.0
 40
3.0
  1
電　源
100
AcDbText
  0
TEXT
  5
1AD
330
2
100
AcDbEntity
  8
MOJI1
100
AcDbText
 10
-22.98534856891172
 20
-16.92494484586643
 30
0.0
 40
3.0
  1
ＤＣ１２Ｖ、ＰｏＥ（ＩＥＥＥ８０２．３ａｆ準拠)
 41
0.95
100
AcDbText
  0
TEXT
  5
1AE
330
2
100
AcDbEntity
  8
MOJI1
100
AcDbText
 10
-22.98534856891172
 20
-21.92494484586644
 30
0.0
 40
3.0
  1
ＤＣ１２Ｖ：約１Ａ、ＰｏＥ：約１２Ｗ（クラス0機器)
 41
0.9
100
AcDbText
  0
TEXT
  5
1AF
330
2
100
AcDbEntity
  8
MOJI1
100
AcDbText
 10
-62.98534856891172
 20
-21.92494484586644
 30
0.0
 40
3.0
  1
消費電力
100
AcDbText
  0
TEXT
  5
1B0
330
2
100
AcDbEntity
  8
MOJI1
100
AcDbText
 10
-62.98534856891172
 20
-26.92494484586644
 30
0.0
 40
3.0
  1
撮像素子
100
AcDbText
  0
TEXT
  5
1B1
330
2
100
AcDbEntity
  8
MOJI1
100
AcDbText
 10
-22.98534856891172
 20
-26.92494484586644
 30
0.0
 40
3.0
  1
１／４型　インターライン転送方式ＣＣＤ
100
AcDbText
  0
TEXT
  5
1B2
330
2
100
AcDbEntity
  8
MOJI1
100
AcDbText
 10
-22.98534856891172
 20
-41.92494484586643
 30
0.0
 40
3.0
  1
ＭＰＥＧ－４／ＪＰＥＧ　デュアルエンコーディング
 41
0.9
100
AcDbText
  0
TEXT
  5
1B3
330
2
100
AcDbEntity
  8
MOJI1
100
AcDbText
 10
-62.98534856891172
 20
-41.92494484586643
 30
0.0
 40
3.0
  1
画像圧縮方式
100
AcDbText
  0
TEXT
  5
1B4
330
2
100
AcDbEntity
  8
MOJI1
100
AcDbText
 10
-62.98534856891172
 20
-31.92494484586644
 30
0.0
 40
3.0
  1
最低照度
100
AcDbText
  0
TEXT
  5
1B5
330
2
100
AcDbEntity
  8
MOJI1
100
AcDbText
 10
-22.98534856891172
 20
-31.92494484586644
 30
0.0
 40
3.0
  1
カラー：０．７ｌｘ（電子感度アップＯＦＦ、ＡＧＣ　ＨＩＧＨ時)
 41
0.7400000000000001
100
AcDbText
  0
TEXT
  5
1B6
330
2
100
AcDbEntity
  8
MOJI1
100
AcDbText
 10
-22.98534856891172
 20
-46.92494484586643
 30
0.0
 40
3.0
  1
ＶＧＡ（６４０×４８０)／ＱＶＧＡ（３２０×２４０）
 41
0.9
100
AcDbText
  0
TEXT
  5
1B7
330
2
100
AcDbEntity
  8
MOJI1
100
AcDbText
 10
-62.98534856891172
 20
-46.92494484586643
 30
0.0
 40
3.0
  1
画像解像度
100
AcDbText
  0
TEXT
  5
1B8
330
2
100
AcDbEntity
  8
MOJI1
100
AcDbText
 10
-62.98534856891172
 20
-51.92494484586643
 30
0.0
 40
3.0
  1
ネットワーク
100
AcDbText
  0
TEXT
  5
1B9
330
2
100
AcDbEntity
  8
MOJI1
100
AcDbText
 10
-22.98534856891172
 20
-51.92494484586643
 30
0.0
 40
3.0
  1
１０ＢＡＳＥ－Ｔ／１００ＢＡＳＥ－ＴＸ、ＲＪ４５コネクター
 41
0.75
100
AcDbText
  0
TEXT
  5
1BA
330
2
100
AcDbEntity
  8
MOJI1
100
AcDbText
 10
-22.98534856891172
 20
-56.92494484586643
 30
0.0
 40
3.0
  1
２２倍
100
AcDbText
  0
TEXT
  5
1BB
330
2
100
AcDbEntity
  8
MOJI1
100
AcDbText
 10
-62.98534856891172
 20
-56.92494484586643
 30
0.0
 40
3.0
  1
ズーム比
100
AcDbText
  0
TEXT
  5
1BC
330
2
100
AcDbEntity
  8
MOJI1
100
AcDbText
 10
-22.98534856891172
 20
-36.92494484586644
 30
0.0
 40
3.0
  1
簡易白黒：０．５ｌｘ（電子感度アップＯＦＦ、ＡＧＣ　ＨＩＧＨ時)
 41
0.72
100
AcDbText
  0
LINE
  5
1BD
330
2
100
AcDbEntity
  8
WAKU
 62
     4
100
AcDbLine
 10
-65.48534856891172
 20
-12.92494484586643
 30
0.0
 11
-65.48534856891172
 21
-57.92494484586644
 31
0.0
  0
LINE
  5
1BE
330
2
100
AcDbEntity
  8
WAKU
 62
     1
100
AcDbLine
 10
-65.48534856891172
 20
-27.92494484586644
 30
0.0
 11
59.51465143108817
 21
-27.92494484586644
 31
0.0
  0
LINE
  5
1BF
330
2
100
AcDbEntity
  8
WAKU
 62
     1
100
AcDbLine
 10
-65.48534856891172
 20
-32.92494484586644
 30
0.0
 11
59.51465143108817
 21
-32.92494484586644
 31
0.0
  0
LINE
  5
1C0
330
2
100
AcDbEntity
  8
WAKU
 62
     1
100
AcDbLine
 10
-65.48534856891172
 20
-42.92494484586643
 30
0.0
 11
59.51465143108817
 21
-42.92494484586643
 31
0.0
  0
LINE
  5
1C1
330
2
100
AcDbEntity
  8
WAKU
 62
     1
100
AcDbLine
 10
-65.48534856891172
 20
-47.92494484586643
 30
0.0
 11
59.51465143108817
 21
-47.92494484586643
 31
0.0
  0
LINE
  5
1C2
330
2
100
AcDbEntity
  8
WAKU
 62
     4
100
AcDbLine
 10
59.51465143108817
 20
-57.92494484586644
 30
0.0
 11
-65.48534856891172
 21
-57.92494484586644
 31
0.0
  0
LINE
  5
1C3
330
2
100
AcDbEntity
  8
WAKU
 62
     4
100
AcDbLine
 10
-65.48534856891172
 20
-12.92494484586643
 30
0.0
 11
59.51465143108817
 21
-12.92494484586643
 31
0.0
  0
LINE
  5
1C4
330
2
100
AcDbEntity
  8
WAKU
 62
     1
100
AcDbLine
 10
-65.48534856891172
 20
-17.92494484586643
 30
0.0
 11
59.51465143108817
 21
-17.92494484586643
 31
0.0
  0
LINE
  5
1C5
330
2
100
AcDbEntity
  8
WAKU
 62
     1
100
AcDbLine
 10
-65.48534856891172
 20
-22.92494484586644
 30
0.0
 11
59.51465143108817
 21
-22.92494484586644
 31
0.0
  0
LINE
  5
1C6
330
2
100
AcDbEntity
  8
WAKU
 62
     1
100
AcDbLine
 10
-65.48534856891172
 20
-52.92494484586644
 30
0.0
 11
59.51465143108817
 21
-52.92494484586644
 31
0.0
  0
LINE
  5
1C7
330
2
100
AcDbEntity
  8
WAKU
 62
     1
100
AcDbLine
 10
-65.48534856891172
 20
-37.92494484586644
 30
0.0
 11
59.51465143108817
 21
-37.92494484586644
 31
0.0
  0
ENDSEC
  0
SECTION
  2
OBJECTS
  0
DICTIONARY
  5
9
330
0
100
AcDbDictionary
281
     1
  3
ACAD_COLOR
350
31
  3
ACAD_GROUP
350
2D
  3
ACAD_LAYOUT
350
D
  3
ACAD_MATERIAL
350
30
  3
ACAD_MLINESTYLE
350
2E
  3
ACAD_PLOTSETTINGS
350
2F
  3
ACAD_PLOTSTYLENAME
350
8
  3
ACDBHEADERROUNDTRIPXREC
350
204
  3
AcDbVariableDictionary
350
1D7
  0
DICTIONARY
  5
15
330
14
100
AcDbDictionary
280
     1
281
     1
  3
ACAD_LAYERFILTERS
360
16
  3
ACAD_LAYERSTATES
360
17
  0
DICTIONARY
  5
3
330
2
100
AcDbDictionary
280
     1
281
     1
  3
ACAD_LAYOUTSELFREF
360
4
  0
DICTIONARY
  5
F
330
E
100
AcDbDictionary
280
     1
281
     1
  3
ACAD_LAYOUTSELFREF
360
10
  0
DICTIONARY
  5
31
102
{ACAD_REACTORS
330
9
102
}
330
9
100
AcDbDictionary
281
     1
  0
DICTIONARY
  5
2D
102
{ACAD_REACTORS
330
9
102
}
330
9
100
AcDbDictionary
281
     1
  0
DICTIONARY
  5
D
102
{ACAD_REACTORS
330
9
102
}
330
9
100
AcDbDictionary
281
     1
  3
Model
350
C
  3
ﾚｲｱｳﾄ1
350
13
  0
DICTIONARY
  5
30
102
{ACAD_REACTORS
330
9
102
}
330
9
100
AcDbDictionary
281
     1
  0
DICTIONARY
  5
2E
102
{ACAD_REACTORS
330
9
102
}
330
9
100
AcDbDictionary
281
     1
  3
STANDARD
350
33
  0
DICTIONARY
  5
2F
102
{ACAD_REACTORS
330
9
102
}
330
9
100
AcDbDictionary
281
     1
  0
ACDBDICTIONARYWDFLT
  5
8
102
{ACAD_REACTORS
330
9
102
}
330
9
100
AcDbDictionary
281
     1
  3
Normal
350
7
100
AcDbDictionaryWithDefault
340
7
  0
DICTIONARY
  5
204
102
{ACAD_REACTORS
330
9
102
}
330
9
100
AcDbDictionary
281
     1
  3
COLORDICT
350
206
  3
MATERIALDICT
350
205
  0
DICTIONARY
  5
1D7
102
{ACAD_REACTORS
330
9
102
}
330
9
100
AcDbDictionary
281
     1
  3
DIMASSOC
350
1D9
  3
HIDETEXT
350
1D8
  3
PROJECTNAME
350
1DA
  0
DICTIONARY
  5
16
102
{ACAD_REACTORS
330
15
102
}
330
15
100
AcDbDictionary
280
     1
281
     1
  0
DICTIONARY
  5
17
102
{ACAD_REACTORS
330
15
102
}
330
15
100
AcDbDictionary
281
     1
  0
XRECORD
  5
4
102
{ACAD_REACTORS
330
3
102
}
330
3
100
AcDbXrecord
280
     1
340
2
  0
XRECORD
  5
10
102
{ACAD_REACTORS
330
F
102
}
330
F
100
AcDbXrecord
280
     1
340
E
  0
LAYOUT
  5
C
102
{ACAD_XDICTIONARY
360
207
102
}
102
{ACAD_REACTORS
330
D
102
}
330
D
100
AcDbPlotSettings
  1

  2
FX78BC34-A4縦.pc3
  4
A4
  6

 40
4.900083065032958
 41
4.900057315826416
 42
4.90008544921875
 43
4.90008544921875
 44
210.0156707763672
 45
297.0106506347656
 46
5.73
 47
0.0
 48
0.0
 49
0.0
140
0.0
141
0.0
142
1.0
143
1.372907815045798
 70
 11956
 72
     1
 73
     0
 74
     1
  7
tmsacad.ctb
 75
     0
147
0.7283810238684099
148
0.5839898734307099
149
0.009273483718971
100
AcDbLayout
  1
Model
 70
     1
 71
     0
 10
0.0
 20
0.0
 11
12.0
 21
9.0
 12
0.0
 22
0.0
 32
0.0
 14
0.0
 24
0.0
 34
0.0
 15
0.0
 25
0.0
 35
0.0
146
0.0
 13
0.0
 23
0.0
 33
0.0
 16
1.0
 26
0.0
 36
0.0
 17
0.0
 27
1.0
 37
0.0
 76
     0
330
2
  0
LAYOUT
  5
13
102
{ACAD_XDICTIONARY
360
209
102
}
102
{ACAD_REACTORS
330
D
102
}
330
D
100
AcDbPlotSettings
  1

  2
C:\Program Files\ACAD2000\plotters\DWF ePlot.pc3
  4

  6

 40
0.0
 41
0.0
 42
0.0
 43
0.0
 44
0.0
 45
0.0
 46
0.0
 47
0.0
 48
0.0
 49
0.0
140
0.0
141
0.0
142
1.0
143
1.0
 70
   688
 72
     0
 73
     0
 74
     5
  7
tmsacad.ctb
 75
    16
147
1.0
148
0.0
149
0.0
100
AcDbLayout
  1
ﾚｲｱｳﾄ1
 70
     1
 71
     1
 10
0.0
 20
0.0
 11
12.0
 21
9.0
 12
0.0
 22
0.0
 32
0.0
 14
1.000000000000000E+20
 24
1.000000000000000E+20
 34
1.000000000000000E+20
 15
-1.000000000000000E+20
 25
-1.000000000000000E+20
 35
-1.000000000000000E+20
146
0.0
 13
0.0
 23
0.0
 33
0.0
 16
1.0
 26
0.0
 36
0.0
 17
0.0
 27
1.0
 37
0.0
 76
     0
330
E
  0
MLINESTYLE
  5
33
102
{ACAD_REACTORS
330
2E
102
}
330
2E
100
AcDbMlineStyle
  2
STANDARD
 70
     0
  3

 62
   256
 51
90.0
 52
90.0
 71
     2
 49
0.5
 62
   256
  6
BYLAYER
 49
-0.5
 62
   256
  6
BYLAYER
  0
ACDBPLACEHOLDER
  5
7
102
{ACAD_REACTORS
330
8
102
}
330
8
  0
XRECORD
  5
206
102
{ACAD_REACTORS
330
204
102
}
330
204
100
AcDbXrecord
280
     1
340
31
  0
XRECORD
  5
205
102
{ACAD_REACTORS
330
204
102
}
330
204
100
AcDbXrecord
280
     1
340
30
  0
DICTIONARYVAR
  5
1D9
102
{ACAD_REACTORS
330
1D7
102
}
330
1D7
100
DictionaryVariables
280
     0
  1
1
  0
DICTIONARYVAR
  5
1D8
102
{ACAD_REACTORS
330
1D7
102
}
330
1D7
100
DictionaryVariables
280
     0
  1
1
  0
DICTIONARYVAR
  5
1DA
102
{ACAD_REACTORS
330
1D7
102
}
330
1D7
100
DictionaryVariables
280
     0
  1

  0
DICTIONARY
  5
207
330
C
100
AcDbDictionary
280
     1
281
     1
  3
ACAD_XREC_ROUNDTRIP
360
208
  0
DICTIONARY
  5
209
330
13
100
AcDbDictionary
280
     1
281
     1
  3
ACAD_XREC_ROUNDTRIP
360
20A
  0
XRECORD
  5
208
102
{ACAD_REACTORS
330
207
102
}
330
207
100
AcDbXrecord
280
     1
102
SHADEPLOT
 70
     0
102
SHADEPLOTRESLEVEL
 70
     2
102
SHADEPLOTCUSTOMDPI
 70
   300
  0
XRECORD
  5
20A
102
{ACAD_REACTORS
330
209
102
}
330
209
100
AcDbXrecord
280
     1
102
SHADEPLOT
 70
     0
102
SHADEPLOTRESLEVEL
 70
     2
102
SHADEPLOTCUSTOMDPI
 70
   300
  0
ENDSEC
  0
EOF
